  0
SECTION
  2
HEADER
  9
$ACADVER
  1
AC1015
  9
$ACADMAINTVER
 70
     6
  9
$DWGCODEPAGE
  3
ANSI_1252
  9
$INSBASE
 10
0.0
 20
0.0
 30
0.0
  9
$EXTMIN
 10
-749.1869761673761
 20
-253.9901170429148
 30
0.0
  9
$EXTMAX
 10
704.6771629434243
 20
630.8144799142942
 30
0.0
  9
$LIMMIN
 10
0.0
 20
0.0
  9
$LIMMAX
 10
12.0
 20
9.0
  9
$ORTHOMODE
 70
     0
  9
$REGENMODE
 70
     1
  9
$FILLMODE
 70
     1
  9
$QTEXTMODE
 70
     0
  9
$MIRRTEXT
 70
     1
  9
$LTSCALE
 40
1.0
  9
$ATTMODE
 70
     1
  9
$TEXTSIZE
 40
0.2
  9
$TRACEWID
 40
0.05
  9
$TEXTSTYLE
  7
Standard
  9
$CLAYER
  8
popis
  9
$CELTYPE
  6
Continuous
  9
$CECOLOR
 62
    51
  9
$CELTSCALE
 40
1.0
  9
$DISPSILH
 70
     0
  9
$DIMSCALE
 40
10.0
  9
$DIMASZ
 40
2.0
  9
$DIMEXO
 40
0.625
  9
$DIMDLI
 40
0.38
  9
$DIMRND
 40
0.0
  9
$DIMDLE
 40
0.0
  9
$DIMEXE
 40
1.25
  9
$DIMTP
 40
0.0
  9
$DIMTM
 40
0.0
  9
$DIMTXT
 40
2.0
  9
$DIMCEN
 40
0.09
  9
$DIMTSZ
 40
0.0
  9
$DIMTOL
 70
     0
  9
$DIMLIM
 70
     0
  9
$DIMTIH
 70
     0
  9
$DIMTOH
 70
     0
  9
$DIMSE1
 70
     0
  9
$DIMSE2
 70
     0
  9
$DIMTAD
 70
     1
  9
$DIMZIN
 70
     0
  9
$DIMBLK
  1
VDDIM_DEFAULT
  9
$DIMASO
 70
     1
  9
$DIMSHO
 70
     1
  9
$DIMPOST
  1

  9
$DIMAPOST
  1

  9
$DIMALT
 70
     0
  9
$DIMALTD
 70
     2
  9
$DIMALTF
 40
25.4
  9
$DIMLFAC
 40
1.0
  9
$DIMTOFL
 70
     1
  9
$DIMTVP
 40
0.0
  9
$DIMTIX
 70
     1
  9
$DIMSOXD
 70
     0
  9
$DIMSAH
 70
     0
  9
$DIMBLK1
  1

  9
$DIMBLK2
  1

  9
$DIMSTYLE
  2
ISO-25
  9
$DIMCLRD
 70
     0
  9
$DIMCLRE
 70
     0
  9
$DIMCLRT
 70
   256
  9
$DIMTFAC
 40
1.0
  9
$DIMGAP
 40
0.625
  9
$DIMJUST
 70
     0
  9
$DIMSD1
 70
     0
  9
$DIMSD2
 70
     0
  9
$DIMTOLJ
 70
     1
  9
$DIMTZIN
 70
     0
  9
$DIMALTZ
 70
     0
  9
$DIMALTTZ
 70
     0
  9
$DIMUPT
 70
     1
  9
$DIMDEC
 70
     0
  9
$DIMTDEC
 70
     4
  9
$DIMALTU
 70
     2
  9
$DIMALTTD
 70
     2
  9
$DIMTXSTY
  7
Standard
  9
$DIMAUNIT
 70
     0
  9
$DIMADEC
 70
     0
  9
$DIMALTRND
 40
0.0
  9
$DIMAZIN
 70
     0
  9
$DIMDSEP
 70
    46
  9
$DIMATFIT
 70
     3
  9
$DIMFRAC
 70
     0
  9
$DIMLDRBLK
  1

  9
$DIMLUNIT
 70
     2
  9
$DIMLWD
 70
    -2
  9
$DIMLWE
 70
    -2
  9
$DIMTMOVE
 70
     0
  9
$LUNITS
 70
     2
  9
$LUPREC
 70
     4
  9
$SKETCHINC
 40
0.1
  9
$FILLETRAD
 40
0.5
  9
$AUNITS
 70
     0
  9
$AUPREC
 70
     0
  9
$MENU
  1
.
  9
$ELEVATION
 40
0.0
  9
$PELEVATION
 40
0.0
  9
$THICKNESS
 40
0.0
  9
$LIMCHECK
 70
     0
  9
$CHAMFERA
 40
0.5
  9
$CHAMFERB
 40
0.5
  9
$CHAMFERC
 40
1.0
  9
$CHAMFERD
 40
0.0
  9
$SKPOLY
 70
     0
  9
$TDCREATE
 40
2455643.63860022
  9
$TDUCREATE
 40
2455643.596933554
  9
$TDUPDATE
 40
2455643.638600232
  9
$TDUUPDATE
 40
2455643.596933565
  9
$TDINDWG
 40
0.0000000116
  9
$TDUSRTIMER
 40
0.0000000116
  9
$USRTIMER
 70
     1
  9
$ANGBASE
 50
0.0
  9
$ANGDIR
 70
     0
  9
$PDMODE
 70
     0
  9
$PDSIZE
 40
0.0
  9
$PLINEWID
 40
0.0
  9
$SPLFRAME
 70
     0
  9
$SPLINETYPE
 70
     6
  9
$SPLINESEGS
 70
     8
  9
$HANDSEED
  5
302
  9
$SURFTAB1
 70
     6
  9
$SURFTAB2
 70
     6
  9
$SURFTYPE
 70
     6
  9
$SURFU
 70
     6
  9
$SURFV
 70
     6
  9
$UCSBASE
  2

  9
$UCSNAME
  2

  9
$UCSORG
 10
0.0
 20
0.0
 30
0.0
  9
$UCSXDIR
 10
1.0
 20
0.0
 30
0.0
  9
$UCSYDIR
 10
0.0
 20
1.0
 30
0.0
  9
$UCSORTHOREF
  2

  9
$UCSORTHOVIEW
 70
     0
  9
$UCSORGTOP
 10
0.0
 20
0.0
 30
0.0
  9
$UCSORGBOTTOM
 10
0.0
 20
0.0
 30
0.0
  9
$UCSORGLEFT
 10
0.0
 20
0.0
 30
0.0
  9
$UCSORGRIGHT
 10
0.0
 20
0.0
 30
0.0
  9
$UCSORGFRONT
 10
0.0
 20
0.0
 30
0.0
  9
$UCSORGBACK
 10
0.0
 20
0.0
 30
0.0
  9
$PUCSBASE
  2

  9
$PUCSNAME
  2

  9
$PUCSORG
 10
0.0
 20
0.0
 30
0.0
  9
$PUCSXDIR
 10
1.0
 20
0.0
 30
0.0
  9
$PUCSYDIR
 10
0.0
 20
1.0
 30
0.0
  9
$PUCSORTHOREF
  2

  9
$PUCSORTHOVIEW
 70
     0
  9
$PUCSORGTOP
 10
0.0
 20
0.0
 30
0.0
  9
$PUCSORGBOTTOM
 10
0.0
 20
0.0
 30
0.0
  9
$PUCSORGLEFT
 10
0.0
 20
0.0
 30
0.0
  9
$PUCSORGRIGHT
 10
0.0
 20
0.0
 30
0.0
  9
$PUCSORGFRONT
 10
0.0
 20
0.0
 30
0.0
  9
$PUCSORGBACK
 10
0.0
 20
0.0
 30
0.0
  9
$USERI1
 70
     0
  9
$USERI2
 70
     0
  9
$USERI3
 70
     0
  9
$USERI4
 70
     0
  9
$USERI5
 70
     0
  9
$USERR1
 40
0.0
  9
$USERR2
 40
0.0
  9
$USERR3
 40
0.0
  9
$USERR4
 40
0.0
  9
$USERR5
 40
0.0
  9
$WORLDVIEW
 70
     1
  9
$SHADEDGE
 70
     3
  9
$SHADEDIF
 70
    70
  9
$TILEMODE
 70
     1
  9
$MAXACTVP
 70
    64
  9
$PINSBASE
 10
0.0
 20
0.0
 30
0.0
  9
$PLIMCHECK
 70
     0
  9
$PEXTMIN
 10
1.000000000000000E+20
 20
1.000000000000000E+20
 30
1.000000000000000E+20
  9
$PEXTMAX
 10
-1.000000000000000E+20
 20
-1.000000000000000E+20
 30
-1.000000000000000E+20
  9
$PLIMMIN
 10
0.0
 20
0.0
  9
$PLIMMAX
 10
12.0
 20
9.0
  9
$UNITMODE
 70
     0
  9
$VISRETAIN
 70
     1
  9
$PLINEGEN
 70
     0
  9
$PSLTSCALE
 70
     1
  9
$TREEDEPTH
 70
  3020
  9
$CMLSTYLE
  2
Standard
  9
$CMLJUST
 70
     0
  9
$CMLSCALE
 40
1.0
  9
$PROXYGRAPHICS
 70
     1
  9
$MEASUREMENT
 70
     0
  9
$CELWEIGHT
370
     0
  9
$ENDCAPS
280
     0
  9
$JOINSTYLE
280
     0
  9
$LWDISPLAY
290
     0
  9
$INSUNITS
 70
     1
  9
$HYPERLINKBASE
  1

  9
$STYLESHEET
  1

  9
$XEDIT
290
     1
  9
$CEPSNTYPE
380
     0
  9
$PSTYLEMODE
290
     0
  9
$FINGERPRINTGUID
  2
{FAEB1C30-E019-11D5-929B-00C0DF256EC4}
  9
$VERSIONGUID
  2
{FAEB1C32-E019-11D5-929B-00C0DF256EC4}
  9
$EXTNAMES
290
     1
  9
$PSVPSCALE
 40
0.0
  9
$OLESTARTUP
290
     0
  0
ENDSEC
  0
SECTION
  2
CLASSES
  0
CLASS
  1
ACDBDICTIONARYWDFLT
  2
AcDbDictionaryWithDefault
  3
ObjectDBX Classes
 90
        0
280
     0
281
     0
  0
CLASS
  1
ACDBPLACEHOLDER
  2
AcDbPlaceHolder
  3
ObjectDBX Classes
 90
        0
280
     0
281
     0
  0
CLASS
  1
LAYOUT
  2
AcDbLayout
  3
ObjectDBX Classes
 90
        0
280
     0
281
     0
  0
ENDSEC
  0
SECTION
  2
TABLES
  0
TABLE
  2
VPORT
  5
27C
330
0
100
AcDbSymbolTable
 70
     2
  0
VPORT
  5
29D
330
27C
100
AcDbSymbolTableRecord
100
AcDbViewportTableRecord
  2
*Active
 70
     0
 10
0.0
 20
0.0
 11
1.0
 21
1.0
 12
53.0
 22
-5.0
 13
0.0
 23
0.0
 14
10.0
 24
10.0
 15
10.0
 25
10.0
 16
0.0
 26
0.0
 36
1.0
 17
0.0
 27
0.0
 37
0.0
 40
1544.412249210279
 41
0.011497420306484
 42
50.0
 43
0.0
 44
0.0
 50
0.0
 51
0.0000000000007958
 71
     0
 72
   100
 73
     1
 74
     3
 75
     0
 76
     0
 77
     0
 78
     0
281
     0
 65
     1
110
0.0
120
0.0
130
0.0
111
1.0
121
0.0
131
0.0
112
0.0
122
1.0
132
0.0
 79
     0
146
0.0
  0
ENDTAB
  0
TABLE
  2
LTYPE
  5
279
330
0
100
AcDbSymbolTable
 70
    25
  0
LTYPE
  5
288
330
279
100
AcDbSymbolTableRecord
100
AcDbLinetypeTableRecord
  2
ByBlock
 70
     0
  3

 72
    65
 73
     0
 40
0.0
  0
LTYPE
  5
289
330
279
100
AcDbSymbolTableRecord
100
AcDbLinetypeTableRecord
  2
ByLayer
 70
     0
  3

 72
    65
 73
     0
 40
0.0
  0
LTYPE
  5
28A
330
279
100
AcDbSymbolTableRecord
100
AcDbLinetypeTableRecord
  2
Continuous
 70
     0
  3
Solid line
 72
    65
 73
     0
 40
0.0
  0
LTYPE
  5
2A5
330
279
100
AcDbSymbolTableRecord
100
AcDbLinetypeTableRecord
  2
CENTER
 70
     0
  3
Center ____ _ ____ _ ____ _ ____ _ ____ _ ____
 72
    65
 73
     4
 40
2.0
 49
1.25
 74
     0
 49
-0.25
 74
     0
 49
0.25
 74
     0
 49
-0.25
 74
     0
  0
LTYPE
  5
2A6
330
279
100
AcDbSymbolTableRecord
100
AcDbLinetypeTableRecord
  2
DASHDOT
 70
     0
  3
Dashdot __ . __ . __ . __ . __ . __ . __ . __
 72
    65
 73
     4
 40
1.0
 49
0.5
 74
     0
 49
-0.25
 74
     0
 49
0.0
 74
     0
 49
-0.25
 74
     0
  0
LTYPE
  5
2A7
330
279
100
AcDbSymbolTableRecord
100
AcDbLinetypeTableRecord
  2
DASHED
 70
     0
  3
Dashed __ __ __ __ __ __ __ __ __ __ __ __ __ _
 72
    65
 73
     2
 40
0.75
 49
0.5
 74
     0
 49
-0.25
 74
     0
  0
LTYPE
  5
2A8
330
279
100
AcDbSymbolTableRecord
100
AcDbLinetypeTableRecord
  2
HIDDEN
 70
     0
  3
Hidden __ __ __ __ __ __ __ __ __ __ __ __ __ __
 72
    65
 73
     2
 40
0.375
 49
0.25
 74
     0
 49
-0.125
 74
     0
  0
LTYPE
  5
2A9
330
279
100
AcDbSymbolTableRecord
100
AcDbLinetypeTableRecord
  2
HIDDEN2
 70
     0
  3
Hidden2 _ _ _ _ _ _ _ _ _ _ _ _ _ _ _ _ _ 
 72
    65
 73
     2
 40
0.1875
 49
0.125
 74
     0
 49
-0.0625
 74
     0
  0
LTYPE
  5
2AA
330
279
100
AcDbSymbolTableRecord
100
AcDbLinetypeTableRecord
  2
BORDER
 70
     0
  3
Border __ __ . __ __ . __ __ . __ __ . __ __ .
 72
    65
 73
     6
 40
1.75
 49
0.5
 74
     0
 49
-0.25
 74
     0
 49
0.5
 74
     0
 49
-0.25
 74
     0
 49
0.0
 74
     0
 49
-0.25
 74
     0
  0
LTYPE
  5
2AB
330
279
100
AcDbSymbolTableRecord
100
AcDbLinetypeTableRecord
  2
BORDER2
 70
     0
  3
Border2 __.__.__.__.__.__.__.__.__.__.__.
 72
    65
 73
     6
 40
0.875
 49
0.25
 74
     0
 49
-0.125
 74
     0
 49
0.25
 74
     0
 49
-0.125
 74
     0
 49
0.0
 74
     0
 49
-0.125
 74
     0
  0
LTYPE
  5
2AC
330
279
100
AcDbSymbolTableRecord
100
AcDbLinetypeTableRecord
  2
BORDERX2
 70
     0
  3
Borderx2  ____  ____  .  ____  ____  .  ___
 72
    65
 73
     6
 40
3.5
 49
1.0
 74
     0
 49
-0.5
 74
     0
 49
1.0
 74
     0
 49
-0.5
 74
     0
 49
0.0
 74
     0
 49
-0.5
 74
     0
  0
LTYPE
  5
2AD
330
279
100
AcDbSymbolTableRecord
100
AcDbLinetypeTableRecord
  2
CENTER2
 70
     0
  3
Center2  ___ _ ___ _ ___ _ ___ _ ___ _ ___
 72
    65
 73
     4
 40
1.125
 49
0.75
 74
     0
 49
-0.125
 74
     0
 49
0.125
 74
     0
 49
-0.125
 74
     0
  0
LTYPE
  5
2AE
330
279
100
AcDbSymbolTableRecord
100
AcDbLinetypeTableRecord
  2
CENTERX2
 70
     0
  3
Centerx2  ________  __  ________  __  _____
 72
    65
 73
     4
 40
4.0
 49
2.5
 74
     0
 49
-0.5
 74
     0
 49
0.5
 74
     0
 49
-0.5
 74
     0
  0
LTYPE
  5
2AF
330
279
100
AcDbSymbolTableRecord
100
AcDbLinetypeTableRecord
  2
DASHDOT2
 70
     0
  3
Dashdot2  _._._._._._._._._._._._._._._.
 72
    65
 73
     4
 40
0.5
 49
0.25
 74
     0
 49
-0.125
 74
     0
 49
0.0
 74
     0
 49
-0.125
 74
     0
  0
LTYPE
  5
2B0
330
279
100
AcDbSymbolTableRecord
100
AcDbLinetypeTableRecord
  2
DASHDOTX2
 70
     0
  3
Dashdotx2 ____  .  ____  .  ____  .  ___
 72
    65
 73
     4
 40
2.0
 49
1.0
 74
     0
 49
-0.5
 74
     0
 49
0.0
 74
     0
 49
-0.5
 74
     0
  0
LTYPE
  5
2B1
330
279
100
AcDbSymbolTableRecord
100
AcDbLinetypeTableRecord
  2
DASHED2
 70
     0
  3
Dashed2 _ _ _ _ _ _ _ _ _ _ _ _ _ _ _ _ _ 
 72
    65
 73
     2
 40
0.375
 49
0.25
 74
     0
 49
-0.125
 74
     0
  0
LTYPE
  5
2B2
330
279
100
AcDbSymbolTableRecord
100
AcDbLinetypeTableRecord
  2
DASHEDX2
 70
     0
  3
Dashedx2 ____  ____  ____  ____  ____  ___
 72
    65
 73
     2
 40
1.5
 49
1.0
 74
     0
 49
-0.5
 74
     0
  0
LTYPE
  5
2B3
330
279
100
AcDbSymbolTableRecord
100
AcDbLinetypeTableRecord
  2
DIVIDE
 70
     0
  3
Divide ____ . . ____ . . ____ . . ____ . . ____
 72
    65
 73
     6
 40
1.25
 49
0.5
 74
     0
 49
-0.25
 74
     0
 49
0.0
 74
     0
 49
-0.25
 74
     0
 49
0.0
 74
     0
 49
-0.25
 74
     0
  0
LTYPE
  5
2B4
330
279
100
AcDbSymbolTableRecord
100
AcDbLinetypeTableRecord
  2
DIVIDE2
 70
     0
  3
Divide2 __..__..__..__..__..__..__..__.._
 72
    65
 73
     6
 40
0.625
 49
0.25
 74
     0
 49
-0.125
 74
     0
 49
0.0
 74
     0
 49
-0.125
 74
     0
 49
0.0
 74
     0
 49
-0.125
 74
     0
  0
LTYPE
  5
2B5
330
279
100
AcDbSymbolTableRecord
100
AcDbLinetypeTableRecord
  2
DIVIDEX2
 70
     0
  3
Dividex2 ________  .  .  ________  .  .  _
 72
    65
 73
     6
 40
2.5
 49
1.0
 74
     0
 49
-0.5
 74
     0
 49
0.0
 74
     0
 49
-0.5
 74
     0
 49
0.0
 74
     0
 49
-0.5
 74
     0
  0
LTYPE
  5
2B6
330
279
100
AcDbSymbolTableRecord
100
AcDbLinetypeTableRecord
  2
DOT
 70
     0
  3
Dot . . . . . . . . . . . . . . . . . . . . . . . .
 72
    65
 73
     2
 40
0.25
 49
0.0
 74
     0
 49
-0.25
 74
     0
  0
LTYPE
  5
2B7
330
279
100
AcDbSymbolTableRecord
100
AcDbLinetypeTableRecord
  2
DOT2
 70
     0
  3
Dot2 ........................................
 72
    65
 73
     2
 40
0.125
 49
0.0
 74
     0
 49
-0.125
 74
     0
  0
LTYPE
  5
2B8
330
279
100
AcDbSymbolTableRecord
100
AcDbLinetypeTableRecord
  2
DOTX2
 70
     0
  3
Dotx2 .  .  .  .  .  .  .  .  .  .  .  .  .  .
 72
    65
 73
     2
 40
0.5
 49
0.0
 74
     0
 49
-0.5
 74
     0
  0
LTYPE
  5
2B9
330
279
100
AcDbSymbolTableRecord
100
AcDbLinetypeTableRecord
  2
HIDDENX2
 70
     0
  3
Hiddenx2 ____ ____ ____ ____ ____ ____ ____ 
 72
    65
 73
     2
 40
0.75
 49
0.5
 74
     0
 49
-0.25
 74
     0
  0
LTYPE
  5
2BA
330
279
100
AcDbSymbolTableRecord
100
AcDbLinetypeTableRecord
  2
PHANTOM
 70
     0
  3
Phantom ______  __  __  ______  __  __  ______ 
 72
    65
 73
     6
 40
2.5
 49
1.25
 74
     0
 49
-0.25
 74
     0
 49
0.25
 74
     0
 49
-0.25
 74
     0
 49
0.25
 74
     0
 49
-0.25
 74
     0
  0
LTYPE
  5
2BB
330
279
100
AcDbSymbolTableRecord
100
AcDbLinetypeTableRecord
  2
PHANTOM2
 70
     0
  3
Phantom2 ___ _ _ ___ _ _ ___ _ _ ___ _ _
 72
    65
 73
     6
 40
1.25
 49
0.625
 74
     0
 49
-0.125
 74
     0
 49
0.125
 74
     0
 49
-0.125
 74
     0
 49
0.125
 74
     0
 49
-0.125
 74
     0
  0
LTYPE
  5
2BC
330
279
100
AcDbSymbolTableRecord
100
AcDbLinetypeTableRecord
  2
PHANTOMX2
 70
     0
  3
Phantomx2 ____________    ____    ____   _
 72
    65
 73
     6
 40
5.0
 49
2.5
 74
     0
 49
-0.5
 74
     0
 49
0.5
 74
     0
 49
-0.5
 74
     0
 49
0.5
 74
     0
 49
-0.5
 74
     0
  0
ENDTAB
  0
TABLE
  2
LAYER
  5
276
330
0
100
AcDbSymbolTable
 70
     4
  0
LAYER
  5
284
330
276
100
AcDbSymbolTableRecord
100
AcDbLayerTableRecord
  2
0
 70
     0
 62
    90
  6
Continuous
370
     0
390
283
  0
LAYER
  5
2B
330
276
100
AcDbSymbolTableRecord
100
AcDbLayerTableRecord
  2
koty
 70
     0
 62
    41
  6
Continuous
370
     0
390
283
  0
LAYER
  5
2C
330
276
100
AcDbSymbolTableRecord
100
AcDbLayerTableRecord
  2
popis
 70
     0
 62
   210
  6
Continuous
370
     0
390
283
  0
LAYER
  5
158
330
276
100
AcDbSymbolTableRecord
100
AcDbLayerTableRecord
  2
Defpoints
 70
     0
 62
     7
  6
Continuous
290
     0
370
     0
390
283
  0
ENDTAB
  0
TABLE
  2
STYLE
  5
277
330
0
100
AcDbSymbolTable
 70
     2
  0
STYLE
  5
285
330
277
100
AcDbSymbolTableRecord
100
AcDbTextStyleTableRecord
  2
Standard
 70
     0
 40
0.0
 41
1.0
 50
0.0
 71
     0
 42
0.2
  3
txt.shx
  4

1001
ACAD
1000
txt.shx
1071
        0
  0
STYLE
  5
1E1
330
277
100
AcDbSymbolTableRecord
100
AcDbTextStyleTableRecord
  2
Proxy_1E0
 70
     0
 40
20.0
 41
1.0
 50
0.0
 71
     0
 42
0.2
  3
txt.shx
  4

1001
ACAD
1000
txt.shx
1071
        0
  0
ENDTAB
  0
TABLE
  2
VIEW
  5
27A
330
0
100
AcDbSymbolTable
 70
     0
  0
ENDTAB
  0
TABLE
  2
UCS
  5
27B
330
0
100
AcDbSymbolTable
 70
     0
  0
ENDTAB
  0
TABLE
  2
APPID
  5
27D
330
0
100
AcDbSymbolTable
 70
     6
  0
APPID
  5
286
330
27D
100
AcDbSymbolTableRecord
100
AcDbRegAppTableRecord
  2
ACAD
 70
     0
  0
APPID
  5
29E
330
27D
100
AcDbSymbolTableRecord
100
AcDbRegAppTableRecord
  2
VD_INVISIBLE_NOT_FOR_READ
 70
     0
  0
APPID
  5
29F
330
27D
100
AcDbSymbolTableRecord
100
AcDbRegAppTableRecord
  2
VD_TEMPHATCH
 70
     0
  0
APPID
  5
2A0
330
27D
100
AcDbSymbolTableRecord
100
AcDbRegAppTableRecord
  2
VDEXTRAPARAM
 70
     0
  0
APPID
  5
2A1
330
27D
100
AcDbSymbolTableRecord
100
AcDbRegAppTableRecord
  2
PE_URL
 70
     0
  0
APPID
  5
2A2
330
27D
100
AcDbSymbolTableRecord
100
AcDbRegAppTableRecord
  2
VD_UNKNOWN
 70
     0
  0
ENDTAB
  0
TABLE
  2
DIMSTYLE
  5
27E
330
0
100
AcDbSymbolTable
 70
     2
100
AcDbDimStyleTable
  0
DIMSTYLE
105
29B
330
27E
100
AcDbSymbolTableRecord
100
AcDbDimStyleTableRecord
  2
STANDARD
 70
     0
 41
0.2
 42
0.05
 44
0.2
 73
     0
 74
     0
140
0.2
172
     1
174
     1
177
   256
178
   256
288
     1
340
285
342
1E4
  0
DIMSTYLE
105
27
102
{ACAD_REACTORS
330
157
330
170
330
188
330
1A0
330
1B8
102
}
330
27E
100
AcDbSymbolTableRecord
100
AcDbDimStyleTableRecord
  2
ISO-25
 70
     0
 40
10.0
 41
2.0
 42
0.625
 44
1.25
 73
     0
 74
     0
 77
     1
140
2.0
147
0.625
172
     1
174
     1
178
   256
271
     0
288
     1
340
285
342
1E4
  0
ENDTAB
  0
TABLE
  2
BLOCK_RECORD
  5
275
330
0
100
AcDbSymbolTable
 70
     8
  0
BLOCK_RECORD
  5
293
330
275
100
AcDbSymbolTableRecord
100
AcDbBlockTableRecord
  2
*Model_Space
340
296
  0
BLOCK_RECORD
  5
28F
330
275
100
AcDbSymbolTableRecord
100
AcDbBlockTableRecord
  2
*Paper_Space
340
292
  0
BLOCK_RECORD
  5
297
330
275
100
AcDbSymbolTableRecord
100
AcDbBlockTableRecord
  2
*Paper_Space0
340
29A
  0
BLOCK_RECORD
  5
1E4
330
275
100
AcDbSymbolTableRecord
100
AcDbBlockTableRecord
  2
VDDIM_DEFAULT
340
0
102
{BLKREFS
331
2C7
331
2C6
331
2D3
331
2D2
331
2DF
331
2DE
331
2EB
331
2EA
331
2F7
331
2F6
102
}
  0
BLOCK_RECORD
  5
1E6
330
275
100
AcDbSymbolTableRecord
100
AcDbBlockTableRecord
  2
VDDIM_NONE
340
0
  0
BLOCK_RECORD
  5
2C2
330
275
100
AcDbSymbolTableRecord
100
AcDbBlockTableRecord
  2
*D3
340
0
  0
BLOCK_RECORD
  5
2CE
330
275
100
AcDbSymbolTableRecord
100
AcDbBlockTableRecord
  2
*D4
340
0
  0
BLOCK_RECORD
  5
2DA
330
275
100
AcDbSymbolTableRecord
100
AcDbBlockTableRecord
  2
*D5
340
0
  0
BLOCK_RECORD
  5
2E6
330
275
100
AcDbSymbolTableRecord
100
AcDbBlockTableRecord
  2
*D6
340
0
  0
BLOCK_RECORD
  5
2F2
330
275
100
AcDbSymbolTableRecord
100
AcDbBlockTableRecord
  2
*D7
340
0
  0
ENDTAB
  0
ENDSEC
  0
SECTION
  2
BLOCKS
  0
BLOCK
  5
294
330
293
100
AcDbEntity
  8
0
100
AcDbBlockBegin
  2
*Model_Space
 70
     0
 71
     0
 10
0.0
 20
0.0
 30
0.0
  3
*Model_Space
  1

  0
ENDBLK
  5
295
330
293
100
AcDbEntity
  8
0
100
AcDbBlockEnd
  0
BLOCK
  5
290
330
28F
100
AcDbEntity
 67
     1
  8
0
100
AcDbBlockBegin
  2
*Paper_Space
 70
     0
 71
     0
 10
0.0
 20
0.0
 30
0.0
  3
*Paper_Space
  1

  0
ENDBLK
  5
291
330
28F
100
AcDbEntity
 67
     1
  8
0
100
AcDbBlockEnd
  0
BLOCK
  5
298
330
297
100
AcDbEntity
  8
0
100
AcDbBlockBegin
  2
*Paper_Space0
 70
     0
 71
     0
 10
0.0
 20
0.0
 30
0.0
  3
*Paper_Space0
  1

  0
VIEWPORT
  5
300
330
297
100
AcDbEntity
  8
0
 60
     1
100
AcDbViewport
 10
0.0
 20
0.0
 30
0.0
 40
10.0
 41
10.0
 69
     1
 12
0.0
 22
0.0
 13
0.0
 23
0.0
 14
1.0
 24
1.0
 15
0.0
 25
0.0
 16
0.0
 26
0.0
 36
1.0
 17
0.0
 27
0.0
 37
0.0
 42
0.0
 43
0.0
 44
0.0
 45
10.0
 50
0.0
 51
0.0000000000007958
 72
   100
 90
   163872
  1

281
     0
 71
     0
 74
     0
110
0.0
120
0.0
130
0.0
111
1.0
121
0.0
131
0.0
112
0.0
122
1.0
132
0.0
 79
     0
146
0.0
1001
VD_INVISIBLE_NOT_FOR_READ
1000
VD_INVISIBLE_NOT_FOR_READ
  0
VIEWPORT
  5
301
330
297
100
AcDbEntity
  8
0
 60
     1
100
AcDbViewport
 10
0.0
 20
0.0
 30
0.0
 40
10.0
 41
10.0
 69
     2
 12
0.0
 22
0.0
 13
0.0
 23
0.0
 14
1.0
 24
1.0
 15
0.0
 25
0.0
 16
0.0
 26
0.0
 36
1.0
 17
0.0
 27
0.0
 37
0.0
 42
0.0
 43
0.0
 44
0.0
 45
10.0
 50
0.0
 51
0.0000000000007958
 72
   100
 90
   163872
  1

281
     0
 71
     0
 74
     0
110
0.0
120
0.0
130
0.0
111
1.0
121
0.0
131
0.0
112
0.0
122
1.0
132
0.0
 79
     0
146
0.0
1001
VD_INVISIBLE_NOT_FOR_READ
1000
VD_INVISIBLE_NOT_FOR_READ
  0
ENDBLK
  5
299
330
297
100
AcDbEntity
  8
0
100
AcDbBlockEnd
  0
BLOCK
  5
2BD
330
1E4
100
AcDbEntity
  8
0
100
AcDbBlockBegin
  2
VDDIM_DEFAULT
 70
     0
 71
     0
 10
0.0
 20
0.0
 30
0.0
  3
VDDIM_DEFAULT
  1

  0
LWPOLYLINE
  5
1E5
330
1E4
100
AcDbEntity
  8
0
  6
Continuous
 62
     0
100
AcDbPolyline
 90
        4
 70
     0
 43
0.0
 10
0.0
 20
0.0
 10
-1.0
 20
-0.1665
 10
-1.0
 20
0.1665
 10
0.0
 20
0.0
1001
VDEXTRAPARAM
1071
        1
1071
        0
1071
        0
1040
1.0
1000

1000

1040
0.0
1040
0.0
  0
HATCH
  5
2C1
330
1E4
100
AcDbEntity
  8
0
  6
Continuous
 62
     0
100
AcDbHatch
 10
0.0
 20
0.0
 30
0.0
210
0.0
220
0.0
230
1.0
  2
SOLID
 70
     1
 71
     0
 91
        1
 92
        2
 72
     0
 73
     1
 93
        3
 10
0.0
 20
0.0
 10
-1.0
 20
-0.1665
 10
-1.0
 20
0.1665
 97
        0
 75
     0
 76
     1
 98
        1
 10
0.0
 20
0.0
1001
VDEXTRAPARAM
1071
        1
1071
        0
1071
        0
1040
1.0
1000

1000

1040
0.0
1040
0.0
1001
VD_TEMPHATCH
1000
VD_TEMPHATCH
  0
ENDBLK
  5
2BE
330
1E4
100
AcDbEntity
  8
0
100
AcDbBlockEnd
  0
BLOCK
  5
2BF
330
1E6
100
AcDbEntity
  8
0
100
AcDbBlockBegin
  2
VDDIM_NONE
 70
     0
 71
     0
 10
0.0
 20
0.0
 30
0.0
  3
VDDIM_NONE
  1

  0
ENDBLK
  5
2C0
330
1E6
100
AcDbEntity
  8
0
100
AcDbBlockEnd
  0
BLOCK
  5
2CC
330
2C2
100
AcDbEntity
  8
0
100
AcDbBlockBegin
  2
*D3
 70
     1
 71
     0
 10
0.0
 20
0.0
 30
0.0
  3
*D3
  1

  0
LINE
  5
2C3
330
2C2
100
AcDbEntity
  8
koty
 62
     0
370
    -2
100
AcDbLine
 10
-501.857348366916
 20
493.835557054278
 30
0.0
 11
-567.1643211928749
 21
493.8355570542781
 31
0.0
  0
LINE
  5
2C4
330
2C2
100
AcDbEntity
  8
koty
 62
     0
370
    -2
100
AcDbLine
 10
-501.8573483669162
 20
-136.1644429457222
 30
0.0
 11
-567.1643211928749
 21
-136.1644429457222
 31
0.0
  0
LINE
  5
2C5
330
2C2
100
AcDbEntity
  8
koty
 62
     0
370
    -2
100
AcDbLine
 10
-554.6643211928749
 20
473.835557054278
 30
0.0
 11
-554.6643211928749
 21
-116.1644429457222
 31
0.0
  0
INSERT
  5
2C6
330
2C2
100
AcDbEntity
  8
koty
 62
     0
370
    -2
100
AcDbBlockReference
  2
VDDIM_DEFAULT
 10
-554.6643211928749
 20
493.835557054278
 30
0.0
 41
20.0
 42
20.0
 43
20.0
 50
90.0
  0
INSERT
  5
2C7
330
2C2
100
AcDbEntity
  8
koty
 62
     0
370
    -2
100
AcDbBlockReference
  2
VDDIM_DEFAULT
 10
-554.6643211928749
 20
-136.1644429457223
 30
0.0
 41
20.0
 42
20.0
 43
20.0
 50
270.0
  0
MTEXT
  5
2C8
330
2C2
100
AcDbEntity
  8
koty
100
AcDbMText
 10
-570.9143211928749
 20
178.8355570542779
 30
0.0
 40
20.0
 41
0.0
 71
     5
 72
     1
  1
\A1;630
 11
0.0
 21
1.0
 31
0.0
 73
     1
 44
1.0
  0
POINT
  5
2C9
330
2C2
100
AcDbEntity
  8
Defpoints
 62
     0
100
AcDbPoint
 10
-495.607348366916
 20
493.835557054278
 30
0.0
  0
POINT
  5
2CA
330
2C2
100
AcDbEntity
  8
Defpoints
 62
     0
100
AcDbPoint
 10
-495.6073483669162
 20
-136.1644429457222
 30
0.0
  0
POINT
  5
2CB
330
2C2
100
AcDbEntity
  8
Defpoints
 62
     0
100
AcDbPoint
 10
-554.6643211928749
 20
-136.1644429457222
 30
0.0
  0
ENDBLK
  5
2CD
330
2C2
100
AcDbEntity
  8
0
100
AcDbBlockEnd
  0
BLOCK
  5
2D8
330
2CE
100
AcDbEntity
  8
0
100
AcDbBlockBegin
  2
*D4
 70
     1
 71
     0
 10
0.0
 20
0.0
 30
0.0
  3
*D4
  1

  0
LINE
  5
2CF
330
2CE
100
AcDbEntity
  8
koty
 62
     0
370
    -2
100
AcDbLine
 10
-501.8573483669162
 20
-166.1644429457223
 30
0.0
 11
-640.005983816518
 21
-166.1644429457223
 31
0.0
  0
LINE
  5
2D0
330
2CE
100
AcDbEntity
  8
koty
 62
     0
370
    -2
100
AcDbLine
 10
-501.857348366916
 20
523.8355570542782
 30
0.0
 11
-640.005983816518
 21
523.8355570542782
 31
0.0
  0
LINE
  5
2D1
330
2CE
100
AcDbEntity
  8
koty
 62
     0
370
    -2
100
AcDbLine
 10
-627.505983816518
 20
-146.1644429457223
 30
0.0
 11
-627.505983816518
 21
503.8355570542782
 31
0.0
  0
INSERT
  5
2D2
330
2CE
100
AcDbEntity
  8
koty
 62
     0
370
    -2
100
AcDbBlockReference
  2
VDDIM_DEFAULT
 10
-627.505983816518
 20
-166.1644429457223
 30
0.0
 41
20.0
 42
20.0
 43
20.0
 50
270.0
  0
INSERT
  5
2D3
330
2CE
100
AcDbEntity
  8
koty
 62
     0
370
    -2
100
AcDbBlockReference
  2
VDDIM_DEFAULT
 10
-627.505983816518
 20
523.8355570542782
 30
0.0
 41
20.0
 42
20.0
 43
20.0
 50
90.0
  0
MTEXT
  5
2D4
330
2CE
100
AcDbEntity
  8
koty
100
AcDbMText
 10
-643.755983816518
 20
178.835557054278
 30
0.0
 40
20.0
 41
0.0
 71
     5
 72
     1
  1
\A1;690
 11
0.0
 21
-1.0
 31
0.0
 73
     1
 44
1.0
  0
POINT
  5
2D5
330
2CE
100
AcDbEntity
  8
Defpoints
 62
     0
100
AcDbPoint
 10
-495.6073483669162
 20
-166.1644429457223
 30
0.0
  0
POINT
  5
2D6
330
2CE
100
AcDbEntity
  8
Defpoints
 62
     0
100
AcDbPoint
 10
-495.607348366916
 20
523.8355570542782
 30
0.0
  0
POINT
  5
2D7
330
2CE
100
AcDbEntity
  8
Defpoints
 62
     0
100
AcDbPoint
 10
-627.505983816518
 20
523.8355570542782
 30
0.0
  0
ENDBLK
  5
2D9
330
2CE
100
AcDbEntity
  8
0
100
AcDbBlockEnd
  0
BLOCK
  5
2E4
330
2DA
100
AcDbEntity
  8
0
100
AcDbBlockBegin
  2
*D5
 70
     1
 71
     0
 10
0.0
 20
0.0
 30
0.0
  3
*D5
  1

  0
LINE
  5
2DB
330
2DA
100
AcDbEntity
  8
koty
 62
     0
370
    -2
100
AcDbLine
 10
-501.857348366916
 20
541.3355570542782
 30
0.0
 11
-729.2523607827607
 21
541.3355570542783
 31
0.0
  0
LINE
  5
2DC
330
2DA
100
AcDbEntity
  8
koty
 62
     0
370
    -2
100
AcDbLine
 10
-501.8573483669162
 20
-183.6644429457223
 30
0.0
 11
-729.2523607827607
 21
-183.6644429457223
 31
0.0
  0
LINE
  5
2DD
330
2DA
100
AcDbEntity
  8
koty
 62
     0
370
    -2
100
AcDbLine
 10
-716.7523607827607
 20
521.3355570542783
 30
0.0
 11
-716.7523607827607
 21
-163.6644429457223
 31
0.0
  0
INSERT
  5
2DE
330
2DA
100
AcDbEntity
  8
koty
 62
     0
370
    -2
100
AcDbBlockReference
  2
VDDIM_DEFAULT
 10
-716.7523607827607
 20
541.3355570542783
 30
0.0
 41
20.0
 42
20.0
 43
20.0
 50
90.0
  0
INSERT
  5
2DF
330
2DA
100
AcDbEntity
  8
koty
 62
     0
370
    -2
100
AcDbBlockReference
  2
VDDIM_DEFAULT
 10
-716.7523607827607
 20
-183.6644429457223
 30
0.0
 41
20.0
 42
20.0
 43
20.0
 50
270.0
  0
MTEXT
  5
2E0
330
2DA
100
AcDbEntity
  8
koty
100
AcDbMText
 10
-733.0023607827607
 20
178.835557054278
 30
0.0
 40
20.0
 41
0.0
 71
     5
 72
     1
  1
\A1;725
 11
0.0
 21
1.0
 31
0.0
 73
     1
 44
1.0
  0
POINT
  5
2E1
330
2DA
100
AcDbEntity
  8
Defpoints
 62
     0
100
AcDbPoint
 10
-495.607348366916
 20
541.3355570542782
 30
0.0
  0
POINT
  5
2E2
330
2DA
100
AcDbEntity
  8
Defpoints
 62
     0
100
AcDbPoint
 10
-495.6073483669162
 20
-183.6644429457223
 30
0.0
  0
POINT
  5
2E3
330
2DA
100
AcDbEntity
  8
Defpoints
 62
     0
100
AcDbPoint
 10
-716.7523607827607
 20
-183.6644429457223
 30
0.0
  0
ENDBLK
  5
2E5
330
2DA
100
AcDbEntity
  8
0
100
AcDbBlockEnd
  0
BLOCK
  5
2F0
330
2E6
100
AcDbEntity
  8
0
100
AcDbBlockBegin
  2
*D6
 70
     1
 71
     0
 10
0.0
 20
0.0
 30
0.0
  3
*D6
  1

  0
LINE
  5
2E7
330
2E6
100
AcDbEntity
  8
koty
 62
     0
370
    -2
100
AcDbLine
 10
-495.6073483669162
 20
-189.9144429457223
 30
0.0
 11
-495.6073483669162
 21
-253.9901170429148
 31
0.0
  0
LINE
  5
2E8
330
2E6
100
AcDbEntity
  8
koty
 62
     0
370
    -2
100
AcDbLine
 10
-255.6073483669162
 20
-189.9144429457224
 30
0.0
 11
-255.6073483669162
 21
-253.9901170429148
 31
0.0
  0
LINE
  5
2E9
330
2E6
100
AcDbEntity
  8
koty
 62
     0
370
    -2
100
AcDbLine
 10
-475.6073483669162
 20
-241.4901170429148
 30
0.0
 11
-275.6073483669162
 21
-241.4901170429148
 31
0.0
  0
INSERT
  5
2EA
330
2E6
100
AcDbEntity
  8
koty
 62
     0
370
    -2
100
AcDbBlockReference
  2
VDDIM_DEFAULT
 10
-495.6073483669162
 20
-241.4901170429148
 30
0.0
 41
20.0
 42
20.0
 43
20.0
 50
180.0
  0
INSERT
  5
2EB
330
2E6
100
AcDbEntity
  8
koty
 62
     0
370
    -2
100
AcDbBlockReference
  2
VDDIM_DEFAULT
 10
-255.6073483669162
 20
-241.4901170429148
 30
0.0
 41
20.0
 42
20.0
 43
20.0
 50
360.0
  0
MTEXT
  5
2EC
330
2E6
100
AcDbEntity
  8
koty
100
AcDbMText
 10
-375.6073483669162
 20
-225.2401170429148
 30
0.0
 40
20.0
 41
0.0
 71
     5
 72
     1
  1
\A1;240
 73
     1
 44
1.0
  0
POINT
  5
2ED
330
2E6
100
AcDbEntity
  8
Defpoints
 62
     0
100
AcDbPoint
 10
-495.6073483669162
 20
-183.6644429457223
 30
0.0
  0
POINT
  5
2EE
330
2E6
100
AcDbEntity
  8
Defpoints
 62
     0
100
AcDbPoint
 10
-255.6073483669162
 20
-183.6644429457224
 30
0.0
  0
POINT
  5
2EF
330
2E6
100
AcDbEntity
  8
Defpoints
 62
     0
100
AcDbPoint
 10
-255.6073483669162
 20
-241.4901170429148
 30
0.0
  0
ENDBLK
  5
2F1
330
2E6
100
AcDbEntity
  8
0
100
AcDbBlockEnd
  0
BLOCK
  5
2FB
330
2F2
100
AcDbEntity
  8
0
100
AcDbBlockBegin
  2
*D7
 70
     1
 71
     0
 10
0.0
 20
0.0
 30
0.0
  3
*D7
  1

  0
LINE
  5
2F3
330
2F2
100
AcDbEntity
  8
koty
 62
     0
370
    -2
100
AcDbLine
 10
374.3438803384541
 20
524.044574307542
 30
0.0
 11
368.1766140596595
 21
524.0044998093608
 31
0.0
  0
LINE
  5
2F4
330
2F2
100
AcDbEntity
  8
koty
 62
     0
370
    -2
100
AcDbLine
 10
316.177711827189
 20
523.6666142991955
 30
0.0
 11
296.1781340454696
 21
523.5366583337474
 31
0.0
  0
MTEXT
  5
2F5
330
2F2
100
AcDbEntity
  8
koty
100
AcDbMText
 10
342.5772967269273
 20
566.8002494099961
 30
0.0
 40
20.0
 41
0.0
 71
     5
 72
     1
  1
\A1;\U+220512
 11
0.9999788890859702
 21
0.006497798272410631
 31
0.0
 73
     1
 44
1.0
  0
INSERT
  5
2F6
330
2F2
100
AcDbEntity
  8
koty
 62
     0
370
    -2
100
AcDbBlockReference
  2
VDDIM_DEFAULT
 10
348.1770362779401
 20
523.8745438439127
 30
0.0
 41
20.0
 42
20.0
 43
20.0
 50
180.3722990369983
  0
INSERT
  5
2F7
330
2F2
100
AcDbEntity
  8
koty
 62
     0
370
    -2
100
AcDbBlockReference
  2
VDDIM_DEFAULT
 10
336.1772896089084
 20
523.7965702646437
 30
0.0
 41
20.0
 42
20.0
 43
20.0
 50
0.3722990369978684
  0
LINE
  5
2F8
330
2F2
100
AcDbEntity
  8
koty
 62
     0
370
    -2
100
AcDbLine
 10
336.1772896089084
 20
523.7965702646437
 30
0.0
 11
348.1770362779401
 21
523.8745438439127
 31
0.0
  0
POINT
  5
2F9
330
2F2
100
AcDbEntity
  8
Defpoints
 62
     0
100
AcDbPoint
 10
348.1770362779401
 20
523.8745438439127
 30
0.0
  0
POINT
  5
2FA
330
2F2
100
AcDbEntity
  8
Defpoints
 62
     0
100
AcDbPoint
 10
336.1772896089084
 20
523.7965702646437
 30
0.0
  0
ENDBLK
  5
2FC
330
2F2
100
AcDbEntity
  8
0
100
AcDbBlockEnd
  0
ENDSEC
  0
SECTION
  2
ENTITIES
  0
CIRCLE
  5
35
330
293
100
AcDbEntity
  8
0
100
AcDbCircle
 10
342.1771629434242
 20
178.8355570542781
 30
0.0
 40
315.0
  0
CIRCLE
  5
36
330
293
100
AcDbEntity
  8
0
100
AcDbCircle
 10
342.1771629434242
 20
178.8355570542781
 30
0.0
 40
362.5
  0
CIRCLE
  5
37
330
293
100
AcDbEntity
  8
0
100
AcDbCircle
 10
342.1771629434242
 20
178.8355570542781
 30
0.0
 40
63.0
  0
CIRCLE
  5
38
330
293
100
AcDbEntity
  8
0
100
AcDbCircle
 10
342.1771629434242
 20
178.8355570542781
 30
0.0
 40
37.79999999999999
  0
CIRCLE
  5
3E
330
293
100
AcDbEntity
  8
0
100
AcDbCircle
 10
342.1771629434242
 20
523.8355570542782
 30
0.0
 40
6.0
  0
CIRCLE
  5
3F
330
293
100
AcDbEntity
  8
0
100
AcDbCircle
 10
169.6771629434243
 20
477.6143213599095
 30
0.0
 40
6.0
  0
CIRCLE
  5
40
330
293
100
AcDbEntity
  8
0
100
AcDbCircle
 10
43.39839863779298
 20
351.3355570542782
 30
0.0
 40
6.0
  0
CIRCLE
  5
41
330
293
100
AcDbEntity
  8
0
100
AcDbCircle
 10
-2.822837056575735
 20
178.8355570542782
 30
0.0
 40
6.0
  0
CIRCLE
  5
42
330
293
100
AcDbEntity
  8
0
100
AcDbCircle
 10
43.39839863779286
 20
6.335557054278325
 30
0.0
 40
6.0
  0
CIRCLE
  5
43
330
293
100
AcDbEntity
  8
0
100
AcDbCircle
 10
169.6771629434242
 20
-119.9432072513531
 30
0.0
 40
6.0
  0
CIRCLE
  5
44
330
293
100
AcDbEntity
  8
0
100
AcDbCircle
 10
342.177162943424
 20
-166.1644429457218
 30
0.0
 40
6.0
  0
CIRCLE
  5
45
330
293
100
AcDbEntity
  8
0
100
AcDbCircle
 10
514.677162943424
 20
-119.9432072513532
 30
0.0
 40
6.0
  0
CIRCLE
  5
46
330
293
100
AcDbEntity
  8
0
100
AcDbCircle
 10
640.9559272490554
 20
6.335557054278069
 30
0.0
 40
6.0
  0
CIRCLE
  5
47
330
293
100
AcDbEntity
  8
0
100
AcDbCircle
 10
687.1771629434242
 20
178.8355570542781
 30
0.0
 40
6.0
  0
CIRCLE
  5
48
330
293
100
AcDbEntity
  8
0
100
AcDbCircle
 10
640.9559272490557
 20
351.3355570542781
 30
0.0
 40
6.0
  0
CIRCLE
  5
49
330
293
100
AcDbEntity
  8
0
100
AcDbCircle
 10
514.6771629434242
 20
477.6143213599095
 30
0.0
 40
6.0
  0
LINE
  5
4A
330
293
100
AcDbEntity
  8
0
100
AcDbLine
 10
365.1354018907489
 20
208.8648638134683
 30
0.0
 11
561.3522035506924
 21
405.0816654734118
 31
0.0
  0
LINE
  5
4B
330
293
100
AcDbEntity
  8
0
100
AcDbLine
 10
372.2064697026144
 20
201.7937960016028
 30
0.0
 11
568.4232713625578
 21
398.0105976615462
 31
0.0
  0
LINE
  5
4D
330
293
100
AcDbEntity
  8
0
100
AcDbLine
 10
365.9272986090172
 20
208.2425469693634
 30
0.0
 11
562.0694129009822
 21
404.3846612613285
 31
0.0
  0
LINE
  5
4E
330
293
100
AcDbEntity
  8
0
100
AcDbLine
 10
371.5841528585095
 20
202.5856927198711
 30
0.0
 11
567.7262671504747
 21
398.7278070118361
 31
0.0
  0
LINE
  5
51
330
293
100
AcDbEntity
  8
0
100
AcDbLine
 10
318.4270272778312
 20
208.2425469693634
 30
0.0
 11
122.2849129858663
 21
404.3846612613286
 31
0.0
  0
LINE
  5
52
330
293
100
AcDbEntity
  8
0
100
AcDbLine
 10
319.2189239960995
 20
208.8648638134683
 30
0.0
 11
123.0021223361562
 21
405.0816654734118
 31
0.0
  0
LINE
  5
53
330
293
100
AcDbEntity
  8
0
100
AcDbLine
 10
312.7701730283389
 20
202.5856927198711
 30
0.0
 11
116.6280587363739
 21
398.7278070118362
 31
0.0
  0
LINE
  5
54
330
293
100
AcDbEntity
  8
0
100
AcDbLine
 10
312.1478561842341
 20
201.7937960016028
 30
0.0
 11
115.9310545242906
 21
398.0105976615463
 31
0.0
  0
LINE
  5
55
330
293
100
AcDbEntity
  8
0
100
AcDbLine
 10
312.7701730283389
 20
155.0854213886851
 30
0.0
 11
116.6280587363737
 21
-41.05669290327967
 31
0.0
  0
LINE
  5
56
330
293
100
AcDbEntity
  8
0
100
AcDbLine
 10
312.1478561842341
 20
155.8773181069534
 30
0.0
 11
115.9310545242905
 21
-40.33948355298981
 31
0.0
  0
LINE
  5
57
330
293
100
AcDbEntity
  8
0
100
AcDbLine
 10
318.4270272778313
 20
149.4285671391928
 30
0.0
 11
122.2849129858661
 21
-46.71354715277209
 31
0.0
  0
LINE
  5
58
330
293
100
AcDbEntity
  8
0
100
AcDbLine
 10
319.2189239960995
 20
148.806250295088
 30
0.0
 11
123.002122336156
 21
-47.41055136485534
 31
0.0
  0
LINE
  5
59
330
293
100
AcDbEntity
  8
0
100
AcDbLine
 10
365.9272986090172
 20
149.4285671391927
 30
0.0
 11
562.069412900982
 21
-46.71354715277255
 31
0.0
  0
LINE
  5
5A
330
293
100
AcDbEntity
  8
0
100
AcDbLine
 10
365.1354018907488
 20
148.8062502950879
 30
0.0
 11
561.3522035506921
 21
-47.41055136485579
 31
0.0
  0
LINE
  5
5B
330
293
100
AcDbEntity
  8
0
100
AcDbLine
 10
371.5841528585095
 20
155.0854213886851
 30
0.0
 11
567.7262671504744
 21
-41.05669290328012
 31
0.0
  0
LINE
  5
5C
330
293
100
AcDbEntity
  8
0
100
AcDbLine
 10
372.2064697026144
 20
155.8773181069533
 30
0.0
 11
568.4232713625577
 21
-40.33948355299026
 31
0.0
  0
ARC
  5
5D
330
293
100
AcDbEntity
  8
0
100
AcDbCircle
 10
342.1771629434242
 20
178.8355570542781
 30
0.0
 40
310.822827671219
100
AcDbArc
 50
72.21141937505449
 51
106.3485209901509
  0
LINE
  5
60
330
293
100
AcDbEntity
  8
0
100
AcDbLine
 10
340.8459968359898
 20
216.6121105867858
 30
0.0
 11
340.8459968359898
 21
234.6838744307359
 31
0.0
  0
LINE
  5
61
330
293
100
AcDbEntity
  8
0
100
AcDbLine
 10
340.8459968359898
 20
234.6838744307359
 30
0.0
 11
342.1771629434242
 21
234.6838744307359
 31
0.0
  0
LINE
  5
62
330
293
100
AcDbEntity
  8
0
100
AcDbLine
 10
343.5083290508587
 20
216.6121105867858
 30
0.0
 11
343.5083290508587
 21
234.6838744307359
 31
0.0
  0
LINE
  5
63
330
293
100
AcDbEntity
  8
0
100
AcDbLine
 10
343.5083290508587
 20
234.6838744307359
 30
0.0
 11
342.1771629434242
 21
234.6838744307359
 31
0.0
  0
LINE
  5
64
330
293
100
AcDbEntity
  8
0
100
AcDbLine
 10
336.1129110740512
 20
216.1459423278826
 30
0.0
 11
332.5872848463355
 21
233.8704622969522
 31
0.0
  0
LINE
  5
65
330
293
100
AcDbEntity
  8
0
100
AcDbLine
 10
332.5872848463355
 20
233.8704622969522
 30
0.0
 11
331.2816967223922
 21
233.6107646723958
 31
0.0
  0
LINE
  5
66
330
293
100
AcDbEntity
  8
0
100
AcDbLine
 10
329.9761085984488
 20
233.3510670478395
 30
0.0
 11
331.2816967223922
 21
233.6107646723958
 31
0.0
  0
LINE
  5
67
330
293
100
AcDbEntity
  8
0
100
AcDbLine
 10
333.5017348261644
 20
215.62654707877
 30
0.0
 11
329.9761085984488
 21
233.3510670478395
 31
0.0
  0
LINE
  5
68
330
293
100
AcDbEntity
  8
0
100
AcDbLine
 10
328.950538895712
 20
214.24595688682
 30
0.0
 11
322.0347742790179
 21
230.942089618623
 31
0.0
  0
LINE
  5
69
330
293
100
AcDbEntity
  8
0
100
AcDbLine
 10
322.0347742790179
 20
230.942089618623
 30
0.0
 11
320.8049371579865
 21
230.4326744035819
 31
0.0
  0
LINE
  5
6A
330
293
100
AcDbEntity
  8
0
100
AcDbLine
 10
319.575100036955
 20
229.9232591885408
 30
0.0
 11
320.8049371579865
 21
230.4326744035819
 31
0.0
  0
LINE
  5
6B
330
293
100
AcDbEntity
  8
0
100
AcDbLine
 10
326.4908646536492
 20
213.2271264567378
 30
0.0
 11
319.575100036955
 21
229.9232591885408
 31
0.0
  0
LINE
  5
6C
330
293
100
AcDbEntity
  8
0
100
AcDbLine
 10
322.2964584619503
 20
210.9851696385738
 30
0.0
 11
312.2563244120917
 21
226.0112921155262
 31
0.0
  0
LINE
  5
6D
330
293
100
AcDbEntity
  8
0
100
AcDbLine
 10
312.2563244120917
 20
226.0112921155262
 30
0.0
 11
311.1495002448329
 21
225.271735851031
 31
0.0
  0
LINE
  5
6E
330
293
100
AcDbEntity
  8
0
100
AcDbLine
 10
310.0426760775741
 20
224.5321795865359
 30
0.0
 11
311.1495002448329
 21
225.271735851031
 31
0.0
  0
LINE
  5
6F
330
293
100
AcDbEntity
  8
0
100
AcDbLine
 10
320.0828101274327
 20
209.5060571095834
 30
0.0
 11
310.0426760775741
 21
224.5321795865359
 31
0.0
  0
LINE
  5
70
330
293
100
AcDbEntity
  8
0
100
AcDbLine
 10
316.4063823521841
 20
206.4888908084236
 30
0.0
 11
303.627715590125
 21
219.2675575704825
 31
0.0
  0
LINE
  5
71
330
293
100
AcDbEntity
  8
0
100
AcDbLine
 10
303.627715590125
 20
219.2675575704825
 30
0.0
 11
302.6864390086724
 21
218.32628098903
 31
0.0
  0
LINE
  5
72
330
293
100
AcDbEntity
  8
0
100
AcDbLine
 10
301.7451624272198
 20
217.3850044075773
 30
0.0
 11
302.6864390086724
 21
218.32628098903
 31
0.0
  0
LINE
  5
73
330
293
100
AcDbEntity
  8
0
100
AcDbLine
 10
314.5238291892789
 20
204.6063376455183
 30
0.0
 11
301.7451624272198
 21
217.3850044075773
 31
0.0
  0
LINE
  5
74
330
293
100
AcDbEntity
  8
0
100
AcDbLine
 10
311.5066628881189
 20
200.9299098702697
 30
0.0
 11
296.4805404111665
 21
210.9700439201283
 31
0.0
  0
LINE
  5
75
330
293
100
AcDbEntity
  8
0
100
AcDbLine
 10
296.4805404111665
 20
210.9700439201283
 30
0.0
 11
295.7409841466713
 21
209.8632197528695
 31
0.0
  0
LINE
  5
76
330
293
100
AcDbEntity
  8
0
100
AcDbLine
 10
295.0014278821762
 20
208.7563955856107
 30
0.0
 11
295.7409841466713
 21
209.8632197528695
 31
0.0
  0
LINE
  5
77
330
293
100
AcDbEntity
  8
0
100
AcDbLine
 10
310.0275503591285
 20
198.7162615357521
 30
0.0
 11
295.0014278821762
 21
208.7563955856107
 31
0.0
  0
LINE
  5
78
330
293
100
AcDbEntity
  8
0
100
AcDbLine
 10
307.7855935409645
 20
194.5218553440532
 30
0.0
 11
291.0894608091615
 21
201.4376199607474
 31
0.0
  0
LINE
  5
79
330
293
100
AcDbEntity
  8
0
100
AcDbLine
 10
291.0894608091615
 20
201.4376199607474
 30
0.0
 11
290.5800455941205
 21
200.2077828397159
 31
0.0
  0
LINE
  5
7A
330
293
100
AcDbEntity
  8
0
100
AcDbLine
 10
290.0706303790793
 20
198.9779457186845
 30
0.0
 11
290.5800455941205
 21
200.2077828397159
 31
0.0
  0
LINE
  5
7B
330
293
100
AcDbEntity
  8
0
100
AcDbLine
 10
306.7667631108824
 20
192.0621811019904
 30
0.0
 11
290.0706303790793
 21
198.9779457186845
 31
0.0
  0
LINE
  5
7C
330
293
100
AcDbEntity
  8
0
100
AcDbLine
 10
305.3861729189324
 20
187.5109851715379
 30
0.0
 11
287.6616529498628
 21
191.0366113992536
 31
0.0
  0
LINE
  5
7D
330
293
100
AcDbEntity
  8
0
100
AcDbLine
 10
287.6616529498628
 20
191.0366113992536
 30
0.0
 11
287.4019553253065
 21
189.7310232753102
 31
0.0
  0
LINE
  5
7E
330
293
100
AcDbEntity
  8
0
100
AcDbLine
 10
287.1422577007501
 20
188.4254351513668
 30
0.0
 11
287.4019553253065
 21
189.7310232753102
 31
0.0
  0
LINE
  5
7F
330
293
100
AcDbEntity
  8
0
100
AcDbLine
 10
304.8667776698197
 20
184.8998089236512
 30
0.0
 11
287.1422577007501
 21
188.4254351513668
 31
0.0
  0
LINE
  5
80
330
293
100
AcDbEntity
  8
0
100
AcDbLine
 10
304.4006094109165
 20
180.1667231617126
 30
0.0
 11
286.3288455669664
 21
180.1667231617126
 31
0.0
  0
LINE
  5
81
330
293
100
AcDbEntity
  8
0
100
AcDbLine
 10
286.3288455669664
 20
180.1667231617126
 30
0.0
 11
286.3288455669664
 21
178.8355570542781
 31
0.0
  0
LINE
  5
82
330
293
100
AcDbEntity
  8
0
100
AcDbLine
 10
286.3288455669664
 20
177.5043909468437
 30
0.0
 11
286.3288455669664
 21
178.8355570542781
 31
0.0
  0
LINE
  5
83
330
293
100
AcDbEntity
  8
0
100
AcDbLine
 10
304.4006094109165
 20
177.5043909468437
 30
0.0
 11
286.3288455669664
 21
177.5043909468437
 31
0.0
  0
LINE
  5
84
330
293
100
AcDbEntity
  8
0
100
AcDbLine
 10
304.8667776698197
 20
172.7713051849051
 30
0.0
 11
287.1422577007501
 21
169.2456789571895
 31
0.0
  0
LINE
  5
85
330
293
100
AcDbEntity
  8
0
100
AcDbLine
 10
287.1422577007501
 20
169.2456789571895
 30
0.0
 11
287.4019553253065
 21
167.9400908332461
 31
0.0
  0
LINE
  5
86
330
293
100
AcDbEntity
  8
0
100
AcDbLine
 10
287.6616529498628
 20
166.6345027093027
 30
0.0
 11
287.4019553253065
 21
167.9400908332461
 31
0.0
  0
LINE
  5
87
330
293
100
AcDbEntity
  8
0
100
AcDbLine
 10
305.3861729189324
 20
170.1601289370183
 30
0.0
 11
287.6616529498628
 21
166.6345027093027
 31
0.0
  0
LINE
  5
88
330
293
100
AcDbEntity
  8
0
100
AcDbLine
 10
306.7667631108824
 20
165.6089330065659
 30
0.0
 11
290.0706303790793
 21
158.6931683898717
 31
0.0
  0
LINE
  5
89
330
293
100
AcDbEntity
  8
0
100
AcDbLine
 10
290.0706303790793
 20
158.6931683898717
 30
0.0
 11
290.5800455941205
 21
157.4633312688404
 31
0.0
  0
LINE
  5
8A
330
293
100
AcDbEntity
  8
0
100
AcDbLine
 10
291.0894608091615
 20
156.2334941478089
 30
0.0
 11
290.5800455941205
 21
157.4633312688404
 31
0.0
  0
LINE
  5
8B
330
293
100
AcDbEntity
  8
0
100
AcDbLine
 10
307.7855935409645
 20
163.1492587645031
 30
0.0
 11
291.0894608091615
 21
156.2334941478089
 31
0.0
  0
LINE
  5
8C
330
293
100
AcDbEntity
  8
0
100
AcDbLine
 10
310.0275503591286
 20
158.9548525728042
 30
0.0
 11
295.0014278821762
 21
148.9147185229456
 31
0.0
  0
LINE
  5
8D
330
293
100
AcDbEntity
  8
0
100
AcDbLine
 10
295.0014278821762
 20
148.9147185229456
 30
0.0
 11
295.7409841466714
 21
147.8078943556868
 31
0.0
  0
LINE
  5
8E
330
293
100
AcDbEntity
  8
0
100
AcDbLine
 10
296.4805404111665
 20
146.701070188428
 30
0.0
 11
295.7409841466714
 21
147.8078943556868
 31
0.0
  0
LINE
  5
8F
330
293
100
AcDbEntity
  8
0
100
AcDbLine
 10
311.5066628881189
 20
156.7412042382866
 30
0.0
 11
296.4805404111665
 21
146.701070188428
 31
0.0
  0
LINE
  5
90
330
293
100
AcDbEntity
  8
0
100
AcDbLine
 10
314.5238291892789
 20
153.064776463038
 30
0.0
 11
301.7451624272199
 21
140.286109700979
 31
0.0
  0
LINE
  5
91
330
293
100
AcDbEntity
  8
0
100
AcDbLine
 10
301.7451624272199
 20
140.286109700979
 30
0.0
 11
302.6864390086724
 21
139.3448331195264
 31
0.0
  0
LINE
  5
92
330
293
100
AcDbEntity
  8
0
100
AcDbLine
 10
303.6277155901251
 20
138.4035565380738
 30
0.0
 11
302.6864390086724
 21
139.3448331195264
 31
0.0
  0
LINE
  5
93
330
293
100
AcDbEntity
  8
0
100
AcDbLine
 10
316.4063823521841
 20
151.1822233001328
 30
0.0
 11
303.6277155901251
 21
138.4035565380738
 31
0.0
  0
LINE
  5
94
330
293
100
AcDbEntity
  8
0
100
AcDbLine
 10
320.0828101274326
 20
148.1650569989728
 30
0.0
 11
310.042676077574
 21
133.1389345220205
 31
0.0
  0
LINE
  5
95
330
293
100
AcDbEntity
  8
0
100
AcDbLine
 10
310.042676077574
 20
133.1389345220205
 30
0.0
 11
311.1495002448329
 21
132.3993782575253
 31
0.0
  0
LINE
  5
96
330
293
100
AcDbEntity
  8
0
100
AcDbLine
 10
312.2563244120916
 20
131.6598219930302
 30
0.0
 11
311.1495002448329
 21
132.3993782575253
 31
0.0
  0
LINE
  5
97
330
293
100
AcDbEntity
  8
0
100
AcDbLine
 10
322.2964584619503
 20
146.6859444699825
 30
0.0
 11
312.2563244120916
 21
131.6598219930302
 31
0.0
  0
LINE
  5
98
330
293
100
AcDbEntity
  8
0
100
AcDbLine
 10
326.4908646536491
 20
144.4439876518184
 30
0.0
 11
319.5751000369549
 21
127.7478549200155
 31
0.0
  0
LINE
  5
99
330
293
100
AcDbEntity
  8
0
100
AcDbLine
 10
319.5751000369549
 20
127.7478549200155
 30
0.0
 11
320.8049371579864
 21
127.2384397049744
 31
0.0
  0
LINE
  5
9A
330
293
100
AcDbEntity
  8
0
100
AcDbLine
 10
322.0347742790178
 20
126.7290244899333
 30
0.0
 11
320.8049371579864
 21
127.2384397049744
 31
0.0
  0
LINE
  5
9B
330
293
100
AcDbEntity
  8
0
100
AcDbLine
 10
328.950538895712
 20
143.4251572217363
 30
0.0
 11
322.0347742790178
 21
126.7290244899333
 31
0.0
  0
LINE
  5
9C
330
293
100
AcDbEntity
  8
0
100
AcDbLine
 10
333.5017348261644
 20
142.0445670297864
 30
0.0
 11
329.9761085984487
 21
124.3200470607168
 31
0.0
  0
LINE
  5
9D
330
293
100
AcDbEntity
  8
0
100
AcDbLine
 10
329.9761085984487
 20
124.3200470607168
 30
0.0
 11
331.2816967223921
 21
124.0603494361605
 31
0.0
  0
LINE
  5
9E
330
293
100
AcDbEntity
  8
0
100
AcDbLine
 10
332.5872848463355
 20
123.8006518116041
 30
0.0
 11
331.2816967223921
 21
124.0603494361605
 31
0.0
  0
LINE
  5
9F
330
293
100
AcDbEntity
  8
0
100
AcDbLine
 10
336.1129110740512
 20
141.5251717806737
 30
0.0
 11
332.5872848463355
 21
123.8006518116041
 31
0.0
  0
LINE
  5
A0
330
293
100
AcDbEntity
  8
0
100
AcDbLine
 10
340.8459968359896
 20
141.0590035217705
 30
0.0
 11
340.8459968359896
 21
122.9872396778204
 31
0.0
  0
LINE
  5
A1
330
293
100
AcDbEntity
  8
0
100
AcDbLine
 10
340.8459968359896
 20
122.9872396778204
 30
0.0
 11
342.1771629434241
 21
122.9872396778204
 31
0.0
  0
LINE
  5
A2
330
293
100
AcDbEntity
  8
0
100
AcDbLine
 10
343.5083290508586
 20
122.9872396778203
 30
0.0
 11
342.1771629434241
 21
122.9872396778204
 31
0.0
  0
LINE
  5
A3
330
293
100
AcDbEntity
  8
0
100
AcDbLine
 10
343.5083290508586
 20
141.0590035217705
 30
0.0
 11
343.5083290508586
 21
122.9872396778203
 31
0.0
  0
LINE
  5
A4
330
293
100
AcDbEntity
  8
0
100
AcDbLine
 10
348.2414148127972
 20
141.5251717806736
 30
0.0
 11
351.7670410405128
 21
123.800651811604
 31
0.0
  0
LINE
  5
A5
330
293
100
AcDbEntity
  8
0
100
AcDbLine
 10
351.7670410405128
 20
123.800651811604
 30
0.0
 11
353.0726291644561
 21
124.0603494361604
 31
0.0
  0
LINE
  5
A6
330
293
100
AcDbEntity
  8
0
100
AcDbLine
 10
354.3782172883995
 20
124.3200470607167
 30
0.0
 11
353.0726291644561
 21
124.0603494361604
 31
0.0
  0
LINE
  5
A7
330
293
100
AcDbEntity
  8
0
100
AcDbLine
 10
350.8525910606839
 20
142.0445670297863
 30
0.0
 11
354.3782172883995
 21
124.3200470607167
 31
0.0
  0
LINE
  5
A8
330
293
100
AcDbEntity
  8
0
100
AcDbLine
 10
355.4037869911363
 20
143.4251572217362
 30
0.0
 11
362.3195516078304
 21
126.7290244899332
 31
0.0
  0
LINE
  5
A9
330
293
100
AcDbEntity
  8
0
100
AcDbLine
 10
362.3195516078304
 20
126.7290244899332
 30
0.0
 11
363.5493887288618
 21
127.2384397049743
 31
0.0
  0
LINE
  5
AA
330
293
100
AcDbEntity
  8
0
100
AcDbLine
 10
364.7792258498933
 20
127.7478549200154
 30
0.0
 11
363.5493887288618
 21
127.2384397049743
 31
0.0
  0
LINE
  5
AB
330
293
100
AcDbEntity
  8
0
100
AcDbLine
 10
357.8634612331991
 20
144.4439876518184
 30
0.0
 11
364.7792258498933
 21
127.7478549200154
 31
0.0
  0
LINE
  5
AC
330
293
100
AcDbEntity
  8
0
100
AcDbLine
 10
362.057867424898
 20
146.6859444699825
 30
0.0
 11
372.0980014747566
 21
131.6598219930301
 31
0.0
  0
LINE
  5
AD
330
293
100
AcDbEntity
  8
0
100
AcDbLine
 10
372.0980014747566
 20
131.6598219930301
 30
0.0
 11
373.2048256420154
 21
132.3993782575253
 31
0.0
  0
LINE
  5
AE
330
293
100
AcDbEntity
  8
0
100
AcDbLine
 10
374.3116498092742
 20
133.1389345220204
 30
0.0
 11
373.2048256420154
 21
132.3993782575253
 31
0.0
  0
LINE
  5
AF
330
293
100
AcDbEntity
  8
0
100
AcDbLine
 10
364.2715157594157
 20
148.1650569989728
 30
0.0
 11
374.3116498092742
 21
133.1389345220204
 31
0.0
  0
LINE
  5
B0
330
293
100
AcDbEntity
  8
0
100
AcDbLine
 10
367.9479435346644
 20
151.1822233001327
 30
0.0
 11
380.7266102967233
 21
138.4035565380737
 31
0.0
  0
LINE
  5
B1
330
293
100
AcDbEntity
  8
0
100
AcDbLine
 10
380.7266102967233
 20
138.4035565380737
 30
0.0
 11
381.6678868781759
 21
139.3448331195263
 31
0.0
  0
LINE
  5
B2
330
293
100
AcDbEntity
  8
0
100
AcDbLine
 10
382.6091634596285
 20
140.2861097009789
 30
0.0
 11
381.6678868781759
 21
139.3448331195263
 31
0.0
  0
LINE
  5
B3
330
293
100
AcDbEntity
  8
0
100
AcDbLine
 10
369.8304966975696
 20
153.064776463038
 30
0.0
 11
382.6091634596285
 21
140.2861097009789
 31
0.0
  0
LINE
  5
B4
330
293
100
AcDbEntity
  8
0
100
AcDbLine
 10
372.8476629987295
 20
156.7412042382864
 30
0.0
 11
387.8737854756818
 21
146.7010701884278
 31
0.0
  0
LINE
  5
B5
330
293
100
AcDbEntity
  8
0
100
AcDbLine
 10
387.8737854756818
 20
146.7010701884278
 30
0.0
 11
388.613341740177
 21
147.8078943556867
 31
0.0
  0
LINE
  5
B6
330
293
100
AcDbEntity
  8
0
100
AcDbLine
 10
389.3528980046722
 20
148.9147185229454
 30
0.0
 11
388.613341740177
 21
147.8078943556867
 31
0.0
  0
LINE
  5
B7
330
293
100
AcDbEntity
  8
0
100
AcDbLine
 10
374.3267755277198
 20
158.9548525728041
 30
0.0
 11
389.3528980046722
 21
148.9147185229454
 31
0.0
  0
LINE
  5
B8
330
293
100
AcDbEntity
  8
0
100
AcDbLine
 10
376.5687323458838
 20
163.1492587645031
 30
0.0
 11
393.2648650776868
 21
156.2334941478089
 31
0.0
  0
LINE
  5
B9
330
293
100
AcDbEntity
  8
0
100
AcDbLine
 10
393.2648650776868
 20
156.2334941478089
 30
0.0
 11
393.7742802927279
 21
157.4633312688403
 31
0.0
  0
LINE
  5
BA
330
293
100
AcDbEntity
  8
0
100
AcDbLine
 10
394.283695507769
 20
158.6931683898717
 30
0.0
 11
393.7742802927279
 21
157.4633312688403
 31
0.0
  0
LINE
  5
BB
330
293
100
AcDbEntity
  8
0
100
AcDbLine
 10
377.587562775966
 20
165.6089330065659
 30
0.0
 11
394.283695507769
 21
158.6931683898717
 31
0.0
  0
LINE
  5
BC
330
293
100
AcDbEntity
  8
0
100
AcDbLine
 10
378.968152967916
 20
170.1601289370183
 30
0.0
 11
396.6926729369856
 21
166.6345027093026
 31
0.0
  0
LINE
  5
BD
330
293
100
AcDbEntity
  8
0
100
AcDbLine
 10
396.6926729369856
 20
166.6345027093026
 30
0.0
 11
396.9523705615419
 21
167.940090833246
 31
0.0
  0
LINE
  5
BE
330
293
100
AcDbEntity
  8
0
100
AcDbLine
 10
397.2120681860983
 20
169.2456789571894
 30
0.0
 11
396.9523705615419
 21
167.940090833246
 31
0.0
  0
LINE
  5
BF
330
293
100
AcDbEntity
  8
0
100
AcDbLine
 10
379.4875482170287
 20
172.771305184905
 30
0.0
 11
397.2120681860983
 21
169.2456789571894
 31
0.0
  0
LINE
  5
C0
330
293
100
AcDbEntity
  8
0
100
AcDbLine
 10
379.9537164759319
 20
177.5043909468436
 30
0.0
 11
398.025480319882
 21
177.5043909468436
 31
0.0
  0
LINE
  5
C1
330
293
100
AcDbEntity
  8
0
100
AcDbLine
 10
398.025480319882
 20
177.5043909468436
 30
0.0
 11
398.025480319882
 21
178.835557054278
 31
0.0
  0
LINE
  5
C2
330
293
100
AcDbEntity
  8
0
100
AcDbLine
 10
398.025480319882
 20
180.1667231617125
 30
0.0
 11
398.025480319882
 21
178.835557054278
 31
0.0
  0
LINE
  5
C3
330
293
100
AcDbEntity
  8
0
100
AcDbLine
 10
379.9537164759319
 20
180.1667231617125
 30
0.0
 11
398.025480319882
 21
180.1667231617125
 31
0.0
  0
LINE
  5
C4
330
293
100
AcDbEntity
  8
0
100
AcDbLine
 10
379.4875482170287
 20
184.8998089236511
 30
0.0
 11
397.2120681860983
 21
188.4254351513668
 31
0.0
  0
LINE
  5
C5
330
293
100
AcDbEntity
  8
0
100
AcDbLine
 10
397.2120681860983
 20
188.4254351513668
 30
0.0
 11
396.952370561542
 21
189.7310232753101
 31
0.0
  0
LINE
  5
C6
330
293
100
AcDbEntity
  8
0
100
AcDbLine
 10
396.6926729369856
 20
191.0366113992535
 30
0.0
 11
396.952370561542
 21
189.7310232753101
 31
0.0
  0
LINE
  5
C7
330
293
100
AcDbEntity
  8
0
100
AcDbLine
 10
378.9681529679161
 20
187.5109851715379
 30
0.0
 11
396.6926729369856
 21
191.0366113992535
 31
0.0
  0
LINE
  5
C8
330
293
100
AcDbEntity
  8
0
100
AcDbLine
 10
377.5875627759661
 20
192.0621811019902
 30
0.0
 11
394.2836955077691
 21
198.9779457186844
 31
0.0
  0
LINE
  5
C9
330
293
100
AcDbEntity
  8
0
100
AcDbLine
 10
394.2836955077691
 20
198.9779457186844
 30
0.0
 11
393.774280292728
 21
200.2077828397158
 31
0.0
  0
LINE
  5
CA
330
293
100
AcDbEntity
  8
0
100
AcDbLine
 10
393.2648650776869
 20
201.4376199607472
 30
0.0
 11
393.774280292728
 21
200.2077828397158
 31
0.0
  0
LINE
  5
CB
330
293
100
AcDbEntity
  8
0
100
AcDbLine
 10
376.5687323458839
 20
194.5218553440531
 30
0.0
 11
393.2648650776869
 21
201.4376199607472
 31
0.0
  0
LINE
  5
CC
330
293
100
AcDbEntity
  8
0
100
AcDbLine
 10
374.3267755277199
 20
198.7162615357521
 30
0.0
 11
389.3528980046722
 21
208.7563955856106
 31
0.0
  0
LINE
  5
CD
330
293
100
AcDbEntity
  8
0
100
AcDbLine
 10
389.3528980046722
 20
208.7563955856106
 30
0.0
 11
388.613341740177
 21
209.8632197528694
 31
0.0
  0
LINE
  5
CE
330
293
100
AcDbEntity
  8
0
100
AcDbLine
 10
387.873785475682
 20
210.9700439201283
 30
0.0
 11
388.613341740177
 21
209.8632197528694
 31
0.0
  0
LINE
  5
CF
330
293
100
AcDbEntity
  8
0
100
AcDbLine
 10
372.8476629987296
 20
200.9299098702697
 30
0.0
 11
387.873785475682
 21
210.9700439201283
 31
0.0
  0
LINE
  5
D0
330
293
100
AcDbEntity
  8
0
100
AcDbLine
 10
369.8304966975697
 20
204.6063376455183
 30
0.0
 11
382.6091634596286
 21
217.3850044075773
 31
0.0
  0
LINE
  5
D1
330
293
100
AcDbEntity
  8
0
100
AcDbLine
 10
382.6091634596286
 20
217.3850044075773
 30
0.0
 11
381.667886878176
 21
218.3262809890298
 31
0.0
  0
LINE
  5
D2
330
293
100
AcDbEntity
  8
0
100
AcDbLine
 10
380.7266102967234
 20
219.2675575704825
 30
0.0
 11
381.667886878176
 21
218.3262809890298
 31
0.0
  0
LINE
  5
D3
330
293
100
AcDbEntity
  8
0
100
AcDbLine
 10
367.9479435346644
 20
206.4888908084235
 30
0.0
 11
380.7266102967234
 21
219.2675575704825
 31
0.0
  0
LINE
  5
D4
330
293
100
AcDbEntity
  8
0
100
AcDbLine
 10
364.2715157594158
 20
209.5060571095834
 30
0.0
 11
374.3116498092744
 21
224.5321795865358
 31
0.0
  0
LINE
  5
D5
330
293
100
AcDbEntity
  8
0
100
AcDbLine
 10
374.3116498092744
 20
224.5321795865358
 30
0.0
 11
373.2048256420156
 21
225.2717358510309
 31
0.0
  0
LINE
  5
D6
330
293
100
AcDbEntity
  8
0
100
AcDbLine
 10
372.0980014747568
 20
226.0112921155261
 30
0.0
 11
373.2048256420156
 21
225.2717358510309
 31
0.0
  0
LINE
  5
D7
330
293
100
AcDbEntity
  8
0
100
AcDbLine
 10
362.0578674248982
 20
210.9851696385738
 30
0.0
 11
372.0980014747568
 21
226.0112921155261
 31
0.0
  0
LINE
  5
D8
330
293
100
AcDbEntity
  8
0
100
AcDbLine
 10
357.8634612331992
 20
213.2271264567378
 30
0.0
 11
364.7792258498934
 21
229.9232591885408
 31
0.0
  0
LINE
  5
D9
330
293
100
AcDbEntity
  8
0
100
AcDbLine
 10
364.7792258498934
 20
229.9232591885408
 30
0.0
 11
363.549388728862
 21
230.4326744035819
 31
0.0
  0
LINE
  5
DA
330
293
100
AcDbEntity
  8
0
100
AcDbLine
 10
362.3195516078305
 20
230.942089618623
 30
0.0
 11
363.549388728862
 21
230.4326744035819
 31
0.0
  0
LINE
  5
DB
330
293
100
AcDbEntity
  8
0
100
AcDbLine
 10
355.4037869911364
 20
214.24595688682
 30
0.0
 11
362.3195516078305
 21
230.942089618623
 31
0.0
  0
LINE
  5
DC
330
293
100
AcDbEntity
  8
0
100
AcDbLine
 10
350.8525910606841
 20
215.6265470787699
 30
0.0
 11
354.3782172883997
 21
233.3510670478395
 31
0.0
  0
LINE
  5
DD
330
293
100
AcDbEntity
  8
0
100
AcDbLine
 10
354.3782172883997
 20
233.3510670478395
 30
0.0
 11
353.0726291644563
 21
233.6107646723958
 31
0.0
  0
LINE
  5
DE
330
293
100
AcDbEntity
  8
0
100
AcDbLine
 10
351.767041040513
 20
233.8704622969522
 30
0.0
 11
353.0726291644563
 21
233.6107646723958
 31
0.0
  0
LINE
  5
DF
330
293
100
AcDbEntity
  8
0
100
AcDbLine
 10
348.2414148127973
 20
216.1459423278826
 30
0.0
 11
351.767041040513
 21
233.8704622969522
 31
0.0
  0
ARC
  5
E0
330
293
100
AcDbEntity
  8
0
100
AcDbCircle
 10
-565.1636323161958
 20
76.00203563168037
 30
0.0
 40
906.073333642392
100
AcDbArc
 50
10.41005206028792
 51
24.14564482015743
  0
ARC
  5
E1
330
293
100
AcDbEntity
  8
0
100
AcDbCircle
 10
621.8824345351823
 20
544.8633568899073
 30
0.0
 40
373.3974191750585
100
AcDbArc
 50
190.4572609789866
 51
195.2515926250192
  0
ARC
  5
E2
330
293
100
AcDbEntity
  8
0
100
AcDbCircle
 10
570.1396048269206
 20
406.9111301602886
 30
0.0
 40
149.3277901974653
100
AcDbArc
 50
152.9597246407584
 51
177.9724827842099
  0
ARC
  5
E3
330
293
100
AcDbEntity
  8
0
100
AcDbCircle
 10
-551.9185184772645
 20
652.7005295399106
 30
0.0
 40
1002.112491743865
100
AcDbArc
 50
335.6182297244611
 51
346.1135029928431
  0
ARC
  5
E4
330
293
100
AcDbEntity
  8
0
100
AcDbCircle
 10
-143.1420852101046
 20
-594.667693903483
 30
0.0
 40
906.073333642392
100
AcDbArc
 50
61.83862348885934
 51
75.57421624872885
  0
ARC
  5
E5
330
293
100
AcDbEntity
  8
0
100
AcDbCircle
 10
305.9927572283808
 20
499.2665648237677
 30
0.0
 40
149.3277901974653
100
AcDbArc
 50
204.3882960693299
 51
229.4010542127813
  0
ARC
  5
E6
330
293
100
AcDbEntity
  8
0
100
AcDbCircle
 10
-585.7649302364245
 20
-224.7466172162609
 30
0.0
 40
1002.112491743865
100
AcDbArc
 50
27.0468011530326
 51
37.54207442141453
  0
ARC
  5
E7
330
293
100
AcDbEntity
  8
0
100
AcDbCircle
 10
342.1771629434242
 20
178.8355570542781
 30
0.0
 40
310.822827671219
100
AcDbArc
 50
123.6399908036259
 51
157.7770924187223
  0
ARC
  5
E8
330
293
100
AcDbEntity
  8
0
100
AcDbCircle
 10
230.3984899370115
 20
625.7325445912898
 30
0.0
 40
373.3974191750585
100
AcDbArc
 50
241.885832407558
 51
246.6801640535907
  0
ARC
  5
E9
330
293
100
AcDbEntity
  8
0
100
AcDbCircle
 10
644.334754464098
 20
-682.8736988766059
 30
0.0
 40
906.073333642392
100
AcDbArc
 50
113.2671949174307
 51
127.0027876773002
  0
ARC
  5
EA
330
293
100
AcDbEntity
  8
0
100
AcDbCircle
 10
69.09350516063113
 20
350.3309150354545
 30
0.0
 40
149.3277901974653
100
AcDbArc
 50
255.8168674979013
 51
280.8296256413528
  0
ARC
  5
EB
330
293
100
AcDbEntity
  8
0
100
AcDbCircle
 10
79.14798073794805
 20
-798.2881551706648
 30
0.0
 40
1002.112491743865
100
AcDbArc
 50
78.47537258160401
 51
88.970645849986
  0
ARC
  5
EC
330
293
100
AcDbEntity
  8
0
100
AcDbCircle
 10
342.1771629434243
 20
178.8355570542781
 30
0.0
 40
310.822827671219
100
AcDbArc
 50
175.0685622321973
 51
209.2056638472938
  0
ARC
  5
ED
330
293
100
AcDbEntity
  8
0
100
AcDbCircle
 10
-76.91383401793451
 20
370.0791856400817
 30
0.0
 40
373.3974191750585
100
AcDbArc
 50
293.3144038361295
 51
298.1087354821621
  0
ARC
  5
EE
330
293
100
AcDbEntity
  8
0
100
AcDbCircle
 10
1204.280764831627
 20
-122.1950584683279
 30
0.0
 40
906.073333642392
100
AcDbArc
 50
164.6957663460021
 51
178.4313591058716
  0
ARC
  5
EF
330
293
100
AcDbEntity
  8
0
100
AcDbCircle
 10
37.83181729476376
 20
72.25576281954113
 30
0.0
 40
149.3277901974653
100
AcDbArc
 50
307.2454389264727
 51
332.2581970699241
  0
ARC
  5
F0
330
293
100
AcDbEntity
  8
0
100
AcDbCircle
 10
942.127230730559
 20
-636.0356081283831
 30
0.0
 40
1002.112491743865
100
AcDbArc
 50
129.9039440101754
 51
140.3992172785574
  0
ARC
  5
F1
330
293
100
AcDbEntity
  8
0
100
AcDbCircle
 10
342.1771629434243
 20
178.8355570542781
 30
0.0
 40
310.822827671219
100
AcDbArc
 50
226.4971336607687
 51
260.6342352758652
  0
ARC
  5
F2
330
293
100
AcDbEntity
  8
0
100
AcDbCircle
 10
-68.64208936259655
 20
-29.58452629531763
 30
0.0
 40
373.3974191750585
100
AcDbArc
 50
344.7429752647008
 51
349.5373069107336
  0
ARC
  5
F3
330
293
100
AcDbEntity
  8
0
100
AcDbCircle
 10
1115.045179268703
 20
665.1657753339576
 30
0.0
 40
906.073333642392
100
AcDbArc
 50
216.1243377745736
 51
229.8599305344431
  0
ARC
  5
F4
330
293
100
AcDbEntity
  8
0
100
AcDbCircle
 10
235.748382215995
 20
-125.5626305060198
 30
0.0
 40
149.3277901974653
100
AcDbArc
 50
358.6740103550441
 51
23.6867684984956
  0
ARC
  5
F5
330
293
100
AcDbEntity
  8
0
100
AcDbCircle
 10
1353.331842928369
 20
139.8315466389558
 30
0.0
 40
1002.112491743865
100
AcDbArc
 50
181.3325154387468
 51
191.8277887071288
  0
ARC
  5
F6
330
293
100
AcDbEntity
  8
0
100
AcDbCircle
 10
342.1771629434241
 20
178.8355570542781
 30
0.0
 40
310.822827671219
100
AcDbArc
 50
277.9257050893401
 51
312.0628067044366
  0
ARC
  5
F7
330
293
100
AcDbEntity
  8
0
100
AcDbCircle
 10
248.9849314647149
 20
-272.3036644735659
 30
0.0
 40
373.3974191750585
100
AcDbArc
 50
36.17154669327232
 51
40.965878339305
  0
ARC
  5
F8
330
293
100
AcDbEntity
  8
0
100
AcDbCircle
 10
443.8242137784228
 20
1086.310035443108
 30
0.0
 40
906.073333642392
100
AcDbArc
 50
267.552909203145
 51
281.2885019630145
  0
ARC
  5
F9
330
293
100
AcDbEntity
  8
0
100
AcDbCircle
 10
513.8079897764619
 20
-94.16298000724044
 30
0.0
 40
149.3277901974653
100
AcDbArc
 50
50.10258178361556
 51
75.11533992706698
  0
ARC
  5
FA
330
293
100
AcDbEntity
  8
0
100
AcDbCircle
 10
1003.116357300979
 20
945.0695167858484
 30
0.0
 40
1002.112491743865
100
AcDbArc
 50
232.7610868673182
 51
243.2563601357002
  0
ARC
  5
FB
330
293
100
AcDbEntity
  8
0
100
AcDbCircle
 10
342.1771629434242
 20
178.8355570542782
 30
0.0
 40
310.822827671219
100
AcDbArc
 50
329.3542765179115
 51
3.491378133008039
  0
ARC
  5
FC
330
293
100
AcDbEntity
  8
0
100
AcDbCircle
 10
636.7876033705776
 20
-175.3057672783237
 30
0.0
 40
373.3974191750585
100
AcDbArc
 50
87.60011812184371
 51
92.39444976787638
  0
ARC
  5
FD
330
293
100
AcDbEntity
  8
0
100
AcDbCircle
 10
-303.9390542125788
 20
824.1075042196175
 30
0.0
 40
906.073333642392
100
AcDbArc
 50
318.9814806317164
 51
332.7170733915859
  0
ARC
  5
FE
330
293
100
AcDbEntity
  8
0
100
AcDbCircle
 10
662.6260841008161
 20
142.8101370541552
 30
0.0
 40
149.3277901974653
100
AcDbArc
 50
101.5311532121869
 51
126.5439113556384
  0
ARC
  5
FF
330
293
100
AcDbEntity
  8
0
100
AcDbCircle
 10
155.200177619805
 20
1173.31768693054
 30
0.0
 40
1002.112491743865
100
AcDbArc
 50
284.1896582958897
 51
294.6849315642716
  0
ARC
  5
100
330
293
100
AcDbEntity
  8
0
100
AcDbCircle
 10
342.1771629434243
 20
178.8355570542781
 30
0.0
 40
310.822827671219
100
AcDbArc
 50
20.782847946483
 51
54.91994956157946
  0
ARC
  5
101
330
293
100
AcDbEntity
  8
0
100
AcDbCircle
 10
802.7426046770139
 20
188.3677703058751
 30
0.0
 40
373.3974191750585
100
AcDbArc
 50
139.0286895504151
 51
143.8230211964478
  0
CIRCLE
  5
102
330
293
100
AcDbEntity
  8
0
100
AcDbCircle
 10
342.1771629434242
 20
178.8355570542781
 30
0.0
 40
63.00000000000031
  0
CIRCLE
  5
103
330
293
100
AcDbEntity
  8
0
100
AcDbCircle
 10
342.1771629434242
 20
178.8355570542781
 30
0.0
 40
149.809387330567
  0
CIRCLE
  5
104
330
293
100
AcDbEntity
  8
0
100
AcDbCircle
 10
342.1771629434242
 20
178.8355570542781
 30
0.0
 40
241.2454780831738
  0
LINE
  5
105
330
293
100
AcDbEntity
  8
0
100
AcDbLine
 10
-255.607348366916
 20
541.3355570542782
 30
0.0
 11
-260.607348366916
 21
541.3355570542782
 31
0.0
  0
LINE
  5
106
330
293
100
AcDbEntity
  8
0
100
AcDbLine
 10
-439.6874100808766
 20
241.8355570542784
 30
0.0
 11
-485.6073483669161
 21
241.8355570542784
 31
0.0
  0
LINE
  5
109
330
293
100
AcDbEntity
  8
0
100
AcDbLine
 10
-255.607348366916
 20
493.8355570542781
 30
0.0
 11
-495.607348366916
 21
493.8355570542781
 31
0.0
  0
LINE
  5
10A
330
293
100
AcDbEntity
  8
0
100
AcDbLine
 10
-253.502877804417
 20
523.8355570542782
 30
0.0
 11
-262.5488213322046
 21
523.8355570542782
 31
0.0
  0
LINE
  5
10B
330
293
100
AcDbEntity
  8
0
100
AcDbLine
 10
-255.607348366916
 20
541.3355570542782
 30
0.0
 11
-255.6073483669161
 21
178.8355570542781
 31
0.0
  0
LINE
  5
10D
330
293
100
AcDbEntity
  8
0
100
AcDbLine
 10
-495.607348366916
 20
178.8355570542781
 30
0.0
 11
-495.607348366916
 21
541.3355570542782
 31
0.0
  0
LINE
  5
10E
330
293
100
AcDbEntity
  8
0
100
AcDbLine
 10
-490.607348366916
 20
178.8355570542781
 30
0.0
 11
-490.607348366916
 21
236.8355570542784
 31
0.0
  0
LINE
  5
10F
330
293
100
AcDbEntity
  8
0
100
AcDbLine
 10
-260.607348366916
 20
541.3355570542782
 30
0.0
 11
-260.607348366916
 21
493.8355570542781
 31
0.0
  0
LWPOLYLINE
  5
110
330
293
100
AcDbEntity
  8
0
100
AcDbPolyline
 90
        6
 70
     1
 43
0.0
 10
-460.6854474212627
 20
493.8355570542781
 10
-333.7027763988876
 20
493.8355570542781
 10
-333.7027763988876
 20
536.1715624935154
 42
0.4142135623730951
 10
-338.7027763988876
 20
541.1715624935154
 10
-455.6854474212627
 20
541.1715624935154
 42
0.4142135623730951
 10
-460.6854474212627
 20
536.1715624935154
  0
LINE
  5
111
330
293
100
AcDbEntity
  8
0
100
AcDbLine
 10
-488.1244374432198
 20
523.8355570542782
 30
0.0
 11
-498.4000941534076
 21
523.8355570542782
 31
0.0
  0
LINE
  5
112
330
293
100
AcDbEntity
  8
0
100
AcDbLine
 10
-490.6073483669159
 20
541.3355570542782
 30
0.0
 11
-495.607348366916
 21
541.3355570542782
 31
0.0
  0
CIRCLE
  5
115
330
293
100
AcDbEntity
  8
0
100
AcDbCircle
 10
-375.607348366916
 20
523.8355570542782
 30
0.0
 40
6.0
  0
LINE
  5
116
330
293
100
AcDbEntity
  8
0
100
AcDbLine
 10
-460.6854474212627
 20
493.9128705590277
 30
0.0
 11
-460.6854474212627
 21
274.7700139561637
 31
0.0
  0
LINE
  5
117
330
293
100
AcDbEntity
  8
0
100
AcDbLine
 10
-439.6874100808766
 20
178.8355570542781
 30
0.0
 11
-439.6874100808766
 21
252.9007669293985
 31
0.0
  0
LINE
  5
118
330
293
100
AcDbEntity
  8
0
100
AcDbLine
 10
-294.6675924830706
 20
252.9007669293985
 30
0.0
 11
-294.6675924830706
 21
178.8355570542781
 31
0.0
  0
LINE
  5
11A
330
293
100
AcDbEntity
  8
0
100
AcDbLine
 10
-439.6874100808766
 20
252.9007669293985
 30
0.0
 11
-294.6675924830706
 21
252.9007669293985
 31
0.0
  0
ARC
  5
11B
330
293
100
AcDbEntity
  8
0
100
AcDbCircle
 10
-319.3700689214238
 20
182.9111745913827
 30
0.0
 40
63.89284146773413
100
AcDbArc
 50
356.3427149313919
 51
67.25543145212265
  0
LINE
  5
11C
330
293
100
AcDbEntity
  8
0
100
AcDbLine
 10
-439.6874100808766
 20
252.9007669293985
 30
0.0
 11
-460.6854474212627
 21
274.7700139561637
 31
0.0
  0
LWPOLYLINE
  5
11D
330
293
100
AcDbEntity
  8
0
100
AcDbPolyline
 90
        4
 70
     1
 43
0.0
 10
-439.6874100808766
 20
252.9007669293985
 10
-405.7243744714837
 20
252.9007669293985
 10
-405.7243744714837
 20
244.7054170334589
 10
-439.6874100808766
 20
244.7054170334589
  0
LWPOLYLINE
  5
11E
330
293
100
AcDbEntity
  8
0
100
AcDbPolyline
 90
        4
 70
     1
 43
0.0
 10
-439.6874100808766
 20
244.7054170334589
 10
-405.7243744714837
 20
244.7054170334589
 10
-405.7243744714837
 20
236.5100671375194
 10
-439.6874100808766
 20
236.5100671375194
  0
LWPOLYLINE
  5
11F
330
293
100
AcDbEntity
  8
0
100
AcDbPolyline
 90
        4
 70
     1
 43
0.0
 10
-439.6874100808766
 20
236.5100671375194
 10
-405.7243744714837
 20
236.5100671375194
 10
-405.7243744714837
 20
228.3147172415798
 10
-439.6874100808766
 20
228.3147172415798
  0
LWPOLYLINE
  5
120
330
293
100
AcDbEntity
  8
0
100
AcDbPolyline
 90
        4
 70
     1
 43
0.0
 10
-439.6874100808766
 20
228.3147172415798
 10
-405.7243744714837
 20
228.3147172415798
 10
-405.7243744714837
 20
220.1193673456403
 10
-439.6874100808766
 20
220.1193673456403
  0
LWPOLYLINE
  5
121
330
293
100
AcDbEntity
  8
0
100
AcDbPolyline
 90
        4
 70
     1
 43
0.0
 10
-439.6874100808766
 20
220.1193673456403
 10
-405.7243744714837
 20
220.1193673456403
 10
-405.7243744714837
 20
211.9240174497007
 10
-439.6874100808766
 20
211.9240174497007
  0
LWPOLYLINE
  5
122
330
293
100
AcDbEntity
  8
0
100
AcDbPolyline
 90
        4
 70
     1
 43
0.0
 10
-439.6874100808766
 20
211.9240174497007
 10
-405.7243744714837
 20
211.9240174497007
 10
-405.7243744714837
 20
203.7286675537611
 10
-439.6874100808766
 20
203.7286675537611
  0
LWPOLYLINE
  5
123
330
293
100
AcDbEntity
  8
0
100
AcDbPolyline
 90
        4
 70
     1
 43
0.0
 10
-439.6874100808766
 20
203.7286675537611
 10
-405.7243744714837
 20
203.7286675537611
 10
-405.7243744714837
 20
195.5333176578216
 10
-439.6874100808766
 20
195.5333176578216
  0
LWPOLYLINE
  5
124
330
293
100
AcDbEntity
  8
0
100
AcDbPolyline
 90
        4
 70
     1
 43
0.0
 10
-439.6874100808766
 20
195.5333176578216
 10
-405.7243744714837
 20
195.5333176578216
 10
-405.7243744714837
 20
187.337967761882
 10
-439.6874100808766
 20
187.337967761882
  0
ARC
  5
129
330
293
100
AcDbEntity
  8
0
100
AcDbCircle
 10
-485.6073483669161
 20
236.8355570542784
 30
0.0
 40
5.0
100
AcDbArc
 50
90.0
 51
179.9999999999999
  0
LINE
  5
12A
330
293
100
AcDbEntity
  8
0
100
AcDbLine
 10
-405.7243744714837
 20
187.337967761882
 30
0.0
 11
-405.6806953813409
 21
178.8355570542781
 31
0.0
  0
LINE
  5
12B
330
293
100
AcDbEntity
  8
0
100
AcDbLine
 10
-490.6073483669159
 20
541.3355570542782
 30
0.0
 11
-490.6073483669159
 21
493.8355570542781
 31
0.0
  0
LINE
  5
12C
330
293
100
AcDbEntity
  8
0
100
AcDbLine
 10
-439.6874100808766
 20
252.9007669293985
 30
0.0
 11
-439.6874100808765
 21
493.8355570542781
 31
0.0
  0
ARC
  5
12D
330
293
100
AcDbEntity
  8
0
100
AcDbCircle
 10
703.2790897330102
 20
353.0302424710475
 30
0.0
 40
1102.831539053336
100
AcDbArc
 50
173.6897033100238
 51
185.2092342092003
  0
ARC
  5
12E
330
293
100
AcDbEntity
  8
0
100
AcDbCircle
 10
-322.1204346599692
 20
278.0518228552103
 30
0.0
 40
208.5608444102514
100
AcDbArc
 50
84.60093126907717
 51
109.8299989955111
  0
ARC
  5
12F
330
293
100
AcDbEntity
  8
0
100
AcDbCircle
 10
-160.1136608183891
 20
455.0890984182325
 30
0.0
 40
145.6335406005463
100
AcDbArc
 50
167.8715135812147
 51
197.801452005792
  0
ARC
  5
130
330
293
100
AcDbEntity
  8
0
100
AcDbCircle
 10
-1063.3773924855
 20
364.6581087377538
 30
0.0
 40
765.979840132802
100
AcDbArc
 50
351.6105335644299
 51
3.436005719963337
  0
ARC
  5
132
330
293
100
AcDbEntity
  8
0
100
AcDbCircle
 10
-322.1204346599693
 20
79.61929125334541
 30
0.0
 40
208.5608444102514
100
AcDbArc
 50
250.1700010044888
 51
275.3990687309228
  0
LINE
  5
133
330
293
100
AcDbEntity
  8
0
100
AcDbLine
 10
-439.6874100808766
 20
104.7703471791572
 30
0.0
 11
-294.6675924830706
 21
104.7703471791572
 31
0.0
  0
LINE
  5
135
330
293
100
AcDbEntity
  8
0
100
AcDbLine
 10
-255.6073483669162
 20
-136.1644429457224
 30
0.0
 11
-495.6073483669162
 21
-136.1644429457222
 31
0.0
  0
LINE
  5
136
330
293
100
AcDbEntity
  8
0
100
AcDbLine
 10
-490.6073483669162
 20
-183.6644429457224
 30
0.0
 11
-490.6073483669162
 21
-136.1644429457222
 31
0.0
  0
LINE
  5
139
330
293
100
AcDbEntity
  8
0
100
AcDbLine
 10
-495.607348366916
 20
178.8355570542776
 30
0.0
 11
-495.6073483669162
 21
-183.6644429457223
 31
0.0
  0
ARC
  5
13A
330
293
100
AcDbEntity
  8
0
100
AcDbCircle
 10
703.2790897330102
 20
4.64087163750753
 30
0.0
 40
1102.831539053336
100
AcDbArc
 50
174.7907657907996
 51
186.3102966899761
  0
LINE
  5
13B
330
293
100
AcDbEntity
  8
0
100
AcDbLine
 10
-439.6874100808766
 20
104.7703471791572
 30
0.0
 11
-439.6874100808767
 21
-136.1644429457223
 31
0.0
  0
LINE
  5
13C
330
293
100
AcDbEntity
  8
0
100
AcDbLine
 10
-460.685447421263
 20
-136.2417564504718
 30
0.0
 11
-460.6854474212628
 21
82.90110015239208
 31
0.0
  0
LINE
  5
13D
330
293
100
AcDbEntity
  8
0
100
AcDbLine
 10
-439.6874100808767
 20
115.8355570542773
 30
0.0
 11
-485.6073483669161
 21
115.8355570542773
 31
0.0
  0
LINE
  5
13F
330
293
100
AcDbEntity
  8
0
100
AcDbLine
 10
-439.6874100808766
 20
104.7703471791573
 30
0.0
 11
-460.6854474212628
 21
82.90110015239208
 31
0.0
  0
ARC
  5
140
330
293
100
AcDbEntity
  8
0
100
AcDbCircle
 10
-485.6073483669161
 20
120.8355570542773
 30
0.0
 40
5.0
100
AcDbArc
 50
180.0
 51
269.9999999999999
  0
LINE
  5
141
330
293
100
AcDbEntity
  8
0
100
AcDbLine
 10
-490.607348366916
 20
178.8355570542776
 30
0.0
 11
-490.6073483669161
 21
120.8355570542773
 31
0.0
  0
LINE
  5
142
330
293
100
AcDbEntity
  8
0
100
AcDbLine
 10
-439.6874100808766
 20
178.8355570542776
 30
0.0
 11
-439.6874100808766
 21
104.7703471791573
 31
0.0
  0
LWPOLYLINE
  5
143
330
293
100
AcDbEntity
  8
0
100
AcDbPolyline
 90
        4
 70
     1
 43
0.0
 10
-439.6874100808766
 20
112.9656970750968
 10
-405.7243744714837
 20
112.9656970750968
 10
-405.7243744714837
 20
121.1610469710364
 10
-439.6874100808766
 20
121.1610469710364
  0
LWPOLYLINE
  5
144
330
293
100
AcDbEntity
  8
0
100
AcDbPolyline
 90
        4
 70
     1
 43
0.0
 10
-439.6874100808766
 20
162.1377964507342
 10
-405.7243744714837
 20
162.1377964507341
 10
-405.7243744714837
 20
170.3331463466737
 10
-439.6874100808766
 20
170.3331463466737
  0
LINE
  5
145
330
293
100
AcDbEntity
  8
0
100
AcDbLine
 10
-405.7243744714837
 20
170.3331463466737
 30
0.0
 11
-405.6806953813409
 21
178.8355570542776
 31
0.0
  0
LWPOLYLINE
  5
146
330
293
100
AcDbEntity
  8
0
100
AcDbPolyline
 90
        4
 70
     1
 43
0.0
 10
-439.6874100808766
 20
153.9424465547946
 10
-405.7243744714837
 20
153.9424465547946
 10
-405.7243744714837
 20
162.1377964507341
 10
-439.6874100808766
 20
162.1377964507342
  0
LWPOLYLINE
  5
147
330
293
100
AcDbEntity
  8
0
100
AcDbPolyline
 90
        4
 70
     1
 43
0.0
 10
-439.6874100808766
 20
145.7470966588551
 10
-405.7243744714837
 20
145.747096658855
 10
-405.7243744714837
 20
153.9424465547946
 10
-439.6874100808766
 20
153.9424465547946
  0
LWPOLYLINE
  5
148
330
293
100
AcDbEntity
  8
0
100
AcDbPolyline
 90
        4
 70
     1
 43
0.0
 10
-439.6874100808766
 20
137.5517467629155
 10
-405.7243744714837
 20
137.5517467629155
 10
-405.7243744714837
 20
145.747096658855
 10
-439.6874100808766
 20
145.7470966588551
  0
LWPOLYLINE
  5
149
330
293
100
AcDbEntity
  8
0
100
AcDbPolyline
 90
        4
 70
     1
 43
0.0
 10
-439.6874100808766
 20
129.3563968669759
 10
-405.7243744714837
 20
129.3563968669759
 10
-405.7243744714837
 20
137.5517467629155
 10
-439.6874100808766
 20
137.5517467629155
  0
LWPOLYLINE
  5
14A
330
293
100
AcDbEntity
  8
0
100
AcDbPolyline
 90
        4
 70
     1
 43
0.0
 10
-439.6874100808766
 20
121.1610469710364
 10
-405.7243744714837
 20
121.1610469710364
 10
-405.7243744714837
 20
129.3563968669759
 10
-439.6874100808766
 20
129.3563968669759
  0
LWPOLYLINE
  5
14B
330
293
100
AcDbEntity
  8
0
100
AcDbPolyline
 90
        4
 70
     1
 43
0.0
 10
-439.6874100808766
 20
104.7703471791573
 10
-405.7243744714837
 20
104.7703471791572
 10
-405.7243744714837
 20
112.9656970750968
 10
-439.6874100808766
 20
112.9656970750968
  0
LINE
  5
14C
330
293
100
AcDbEntity
  8
0
100
AcDbLine
 10
-488.1244374432201
 20
-166.1644429457223
 30
0.0
 11
-498.4000941534078
 21
-166.1644429457223
 31
0.0
  0
LINE
  5
14D
330
293
100
AcDbEntity
  8
0
100
AcDbLine
 10
-490.6073483669162
 20
-183.6644429457224
 30
0.0
 11
-495.6073483669162
 21
-183.6644429457223
 31
0.0
  0
LINE
  5
14E
330
293
100
AcDbEntity
  8
0
100
AcDbLine
 10
-260.6073483669162
 20
-183.6644429457224
 30
0.0
 11
-260.6073483669162
 21
-136.1644429457224
 31
0.0
  0
LINE
  5
14F
330
293
100
AcDbEntity
  8
0
100
AcDbLine
 10
-255.6073483669162
 20
-183.6644429457224
 30
0.0
 11
-255.6073483669161
 21
178.8355570542775
 31
0.0
  0
ARC
  5
150
330
293
100
AcDbEntity
  8
0
100
AcDbCircle
 10
-1063.3773924855
 20
-6.986994629197567
 30
0.0
 40
765.979840132802
100
AcDbArc
 50
356.5639942800366
 51
8.389466435570082
  0
LINE
  5
151
330
293
100
AcDbEntity
  8
0
100
AcDbLine
 10
-294.6675924830706
 20
104.7703471791572
 30
0.0
 11
-294.6675924830706
 21
178.8355570542775
 31
0.0
  0
ARC
  5
152
330
293
100
AcDbEntity
  8
0
100
AcDbCircle
 10
-319.3700689214238
 20
174.7599395171729
 30
0.0
 40
63.89284146773413
100
AcDbArc
 50
292.7445685478772
 51
3.657285068608004
  0
ARC
  5
153
330
293
100
AcDbEntity
  8
0
100
AcDbCircle
 10
-160.1136608183893
 20
-97.41798430967698
 30
0.0
 40
145.6335406005463
100
AcDbArc
 50
162.1985479942079
 51
192.1284864187852
  0
LINE
  5
154
330
293
100
AcDbEntity
  8
0
100
AcDbLine
 10
-253.5028778044173
 20
-166.1644429457224
 30
0.0
 11
-262.5488213322048
 21
-166.1644429457224
 31
0.0
  0
LINE
  5
155
330
293
100
AcDbEntity
  8
0
100
AcDbLine
 10
-255.6073483669162
 20
-183.6644429457224
 30
0.0
 11
-260.6073483669162
 21
-183.6644429457225
 31
0.0
  0
LINE
  5
156
330
293
100
AcDbEntity
  8
0
100
AcDbLine
 10
-439.6874100808766
 20
178.8355570542776
 30
0.0
 11
-405.6806953813409
 21
178.8355570542776
 31
0.0
  0
DIMENSION
  5
157
330
293
100
AcDbEntity
  8
koty
100
AcDbDimension
  2
*D3
 10
-554.6643211928749
 20
-136.1644429457222
 30
0.0
 11
-570.9143211928749
 21
178.8355570542779
 31
0.0
 70
    32
 71
     0
 42
630.0000000000002
  3
ISO-25
100
AcDbAlignedDimension
 13
-495.607348366916
 23
493.835557054278
 33
0.0
 14
-495.6073483669162
 24
-136.1644429457222
 34
0.0
 50
90.0
100
AcDbRotatedDimension
  0
DIMENSION
  5
170
330
293
100
AcDbEntity
  8
koty
100
AcDbDimension
  2
*D4
 10
-627.505983816518
 20
523.8355570542782
 30
0.0
 11
-643.755983816518
 21
178.835557054278
 31
0.0
 70
    32
 71
     0
 42
690.0000000000005
  3
ISO-25
100
AcDbAlignedDimension
 13
-495.6073483669162
 23
-166.1644429457223
 33
0.0
 14
-495.607348366916
 24
523.8355570542782
 34
0.0
 50
90.0
100
AcDbRotatedDimension
  0
DIMENSION
  5
188
330
293
100
AcDbEntity
  8
koty
100
AcDbDimension
  2
*D5
 10
-716.7523607827607
 20
-183.6644429457223
 30
0.0
 11
-733.0023607827607
 21
178.835557054278
 31
0.0
 70
    32
 71
     0
 42
725.0000000000005
  3
ISO-25
100
AcDbAlignedDimension
 13
-495.607348366916
 23
541.3355570542782
 33
0.0
 14
-495.6073483669162
 24
-183.6644429457223
 34
0.0
 50
90.0
100
AcDbRotatedDimension
  0
DIMENSION
  5
1A0
330
293
100
AcDbEntity
  8
koty
100
AcDbDimension
  2
*D6
 10
-255.6073483669162
 20
-241.4901170429148
 30
0.0
 11
-375.6073483669162
 21
-225.2401170429148
 31
0.0
 70
    32
 71
     0
 42
240.0
  3
ISO-25
100
AcDbAlignedDimension
 13
-495.6073483669162
 23
-183.6644429457223
 33
0.0
 14
-255.6073483669162
 24
-183.6644429457224
 34
0.0
100
AcDbRotatedDimension
  0
DIMENSION
  5
1B8
330
293
100
AcDbEntity
  8
koty
100
AcDbDimension
  2
*D7
 10
336.1772896089084
 20
523.7965702646437
 30
0.0
 11
342.5772967269273
 21
566.8002494099961
 31
0.0
 70
   163
 71
     0
 42
12.00000000000007
  3
ISO-25
100
AcDbDiametricDimension
 15
348.1770362779401
 25
523.8745438439127
 35
0.0
 40
0.0
  0
TEXT
  5
1D2
330
293
100
AcDbEntity
  8
popis
100
AcDbText
 10
-316.0190451291946
 20
615.8144799142942
 30
0.0
 40
15.0
  1
TXBR/TXTR 630 axiální ventilátor
100
AcDbText
  0
LWPOLYLINE
  5
1DA
330
293
100
AcDbEntity
  8
koty
100
AcDbPolyline
 90
        4
 70
     1
 43
0.0
 10
-146.9179875827713
 20
-131.3555318323486
 10
-163.6771629434242
 20
-119.9432072513531
 10
-151.5251834123186
 20
-136.1740576476417
 10
-151.5251834123186
 20
-136.1740576476417
210
0.0
220
0.0
230
-1.0
1001
VDEXTRAPARAM
1071
       65
1071
        0
1071
        0
1040
1.0
1000

1000

1040
0.0
1040
0.0
  0
HATCH
  5
2FD
330
293
100
AcDbEntity
  8
koty
100
AcDbHatch
 10
0.0
 20
0.0
 30
0.0
210
0.0
220
0.0
230
-1.0
  2
SOLID
 70
     1
 71
     0
 91
        1
 92
        2
 72
     0
 73
     1
 93
        3
 10
-146.9179875827713
 20
-131.3555318323486
 10
-163.6771629434242
 20
-119.9432072513531
 10
-151.5251834123186
 20
-136.1740576476417
 97
        0
 75
     0
 76
     1
 98
        1
 10
0.0
 20
0.0
1001
VDEXTRAPARAM
1071
       65
1071
        0
1071
        0
1040
1.0
1000

1000

1040
0.0
1040
0.0
1001
VD_TEMPHATCH
1000
VD_TEMPHATCH
  0
LWPOLYLINE
  5
1DB
330
293
100
AcDbEntity
  8
koty
100
AcDbPolyline
 90
        3
 70
     0
 43
0.0
 10
149.2215854975449
 20
-133.7647947399952
 10
90.49943880700084
 20
-189.911516726227
 10
70.49943880700084
 20
-189.911516726227
  0
TEXT
  5
1E0
330
293
100
AcDbEntity
  8
koty
100
AcDbText
 10
12.82086737842941
 20
-199.911516726227
 30
0.0
 40
20.0
  1
12x
  7
Proxy_1E0
100
AcDbText
  0
VIEWPORT
  5
2FE
330
28F
100
AcDbEntity
 67
     1
  8
0
 60
     1
100
AcDbViewport
 10
0.0
 20
0.0
 30
0.0
 40
10.0
 41
10.0
 69
     1
 12
0.0
 22
0.0
 13
0.0
 23
0.0
 14
1.0
 24
1.0
 15
0.0
 25
0.0
 16
0.0
 26
0.0
 36
1.0
 17
0.0
 27
0.0
 37
0.0
 42
0.0
 43
0.0
 44
0.0
 45
10.0
 50
0.0
 51
0.0000000000007958
 72
   100
 90
   163872
  1

281
     0
 71
     0
 74
     0
110
0.0
120
0.0
130
0.0
111
1.0
121
0.0
131
0.0
112
0.0
122
1.0
132
0.0
 79
     0
146
0.0
1001
VD_INVISIBLE_NOT_FOR_READ
1000
VD_INVISIBLE_NOT_FOR_READ
  0
VIEWPORT
  5
2FF
330
28F
100
AcDbEntity
 67
     1
  8
0
 60
     1
100
AcDbViewport
 10
0.0
 20
0.0
 30
0.0
 40
10.0
 41
10.0
 69
     2
 12
0.0
 22
0.0
 13
0.0
 23
0.0
 14
1.0
 24
1.0
 15
0.0
 25
0.0
 16
0.0
 26
0.0
 36
1.0
 17
0.0
 27
0.0
 37
0.0
 42
0.0
 43
0.0
 44
0.0
 45
10.0
 50
0.0
 51
0.0000000000007958
 72
   100
 90
   163872
  1

281
     0
 71
     0
 74
     0
110
0.0
120
0.0
130
0.0
111
1.0
121
0.0
131
0.0
112
0.0
122
1.0
132
0.0
 79
     0
146
0.0
1001
VD_INVISIBLE_NOT_FOR_READ
1000
VD_INVISIBLE_NOT_FOR_READ
  0
ENDSEC
  0
SECTION
  2
OBJECTS
  0
DICTIONARY
  5
280
330
0
100
AcDbDictionary
281
     1
  3
ACAD_GROUP
350
281
  3
ACAD_LAYOUT
350
28E
  3
ACAD_MLINESTYLE
350
28B
  3
ACAD_PLOTSETTINGS
350
28D
  3
ACAD_PLOTSTYLENAME
350
282
  3
VECTORDRAW_OBJECTS
350
2A3
  0
DICTIONARY
  5
281
102
{ACAD_REACTORS
330
280
102
}
330
280
100
AcDbDictionary
281
     1
  0
DICTIONARY
  5
28E
102
{ACAD_REACTORS
330
280
102
}
330
280
100
AcDbDictionary
281
     1
  3
Model
350
296
  3
Rozvržení1
350
292
  3
Rozvržení2
350
29A
  0
DICTIONARY
  5
28B
102
{ACAD_REACTORS
330
280
102
}
330
280
100
AcDbDictionary
281
     1
  3
Standard
350
28C
  0
DICTIONARY
  5
28D
102
{ACAD_REACTORS
330
280
102
}
330
280
100
AcDbDictionary
281
     1
  0
ACDBDICTIONARYWDFLT
  5
282
102
{ACAD_REACTORS
330
280
102
}
330
280
100
AcDbDictionary
281
     1
  3
Normal
350
283
100
AcDbDictionaryWithDefault
340
283
  0
DICTIONARY
  5
2A3
102
{ACAD_REACTORS
330
280
102
}
330
280
100
AcDbDictionary
281
     1
  3
SERIALNO
350
2A4
  0
LAYOUT
  5
296
102
{ACAD_REACTORS
330
28E
102
}
330
28E
100
AcDbPlotSettings
  1
VectorDraw Printer Drawing
  2

  4

  6

 40
0.0
 41
0.0
 42
0.0
 43
0.0
 44
0.0
 45
0.0
 46
0.0
 47
0.0
 48
0.0
 49
0.0
140
0.0
141
0.0
142
1.0
143
1.0
 70
  1712
 72
     0
 73
     0
 74
     0
  7

 75
     0
147
1.0
148
0.0
149
0.0
100
AcDbLayout
  1
Model
 70
     1
 71
     0
 10
0.0
 20
0.0
 11
12.0
 21
9.0
 12
0.0
 22
0.0
 32
0.0
 14
-749.1869761673761
 24
-253.9901170429148
 34
0.0
 15
704.6771629434243
 25
630.8144799142942
 35
0.0
146
0.0
 13
0.0
 23
0.0
 33
0.0
 16
1.0
 26
0.0
 36
0.0
 17
0.0
 27
1.0
 37
0.0
 76
     0
330
293
  0
LAYOUT
  5
292
102
{ACAD_REACTORS
330
28E
102
}
330
28E
100
AcDbPlotSettings
  1
VectorDraw Printer Drawing
  2

  4

  6

 40
0.0
 41
0.0
 42
0.0
 43
0.0
 44
0.0
 45
0.0
 46
0.0
 47
0.0
 48
0.0
 49
0.0
140
0.0
141
0.0
142
1.0
143
1.0
 70
   688
 72
     0
 73
     0
 74
     5
  7

 75
    16
147
1.0
148
0.0
149
0.0
100
AcDbLayout
  1
Rozvržení1
 70
     1
 71
     1
 10
0.0
 20
0.0
 11
12.0
 21
9.0
 12
0.0
 22
0.0
 32
0.0
 14
1.000000000000000E+20
 24
1.000000000000000E+20
 34
1.000000000000000E+20
 15
-1.000000000000000E+20
 25
-1.000000000000000E+20
 35
-1.000000000000000E+20
146
0.0
 13
0.0
 23
0.0
 33
0.0
 16
1.0
 26
0.0
 36
0.0
 17
0.0
 27
1.0
 37
0.0
 76
     0
330
28F
331
2FE
  0
LAYOUT
  5
29A
102
{ACAD_REACTORS
330
28E
102
}
330
28E
100
AcDbPlotSettings
  1
VectorDraw Printer Drawing
  2

  4

  6

 40
0.0
 41
0.0
 42
0.0
 43
0.0
 44
0.0
 45
0.0
 46
0.0
 47
0.0
 48
0.0
 49
0.0
140
0.0
141
0.0
142
1.0
143
1.0
 70
   688
 72
     0
 73
     0
 74
     5
  7

 75
    16
147
1.0
148
0.0
149
0.0
100
AcDbLayout
  1
Rozvržení2
 70
     1
 71
     2
 10
0.0
 20
0.0
 11
12.0
 21
9.0
 12
0.0
 22
0.0
 32
0.0
 14
0.0
 24
0.0
 34
0.0
 15
0.0
 25
0.0
 35
0.0
146
0.0
 13
0.0
 23
0.0
 33
0.0
 16
1.0
 26
0.0
 36
0.0
 17
0.0
 27
1.0
 37
0.0
 76
     0
330
297
331
300
  0
MLINESTYLE
  5
28C
102
{ACAD_REACTORS
330
28B
102
}
330
28B
100
AcDbMlineStyle
  2
Standard
 70
     0
  3

 62
   256
 51
90.0
 52
90.0
 71
     2
 49
0.5
 62
   256
  6
BYLAYER
 49
-0.5
 62
   256
  6
BYLAYER
  0
ACDBPLACEHOLDER
  5
283
102
{ACAD_REACTORS
330
282
102
}
330
282
  0
XRECORD
  5
2A4
102
{ACAD_REACTORS
330
2A3
102
}
330
2A3
100
AcDbXrecord
280
     1
1000
rInJVR9YY4Q8hfPWdUq5j5319
1070
     4
1070
     6
  0
ENDSEC
  0
EOF
