  0
SECTION
  2
HEADER
  9
$ACADVER
  1
AC1015
  9
$ACADMAINTVER
 70
     6
  9
$DWGCODEPAGE
  3
ANSI_1252
  9
$INSBASE
 10
0.0
 20
0.0
 30
0.0
  9
$EXTMIN
 10
-522.3414140169653
 20
-177.1027309421643
 30
0.0
  9
$EXTMAX
 10
644.535280053504
 20
587.9992795152306
 30
0.0
  9
$LIMMIN
 10
0.0
 20
0.0
  9
$LIMMAX
 10
12.0
 20
9.0
  9
$ORTHOMODE
 70
     0
  9
$REGENMODE
 70
     1
  9
$FILLMODE
 70
     1
  9
$QTEXTMODE
 70
     0
  9
$MIRRTEXT
 70
     1
  9
$LTSCALE
 40
1.0
  9
$ATTMODE
 70
     1
  9
$TEXTSIZE
 40
0.2
  9
$TRACEWID
 40
0.05
  9
$TEXTSTYLE
  7
Standard
  9
$CLAYER
  8
popis
  9
$CELTYPE
  6
Continuous
  9
$CECOLOR
 62
    51
  9
$CELTSCALE
 40
1.0
  9
$DISPSILH
 70
     0
  9
$DIMSCALE
 40
10.0
  9
$DIMASZ
 40
2.0
  9
$DIMEXO
 40
0.625
  9
$DIMDLI
 40
0.38
  9
$DIMRND
 40
0.0
  9
$DIMDLE
 40
0.0
  9
$DIMEXE
 40
1.25
  9
$DIMTP
 40
0.0
  9
$DIMTM
 40
0.0
  9
$DIMTXT
 40
2.0
  9
$DIMCEN
 40
0.09
  9
$DIMTSZ
 40
0.0
  9
$DIMTOL
 70
     0
  9
$DIMLIM
 70
     0
  9
$DIMTIH
 70
     0
  9
$DIMTOH
 70
     0
  9
$DIMSE1
 70
     0
  9
$DIMSE2
 70
     0
  9
$DIMTAD
 70
     1
  9
$DIMZIN
 70
     0
  9
$DIMBLK
  1
VDDIM_DEFAULT
  9
$DIMASO
 70
     1
  9
$DIMSHO
 70
     1
  9
$DIMPOST
  1

  9
$DIMAPOST
  1

  9
$DIMALT
 70
     0
  9
$DIMALTD
 70
     2
  9
$DIMALTF
 40
25.4
  9
$DIMLFAC
 40
1.0
  9
$DIMTOFL
 70
     1
  9
$DIMTVP
 40
0.0
  9
$DIMTIX
 70
     1
  9
$DIMSOXD
 70
     0
  9
$DIMSAH
 70
     0
  9
$DIMBLK1
  1

  9
$DIMBLK2
  1

  9
$DIMSTYLE
  2
ISO-25
  9
$DIMCLRD
 70
     0
  9
$DIMCLRE
 70
     0
  9
$DIMCLRT
 70
   256
  9
$DIMTFAC
 40
1.0
  9
$DIMGAP
 40
0.625
  9
$DIMJUST
 70
     0
  9
$DIMSD1
 70
     0
  9
$DIMSD2
 70
     0
  9
$DIMTOLJ
 70
     1
  9
$DIMTZIN
 70
     0
  9
$DIMALTZ
 70
     0
  9
$DIMALTTZ
 70
     0
  9
$DIMUPT
 70
     1
  9
$DIMDEC
 70
     0
  9
$DIMTDEC
 70
     4
  9
$DIMALTU
 70
     2
  9
$DIMALTTD
 70
     2
  9
$DIMTXSTY
  7
Standard
  9
$DIMAUNIT
 70
     0
  9
$DIMADEC
 70
     0
  9
$DIMALTRND
 40
0.0
  9
$DIMAZIN
 70
     0
  9
$DIMDSEP
 70
    46
  9
$DIMATFIT
 70
     3
  9
$DIMFRAC
 70
     0
  9
$DIMLDRBLK
  1

  9
$DIMLUNIT
 70
     2
  9
$DIMLWD
 70
    -2
  9
$DIMLWE
 70
    -2
  9
$DIMTMOVE
 70
     0
  9
$LUNITS
 70
     2
  9
$LUPREC
 70
     4
  9
$SKETCHINC
 40
0.1
  9
$FILLETRAD
 40
0.5
  9
$AUNITS
 70
     0
  9
$AUPREC
 70
     0
  9
$MENU
  1
.
  9
$ELEVATION
 40
0.0
  9
$PELEVATION
 40
0.0
  9
$THICKNESS
 40
0.0
  9
$LIMCHECK
 70
     0
  9
$CHAMFERA
 40
0.5
  9
$CHAMFERB
 40
0.5
  9
$CHAMFERC
 40
1.0
  9
$CHAMFERD
 40
0.0
  9
$SKPOLY
 70
     0
  9
$TDCREATE
 40
2455643.637367396
  9
$TDUCREATE
 40
2455643.595700729
  9
$TDUPDATE
 40
2455643.637367407
  9
$TDUUPDATE
 40
2455643.595700741
  9
$TDINDWG
 40
0.0000000116
  9
$TDUSRTIMER
 40
0.0000000116
  9
$USRTIMER
 70
     1
  9
$ANGBASE
 50
0.0
  9
$ANGDIR
 70
     0
  9
$PDMODE
 70
     0
  9
$PDSIZE
 40
0.0
  9
$PLINEWID
 40
0.0
  9
$SPLFRAME
 70
     0
  9
$SPLINETYPE
 70
     6
  9
$SPLINESEGS
 70
     8
  9
$HANDSEED
  5
320
  9
$SURFTAB1
 70
     6
  9
$SURFTAB2
 70
     6
  9
$SURFTYPE
 70
     6
  9
$SURFU
 70
     6
  9
$SURFV
 70
     6
  9
$UCSBASE
  2

  9
$UCSNAME
  2

  9
$UCSORG
 10
0.0
 20
0.0
 30
0.0
  9
$UCSXDIR
 10
1.0
 20
0.0
 30
0.0
  9
$UCSYDIR
 10
0.0
 20
1.0
 30
0.0
  9
$UCSORTHOREF
  2

  9
$UCSORTHOVIEW
 70
     0
  9
$UCSORGTOP
 10
0.0
 20
0.0
 30
0.0
  9
$UCSORGBOTTOM
 10
0.0
 20
0.0
 30
0.0
  9
$UCSORGLEFT
 10
0.0
 20
0.0
 30
0.0
  9
$UCSORGRIGHT
 10
0.0
 20
0.0
 30
0.0
  9
$UCSORGFRONT
 10
0.0
 20
0.0
 30
0.0
  9
$UCSORGBACK
 10
0.0
 20
0.0
 30
0.0
  9
$PUCSBASE
  2

  9
$PUCSNAME
  2

  9
$PUCSORG
 10
0.0
 20
0.0
 30
0.0
  9
$PUCSXDIR
 10
1.0
 20
0.0
 30
0.0
  9
$PUCSYDIR
 10
0.0
 20
1.0
 30
0.0
  9
$PUCSORTHOREF
  2

  9
$PUCSORTHOVIEW
 70
     0
  9
$PUCSORGTOP
 10
0.0
 20
0.0
 30
0.0
  9
$PUCSORGBOTTOM
 10
0.0
 20
0.0
 30
0.0
  9
$PUCSORGLEFT
 10
0.0
 20
0.0
 30
0.0
  9
$PUCSORGRIGHT
 10
0.0
 20
0.0
 30
0.0
  9
$PUCSORGFRONT
 10
0.0
 20
0.0
 30
0.0
  9
$PUCSORGBACK
 10
0.0
 20
0.0
 30
0.0
  9
$USERI1
 70
     0
  9
$USERI2
 70
     0
  9
$USERI3
 70
     0
  9
$USERI4
 70
     0
  9
$USERI5
 70
     0
  9
$USERR1
 40
0.0
  9
$USERR2
 40
0.0
  9
$USERR3
 40
0.0
  9
$USERR4
 40
0.0
  9
$USERR5
 40
0.0
  9
$WORLDVIEW
 70
     1
  9
$SHADEDGE
 70
     3
  9
$SHADEDIF
 70
    70
  9
$TILEMODE
 70
     1
  9
$MAXACTVP
 70
    64
  9
$PINSBASE
 10
0.0
 20
0.0
 30
0.0
  9
$PLIMCHECK
 70
     0
  9
$PEXTMIN
 10
1.000000000000000E+20
 20
1.000000000000000E+20
 30
1.000000000000000E+20
  9
$PEXTMAX
 10
-1.000000000000000E+20
 20
-1.000000000000000E+20
 30
-1.000000000000000E+20
  9
$PLIMMIN
 10
0.0
 20
0.0
  9
$PLIMMAX
 10
12.0
 20
9.0
  9
$UNITMODE
 70
     0
  9
$VISRETAIN
 70
     1
  9
$PLINEGEN
 70
     0
  9
$PSLTSCALE
 70
     1
  9
$TREEDEPTH
 70
  3020
  9
$CMLSTYLE
  2
Standard
  9
$CMLJUST
 70
     0
  9
$CMLSCALE
 40
1.0
  9
$PROXYGRAPHICS
 70
     1
  9
$MEASUREMENT
 70
     0
  9
$CELWEIGHT
370
     0
  9
$ENDCAPS
280
     0
  9
$JOINSTYLE
280
     0
  9
$LWDISPLAY
290
     0
  9
$INSUNITS
 70
     1
  9
$HYPERLINKBASE
  1

  9
$STYLESHEET
  1

  9
$XEDIT
290
     1
  9
$CEPSNTYPE
380
     0
  9
$PSTYLEMODE
290
     0
  9
$FINGERPRINTGUID
  2
{FAEB1C30-E019-11D5-929B-00C0DF256EC4}
  9
$VERSIONGUID
  2
{FAEB1C32-E019-11D5-929B-00C0DF256EC4}
  9
$EXTNAMES
290
     1
  9
$PSVPSCALE
 40
0.0
  9
$OLESTARTUP
290
     0
  0
ENDSEC
  0
SECTION
  2
CLASSES
  0
CLASS
  1
ACDBDICTIONARYWDFLT
  2
AcDbDictionaryWithDefault
  3
ObjectDBX Classes
 90
        0
280
     0
281
     0
  0
CLASS
  1
ACDBPLACEHOLDER
  2
AcDbPlaceHolder
  3
ObjectDBX Classes
 90
        0
280
     0
281
     0
  0
CLASS
  1
LAYOUT
  2
AcDbLayout
  3
ObjectDBX Classes
 90
        0
280
     0
281
     0
  0
ENDSEC
  0
SECTION
  2
TABLES
  0
TABLE
  2
VPORT
  5
29A
330
0
100
AcDbSymbolTable
 70
     2
  0
VPORT
  5
2BB
330
29A
100
AcDbSymbolTableRecord
100
AcDbViewportTableRecord
  2
*Active
 70
     0
 10
0.0
 20
0.0
 11
1.0
 21
1.0
 12
92.0
 22
154.0
 13
0.0
 23
0.0
 14
10.0
 24
10.0
 15
10.0
 25
10.0
 16
0.0
 26
0.0
 36
1.0
 17
0.0
 27
0.0
 37
0.0
 40
1112.894418448786
 41
0.0159554729193478
 42
50.0
 43
0.0
 44
0.0
 50
0.0
 51
0.0000000000007958
 71
     0
 72
   100
 73
     1
 74
     3
 75
     0
 76
     0
 77
     0
 78
     0
281
     0
 65
     1
110
0.0
120
0.0
130
0.0
111
1.0
121
0.0
131
0.0
112
0.0
122
1.0
132
0.0
 79
     0
146
0.0
  0
ENDTAB
  0
TABLE
  2
LTYPE
  5
297
330
0
100
AcDbSymbolTable
 70
    25
  0
LTYPE
  5
2A6
330
297
100
AcDbSymbolTableRecord
100
AcDbLinetypeTableRecord
  2
ByBlock
 70
     0
  3

 72
    65
 73
     0
 40
0.0
  0
LTYPE
  5
2A7
330
297
100
AcDbSymbolTableRecord
100
AcDbLinetypeTableRecord
  2
ByLayer
 70
     0
  3

 72
    65
 73
     0
 40
0.0
  0
LTYPE
  5
2A8
330
297
100
AcDbSymbolTableRecord
100
AcDbLinetypeTableRecord
  2
Continuous
 70
     0
  3
Solid line
 72
    65
 73
     0
 40
0.0
  0
LTYPE
  5
2C3
330
297
100
AcDbSymbolTableRecord
100
AcDbLinetypeTableRecord
  2
CENTER
 70
     0
  3
Center ____ _ ____ _ ____ _ ____ _ ____ _ ____
 72
    65
 73
     4
 40
2.0
 49
1.25
 74
     0
 49
-0.25
 74
     0
 49
0.25
 74
     0
 49
-0.25
 74
     0
  0
LTYPE
  5
2C4
330
297
100
AcDbSymbolTableRecord
100
AcDbLinetypeTableRecord
  2
DASHDOT
 70
     0
  3
Dashdot __ . __ . __ . __ . __ . __ . __ . __
 72
    65
 73
     4
 40
1.0
 49
0.5
 74
     0
 49
-0.25
 74
     0
 49
0.0
 74
     0
 49
-0.25
 74
     0
  0
LTYPE
  5
2C5
330
297
100
AcDbSymbolTableRecord
100
AcDbLinetypeTableRecord
  2
DASHED
 70
     0
  3
Dashed __ __ __ __ __ __ __ __ __ __ __ __ __ _
 72
    65
 73
     2
 40
0.75
 49
0.5
 74
     0
 49
-0.25
 74
     0
  0
LTYPE
  5
2C6
330
297
100
AcDbSymbolTableRecord
100
AcDbLinetypeTableRecord
  2
HIDDEN
 70
     0
  3
Hidden __ __ __ __ __ __ __ __ __ __ __ __ __ __
 72
    65
 73
     2
 40
0.375
 49
0.25
 74
     0
 49
-0.125
 74
     0
  0
LTYPE
  5
2C7
330
297
100
AcDbSymbolTableRecord
100
AcDbLinetypeTableRecord
  2
HIDDEN2
 70
     0
  3
Hidden2 _ _ _ _ _ _ _ _ _ _ _ _ _ _ _ _ _ 
 72
    65
 73
     2
 40
0.1875
 49
0.125
 74
     0
 49
-0.0625
 74
     0
  0
LTYPE
  5
2C8
330
297
100
AcDbSymbolTableRecord
100
AcDbLinetypeTableRecord
  2
BORDER
 70
     0
  3
Border __ __ . __ __ . __ __ . __ __ . __ __ .
 72
    65
 73
     6
 40
1.75
 49
0.5
 74
     0
 49
-0.25
 74
     0
 49
0.5
 74
     0
 49
-0.25
 74
     0
 49
0.0
 74
     0
 49
-0.25
 74
     0
  0
LTYPE
  5
2C9
330
297
100
AcDbSymbolTableRecord
100
AcDbLinetypeTableRecord
  2
BORDER2
 70
     0
  3
Border2 __.__.__.__.__.__.__.__.__.__.__.
 72
    65
 73
     6
 40
0.875
 49
0.25
 74
     0
 49
-0.125
 74
     0
 49
0.25
 74
     0
 49
-0.125
 74
     0
 49
0.0
 74
     0
 49
-0.125
 74
     0
  0
LTYPE
  5
2CA
330
297
100
AcDbSymbolTableRecord
100
AcDbLinetypeTableRecord
  2
BORDERX2
 70
     0
  3
Borderx2  ____  ____  .  ____  ____  .  ___
 72
    65
 73
     6
 40
3.5
 49
1.0
 74
     0
 49
-0.5
 74
     0
 49
1.0
 74
     0
 49
-0.5
 74
     0
 49
0.0
 74
     0
 49
-0.5
 74
     0
  0
LTYPE
  5
2CB
330
297
100
AcDbSymbolTableRecord
100
AcDbLinetypeTableRecord
  2
CENTER2
 70
     0
  3
Center2  ___ _ ___ _ ___ _ ___ _ ___ _ ___
 72
    65
 73
     4
 40
1.125
 49
0.75
 74
     0
 49
-0.125
 74
     0
 49
0.125
 74
     0
 49
-0.125
 74
     0
  0
LTYPE
  5
2CC
330
297
100
AcDbSymbolTableRecord
100
AcDbLinetypeTableRecord
  2
CENTERX2
 70
     0
  3
Centerx2  ________  __  ________  __  _____
 72
    65
 73
     4
 40
4.0
 49
2.5
 74
     0
 49
-0.5
 74
     0
 49
0.5
 74
     0
 49
-0.5
 74
     0
  0
LTYPE
  5
2CD
330
297
100
AcDbSymbolTableRecord
100
AcDbLinetypeTableRecord
  2
DASHDOT2
 70
     0
  3
Dashdot2  _._._._._._._._._._._._._._._.
 72
    65
 73
     4
 40
0.5
 49
0.25
 74
     0
 49
-0.125
 74
     0
 49
0.0
 74
     0
 49
-0.125
 74
     0
  0
LTYPE
  5
2CE
330
297
100
AcDbSymbolTableRecord
100
AcDbLinetypeTableRecord
  2
DASHDOTX2
 70
     0
  3
Dashdotx2 ____  .  ____  .  ____  .  ___
 72
    65
 73
     4
 40
2.0
 49
1.0
 74
     0
 49
-0.5
 74
     0
 49
0.0
 74
     0
 49
-0.5
 74
     0
  0
LTYPE
  5
2CF
330
297
100
AcDbSymbolTableRecord
100
AcDbLinetypeTableRecord
  2
DASHED2
 70
     0
  3
Dashed2 _ _ _ _ _ _ _ _ _ _ _ _ _ _ _ _ _ 
 72
    65
 73
     2
 40
0.375
 49
0.25
 74
     0
 49
-0.125
 74
     0
  0
LTYPE
  5
2D0
330
297
100
AcDbSymbolTableRecord
100
AcDbLinetypeTableRecord
  2
DASHEDX2
 70
     0
  3
Dashedx2 ____  ____  ____  ____  ____  ___
 72
    65
 73
     2
 40
1.5
 49
1.0
 74
     0
 49
-0.5
 74
     0
  0
LTYPE
  5
2D1
330
297
100
AcDbSymbolTableRecord
100
AcDbLinetypeTableRecord
  2
DIVIDE
 70
     0
  3
Divide ____ . . ____ . . ____ . . ____ . . ____
 72
    65
 73
     6
 40
1.25
 49
0.5
 74
     0
 49
-0.25
 74
     0
 49
0.0
 74
     0
 49
-0.25
 74
     0
 49
0.0
 74
     0
 49
-0.25
 74
     0
  0
LTYPE
  5
2D2
330
297
100
AcDbSymbolTableRecord
100
AcDbLinetypeTableRecord
  2
DIVIDE2
 70
     0
  3
Divide2 __..__..__..__..__..__..__..__.._
 72
    65
 73
     6
 40
0.625
 49
0.25
 74
     0
 49
-0.125
 74
     0
 49
0.0
 74
     0
 49
-0.125
 74
     0
 49
0.0
 74
     0
 49
-0.125
 74
     0
  0
LTYPE
  5
2D3
330
297
100
AcDbSymbolTableRecord
100
AcDbLinetypeTableRecord
  2
DIVIDEX2
 70
     0
  3
Dividex2 ________  .  .  ________  .  .  _
 72
    65
 73
     6
 40
2.5
 49
1.0
 74
     0
 49
-0.5
 74
     0
 49
0.0
 74
     0
 49
-0.5
 74
     0
 49
0.0
 74
     0
 49
-0.5
 74
     0
  0
LTYPE
  5
2D4
330
297
100
AcDbSymbolTableRecord
100
AcDbLinetypeTableRecord
  2
DOT
 70
     0
  3
Dot . . . . . . . . . . . . . . . . . . . . . . . .
 72
    65
 73
     2
 40
0.25
 49
0.0
 74
     0
 49
-0.25
 74
     0
  0
LTYPE
  5
2D5
330
297
100
AcDbSymbolTableRecord
100
AcDbLinetypeTableRecord
  2
DOT2
 70
     0
  3
Dot2 ........................................
 72
    65
 73
     2
 40
0.125
 49
0.0
 74
     0
 49
-0.125
 74
     0
  0
LTYPE
  5
2D6
330
297
100
AcDbSymbolTableRecord
100
AcDbLinetypeTableRecord
  2
DOTX2
 70
     0
  3
Dotx2 .  .  .  .  .  .  .  .  .  .  .  .  .  .
 72
    65
 73
     2
 40
0.5
 49
0.0
 74
     0
 49
-0.5
 74
     0
  0
LTYPE
  5
2D7
330
297
100
AcDbSymbolTableRecord
100
AcDbLinetypeTableRecord
  2
HIDDENX2
 70
     0
  3
Hiddenx2 ____ ____ ____ ____ ____ ____ ____ 
 72
    65
 73
     2
 40
0.75
 49
0.5
 74
     0
 49
-0.25
 74
     0
  0
LTYPE
  5
2D8
330
297
100
AcDbSymbolTableRecord
100
AcDbLinetypeTableRecord
  2
PHANTOM
 70
     0
  3
Phantom ______  __  __  ______  __  __  ______ 
 72
    65
 73
     6
 40
2.5
 49
1.25
 74
     0
 49
-0.25
 74
     0
 49
0.25
 74
     0
 49
-0.25
 74
     0
 49
0.25
 74
     0
 49
-0.25
 74
     0
  0
LTYPE
  5
2D9
330
297
100
AcDbSymbolTableRecord
100
AcDbLinetypeTableRecord
  2
PHANTOM2
 70
     0
  3
Phantom2 ___ _ _ ___ _ _ ___ _ _ ___ _ _
 72
    65
 73
     6
 40
1.25
 49
0.625
 74
     0
 49
-0.125
 74
     0
 49
0.125
 74
     0
 49
-0.125
 74
     0
 49
0.125
 74
     0
 49
-0.125
 74
     0
  0
LTYPE
  5
2DA
330
297
100
AcDbSymbolTableRecord
100
AcDbLinetypeTableRecord
  2
PHANTOMX2
 70
     0
  3
Phantomx2 ____________    ____    ____   _
 72
    65
 73
     6
 40
5.0
 49
2.5
 74
     0
 49
-0.5
 74
     0
 49
0.5
 74
     0
 49
-0.5
 74
     0
 49
0.5
 74
     0
 49
-0.5
 74
     0
  0
ENDTAB
  0
TABLE
  2
LAYER
  5
294
330
0
100
AcDbSymbolTable
 70
     4
  0
LAYER
  5
2A2
330
294
100
AcDbSymbolTableRecord
100
AcDbLayerTableRecord
  2
0
 70
     0
 62
    90
  6
Continuous
370
     0
390
2A1
  0
LAYER
  5
2B
330
294
100
AcDbSymbolTableRecord
100
AcDbLayerTableRecord
  2
koty
 70
     0
 62
    41
  6
Continuous
370
     0
390
2A1
  0
LAYER
  5
2C
330
294
100
AcDbSymbolTableRecord
100
AcDbLayerTableRecord
  2
popis
 70
     0
 62
   210
  6
Continuous
370
     0
390
2A1
  0
LAYER
  5
172
330
294
100
AcDbSymbolTableRecord
100
AcDbLayerTableRecord
  2
Defpoints
 70
     0
 62
     7
  6
Continuous
290
     0
370
     0
390
2A1
  0
ENDTAB
  0
TABLE
  2
STYLE
  5
295
330
0
100
AcDbSymbolTable
 70
     2
  0
STYLE
  5
2A3
330
295
100
AcDbSymbolTableRecord
100
AcDbTextStyleTableRecord
  2
Standard
 70
     0
 40
0.0
 41
1.0
 50
0.0
 71
     0
 42
0.2
  3
txt.shx
  4

1001
ACAD
1000
txt.shx
1071
        0
  0
STYLE
  5
1FF
330
295
100
AcDbSymbolTableRecord
100
AcDbTextStyleTableRecord
  2
Proxy_1FE
 70
     0
 40
20.0
 41
1.0
 50
0.0
 71
     0
 42
0.2
  3
txt.shx
  4

1001
ACAD
1000
txt.shx
1071
        0
  0
ENDTAB
  0
TABLE
  2
VIEW
  5
298
330
0
100
AcDbSymbolTable
 70
     0
  0
ENDTAB
  0
TABLE
  2
UCS
  5
299
330
0
100
AcDbSymbolTable
 70
     0
  0
ENDTAB
  0
TABLE
  2
APPID
  5
29B
330
0
100
AcDbSymbolTable
 70
     6
  0
APPID
  5
2A4
330
29B
100
AcDbSymbolTableRecord
100
AcDbRegAppTableRecord
  2
ACAD
 70
     0
  0
APPID
  5
2BC
330
29B
100
AcDbSymbolTableRecord
100
AcDbRegAppTableRecord
  2
VD_INVISIBLE_NOT_FOR_READ
 70
     0
  0
APPID
  5
2BD
330
29B
100
AcDbSymbolTableRecord
100
AcDbRegAppTableRecord
  2
VD_TEMPHATCH
 70
     0
  0
APPID
  5
2BE
330
29B
100
AcDbSymbolTableRecord
100
AcDbRegAppTableRecord
  2
VDEXTRAPARAM
 70
     0
  0
APPID
  5
2BF
330
29B
100
AcDbSymbolTableRecord
100
AcDbRegAppTableRecord
  2
PE_URL
 70
     0
  0
APPID
  5
2C0
330
29B
100
AcDbSymbolTableRecord
100
AcDbRegAppTableRecord
  2
VD_UNKNOWN
 70
     0
  0
ENDTAB
  0
TABLE
  2
DIMSTYLE
  5
29C
330
0
100
AcDbSymbolTable
 70
     2
100
AcDbDimStyleTable
  0
DIMSTYLE
105
2B9
330
29C
100
AcDbSymbolTableRecord
100
AcDbDimStyleTableRecord
  2
STANDARD
 70
     0
 41
0.2
 42
0.05
 44
0.2
 73
     0
 74
     0
140
0.2
172
     1
174
     1
177
   256
178
   256
288
     1
340
2A3
342
202
  0
DIMSTYLE
105
27
102
{ACAD_REACTORS
330
171
330
18A
330
1A2
330
1BA
330
1D2
102
}
330
29C
100
AcDbSymbolTableRecord
100
AcDbDimStyleTableRecord
  2
ISO-25
 70
     0
 40
10.0
 41
2.0
 42
0.625
 44
1.25
 73
     0
 74
     0
 77
     1
140
2.0
147
0.625
172
     1
174
     1
178
   256
271
     0
288
     1
340
2A3
342
202
  0
ENDTAB
  0
TABLE
  2
BLOCK_RECORD
  5
293
330
0
100
AcDbSymbolTable
 70
     8
  0
BLOCK_RECORD
  5
2B1
330
293
100
AcDbSymbolTableRecord
100
AcDbBlockTableRecord
  2
*Model_Space
340
2B4
  0
BLOCK_RECORD
  5
2AD
330
293
100
AcDbSymbolTableRecord
100
AcDbBlockTableRecord
  2
*Paper_Space
340
2B0
  0
BLOCK_RECORD
  5
2B5
330
293
100
AcDbSymbolTableRecord
100
AcDbBlockTableRecord
  2
*Paper_Space0
340
2B8
  0
BLOCK_RECORD
  5
202
330
293
100
AcDbSymbolTableRecord
100
AcDbBlockTableRecord
  2
VDDIM_DEFAULT
340
0
102
{BLKREFS
331
2E5
331
2E4
331
2F1
331
2F0
331
2FD
331
2FC
331
309
331
308
331
315
331
314
102
}
  0
BLOCK_RECORD
  5
204
330
293
100
AcDbSymbolTableRecord
100
AcDbBlockTableRecord
  2
VDDIM_NONE
340
0
  0
BLOCK_RECORD
  5
2E0
330
293
100
AcDbSymbolTableRecord
100
AcDbBlockTableRecord
  2
*D3
340
0
  0
BLOCK_RECORD
  5
2EC
330
293
100
AcDbSymbolTableRecord
100
AcDbBlockTableRecord
  2
*D4
340
0
  0
BLOCK_RECORD
  5
2F8
330
293
100
AcDbSymbolTableRecord
100
AcDbBlockTableRecord
  2
*D5
340
0
  0
BLOCK_RECORD
  5
304
330
293
100
AcDbSymbolTableRecord
100
AcDbBlockTableRecord
  2
*D6
340
0
  0
BLOCK_RECORD
  5
310
330
293
100
AcDbSymbolTableRecord
100
AcDbBlockTableRecord
  2
*D7
340
0
  0
ENDTAB
  0
ENDSEC
  0
SECTION
  2
BLOCKS
  0
BLOCK
  5
2B2
330
2B1
100
AcDbEntity
  8
0
100
AcDbBlockBegin
  2
*Model_Space
 70
     0
 71
     0
 10
0.0
 20
0.0
 30
0.0
  3
*Model_Space
  1

  0
ENDBLK
  5
2B3
330
2B1
100
AcDbEntity
  8
0
100
AcDbBlockEnd
  0
BLOCK
  5
2AE
330
2AD
100
AcDbEntity
 67
     1
  8
0
100
AcDbBlockBegin
  2
*Paper_Space
 70
     0
 71
     0
 10
0.0
 20
0.0
 30
0.0
  3
*Paper_Space
  1

  0
ENDBLK
  5
2AF
330
2AD
100
AcDbEntity
 67
     1
  8
0
100
AcDbBlockEnd
  0
BLOCK
  5
2B6
330
2B5
100
AcDbEntity
  8
0
100
AcDbBlockBegin
  2
*Paper_Space0
 70
     0
 71
     0
 10
0.0
 20
0.0
 30
0.0
  3
*Paper_Space0
  1

  0
VIEWPORT
  5
31E
330
2B5
100
AcDbEntity
  8
0
 60
     1
100
AcDbViewport
 10
0.0
 20
0.0
 30
0.0
 40
10.0
 41
10.0
 69
     1
 12
0.0
 22
0.0
 13
0.0
 23
0.0
 14
1.0
 24
1.0
 15
0.0
 25
0.0
 16
0.0
 26
0.0
 36
1.0
 17
0.0
 27
0.0
 37
0.0
 42
0.0
 43
0.0
 44
0.0
 45
10.0
 50
0.0
 51
0.0000000000007958
 72
   100
 90
   163872
  1

281
     0
 71
     0
 74
     0
110
0.0
120
0.0
130
0.0
111
1.0
121
0.0
131
0.0
112
0.0
122
1.0
132
0.0
 79
     0
146
0.0
1001
VD_INVISIBLE_NOT_FOR_READ
1000
VD_INVISIBLE_NOT_FOR_READ
  0
VIEWPORT
  5
31F
330
2B5
100
AcDbEntity
  8
0
 60
     1
100
AcDbViewport
 10
0.0
 20
0.0
 30
0.0
 40
10.0
 41
10.0
 69
     2
 12
0.0
 22
0.0
 13
0.0
 23
0.0
 14
1.0
 24
1.0
 15
0.0
 25
0.0
 16
0.0
 26
0.0
 36
1.0
 17
0.0
 27
0.0
 37
0.0
 42
0.0
 43
0.0
 44
0.0
 45
10.0
 50
0.0
 51
0.0000000000007958
 72
   100
 90
   163872
  1

281
     0
 71
     0
 74
     0
110
0.0
120
0.0
130
0.0
111
1.0
121
0.0
131
0.0
112
0.0
122
1.0
132
0.0
 79
     0
146
0.0
1001
VD_INVISIBLE_NOT_FOR_READ
1000
VD_INVISIBLE_NOT_FOR_READ
  0
ENDBLK
  5
2B7
330
2B5
100
AcDbEntity
  8
0
100
AcDbBlockEnd
  0
BLOCK
  5
2DB
330
202
100
AcDbEntity
  8
0
100
AcDbBlockBegin
  2
VDDIM_DEFAULT
 70
     0
 71
     0
 10
0.0
 20
0.0
 30
0.0
  3
VDDIM_DEFAULT
  1

  0
LWPOLYLINE
  5
203
330
202
100
AcDbEntity
  8
0
  6
Continuous
 62
     0
100
AcDbPolyline
 90
        4
 70
     0
 43
0.0
 10
0.0
 20
0.0
 10
-1.0
 20
-0.1665
 10
-1.0
 20
0.1665
 10
0.0
 20
0.0
1001
VDEXTRAPARAM
1071
        1
1071
        0
1071
        0
1040
1.0
1000

1000

1040
0.0
1040
0.0
  0
HATCH
  5
2DF
330
202
100
AcDbEntity
  8
0
  6
Continuous
 62
     0
100
AcDbHatch
 10
0.0
 20
0.0
 30
0.0
210
0.0
220
0.0
230
1.0
  2
SOLID
 70
     1
 71
     0
 91
        1
 92
        2
 72
     0
 73
     1
 93
        3
 10
0.0
 20
0.0
 10
-1.0
 20
-0.1665
 10
-1.0
 20
0.1665
 97
        0
 75
     0
 76
     1
 98
        1
 10
0.0
 20
0.0
1001
VDEXTRAPARAM
1071
        1
1071
        0
1071
        0
1040
1.0
1000

1000

1040
0.0
1040
0.0
1001
VD_TEMPHATCH
1000
VD_TEMPHATCH
  0
ENDBLK
  5
2DC
330
202
100
AcDbEntity
  8
0
100
AcDbBlockEnd
  0
BLOCK
  5
2DD
330
204
100
AcDbEntity
  8
0
100
AcDbBlockBegin
  2
VDDIM_NONE
 70
     0
 71
     0
 10
0.0
 20
0.0
 30
0.0
  3
VDDIM_NONE
  1

  0
ENDBLK
  5
2DE
330
204
100
AcDbEntity
  8
0
100
AcDbBlockEnd
  0
BLOCK
  5
2EA
330
2E0
100
AcDbEntity
  8
0
100
AcDbBlockBegin
  2
*D3
 70
     1
 71
     0
 10
0.0
 20
0.0
 30
0.0
  3
*D3
  1

  0
LINE
  5
2E1
330
2E0
100
AcDbEntity
  8
koty
 62
     0
370
    -2
100
AcDbLine
 10
-264.8755727901805
 20
439.1512255866414
 30
0.0
 11
-335.4090142574349
 21
439.1512255866414
 31
0.0
  0
LINE
  5
2E2
330
2E0
100
AcDbEntity
  8
koty
 62
     0
370
    -2
100
AcDbLine
 10
-264.8755727901816
 20
-60.84877441336067
 30
0.0
 11
-335.4090142574351
 21
-60.84877441336067
 31
0.0
  0
LINE
  5
2E3
330
2E0
100
AcDbEntity
  8
koty
 62
     0
370
    -2
100
AcDbLine
 10
-322.9090142574349
 20
419.1512255866413
 30
0.0
 11
-322.9090142574351
 21
-40.84877441336073
 31
0.0
  0
INSERT
  5
2E4
330
2E0
100
AcDbEntity
  8
koty
 62
     0
370
    -2
100
AcDbBlockReference
  2
VDDIM_DEFAULT
 10
-322.9090142574349
 20
439.1512255866413
 30
0.0
 41
20.0
 42
20.0
 43
20.0
 50
89.99999999999999
  0
INSERT
  5
2E5
330
2E0
100
AcDbEntity
  8
koty
 62
     0
370
    -2
100
AcDbBlockReference
  2
VDDIM_DEFAULT
 10
-322.9090142574351
 20
-60.84877441336073
 30
0.0
 41
20.0
 42
20.0
 43
20.0
 50
270.0
  0
MTEXT
  5
2E6
330
2E0
100
AcDbEntity
  8
koty
100
AcDbMText
 10
-339.1590142574351
 20
189.1512255866404
 30
0.0
 40
20.0
 41
0.0
 71
     5
 72
     1
  1
\A1;500
 11
2.273736754432311E-16
 21
1.0
 31
0.0
 73
     1
 44
1.0
  0
POINT
  5
2E7
330
2E0
100
AcDbEntity
  8
Defpoints
 62
     0
100
AcDbPoint
 10
-258.6255727901805
 20
439.1512255866414
 30
0.0
  0
POINT
  5
2E8
330
2E0
100
AcDbEntity
  8
Defpoints
 62
     0
100
AcDbPoint
 10
-258.6255727901816
 20
-60.84877441336067
 30
0.0
  0
POINT
  5
2E9
330
2E0
100
AcDbEntity
  8
Defpoints
 62
     0
100
AcDbPoint
 10
-322.9090142574351
 20
-60.84877441336067
 30
0.0
  0
ENDBLK
  5
2EB
330
2E0
100
AcDbEntity
  8
0
100
AcDbBlockEnd
  0
BLOCK
  5
2F6
330
2EC
100
AcDbEntity
  8
0
100
AcDbBlockBegin
  2
*D4
 70
     1
 71
     0
 10
0.0
 20
0.0
 30
0.0
  3
*D4
  1

  0
LINE
  5
2ED
330
2EC
100
AcDbEntity
  8
koty
 62
     0
370
    -2
100
AcDbLine
 10
-264.8755727901817
 20
-90.84877441336073
 30
0.0
 11
-418.6384231437115
 21
-90.84877441336079
 31
0.0
  0
LINE
  5
2EE
330
2EC
100
AcDbEntity
  8
koty
 62
     0
370
    -2
100
AcDbLine
 10
-264.8755727901804
 20
469.1512255866415
 30
0.0
 11
-418.6384231437114
 21
469.1512255866415
 31
0.0
  0
LINE
  5
2EF
330
2EC
100
AcDbEntity
  8
koty
 62
     0
370
    -2
100
AcDbLine
 10
-406.1384231437115
 20
-70.84877441336084
 30
0.0
 11
-406.1384231437114
 21
449.1512255866414
 31
0.0
  0
INSERT
  5
2F0
330
2EC
100
AcDbEntity
  8
koty
 62
     0
370
    -2
100
AcDbBlockReference
  2
VDDIM_DEFAULT
 10
-406.1384231437115
 20
-90.84877441336084
 30
0.0
 41
20.0
 42
20.0
 43
20.0
 50
270.0
  0
INSERT
  5
2F1
330
2EC
100
AcDbEntity
  8
koty
 62
     0
370
    -2
100
AcDbBlockReference
  2
VDDIM_DEFAULT
 10
-406.1384231437114
 20
469.1512255866415
 30
0.0
 41
20.0
 42
20.0
 43
20.0
 50
89.99999999999999
  0
MTEXT
  5
2F2
330
2EC
100
AcDbEntity
  8
koty
100
AcDbMText
 10
-422.3884231437114
 20
189.1512255866404
 30
0.0
 40
20.0
 41
0.0
 71
     5
 72
     1
  1
\A1;560
 11
1.015061051085853E-16
 21
1.0
 31
0.0
 73
     1
 44
1.0
  0
POINT
  5
2F3
330
2EC
100
AcDbEntity
  8
Defpoints
 62
     0
100
AcDbPoint
 10
-258.6255727901817
 20
-90.84877441336073
 30
0.0
  0
POINT
  5
2F4
330
2EC
100
AcDbEntity
  8
Defpoints
 62
     0
100
AcDbPoint
 10
-258.6255727901804
 20
469.1512255866415
 30
0.0
  0
POINT
  5
2F5
330
2EC
100
AcDbEntity
  8
Defpoints
 62
     0
100
AcDbPoint
 10
-406.1384231437114
 20
469.1512255866415
 30
0.0
  0
ENDBLK
  5
2F7
330
2EC
100
AcDbEntity
  8
0
100
AcDbBlockEnd
  0
BLOCK
  5
302
330
2F8
100
AcDbEntity
  8
0
100
AcDbBlockBegin
  2
*D5
 70
     1
 71
     0
 10
0.0
 20
0.0
 30
0.0
  3
*D5
  1

  0
LINE
  5
2F9
330
2F8
100
AcDbEntity
  8
koty
 62
     0
370
    -2
100
AcDbLine
 10
-264.8755727901804
 20
486.6512255866416
 30
0.0
 11
-502.4067986323498
 21
486.6512255866416
 31
0.0
  0
LINE
  5
2FA
330
2F8
100
AcDbEntity
  8
koty
 62
     0
370
    -2
100
AcDbLine
 10
-264.8755727901817
 20
-108.3487744133607
 30
0.0
 11
-502.4067986323498
 21
-108.3487744133607
 31
0.0
  0
LINE
  5
2FB
330
2F8
100
AcDbEntity
  8
koty
 62
     0
370
    -2
100
AcDbLine
 10
-489.9067986323498
 20
466.6512255866415
 30
0.0
 11
-489.9067986323498
 21
-88.34877441336073
 31
0.0
  0
INSERT
  5
2FC
330
2F8
100
AcDbEntity
  8
koty
 62
     0
370
    -2
100
AcDbBlockReference
  2
VDDIM_DEFAULT
 10
-489.9067986323498
 20
486.6512255866415
 30
0.0
 41
20.0
 42
20.0
 43
20.0
 50
90.0
  0
INSERT
  5
2FD
330
2F8
100
AcDbEntity
  8
koty
 62
     0
370
    -2
100
AcDbBlockReference
  2
VDDIM_DEFAULT
 10
-489.9067986323498
 20
-108.3487744133607
 30
0.0
 41
20.0
 42
20.0
 43
20.0
 50
270.0
  0
MTEXT
  5
2FE
330
2F8
100
AcDbEntity
  8
koty
100
AcDbMText
 10
-506.1567986323498
 20
189.1512255866405
 30
0.0
 40
20.0
 41
0.0
 71
     5
 72
     1
  1
\A1;595
 11
9.553515774925680E-17
 21
1.0
 31
0.0
 73
     1
 44
1.0
  0
POINT
  5
2FF
330
2F8
100
AcDbEntity
  8
Defpoints
 62
     0
100
AcDbPoint
 10
-258.6255727901804
 20
486.6512255866416
 30
0.0
  0
POINT
  5
300
330
2F8
100
AcDbEntity
  8
Defpoints
 62
     0
100
AcDbPoint
 10
-258.6255727901817
 20
-108.3487744133607
 30
0.0
  0
POINT
  5
301
330
2F8
100
AcDbEntity
  8
Defpoints
 62
     0
100
AcDbPoint
 10
-489.9067986323498
 20
-108.3487744133607
 30
0.0
  0
ENDBLK
  5
303
330
2F8
100
AcDbEntity
  8
0
100
AcDbBlockEnd
  0
BLOCK
  5
30E
330
304
100
AcDbEntity
  8
0
100
AcDbBlockBegin
  2
*D6
 70
     1
 71
     0
 10
0.0
 20
0.0
 30
0.0
  3
*D6
  1

  0
LINE
  5
305
330
304
100
AcDbEntity
  8
koty
 62
     0
370
    -2
100
AcDbLine
 10
-258.6255727901817
 20
-114.5987744133607
 30
0.0
 11
-258.6255727901817
 21
-177.1027309421643
 31
0.0
  0
LINE
  5
306
330
304
100
AcDbEntity
  8
koty
 62
     0
370
    -2
100
AcDbLine
 10
-78.62557279018182
 20
-114.5987744133615
 30
0.0
 11
-78.62557279018182
 21
-177.1027309421643
 31
0.0
  0
LINE
  5
307
330
304
100
AcDbEntity
  8
koty
 62
     0
370
    -2
100
AcDbLine
 10
-238.6255727901817
 20
-164.6027309421643
 30
0.0
 11
-98.62557279018182
 21
-164.6027309421643
 31
0.0
  0
INSERT
  5
308
330
304
100
AcDbEntity
  8
koty
 62
     0
370
    -2
100
AcDbBlockReference
  2
VDDIM_DEFAULT
 10
-258.6255727901817
 20
-164.6027309421643
 30
0.0
 41
20.0
 42
20.0
 43
20.0
 50
180.0
  0
INSERT
  5
309
330
304
100
AcDbEntity
  8
koty
 62
     0
370
    -2
100
AcDbBlockReference
  2
VDDIM_DEFAULT
 10
-78.62557279018182
 20
-164.6027309421643
 30
0.0
 41
20.0
 42
20.0
 43
20.0
  0
MTEXT
  5
30A
330
304
100
AcDbEntity
  8
koty
100
AcDbMText
 10
-168.6255727901818
 20
-148.3527309421643
 30
0.0
 40
20.0
 41
0.0
 71
     5
 72
     1
  1
\A1;180
 73
     1
 44
1.0
  0
POINT
  5
30B
330
304
100
AcDbEntity
  8
Defpoints
 62
     0
100
AcDbPoint
 10
-258.6255727901817
 20
-108.3487744133607
 30
0.0
  0
POINT
  5
30C
330
304
100
AcDbEntity
  8
Defpoints
 62
     0
100
AcDbPoint
 10
-78.62557279018182
 20
-108.3487744133615
 30
0.0
  0
POINT
  5
30D
330
304
100
AcDbEntity
  8
Defpoints
 62
     0
100
AcDbPoint
 10
-78.62557279018182
 20
-164.6027309421643
 30
0.0
  0
ENDBLK
  5
30F
330
304
100
AcDbEntity
  8
0
100
AcDbBlockEnd
  0
BLOCK
  5
319
330
310
100
AcDbEntity
  8
0
100
AcDbBlockBegin
  2
*D7
 70
     1
 71
     0
 10
0.0
 20
0.0
 30
0.0
  3
*D7
  1

  0
LINE
  5
311
330
310
100
AcDbEntity
  8
koty
 62
     0
370
    -2
100
AcDbLine
 10
378.5263994659421
 20
469.1512255866415
 30
0.0
 11
373.035280053504
 21
469.1512255866415
 31
0.0
  0
LINE
  5
312
330
310
100
AcDbEntity
  8
koty
 62
     0
370
    -2
100
AcDbLine
 10
321.035280053504
 20
469.1512255866415
 30
0.0
 11
301.035280053504
 21
469.1512255866415
 31
0.0
  0
MTEXT
  5
313
330
310
100
AcDbEntity
  8
koty
100
AcDbMText
 10
347.0383042278469
 20
501.1170686114072
 30
0.0
 40
20.0
 41
0.0
 71
     5
 72
     1
  1
\A1;\U+220512
 73
     1
 44
1.0
  0
INSERT
  5
314
330
310
100
AcDbEntity
  8
koty
 62
     0
370
    -2
100
AcDbBlockReference
  2
VDDIM_DEFAULT
 10
353.035280053504
 20
469.1512255866415
 30
0.0
 41
20.0
 42
20.0
 43
20.0
 50
180.0
  0
INSERT
  5
315
330
310
100
AcDbEntity
  8
koty
 62
     0
370
    -2
100
AcDbBlockReference
  2
VDDIM_DEFAULT
 10
341.035280053504
 20
469.1512255866415
 30
0.0
 41
20.0
 42
20.0
 43
20.0
  0
LINE
  5
316
330
310
100
AcDbEntity
  8
koty
 62
     0
370
    -2
100
AcDbLine
 10
341.035280053504
 20
469.1512255866415
 30
0.0
 11
353.035280053504
 21
469.1512255866415
 31
0.0
  0
POINT
  5
317
330
310
100
AcDbEntity
  8
Defpoints
 62
     0
100
AcDbPoint
 10
353.035280053504
 20
469.1512255866415
 30
0.0
  0
POINT
  5
318
330
310
100
AcDbEntity
  8
Defpoints
 62
     0
100
AcDbPoint
 10
341.035280053504
 20
469.1512255866415
 30
0.0
  0
ENDBLK
  5
31A
330
310
100
AcDbEntity
  8
0
100
AcDbBlockEnd
  0
ENDSEC
  0
SECTION
  2
ENTITIES
  0
CIRCLE
  5
35
330
2B1
100
AcDbEntity
  8
0
100
AcDbCircle
 10
347.035280053504
 20
189.1512255866415
 30
0.0
 40
250.0
  0
CIRCLE
  5
36
330
2B1
100
AcDbEntity
  8
0
100
AcDbCircle
 10
347.035280053504
 20
189.1512255866415
 30
0.0
 40
297.5
  0
CIRCLE
  5
37
330
2B1
100
AcDbEntity
  8
0
100
AcDbCircle
 10
347.035280053504
 20
189.1512255866415
 30
0.0
 40
100.0
  0
CIRCLE
  5
38
330
2B1
100
AcDbEntity
  8
0
100
AcDbCircle
 10
347.035280053504
 20
189.1512255866415
 30
0.0
 40
60.0
  0
ARC
  5
39
330
2B1
100
AcDbEntity
  8
0
100
AcDbCircle
 10
347.035280053504
 20
189.1512255866415
 30
0.0
 40
248.0568880475703
100
AcDbArc
 50
69.8583417517174
 51
103.9570812269832
  0
CIRCLE
  5
3F
330
2B1
100
AcDbEntity
  8
0
100
AcDbCircle
 10
347.035280053504
 20
469.1512255866415
 30
0.0
 40
6.0
  0
CIRCLE
  5
40
330
2B1
100
AcDbEntity
  8
0
100
AcDbCircle
 10
207.0352800535041
 20
431.6383386462844
 30
0.0
 40
6.0
  0
CIRCLE
  5
41
330
2B1
100
AcDbEntity
  8
0
100
AcDbCircle
 10
104.5481669938612
 20
329.1512255866415
 30
0.0
 40
6.0
  0
CIRCLE
  5
42
330
2B1
100
AcDbEntity
  8
0
100
AcDbCircle
 10
67.03528005350404
 20
189.1512255866416
 30
0.0
 40
6.0
  0
CIRCLE
  5
43
330
2B1
100
AcDbEntity
  8
0
100
AcDbCircle
 10
104.5481669938613
 20
49.15122558664174
 30
0.0
 40
6.0
  0
CIRCLE
  5
44
330
2B1
100
AcDbEntity
  8
0
100
AcDbCircle
 10
207.035280053504
 20
-53.33588747300121
 30
0.0
 40
6.0
  0
CIRCLE
  5
45
330
2B1
100
AcDbEntity
  8
0
100
AcDbCircle
 10
347.0352800535038
 20
-90.84877441335839
 30
0.0
 40
6.0
  0
CIRCLE
  5
46
330
2B1
100
AcDbEntity
  8
0
100
AcDbCircle
 10
487.0352800535038
 20
-53.33588747300129
 30
0.0
 40
6.0
  0
CIRCLE
  5
47
330
2B1
100
AcDbEntity
  8
0
100
AcDbCircle
 10
589.5223931131467
 20
49.15122558664143
 30
0.0
 40
6.0
  0
CIRCLE
  5
48
330
2B1
100
AcDbEntity
  8
0
100
AcDbCircle
 10
627.035280053504
 20
189.1512255866415
 30
0.0
 40
6.0
  0
CIRCLE
  5
49
330
2B1
100
AcDbEntity
  8
0
100
AcDbCircle
 10
589.5223931131467
 20
329.1512255866416
 30
0.0
 40
6.0
  0
CIRCLE
  5
4A
330
2B1
100
AcDbEntity
  8
0
100
AcDbCircle
 10
487.0352800535039
 20
431.6383386462844
 30
0.0
 40
6.0
  0
LINE
  5
4B
330
2B1
100
AcDbEntity
  8
0
100
AcDbLine
 10
385.7785824607907
 20
234.9655958057936
 30
0.0
 11
520.2410825689079
 21
369.4280959139103
 31
0.0
  0
LINE
  5
4C
330
2B1
100
AcDbEntity
  8
0
100
AcDbLine
 10
392.8496502726562
 20
227.8945279939281
 30
0.0
 11
527.3121503807734
 21
362.3570281020448
 31
0.0
  0
LINE
  5
4E
330
2B1
100
AcDbEntity
  8
0
100
AcDbLine
 10
386.5388739057913
 20
234.3116736884211
 30
0.0
 11
520.9609193600569
 21
368.7337191426862
 31
0.0
  0
LINE
  5
4F
330
2B1
100
AcDbEntity
  8
0
100
AcDbLine
 10
392.1957281552837
 20
228.6548194389287
 30
0.0
 11
526.6177736095494
 21
363.0768648931938
 31
0.0
  0
LINE
  5
50
330
2B1
100
AcDbEntity
  8
0
100
AcDbLine
 10
301.8748319517244
 20
228.6548194389289
 30
0.0
 11
167.4527864974593
 21
363.0768648931946
 31
0.0
  0
LINE
  5
51
330
2B1
100
AcDbEntity
  8
0
100
AcDbLine
 10
301.2209098343519
 20
227.8945279939283
 30
0.0
 11
166.7584097262353
 21
362.3570281020455
 31
0.0
  0
LINE
  5
52
330
2B1
100
AcDbEntity
  8
0
100
AcDbLine
 10
307.5316862012168
 20
234.3116736884212
 30
0.0
 11
173.1096407469518
 21
368.733719142687
 31
0.0
  0
LINE
  5
53
330
2B1
100
AcDbEntity
  8
0
100
AcDbLine
 10
308.2919776462174
 20
234.9655958057937
 30
0.0
 11
173.8294775381008
 21
369.428095913911
 31
0.0
  0
LINE
  5
54
330
2B1
100
AcDbEntity
  8
0
100
AcDbLine
 10
307.5316862012166
 20
143.990777484862
 30
0.0
 11
173.1096407469509
 21
9.568732030597005
 31
0.0
  0
LINE
  5
55
330
2B1
100
AcDbEntity
  8
0
100
AcDbLine
 10
308.2919776462172
 20
143.3368553674895
 30
0.0
 11
173.8294775381
 21
8.874355259372919
 31
0.0
  0
LINE
  5
56
330
2B1
100
AcDbEntity
  8
0
100
AcDbLine
 10
301.8748319517243
 20
149.6476317343544
 30
0.0
 11
167.4527864974585
 21
15.22558628008943
 31
0.0
  0
LINE
  5
57
330
2B1
100
AcDbEntity
  8
0
100
AcDbLine
 10
301.2209098343518
 20
150.407923179355
 30
0.0
 11
166.7584097262345
 21
15.94542307123845
 31
0.0
  0
LINE
  5
58
330
2B1
100
AcDbEntity
  8
0
100
AcDbLine
 10
392.1957281552835
 20
149.6476317343542
 30
0.0
 11
526.6177736095484
 21
15.22558628008846
 31
0.0
  0
LINE
  5
59
330
2B1
100
AcDbEntity
  8
0
100
AcDbLine
 10
392.849650272656
 20
150.4079231793547
 30
0.0
 11
527.3121503807726
 21
15.94542307123754
 31
0.0
  0
LINE
  5
5A
330
2B1
100
AcDbEntity
  8
0
100
AcDbLine
 10
386.5388739057911
 20
143.9907774848618
 30
0.0
 11
520.960919360056
 21
9.568732030596038
 31
0.0
  0
LINE
  5
5B
330
2B1
100
AcDbEntity
  8
0
100
AcDbLine
 10
385.7785824607905
 20
143.3368553674893
 30
0.0
 11
520.2410825689071
 21
8.87435525937201
 31
0.0
  0
LINE
  5
5C
330
2B1
100
AcDbEntity
  8
0
100
AcDbLine
 10
345.6705155830479
 20
249.135702061311
 30
0.0
 11
345.6705155830479
 21
277.4965636485968
 31
0.0
  0
LINE
  5
5D
330
2B1
100
AcDbEntity
  8
0
100
AcDbLine
 10
345.6705155830479
 20
277.4965636485968
 30
0.0
 11
347.0352800535041
 21
277.4965636485968
 31
0.0
  0
LINE
  5
5E
330
2B1
100
AcDbEntity
  8
0
100
AcDbLine
 10
348.4000445239601
 20
249.1357020613111
 30
0.0
 11
348.4000445239602
 21
277.4965636485968
 31
0.0
  0
LINE
  5
5F
330
2B1
100
AcDbEntity
  8
0
100
AcDbLine
 10
348.4000445239602
 20
277.4965636485968
 30
0.0
 11
347.0352800535041
 21
277.4965636485968
 31
0.0
  0
LINE
  5
60
330
2B1
100
AcDbEntity
  8
0
100
AcDbLine
 10
333.9943483182512
 20
247.7168648256738
 30
0.0
 11
328.4614186985328
 21
275.5327804100371
 31
0.0
  0
LINE
  5
61
330
2B1
100
AcDbEntity
  8
0
100
AcDbLine
 10
336.6714301259325
 20
248.2493695057087
 30
0.0
 11
331.1385005062142
 21
276.065285090072
 31
0.0
  0
LINE
  5
62
330
2B1
100
AcDbEntity
  8
0
100
AcDbLine
 10
331.1385005062142
 20
276.065285090072
 30
0.0
 11
329.7999596023735
 21
275.7990327500546
 31
0.0
  0
LINE
  5
63
330
2B1
100
AcDbEntity
  8
0
100
AcDbLine
 10
328.4614186985328
 20
275.5327804100371
 30
0.0
 11
329.7999596023735
 21
275.7990327500546
 31
0.0
  0
LINE
  5
64
330
2B1
100
AcDbEntity
  8
0
100
AcDbLine
 10
322.8193367466015
 20
244.0473829180694
 30
0.0
 11
311.9661048895478
 21
270.2494024629483
 31
0.0
  0
LINE
  5
65
330
2B1
100
AcDbEntity
  8
0
100
AcDbLine
 10
325.3410926685075
 20
245.0919284219176
 30
0.0
 11
314.4878608114539
 21
271.2939479667965
 31
0.0
  0
LINE
  5
66
330
2B1
100
AcDbEntity
  8
0
100
AcDbLine
 10
314.4878608114539
 20
271.2939479667965
 30
0.0
 11
313.2269828505008
 21
270.7716752148725
 31
0.0
  0
LINE
  5
67
330
2B1
100
AcDbEntity
  8
0
100
AcDbLine
 10
311.9661048895478
 20
270.2494024629483
 30
0.0
 11
313.2269828505008
 21
270.7716752148725
 31
0.0
  0
LINE
  5
68
330
2B1
100
AcDbEntity
  8
0
100
AcDbLine
 10
312.5749302957787
 20
238.268272470338
 30
0.0
 11
296.8184798150936
 21
261.8494670588848
 31
0.0
  0
LINE
  5
69
330
2B1
100
AcDbEntity
  8
0
100
AcDbLine
 10
314.8444506660474
 20
239.7847175000743
 30
0.0
 11
299.0880001853625
 21
263.3659120886211
 31
0.0
  0
LINE
  5
6A
330
2B1
100
AcDbEntity
  8
0
100
AcDbLine
 10
299.0880001853625
 20
263.3659120886211
 30
0.0
 11
297.953240000228
 21
262.6076895737529
 31
0.0
  0
LINE
  5
6B
330
2B1
100
AcDbEntity
  8
0
100
AcDbLine
 10
296.8184798150936
 20
261.8494670588848
 30
0.0
 11
297.953240000228
 21
262.6076895737529
 31
0.0
  0
LINE
  5
6C
330
2B1
100
AcDbEntity
  8
0
100
AcDbLine
 10
303.6548157605583
 20
230.6016214560233
 30
0.0
 11
283.6006582118955
 21
250.6557790046862
 31
0.0
  0
LINE
  5
6D
330
2B1
100
AcDbEntity
  8
0
100
AcDbLine
 10
305.5848841841221
 20
232.5316898795872
 30
0.0
 11
285.5307266354594
 21
252.5858474282502
 31
0.0
  0
LINE
  5
6E
330
2B1
100
AcDbEntity
  8
0
100
AcDbLine
 10
285.5307266354594
 20
252.5858474282502
 30
0.0
 11
284.5656924236775
 21
251.6208132164681
 31
0.0
  0
LINE
  5
6F
330
2B1
100
AcDbEntity
  8
0
100
AcDbLine
 10
283.6006582118955
 20
250.6557790046862
 30
0.0
 11
284.5656924236775
 21
251.6208132164681
 31
0.0
  0
LINE
  5
70
330
2B1
100
AcDbEntity
  8
0
100
AcDbLine
 10
296.4017881400712
 20
221.3420549740981
 30
0.0
 11
272.8205935515246
 21
237.0985054547832
 31
0.0
  0
LINE
  5
71
330
2B1
100
AcDbEntity
  8
0
100
AcDbLine
 10
297.9182331698075
 20
223.6115753443669
 30
0.0
 11
274.337038581261
 21
239.3680258250521
 31
0.0
  0
LINE
  5
72
330
2B1
100
AcDbEntity
  8
0
100
AcDbLine
 10
274.337038581261
 20
239.3680258250521
 30
0.0
 11
273.5788160663928
 21
238.2332656399176
 31
0.0
  0
LINE
  5
73
330
2B1
100
AcDbEntity
  8
0
100
AcDbLine
 10
272.8205935515246
 20
237.0985054547832
 30
0.0
 11
273.5788160663928
 21
238.2332656399176
 31
0.0
  0
LINE
  5
74
330
2B1
100
AcDbEntity
  8
0
100
AcDbLine
 10
291.0945772182281
 20
210.845412971638
 30
0.0
 11
264.8925576733491
 21
221.6986448286918
 31
0.0
  0
LINE
  5
75
330
2B1
100
AcDbEntity
  8
0
100
AcDbLine
 10
292.1391227220762
 20
213.3671688935439
 30
0.0
 11
265.9371031771973
 21
224.2204007505979
 31
0.0
  0
LINE
  5
76
330
2B1
100
AcDbEntity
  8
0
100
AcDbLine
 10
265.9371031771973
 20
224.2204007505979
 30
0.0
 11
265.4148304252732
 21
222.9595227896448
 31
0.0
  0
LINE
  5
77
330
2B1
100
AcDbEntity
  8
0
100
AcDbLine
 10
264.8925576733491
 20
221.6986448286918
 30
0.0
 11
265.4148304252732
 21
222.9595227896448
 31
0.0
  0
LINE
  5
78
330
2B1
100
AcDbEntity
  8
0
100
AcDbLine
 10
287.9371361344368
 20
199.5150755142131
 30
0.0
 11
260.1212205500735
 21
205.0480051339315
 31
0.0
  0
LINE
  5
79
330
2B1
100
AcDbEntity
  8
0
100
AcDbLine
 10
288.4696408144717
 20
202.1921573218943
 30
0.0
 11
260.6537252301084
 21
207.7250869416128
 31
0.0
  0
LINE
  5
7A
330
2B1
100
AcDbEntity
  8
0
100
AcDbLine
 10
260.6537252301084
 20
207.7250869416128
 30
0.0
 11
260.3874728900909
 21
206.3865460377722
 31
0.0
  0
LINE
  5
7B
330
2B1
100
AcDbEntity
  8
0
100
AcDbLine
 10
260.1212205500735
 20
205.0480051339315
 30
0.0
 11
260.3874728900909
 21
206.3865460377722
 31
0.0
  0
LINE
  5
7C
330
2B1
100
AcDbEntity
  8
0
100
AcDbLine
 10
287.0508035788344
 20
187.7864611161855
 30
0.0
 11
258.6899419915487
 21
187.7864611161855
 31
0.0
  0
LINE
  5
7D
330
2B1
100
AcDbEntity
  8
0
100
AcDbLine
 10
287.0508035788344
 20
190.5159900570976
 30
0.0
 11
258.6899419915487
 21
190.5159900570977
 31
0.0
  0
LINE
  5
7E
330
2B1
100
AcDbEntity
  8
0
100
AcDbLine
 10
258.6899419915487
 20
190.5159900570977
 30
0.0
 11
258.6899419915487
 21
189.1512255866416
 31
0.0
  0
LINE
  5
7F
330
2B1
100
AcDbEntity
  8
0
100
AcDbLine
 10
258.6899419915487
 20
187.7864611161855
 30
0.0
 11
258.6899419915487
 21
189.1512255866416
 31
0.0
  0
LINE
  5
80
330
2B1
100
AcDbEntity
  8
0
100
AcDbLine
 10
288.4696408144717
 20
176.1102938513888
 30
0.0
 11
260.6537252301084
 21
170.5773642316703
 31
0.0
  0
LINE
  5
81
330
2B1
100
AcDbEntity
  8
0
100
AcDbLine
 10
287.9371361344368
 20
178.78737565907
 30
0.0
 11
260.1212205500735
 21
173.2544460393517
 31
0.0
  0
LINE
  5
82
330
2B1
100
AcDbEntity
  8
0
100
AcDbLine
 10
260.1212205500735
 20
173.2544460393517
 30
0.0
 11
260.387472890091
 21
171.915905135511
 31
0.0
  0
LINE
  5
83
330
2B1
100
AcDbEntity
  8
0
100
AcDbLine
 10
260.6537252301084
 20
170.5773642316703
 30
0.0
 11
260.387472890091
 21
171.915905135511
 31
0.0
  0
LINE
  5
84
330
2B1
100
AcDbEntity
  8
0
100
AcDbLine
 10
292.1391227220762
 20
164.9352822797391
 30
0.0
 11
265.9371031771972
 21
154.0820504226854
 31
0.0
  0
LINE
  5
85
330
2B1
100
AcDbEntity
  8
0
100
AcDbLine
 10
291.0945772182281
 20
167.457038201645
 30
0.0
 11
264.8925576733491
 21
156.6038063445913
 31
0.0
  0
LINE
  5
86
330
2B1
100
AcDbEntity
  8
0
100
AcDbLine
 10
264.8925576733491
 20
156.6038063445913
 30
0.0
 11
265.4148304252732
 21
155.3429283836383
 31
0.0
  0
LINE
  5
87
330
2B1
100
AcDbEntity
  8
0
100
AcDbLine
 10
265.9371031771972
 20
154.0820504226854
 30
0.0
 11
265.4148304252732
 21
155.3429283836383
 31
0.0
  0
LINE
  5
88
330
2B1
100
AcDbEntity
  8
0
100
AcDbLine
 10
297.9182331698075
 20
154.6908758289162
 30
0.0
 11
274.3370385812608
 21
138.9344253482311
 31
0.0
  0
LINE
  5
89
330
2B1
100
AcDbEntity
  8
0
100
AcDbLine
 10
296.4017881400711
 20
156.9603961991849
 30
0.0
 11
272.8205935515244
 21
141.2039457185
 31
0.0
  0
LINE
  5
8A
330
2B1
100
AcDbEntity
  8
0
100
AcDbLine
 10
272.8205935515244
 20
141.2039457185
 30
0.0
 11
273.5788160663926
 21
140.0691855333656
 31
0.0
  0
LINE
  5
8B
330
2B1
100
AcDbEntity
  8
0
100
AcDbLine
 10
274.3370385812608
 20
138.9344253482311
 30
0.0
 11
273.5788160663926
 21
140.0691855333656
 31
0.0
  0
LINE
  5
8C
330
2B1
100
AcDbEntity
  8
0
100
AcDbLine
 10
305.5848841841223
 20
145.7707612936959
 30
0.0
 11
285.5307266354594
 21
125.716603745033
 31
0.0
  0
LINE
  5
8D
330
2B1
100
AcDbEntity
  8
0
100
AcDbLine
 10
303.6548157605583
 20
147.7008297172597
 30
0.0
 11
283.6006582118954
 21
127.646672168597
 31
0.0
  0
LINE
  5
8E
330
2B1
100
AcDbEntity
  8
0
100
AcDbLine
 10
283.6006582118954
 20
127.646672168597
 30
0.0
 11
284.5656924236774
 21
126.681637956815
 31
0.0
  0
LINE
  5
8F
330
2B1
100
AcDbEntity
  8
0
100
AcDbLine
 10
285.5307266354594
 20
125.716603745033
 30
0.0
 11
284.5656924236774
 21
126.681637956815
 31
0.0
  0
LINE
  5
90
330
2B1
100
AcDbEntity
  8
0
100
AcDbLine
 10
314.8444506660474
 20
138.5177336732088
 30
0.0
 11
299.0880001853623
 21
114.9365390846622
 31
0.0
  0
LINE
  5
91
330
2B1
100
AcDbEntity
  8
0
100
AcDbLine
 10
312.5749302957787
 20
140.0341787029451
 30
0.0
 11
296.8184798150934
 21
116.4529841143985
 31
0.0
  0
LINE
  5
92
330
2B1
100
AcDbEntity
  8
0
100
AcDbLine
 10
296.8184798150934
 20
116.4529841143985
 30
0.0
 11
297.9532400002279
 21
115.6947615995304
 31
0.0
  0
LINE
  5
93
330
2B1
100
AcDbEntity
  8
0
100
AcDbLine
 10
299.0880001853623
 20
114.9365390846622
 30
0.0
 11
297.9532400002279
 21
115.6947615995304
 31
0.0
  0
LINE
  5
94
330
2B1
100
AcDbEntity
  8
0
100
AcDbLine
 10
325.3410926685075
 20
133.2105227513655
 30
0.0
 11
314.4878608114536
 21
107.0085032064866
 31
0.0
  0
LINE
  5
95
330
2B1
100
AcDbEntity
  8
0
100
AcDbLine
 10
322.8193367466015
 20
134.2550682552136
 30
0.0
 11
311.9661048895476
 21
108.0530487103348
 31
0.0
  0
LINE
  5
96
330
2B1
100
AcDbEntity
  8
0
100
AcDbLine
 10
311.9661048895476
 20
108.0530487103348
 30
0.0
 11
313.2269828505006
 21
107.5307759584107
 31
0.0
  0
LINE
  5
97
330
2B1
100
AcDbEntity
  8
0
100
AcDbLine
 10
314.4878608114536
 20
107.0085032064866
 30
0.0
 11
313.2269828505006
 21
107.5307759584107
 31
0.0
  0
LINE
  5
98
330
2B1
100
AcDbEntity
  8
0
100
AcDbLine
 10
336.6714301259324
 20
130.0530816675744
 30
0.0
 11
331.1385005062139
 21
102.237166083211
 31
0.0
  0
LINE
  5
99
330
2B1
100
AcDbEntity
  8
0
100
AcDbLine
 10
333.9943483182512
 20
130.5855863476093
 30
0.0
 11
328.4614186985326
 21
102.769670763246
 31
0.0
  0
LINE
  5
9A
330
2B1
100
AcDbEntity
  8
0
100
AcDbLine
 10
328.4614186985326
 20
102.769670763246
 30
0.0
 11
329.7999596023732
 21
102.5034184232285
 31
0.0
  0
LINE
  5
9B
330
2B1
100
AcDbEntity
  8
0
100
AcDbLine
 10
331.1385005062139
 20
102.237166083211
 30
0.0
 11
329.7999596023732
 21
102.5034184232285
 31
0.0
  0
LINE
  5
9C
330
2B1
100
AcDbEntity
  8
0
100
AcDbLine
 10
348.4000445239599
 20
129.166749111972
 30
0.0
 11
348.4000445239599
 21
100.8058875246862
 31
0.0
  0
LINE
  5
9D
330
2B1
100
AcDbEntity
  8
0
100
AcDbLine
 10
345.6705155830478
 20
129.166749111972
 30
0.0
 11
345.6705155830476
 21
100.8058875246862
 31
0.0
  0
LINE
  5
9E
330
2B1
100
AcDbEntity
  8
0
100
AcDbLine
 10
345.6705155830476
 20
100.8058875246862
 30
0.0
 11
347.0352800535038
 21
100.8058875246862
 31
0.0
  0
LINE
  5
9F
330
2B1
100
AcDbEntity
  8
0
100
AcDbLine
 10
348.4000445239599
 20
100.8058875246862
 30
0.0
 11
347.0352800535038
 21
100.8058875246862
 31
0.0
  0
LINE
  5
A0
330
2B1
100
AcDbEntity
  8
0
100
AcDbLine
 10
360.0762117887565
 20
130.5855863476092
 30
0.0
 11
365.609141408475
 21
102.7696707632459
 31
0.0
  0
LINE
  5
A1
330
2B1
100
AcDbEntity
  8
0
100
AcDbLine
 10
357.3991299810754
 20
130.0530816675743
 30
0.0
 11
362.9320596007937
 21
102.237166083211
 31
0.0
  0
LINE
  5
A2
330
2B1
100
AcDbEntity
  8
0
100
AcDbLine
 10
362.9320596007937
 20
102.237166083211
 30
0.0
 11
364.2706005046343
 21
102.5034184232284
 31
0.0
  0
LINE
  5
A3
330
2B1
100
AcDbEntity
  8
0
100
AcDbLine
 10
365.609141408475
 20
102.7696707632459
 30
0.0
 11
364.2706005046343
 21
102.5034184232284
 31
0.0
  0
LINE
  5
A4
330
2B1
100
AcDbEntity
  8
0
100
AcDbLine
 10
371.2512233604063
 20
134.2550682552135
 30
0.0
 11
382.10445521746
 21
108.0530487103346
 31
0.0
  0
LINE
  5
A5
330
2B1
100
AcDbEntity
  8
0
100
AcDbLine
 10
368.7294674385003
 20
133.2105227513654
 30
0.0
 11
379.582699295554
 21
107.0085032064864
 31
0.0
  0
LINE
  5
A6
330
2B1
100
AcDbEntity
  8
0
100
AcDbLine
 10
379.582699295554
 20
107.0085032064864
 30
0.0
 11
380.843577256507
 21
107.5307759584105
 31
0.0
  0
LINE
  5
A7
330
2B1
100
AcDbEntity
  8
0
100
AcDbLine
 10
382.10445521746
 20
108.0530487103346
 30
0.0
 11
380.843577256507
 21
107.5307759584105
 31
0.0
  0
LINE
  5
A8
330
2B1
100
AcDbEntity
  8
0
100
AcDbLine
 10
381.4956298112292
 20
140.0341787029451
 30
0.0
 11
397.2520802919142
 21
116.4529841143984
 31
0.0
  0
LINE
  5
A9
330
2B1
100
AcDbEntity
  8
0
100
AcDbLine
 10
379.2261094409604
 20
138.5177336732087
 30
0.0
 11
394.9825599216453
 21
114.936539084662
 31
0.0
  0
LINE
  5
AA
330
2B1
100
AcDbEntity
  8
0
100
AcDbLine
 10
394.9825599216453
 20
114.936539084662
 30
0.0
 11
396.1173201067797
 21
115.6947615995302
 31
0.0
  0
LINE
  5
AB
330
2B1
100
AcDbEntity
  8
0
100
AcDbLine
 10
397.2520802919142
 20
116.4529841143984
 30
0.0
 11
396.1173201067797
 21
115.6947615995302
 31
0.0
  0
LINE
  5
AC
330
2B1
100
AcDbEntity
  8
0
100
AcDbLine
 10
390.4157443464496
 20
147.7008297172597
 30
0.0
 11
410.4699018951124
 21
127.6466721685968
 31
0.0
  0
LINE
  5
AD
330
2B1
100
AcDbEntity
  8
0
100
AcDbLine
 10
388.4856759228857
 20
145.7707612936957
 30
0.0
 11
408.5398334715484
 21
125.7166037450327
 31
0.0
  0
LINE
  5
AE
330
2B1
100
AcDbEntity
  8
0
100
AcDbLine
 10
408.5398334715484
 20
125.7166037450327
 30
0.0
 11
409.5048676833304
 21
126.6816379568148
 31
0.0
  0
LINE
  5
AF
330
2B1
100
AcDbEntity
  8
0
100
AcDbLine
 10
410.4699018951124
 20
127.6466721685968
 30
0.0
 11
409.5048676833304
 21
126.6816379568148
 31
0.0
  0
LINE
  5
B0
330
2B1
100
AcDbEntity
  8
0
100
AcDbLine
 10
397.6687719669367
 20
156.9603961991847
 30
0.0
 11
421.2499665554833
 21
141.2039457184996
 31
0.0
  0
LINE
  5
B1
330
2B1
100
AcDbEntity
  8
0
100
AcDbLine
 10
396.1523269372004
 20
154.6908758289159
 30
0.0
 11
419.733521525747
 21
138.9344253482307
 31
0.0
  0
LINE
  5
B2
330
2B1
100
AcDbEntity
  8
0
100
AcDbLine
 10
419.733521525747
 20
138.9344253482307
 30
0.0
 11
420.4917440406151
 21
140.0691855333652
 31
0.0
  0
LINE
  5
B3
330
2B1
100
AcDbEntity
  8
0
100
AcDbLine
 10
421.2499665554833
 20
141.2039457184996
 30
0.0
 11
420.4917440406151
 21
140.0691855333652
 31
0.0
  0
LINE
  5
B4
330
2B1
100
AcDbEntity
  8
0
100
AcDbLine
 10
402.9759828887799
 20
167.4570382016448
 30
0.0
 11
429.1780024336588
 21
156.603806344591
 31
0.0
  0
LINE
  5
B5
330
2B1
100
AcDbEntity
  8
0
100
AcDbLine
 10
401.9314373849319
 20
164.9352822797389
 30
0.0
 11
428.1334569298107
 21
154.082050422685
 31
0.0
  0
LINE
  5
B6
330
2B1
100
AcDbEntity
  8
0
100
AcDbLine
 10
428.1334569298107
 20
154.082050422685
 30
0.0
 11
428.6557296817347
 21
155.342928383638
 31
0.0
  0
LINE
  5
B7
330
2B1
100
AcDbEntity
  8
0
100
AcDbLine
 10
429.1780024336588
 20
156.603806344591
 30
0.0
 11
428.6557296817347
 21
155.342928383638
 31
0.0
  0
LINE
  5
B8
330
2B1
100
AcDbEntity
  8
0
100
AcDbLine
 10
406.1334239725711
 20
178.7873756590698
 30
0.0
 11
433.9493395569344
 21
173.2544460393513
 31
0.0
  0
LINE
  5
B9
330
2B1
100
AcDbEntity
  8
0
100
AcDbLine
 10
405.6009192925363
 20
176.1102938513886
 30
0.0
 11
433.4168348768995
 21
170.57736423167
 31
0.0
  0
LINE
  5
BA
330
2B1
100
AcDbEntity
  8
0
100
AcDbLine
 10
433.4168348768995
 20
170.57736423167
 30
0.0
 11
433.6830872169169
 21
171.9159051355106
 31
0.0
  0
LINE
  5
BB
330
2B1
100
AcDbEntity
  8
0
100
AcDbLine
 10
433.9493395569344
 20
173.2544460393513
 30
0.0
 11
433.6830872169169
 21
171.9159051355106
 31
0.0
  0
LINE
  5
BC
330
2B1
100
AcDbEntity
  8
0
100
AcDbLine
 10
407.0197565281735
 20
190.5159900570975
 30
0.0
 11
435.3806181154594
 21
190.5159900570975
 31
0.0
  0
LINE
  5
BD
330
2B1
100
AcDbEntity
  8
0
100
AcDbLine
 10
407.0197565281735
 20
187.7864611161854
 30
0.0
 11
435.3806181154594
 21
187.7864611161852
 31
0.0
  0
LINE
  5
BE
330
2B1
100
AcDbEntity
  8
0
100
AcDbLine
 10
435.3806181154594
 20
187.7864611161852
 30
0.0
 11
435.3806181154594
 21
189.1512255866413
 31
0.0
  0
LINE
  5
BF
330
2B1
100
AcDbEntity
  8
0
100
AcDbLine
 10
435.3806181154594
 20
190.5159900570975
 30
0.0
 11
435.3806181154594
 21
189.1512255866413
 31
0.0
  0
LINE
  5
C0
330
2B1
100
AcDbEntity
  8
0
100
AcDbLine
 10
405.6009192925363
 20
202.1921573218941
 30
0.0
 11
433.4168348768995
 21
207.7250869416125
 31
0.0
  0
LINE
  5
C1
330
2B1
100
AcDbEntity
  8
0
100
AcDbLine
 10
406.1334239725712
 20
199.5150755142129
 30
0.0
 11
433.9493395569345
 21
205.0480051339312
 31
0.0
  0
LINE
  5
C2
330
2B1
100
AcDbEntity
  8
0
100
AcDbLine
 10
433.9493395569345
 20
205.0480051339312
 30
0.0
 11
433.6830872169171
 21
206.3865460377718
 31
0.0
  0
LINE
  5
C3
330
2B1
100
AcDbEntity
  8
0
100
AcDbLine
 10
433.4168348768995
 20
207.7250869416125
 30
0.0
 11
433.6830872169171
 21
206.3865460377718
 31
0.0
  0
LINE
  5
C4
330
2B1
100
AcDbEntity
  8
0
100
AcDbLine
 10
401.9314373849319
 20
213.367168893544
 30
0.0
 11
428.1334569298108
 21
224.2204007505977
 31
0.0
  0
LINE
  5
C5
330
2B1
100
AcDbEntity
  8
0
100
AcDbLine
 10
402.9759828887801
 20
210.845412971638
 30
0.0
 11
429.1780024336589
 21
221.6986448286916
 31
0.0
  0
LINE
  5
C6
330
2B1
100
AcDbEntity
  8
0
100
AcDbLine
 10
429.1780024336589
 20
221.6986448286916
 30
0.0
 11
428.6557296817348
 21
222.9595227896446
 31
0.0
  0
LINE
  5
C7
330
2B1
100
AcDbEntity
  8
0
100
AcDbLine
 10
428.1334569298108
 20
224.2204007505977
 30
0.0
 11
428.6557296817348
 21
222.9595227896446
 31
0.0
  0
LINE
  5
C8
330
2B1
100
AcDbEntity
  8
0
100
AcDbLine
 10
396.1523269372005
 20
223.6115753443669
 30
0.0
 11
419.7335215257472
 21
239.3680258250518
 31
0.0
  0
LINE
  5
C9
330
2B1
100
AcDbEntity
  8
0
100
AcDbLine
 10
397.6687719669369
 20
221.342054974098
 30
0.0
 11
421.2499665554835
 21
237.098505454783
 31
0.0
  0
LINE
  5
CA
330
2B1
100
AcDbEntity
  8
0
100
AcDbLine
 10
421.2499665554835
 20
237.098505454783
 30
0.0
 11
420.4917440406154
 21
238.2332656399174
 31
0.0
  0
LINE
  5
CB
330
2B1
100
AcDbEntity
  8
0
100
AcDbLine
 10
419.7335215257472
 20
239.3680258250518
 30
0.0
 11
420.4917440406154
 21
238.2332656399174
 31
0.0
  0
LINE
  5
CC
330
2B1
100
AcDbEntity
  8
0
100
AcDbLine
 10
388.4856759228858
 20
232.5316898795872
 30
0.0
 11
408.5398334715486
 21
252.58584742825
 31
0.0
  0
LINE
  5
CD
330
2B1
100
AcDbEntity
  8
0
100
AcDbLine
 10
390.4157443464498
 20
230.6016214560233
 30
0.0
 11
410.4699018951127
 21
250.655779004686
 31
0.0
  0
LINE
  5
CE
330
2B1
100
AcDbEntity
  8
0
100
AcDbLine
 10
410.4699018951127
 20
250.655779004686
 30
0.0
 11
409.5048676833307
 21
251.620813216468
 31
0.0
  0
LINE
  5
CF
330
2B1
100
AcDbEntity
  8
0
100
AcDbLine
 10
408.5398334715486
 20
252.58584742825
 30
0.0
 11
409.5048676833307
 21
251.620813216468
 31
0.0
  0
LINE
  5
D0
330
2B1
100
AcDbEntity
  8
0
100
AcDbLine
 10
379.2261094409606
 20
239.7847175000742
 30
0.0
 11
394.9825599216456
 21
263.3659120886209
 31
0.0
  0
LINE
  5
D1
330
2B1
100
AcDbEntity
  8
0
100
AcDbLine
 10
381.4956298112294
 20
238.2682724703379
 30
0.0
 11
397.2520802919146
 21
261.8494670588845
 31
0.0
  0
LINE
  5
D2
330
2B1
100
AcDbEntity
  8
0
100
AcDbLine
 10
397.2520802919146
 20
261.8494670588845
 30
0.0
 11
396.1173201067802
 21
262.6076895737527
 31
0.0
  0
LINE
  5
D3
330
2B1
100
AcDbEntity
  8
0
100
AcDbLine
 10
394.9825599216456
 20
263.3659120886209
 30
0.0
 11
396.1173201067802
 21
262.6076895737527
 31
0.0
  0
LINE
  5
D4
330
2B1
100
AcDbEntity
  8
0
100
AcDbLine
 10
368.7294674385006
 20
245.0919284219175
 30
0.0
 11
379.5826992955543
 21
271.2939479667964
 31
0.0
  0
LINE
  5
D5
330
2B1
100
AcDbEntity
  8
0
100
AcDbLine
 10
371.2512233604065
 20
244.0473829180694
 30
0.0
 11
382.1044552174603
 21
270.2494024629483
 31
0.0
  0
LINE
  5
D6
330
2B1
100
AcDbEntity
  8
0
100
AcDbLine
 10
382.1044552174603
 20
270.2494024629483
 30
0.0
 11
380.8435772565074
 21
270.7716752148724
 31
0.0
  0
LINE
  5
D7
330
2B1
100
AcDbEntity
  8
0
100
AcDbLine
 10
379.5826992955543
 20
271.2939479667964
 30
0.0
 11
380.8435772565074
 21
270.7716752148724
 31
0.0
  0
LINE
  5
D8
330
2B1
100
AcDbEntity
  8
0
100
AcDbLine
 10
357.3991299810756
 20
248.2493695057086
 30
0.0
 11
362.9320596007939
 21
276.0652850900719
 31
0.0
  0
LINE
  5
D9
330
2B1
100
AcDbEntity
  8
0
100
AcDbLine
 10
360.0762117887568
 20
247.7168648256738
 30
0.0
 11
365.6091414084753
 21
275.532780410037
 31
0.0
  0
LINE
  5
DA
330
2B1
100
AcDbEntity
  8
0
100
AcDbLine
 10
365.6091414084753
 20
275.532780410037
 30
0.0
 11
364.2706005046346
 21
275.7990327500544
 31
0.0
  0
LINE
  5
DB
330
2B1
100
AcDbEntity
  8
0
100
AcDbLine
 10
362.9320596007939
 20
276.0652850900719
 30
0.0
 11
364.2706005046346
 21
275.7990327500544
 31
0.0
  0
ARC
  5
DF
330
2B1
100
AcDbEntity
  8
0
100
AcDbCircle
 10
-555.1544477552972
 20
82.65301108207108
 30
0.0
 40
903.4058737636557
100
AcDbArc
 50
13.0519687446347
 51
20.4213924039515
  0
ARC
  5
E0
330
2B1
100
AcDbEntity
  8
0
100
AcDbCircle
 10
627.5708722061795
 20
458.9787139700264
 30
0.0
 40
341.6068748593451
100
AcDbArc
 50
184.8857009163385
 51
190.3046839354516
  0
ARC
  5
E1
330
2B1
100
AcDbEntity
  8
0
100
AcDbCircle
 10
532.9940415892378
 20
362.8283534676266
 30
0.0
 40
116.6813000080538
100
AcDbArc
 50
149.5060457079936
 51
174.8132811794897
  0
ARC
  5
E2
330
2B1
100
AcDbEntity
  8
0
100
AcDbCircle
 10
-25.13317816565526
 20
504.745896650096
 30
0.0
 40
461.0362785637236
100
AcDbArc
 50
331.3561280285807
 51
343.4445207776302
  0
ARC
  5
E3
330
2B1
100
AcDbEntity
  8
0
100
AcDbCircle
 10
310.9867355656913
 20
576.7174707526107
 30
0.0
 40
341.6068748593451
100
AcDbArc
 50
236.31427234491
 51
241.7332553640231
  0
ARC
  5
E4
330
2B1
100
AcDbEntity
  8
0
100
AcDbCircle
 10
347.035280053504
 20
189.1512255866415
 30
0.0
 40
248.0568880475703
100
AcDbArc
 50
121.2869131802888
 51
155.3856526555546
  0
ARC
  5
E5
330
2B1
100
AcDbEntity
  8
0
100
AcDbCircle
 10
327.1924250753341
 20
442.8255578459523
 30
0.0
 40
116.6813000080538
100
AcDbArc
 50
200.934617136565
 51
226.2418526080611
  0
ARC
  5
E6
330
2B1
100
AcDbEntity
  8
0
100
AcDbCircle
 10
-131.7498077561808
 20
94.94826709834069
 30
0.0
 40
461.0362785637236
100
AcDbArc
 50
22.78469945715221
 51
34.87309220620155
  0
ARC
  5
E7
330
2B1
100
AcDbEntity
  8
0
100
AcDbCircle
 10
-132.2071576506837
 20
-582.6096574333051
 30
0.0
 40
903.4058737636557
100
AcDbArc
 50
64.48054017320614
 51
71.84996383252293
  0
ARC
  5
E8
330
2B1
100
AcDbEntity
  8
0
100
AcDbCircle
 10
21.54788818082443
 20
402.6109400145839
 30
0.0
 40
341.6068748593451
100
AcDbArc
 50
287.7428437734814
 51
293.1618267925945
  0
ARC
  5
E9
330
2B1
100
AcDbEntity
  8
0
100
AcDbCircle
 10
347.0352800535041
 20
189.1512255866416
 30
0.0
 40
248.0568880475703
100
AcDbArc
 50
172.7154846088602
 51
206.814224084126
  0
ARC
  5
EA
330
2B1
100
AcDbEntity
  8
0
100
AcDbCircle
 10
136.3328830804688
 20
331.8008160196653
 30
0.0
 40
116.6813000080538
100
AcDbArc
 50
252.3631885651365
 51
277.6704240366326
  0
ARC
  5
EB
330
2B1
100
AcDbEntity
  8
0
100
AcDbCircle
 10
122.1684992099098
 20
-243.9126133215671
 30
0.0
 40
461.0362785637236
100
AcDbArc
 50
74.21327088572355
 51
86.30166363477296
  0
ARC
  5
EC
330
2B1
100
AcDbEntity
  8
0
100
AcDbCircle
 10
651.6194628093442
 20
-666.7206399816437
 30
0.0
 40
903.4058737636557
100
AcDbArc
 50
115.9091116017775
 51
123.2785352610943
  0
ARC
  5
ED
330
2B1
100
AcDbEntity
  8
0
100
AcDbCircle
 10
-22.7923143911093
 20
67.7648905276715
 30
0.0
 40
341.6068748593451
100
AcDbArc
 50
339.1714152020528
 51
344.5903982211659
  0
ARC
  5
EE
330
2B1
100
AcDbEntity
  8
0
100
AcDbCircle
 10
347.0352800535041
 20
189.1512255866415
 30
0.0
 40
248.0568880475703
100
AcDbArc
 50
224.1440560374317
 51
258.2427955126974
  0
ARC
  5
EF
330
2B1
100
AcDbEntity
  8
0
100
AcDbCircle
 10
104.1365435519179
 20
113.3580230759614
 30
0.0
 40
116.6813000080538
100
AcDbArc
 50
303.7917599937078
 51
329.098995465204
  0
ARC
  5
F0
330
2B1
100
AcDbEntity
  8
0
100
AcDbCircle
 10
545.4160785976212
 20
-256.6675901511811
 30
0.0
 40
461.0362785637236
100
AcDbArc
 50
125.641842314295
 51
137.7302350633443
  0
ARC
  5
F1
330
2B1
100
AcDbEntity
  8
0
100
AcDbCircle
 10
1206.087981269178
 20
-106.3426511526816
 30
0.0
 40
903.4058737636557
100
AcDbArc
 50
167.3376830303489
 51
174.7071066896657
  0
ARC
  5
F2
330
2B1
100
AcDbEntity
  8
0
100
AcDbCircle
 10
211.3552047618553
 20
-175.674772829851
 30
0.0
 40
341.6068748593451
100
AcDbArc
 50
30.59998663062427
 51
36.01896964973736
  0
ARC
  5
F3
330
2B1
100
AcDbEntity
  8
0
100
AcDbCircle
 10
347.0352800535039
 20
189.1512255866415
 30
0.0
 40
248.0568880475703
100
AcDbArc
 50
275.572627466003
 51
309.6713669412689
  0
ARC
  5
F4
330
2B1
100
AcDbEntity
  8
0
100
AcDbCircle
 10
254.8479068403178
 20
-48.01094247762773
 30
0.0
 40
116.6813000080538
100
AcDbArc
 50
355.2203314222793
 51
20.52756689377542
  0
ARC
  5
F5
330
2B1
100
AcDbEntity
  8
0
100
AcDbCircle
 10
819.2788704507962
 20
66.28809431630987
 30
0.0
 40
461.0362785637236
100
AcDbArc
 50
177.0704137428664
 51
189.1588064919158
  0
ARC
  5
F6
330
2B1
100
AcDbEntity
  8
0
100
AcDbCircle
 10
1113.672294232004
 20
676.5482538375877
 30
0.0
 40
903.4058737636557
100
AcDbArc
 50
218.7662544589203
 51
226.1356781182371
  0
ARC
  5
F7
330
2B1
100
AcDbEntity
  8
0
100
AcDbCircle
 10
547.6725879785813
 20
-144.3930182856156
 30
0.0
 40
341.6068748593451
100
AcDbArc
 50
82.02855805919567
 51
87.44754107830877
  0
ARC
  5
F8
330
2B1
100
AcDbEntity
  8
0
100
AcDbCircle
 10
347.035280053504
 20
189.1512255866414
 30
0.0
 40
248.0568880475703
100
AcDbArc
 50
327.0011988945745
 51
1.099938369840309
  0
ARC
  5
F9
330
2B1
100
AcDbEntity
  8
0
100
AcDbCircle
 10
474.9782424379571
 20
-30.7919582522363
 30
0.0
 40
116.6813000080538
100
AcDbArc
 50
46.64890285085071
 51
71.95613832234682
  0
ARC
  5
FA
330
2B1
100
AcDbEntity
  8
0
100
AcDbCircle
 10
737.5326067211164
 20
481.7622225814986
 30
0.0
 40
461.0362785637236
100
AcDbArc
 50
228.4989851714378
 51
240.5873779204871
  0
ARC
  5
FB
330
2B1
100
AcDbEntity
  8
0
100
AcDbCircle
 10
443.9632989732795
 20
1092.4192554674
 30
0.0
 40
903.4058737636557
100
AcDbArc
 50
270.1948258874917
 51
277.5642495468086
  0
ARC
  5
FC
330
2B1
100
AcDbEntity
  8
0
100
AcDbCircle
 10
732.9059860725051
 20
138.0543549570646
 30
0.0
 40
341.6068748593451
100
AcDbArc
 50
133.457129487767
 51
138.8761125068801
  0
ARC
  5
FD
330
2B1
100
AcDbEntity
  8
0
100
AcDbCircle
 10
347.0352800535041
 20
189.1512255866415
 30
0.0
 40
248.0568880475703
100
AcDbArc
 50
18.42977032314591
 51
52.52850979841174
  0
ARC
  5
FE
330
2B1
100
AcDbEntity
  8
0
100
AcDbCircle
 10
598.7649177992944
 20
152.0487294271489
 30
0.0
 40
116.6813000080538
100
AcDbArc
 50
98.07747427942213
 51
123.3847097509182
  0
ARC
  5
FF
330
2B1
100
AcDbEntity
  8
0
100
AcDbCircle
 10
361.7338913169214
 20
676.8943019329932
 30
0.0
 40
461.0362785637236
100
AcDbArc
 50
279.9275566000093
 51
292.0159493490586
  0
ARC
  5
100
330
2B1
100
AcDbEntity
  8
0
100
AcDbCircle
 10
-298.7344715032959
 20
828.1110072870621
 30
0.0
 40
903.4058737636557
100
AcDbArc
 50
321.6233973160631
 51
328.9928209753799
  0
CIRCLE
  5
101
330
2B1
100
AcDbEntity
  8
0
100
AcDbCircle
 10
347.035280053504
 20
189.1512255866415
 30
0.0
 40
159.0212600620206
  0
CIRCLE
  5
102
330
2B1
100
AcDbEntity
  8
0
100
AcDbCircle
 10
347.035280053504
 20
189.1512255866415
 30
0.0
 40
211.3270887098635
  0
LINE
  5
106
330
2B1
100
AcDbEntity
  8
0
100
AcDbLine
 10
-78.6255727901805
 20
439.1512255866414
 30
0.0
 11
-258.6255727901805
 21
439.1512255866414
 31
0.0
  0
LINE
  5
107
330
2B1
100
AcDbEntity
  8
0
100
AcDbLine
 10
-227.0487184797732
 20
289.1512255866415
 30
0.0
 11
-248.6255727901805
 21
289.1512255866415
 31
0.0
  0
LINE
  5
108
330
2B1
100
AcDbEntity
  8
0
100
AcDbLine
 10
-75.24285841486494
 20
469.1512255866415
 30
0.0
 11
-86.48428380694259
 21
469.1512255866414
 31
0.0
  0
LINE
  5
109
330
2B1
100
AcDbEntity
  8
0
100
AcDbLine
 10
-78.62557279018051
 20
486.6512255866415
 30
0.0
 11
-78.62557279018051
 21
189.1512255866416
 31
0.0
  0
LINE
  5
10B
330
2B1
100
AcDbEntity
  8
0
100
AcDbLine
 10
-258.6255727901805
 20
189.1512255866416
 30
0.0
 11
-258.6255727901804
 21
486.6512255866416
 31
0.0
  0
LINE
  5
10C
330
2B1
100
AcDbEntity
  8
0
100
AcDbLine
 10
-253.6255727901805
 20
189.1512255866416
 30
0.0
 11
-253.6255727901805
 21
284.1512255866415
 31
0.0
  0
LWPOLYLINE
  5
10E
330
2B1
100
AcDbEntity
  8
0
100
AcDbPolyline
 90
        7
 70
     1
 43
0.0
 10
-141.8021216079382
 20
439.0466960350699
 10
-141.8021216079382
 20
481.3655784436356
 42
0.4142135623730951
 10
-146.8021216079382
 20
486.3655784436357
 10
-232.1970047459533
 20
486.3655784436357
 42
0.4142135623730951
 10
-237.1970047459533
 20
481.3655784436356
 10
-237.1970047459533
 20
439.0466960350699
 10
-141.8021216079382
 20
439.0466960350699
  0
LINE
  5
10F
330
2B1
100
AcDbEntity
  8
0
100
AcDbLine
 10
-258.6255727901804
 20
486.6512255866416
 30
0.0
 11
-253.6255727901804
 21
486.6512255866416
 31
0.0
  0
LINE
  5
110
330
2B1
100
AcDbEntity
  8
0
100
AcDbLine
 10
-83.62557279018051
 20
486.6512255866415
 30
0.0
 11
-78.62557279018051
 21
486.6512255866415
 31
0.0
  0
LINE
  5
111
330
2B1
100
AcDbEntity
  8
0
100
AcDbLine
 10
-251.7104316333841
 20
469.1512255866415
 30
0.0
 11
-260.5997477669857
 21
469.1512255866415
 31
0.0
  0
CIRCLE
  5
116
330
2B1
100
AcDbEntity
  8
0
100
AcDbCircle
 10
-175.8290457289226
 20
469.1512255866415
 30
0.0
 40
6.0
  0
LINE
  5
117
330
2B1
100
AcDbEntity
  8
0
100
AcDbLine
 10
-209.4567837152847
 20
298.0567802262333
 30
0.0
 11
-112.0410345708337
 21
298.0567802262333
 31
0.0
  0
LINE
  5
118
330
2B1
100
AcDbEntity
  8
0
100
AcDbLine
 10
-112.0410345708337
 20
298.0567802262334
 30
0.0
 11
-112.0410345708337
 21
189.1512255866416
 31
0.0
  0
LINE
  5
119
330
2B1
100
AcDbEntity
  8
0
100
AcDbLine
 10
-237.1970047459533
 20
439.1512255866414
 30
0.0
 11
-237.1970047459533
 21
310.7062997483968
 31
0.0
  0
LINE
  5
11A
330
2B1
100
AcDbEntity
  8
0
100
AcDbLine
 10
-209.4567837152847
 20
189.1512255866416
 30
0.0
 11
-209.4567837152847
 21
298.0567802262333
 31
0.0
  0
ARC
  5
11B
330
2B1
100
AcDbEntity
  8
0
100
AcDbCircle
 10
-147.1670935601894
 20
190.2837251754592
 30
0.0
 40
68.55087617809302
100
AcDbArc
 50
359.0533979675582
 51
59.17560054128635
  0
LINE
  5
11D
330
2B1
100
AcDbEntity
  8
0
100
AcDbLine
 10
-227.0487184797732
 20
189.1512255866416
 30
0.0
 11
-227.0487184797732
 21
439.0466960350699
 31
0.0
  0
LINE
  5
11F
330
2B1
100
AcDbEntity
  8
0
100
AcDbLine
 10
-227.0487184797732
 20
298.0567802262333
 30
0.0
 11
-237.1970047459533
 21
310.7062997483968
 31
0.0
  0
LWPOLYLINE
  5
120
330
2B1
100
AcDbEntity
  8
0
100
AcDbPolyline
 90
        4
 70
     1
 43
0.0
 10
-227.0487184797732
 20
298.0567802262333
 10
-209.3917570562394
 20
298.0567802262333
 10
-209.3917570562394
 20
291.7827980422625
 10
-227.0487184797732
 20
291.7827980422625
  0
LWPOLYLINE
  5
121
330
2B1
100
AcDbEntity
  8
0
100
AcDbPolyline
 90
        4
 70
     1
 43
0.0
 10
-227.0487184797732
 20
291.7827980422625
 10
-209.3917570562394
 20
291.7827980422625
 10
-209.3917570562394
 20
285.5088158582917
 10
-227.0487184797732
 20
285.5088158582917
  0
LWPOLYLINE
  5
122
330
2B1
100
AcDbEntity
  8
0
100
AcDbPolyline
 90
        4
 70
     1
 43
0.0
 10
-227.0487184797732
 20
285.5088158582917
 10
-209.3917570562394
 20
285.5088158582917
 10
-209.3917570562394
 20
279.2348336743209
 10
-227.0487184797732
 20
279.2348336743209
  0
LWPOLYLINE
  5
123
330
2B1
100
AcDbEntity
  8
0
100
AcDbPolyline
 90
        4
 70
     1
 43
0.0
 10
-227.0487184797732
 20
279.2348336743209
 10
-209.3917570562394
 20
279.2348336743209
 10
-209.3917570562394
 20
272.9608514903501
 10
-227.0487184797732
 20
272.9608514903501
  0
LWPOLYLINE
  5
124
330
2B1
100
AcDbEntity
  8
0
100
AcDbPolyline
 90
        4
 70
     1
 43
0.0
 10
-227.0487184797732
 20
272.9608514903501
 10
-209.3917570562394
 20
272.9608514903501
 10
-209.3917570562394
 20
266.6868693063793
 10
-227.0487184797732
 20
266.6868693063793
  0
LWPOLYLINE
  5
125
330
2B1
100
AcDbEntity
  8
0
100
AcDbPolyline
 90
        4
 70
     1
 43
0.0
 10
-227.0487184797732
 20
266.6868693063793
 10
-209.3917570562394
 20
266.6868693063793
 10
-209.3917570562394
 20
260.4128871224085
 10
-227.0487184797732
 20
260.4128871224085
  0
LWPOLYLINE
  5
126
330
2B1
100
AcDbEntity
  8
0
100
AcDbPolyline
 90
        4
 70
     1
 43
0.0
 10
-227.0487184797732
 20
260.4128871224085
 10
-209.3917570562394
 20
260.4128871224085
 10
-209.3917570562394
 20
254.1389049384377
 10
-227.0487184797732
 20
254.1389049384377
  0
LWPOLYLINE
  5
127
330
2B1
100
AcDbEntity
  8
0
100
AcDbPolyline
 90
        4
 70
     1
 43
0.0
 10
-227.0487184797732
 20
254.1389049384377
 10
-209.3917570562394
 20
254.1389049384377
 10
-209.3917570562394
 20
247.8649227544668
 10
-227.0487184797732
 20
247.8649227544668
  0
LWPOLYLINE
  5
128
330
2B1
100
AcDbEntity
  8
0
100
AcDbPolyline
 90
        4
 70
     1
 43
0.0
 10
-227.0487184797732
 20
247.8649227544668
 10
-209.3917570562394
 20
247.8649227544668
 10
-209.3917570562394
 20
241.590940570496
 10
-227.0487184797732
 20
241.590940570496
  0
LWPOLYLINE
  5
129
330
2B1
100
AcDbEntity
  8
0
100
AcDbPolyline
 90
        4
 70
     1
 43
0.0
 10
-227.0487184797732
 20
247.8649227544668
 10
-209.3917570562394
 20
247.8649227544668
 10
-209.3917570562394
 20
241.590940570496
 10
-227.0487184797732
 20
241.590940570496
  0
LWPOLYLINE
  5
12A
330
2B1
100
AcDbEntity
  8
0
100
AcDbPolyline
 90
        4
 70
     1
 43
0.0
 10
-227.0487184797732
 20
241.590940570496
 10
-209.3917570562394
 20
241.590940570496
 10
-209.3917570562394
 20
235.3169583865252
 10
-227.0487184797732
 20
235.3169583865252
  0
LWPOLYLINE
  5
12B
330
2B1
100
AcDbEntity
  8
0
100
AcDbPolyline
 90
        4
 70
     1
 43
0.0
 10
-227.0487184797732
 20
235.3169583865252
 10
-209.3917570562394
 20
235.3169583865252
 10
-209.3917570562394
 20
229.0429762025544
 10
-227.0487184797732
 20
229.0429762025544
  0
LWPOLYLINE
  5
12E
330
2B1
100
AcDbEntity
  8
0
100
AcDbPolyline
 90
        4
 70
     1
 43
0.0
 10
-227.0487184797732
 20
229.0429762025544
 10
-209.3917570562394
 20
229.0429762025544
 10
-209.3917570562394
 20
222.7689940185836
 10
-227.0487184797732
 20
222.7689940185836
  0
LWPOLYLINE
  5
12F
330
2B1
100
AcDbEntity
  8
0
100
AcDbPolyline
 90
        4
 70
     1
 43
0.0
 10
-227.0487184797732
 20
222.7689940185836
 10
-209.3917570562394
 20
222.7689940185836
 10
-209.3917570562394
 20
216.4950118346128
 10
-227.0487184797732
 20
216.4950118346128
  0
LWPOLYLINE
  5
130
330
2B1
100
AcDbEntity
  8
0
100
AcDbPolyline
 90
        4
 70
     1
 43
0.0
 10
-227.0487184797732
 20
216.4950118346128
 10
-209.3917570562394
 20
216.4950118346128
 10
-209.3917570562394
 20
210.2210296506419
 10
-227.0487184797732
 20
210.2210296506419
  0
LWPOLYLINE
  5
131
330
2B1
100
AcDbEntity
  8
0
100
AcDbPolyline
 90
        4
 70
     1
 43
0.0
 10
-227.0487184797732
 20
210.2210296506419
 10
-209.3917570562394
 20
210.2210296506419
 10
-209.3917570562394
 20
203.9470474666711
 10
-227.0487184797732
 20
203.9470474666711
  0
LWPOLYLINE
  5
132
330
2B1
100
AcDbEntity
  8
0
100
AcDbPolyline
 90
        4
 70
     1
 43
0.0
 10
-227.0487184797732
 20
203.9470474666711
 10
-209.3917570562394
 20
203.9470474666711
 10
-209.3917570562394
 20
197.6730652827003
 10
-227.0487184797732
 20
197.6730652827003
  0
LWPOLYLINE
  5
133
330
2B1
100
AcDbEntity
  8
0
100
AcDbPolyline
 90
        4
 70
     1
 43
0.0
 10
-227.0487184797732
 20
197.6730652827003
 10
-209.3917570562394
 20
197.6730652827003
 10
-209.3917570562394
 20
191.3990830987295
 10
-227.0487184797732
 20
191.3990830987295
  0
ARC
  5
134
330
2B1
100
AcDbEntity
  8
0
100
AcDbCircle
 10
-248.6255727901805
 20
284.1512255866415
 30
0.0
 40
5.0
100
AcDbArc
 50
90.0
 51
180.0
  0
LINE
  5
135
330
2B1
100
AcDbEntity
  8
0
100
AcDbLine
 10
-83.62557279018051
 20
486.6512255866415
 30
0.0
 11
-83.62557279018053
 21
439.1512255866414
 31
0.0
  0
LINE
  5
136
330
2B1
100
AcDbEntity
  8
0
100
AcDbLine
 10
-253.6255727901804
 20
486.6512255866416
 30
0.0
 11
-253.6255727901804
 21
439.1512255866414
 31
0.0
  0
LINE
  5
13A
330
2B1
100
AcDbEntity
  8
0
100
AcDbLine
 10
-237.1970047459533
 20
481.3655784436357
 30
0.0
 11
-141.8021216079382
 21
481.3655784436356
 31
0.0
  0
ARC
  5
13C
330
2B1
100
AcDbEntity
  8
0
100
AcDbCircle
 10
833.8481224457341
 20
348.6309437719472
 30
0.0
 40
1033.358244817103
100
AcDbArc
 50
176.2480941898708
 51
182.8052654342025
  0
ARC
  5
13E
330
2B1
100
AcDbEntity
  8
0
100
AcDbCircle
 10
-140.3058564037112
 20
337.3270840164655
 30
0.0
 40
97.34807876419029
100
AcDbArc
 50
80.82092416982057
 51
125.8326708035026
  0
ARC
  5
13F
330
2B1
100
AcDbEntity
  8
0
100
AcDbCircle
 10
-618.4032713157665
 20
350.8579534552057
 30
0.0
 40
494.9197912019682
100
AcDbArc
 50
353.8756683842145
 51
2.241693110842382
  0
ARC
  5
140
330
2B1
100
AcDbEntity
  8
0
100
AcDbCircle
 10
39.78425241044173
 20
404.197009642123
 30
0.0
 40
167.13716777649
100
AcDbArc
 50
169.927411850121
 51
191.7304593178347
  0
LINE
  5
141
330
2B1
100
AcDbEntity
  8
0
100
AcDbLine
 10
-227.0487184797731
 20
189.151225586639
 30
0.0
 11
-227.0487184797743
 21
-60.74424486178918
 31
0.0
  0
LINE
  5
142
330
2B1
100
AcDbEntity
  8
0
100
AcDbLine
 10
-209.4567837152847
 20
189.1512255866389
 30
0.0
 11
-209.4567837152851
 21
80.24567094704719
 31
0.0
  0
LINE
  5
143
330
2B1
100
AcDbEntity
  8
0
100
AcDbLine
 10
-112.0410345708342
 20
80.24567094704673
 30
0.0
 11
-112.0410345708337
 21
189.1512255866384
 31
0.0
  0
LINE
  5
144
330
2B1
100
AcDbEntity
  8
0
100
AcDbLine
 10
-253.6255727901805
 20
189.1512255866391
 30
0.0
 11
-253.6255727901809
 21
94.15122558663927
 31
0.0
  0
LWPOLYLINE
  5
145
330
2B1
100
AcDbEntity
  8
0
100
AcDbPolyline
 90
        4
 70
     1
 43
0.0
 10
-227.0487184797734
 20
149.2594749707262
 10
-209.3917570562395
 20
149.2594749707261
 10
-209.3917570562395
 20
155.5334571546969
 10
-227.0487184797734
 20
155.533457154697
  0
ARC
  5
146
330
2B1
100
AcDbEntity
  8
0
100
AcDbCircle
 10
-147.1670935601894
 20
188.018725997821
 30
0.0
 40
68.55087617809302
100
AcDbArc
 50
300.8243994587133
 51
0.946602032441512
  0
LINE
  5
147
330
2B1
100
AcDbEntity
  8
0
100
AcDbLine
 10
-258.6255727901805
 20
189.1512255866391
 30
0.0
 11
-258.6255727901817
 21
-108.3487744133607
 31
0.0
  0
LINE
  5
148
330
2B1
100
AcDbEntity
  8
0
100
AcDbLine
 10
-78.62557279018182
 20
-108.3487744133615
 30
0.0
 11
-78.62557279018051
 21
189.1512255866383
 31
0.0
  0
LWPOLYLINE
  5
14D
330
2B1
100
AcDbEntity
  8
0
100
AcDbPolyline
 90
        4
 70
     1
 43
0.0
 10
-227.0487184797733
 20
174.3554037066095
 10
-209.3917570562394
 20
174.3554037066094
 10
-209.3917570562394
 20
180.6293858905802
 10
-227.0487184797733
 20
180.6293858905803
  0
LWPOLYLINE
  5
14E
330
2B1
100
AcDbEntity
  8
0
100
AcDbPolyline
 90
        4
 70
     1
 43
0.0
 10
-227.0487184797733
 20
180.6293858905803
 10
-209.3917570562394
 20
180.6293858905802
 10
-209.3917570562394
 20
186.903368074551
 10
-227.0487184797732
 20
186.9033680745511
  0
LWPOLYLINE
  5
14F
330
2B1
100
AcDbEntity
  8
0
100
AcDbPolyline
 90
        4
 70
     1
 43
0.0
 10
-227.0487184797733
 20
161.8074393386678
 10
-209.3917570562394
 20
161.8074393386677
 10
-209.3917570562394
 20
168.0814215226386
 10
-227.0487184797733
 20
168.0814215226386
  0
LWPOLYLINE
  5
150
330
2B1
100
AcDbEntity
  8
0
100
AcDbPolyline
 90
        4
 70
     1
 43
0.0
 10
-227.0487184797733
 20
168.0814215226386
 10
-209.3917570562394
 20
168.0814215226386
 10
-209.3917570562394
 20
174.3554037066094
 10
-227.0487184797733
 20
174.3554037066095
  0
LWPOLYLINE
  5
151
330
2B1
100
AcDbEntity
  8
0
100
AcDbPolyline
 90
        4
 70
     1
 43
0.0
 10
-227.0487184797734
 20
155.533457154697
 10
-209.3917570562395
 20
155.5334571546969
 10
-209.3917570562394
 20
161.8074393386677
 10
-227.0487184797733
 20
161.8074393386678
  0
ARC
  5
152
330
2B1
100
AcDbEntity
  8
0
100
AcDbCircle
 10
-140.3058564037119
 20
40.97536715681473
 30
0.0
 40
97.34807876419029
100
AcDbArc
 50
234.167329196497
 51
279.1790758301792
  0
LINE
  5
153
330
2B1
100
AcDbEntity
  8
0
100
AcDbLine
 10
-237.1970047459544
 20
-60.84877441336079
 30
0.0
 11
-237.1970047459538
 21
67.59615142488389
 31
0.0
  0
ARC
  5
154
330
2B1
100
AcDbEntity
  8
0
100
AcDbCircle
 10
833.8481224457335
 20
29.67150740132876
 30
0.0
 40
1033.358244817103
100
AcDbArc
 50
177.1947345657972
 51
183.7519058101289
  0
ARC
  5
155
330
2B1
100
AcDbEntity
  8
0
100
AcDbCircle
 10
-618.4032713157673
 20
27.44449771807666
 30
0.0
 40
494.9197912019682
100
AcDbArc
 50
357.7583068891573
 51
6.124331615785249
  0
LINE
  5
156
330
2B1
100
AcDbEntity
  8
0
100
AcDbLine
 10
-209.4567837152851
 20
80.24567094704719
 30
0.0
 11
-112.0410345708342
 21
80.24567094704678
 31
0.0
  0
LWPOLYLINE
  5
157
330
2B1
100
AcDbEntity
  8
0
100
AcDbPolyline
 90
        4
 70
     1
 43
0.0
 10
-227.0487184797736
 20
92.79363531498892
 10
-209.3917570562398
 20
92.79363531498882
 10
-209.3917570562398
 20
99.06761749895964
 10
-227.0487184797736
 20
99.06761749895975
  0
LWPOLYLINE
  5
158
330
2B1
100
AcDbEntity
  8
0
100
AcDbPolyline
 90
        4
 70
     1
 43
0.0
 10
-227.0487184797735
 20
117.8895640508722
 10
-209.3917570562396
 20
117.889564050872
 10
-209.3917570562396
 20
124.1635462348428
 10
-227.0487184797735
 20
124.1635462348429
  0
LWPOLYLINE
  5
159
330
2B1
100
AcDbEntity
  8
0
100
AcDbPolyline
 90
        4
 70
     1
 43
0.0
 10
-227.0487184797734
 20
136.7115106027846
 10
-209.3917570562396
 20
136.7115106027845
 10
-209.3917570562395
 20
142.9854927867553
 10
-227.0487184797734
 20
142.9854927867554
  0
LWPOLYLINE
  5
15A
330
2B1
100
AcDbEntity
  8
0
100
AcDbPolyline
 90
        4
 70
     1
 43
0.0
 10
-227.0487184797734
 20
142.9854927867554
 10
-209.3917570562395
 20
142.9854927867553
 10
-209.3917570562395
 20
149.2594749707261
 10
-227.0487184797734
 20
149.2594749707262
  0
LWPOLYLINE
  5
15B
330
2B1
100
AcDbEntity
  8
0
100
AcDbPolyline
 90
        4
 70
     1
 43
0.0
 10
-227.0487184797734
 20
130.4375284188137
 10
-209.3917570562396
 20
130.4375284188137
 10
-209.3917570562396
 20
136.7115106027845
 10
-227.0487184797734
 20
136.7115106027846
  0
LWPOLYLINE
  5
15C
330
2B1
100
AcDbEntity
  8
0
100
AcDbPolyline
 90
        4
 70
     1
 43
0.0
 10
-227.0487184797734
 20
130.4375284188137
 10
-209.3917570562396
 20
130.4375284188137
 10
-209.3917570562396
 20
136.7115106027845
 10
-227.0487184797734
 20
136.7115106027846
  0
LWPOLYLINE
  5
15D
330
2B1
100
AcDbEntity
  8
0
100
AcDbPolyline
 90
        4
 70
     1
 43
0.0
 10
-227.0487184797735
 20
124.1635462348429
 10
-209.3917570562396
 20
124.1635462348428
 10
-209.3917570562396
 20
130.4375284188137
 10
-227.0487184797734
 20
130.4375284188137
  0
LWPOLYLINE
  5
15E
330
2B1
100
AcDbEntity
  8
0
100
AcDbPolyline
 90
        4
 70
     1
 43
0.0
 10
-227.0487184797735
 20
105.3415996829305
 10
-209.3917570562397
 20
105.3415996829304
 10
-209.3917570562397
 20
111.6155818669012
 10
-227.0487184797735
 20
111.6155818669013
  0
LWPOLYLINE
  5
15F
330
2B1
100
AcDbEntity
  8
0
100
AcDbPolyline
 90
        4
 70
     1
 43
0.0
 10
-227.0487184797735
 20
111.6155818669013
 10
-209.3917570562397
 20
111.6155818669012
 10
-209.3917570562396
 20
117.889564050872
 10
-227.0487184797735
 20
117.8895640508722
  0
LWPOLYLINE
  5
160
330
2B1
100
AcDbEntity
  8
0
100
AcDbPolyline
 90
        4
 70
     1
 43
0.0
 10
-227.0487184797736
 20
99.06761749895975
 10
-209.3917570562398
 20
99.06761749895964
 10
-209.3917570562397
 20
105.3415996829304
 10
-227.0487184797735
 20
105.3415996829305
  0
LINE
  5
161
330
2B1
100
AcDbEntity
  8
0
100
AcDbLine
 10
-227.0487184797736
 20
89.15122558663916
 30
0.0
 11
-248.6255727901809
 21
89.15122558663921
 31
0.0
  0
LINE
  5
162
330
2B1
100
AcDbEntity
  8
0
100
AcDbLine
 10
-227.0487184797736
 20
80.2456709470473
 30
0.0
 11
-237.1970047459538
 21
67.59615142488383
 31
0.0
  0
ARC
  5
163
330
2B1
100
AcDbEntity
  8
0
100
AcDbCircle
 10
-248.6255727901809
 20
94.15122558663921
 30
0.0
 40
5.0
100
AcDbArc
 50
179.9999999999997
 51
269.9999999999998
  0
LWPOLYLINE
  5
164
330
2B1
100
AcDbEntity
  8
0
100
AcDbPolyline
 90
        4
 70
     1
 43
0.0
 10
-227.0487184797736
 20
80.2456709470473
 10
-209.3917570562398
 20
80.24567094704719
 10
-209.3917570562398
 20
86.519653131018
 10
-227.0487184797736
 20
86.5196531310181
  0
LWPOLYLINE
  5
165
330
2B1
100
AcDbEntity
  8
0
100
AcDbPolyline
 90
        4
 70
     1
 43
0.0
 10
-227.0487184797736
 20
86.5196531310181
 10
-209.3917570562398
 20
86.519653131018
 10
-209.3917570562398
 20
92.79363531498882
 10
-227.0487184797736
 20
92.79363531498892
  0
ARC
  5
166
330
2B1
100
AcDbEntity
  8
0
100
AcDbCircle
 10
39.78425241044078
 20
-25.89455846884351
 30
0.0
 40
167.13716777649
100
AcDbArc
 50
168.269540682165
 51
190.0725881498786
  0
LINE
  5
16A
330
2B1
100
AcDbEntity
  8
0
100
AcDbLine
 10
-78.62557279018159
 20
-60.84877441336146
 30
0.0
 11
-258.6255727901816
 21
-60.84877441336067
 31
0.0
  0
LINE
  5
16B
330
2B1
100
AcDbEntity
  8
0
100
AcDbLine
 10
-253.6255727901817
 20
-108.3487744133607
 30
0.0
 11
-253.6255727901815
 21
-60.84877441336067
 31
0.0
  0
LINE
  5
16C
330
2B1
100
AcDbEntity
  8
0
100
AcDbLine
 10
-251.7104316333854
 20
-90.84877441336073
 30
0.0
 11
-260.5997477669869
 21
-90.84877441336073
 31
0.0
  0
LINE
  5
16D
330
2B1
100
AcDbEntity
  8
0
100
AcDbLine
 10
-258.6255727901817
 20
-108.3487744133607
 30
0.0
 11
-253.6255727901817
 21
-108.3487744133607
 31
0.0
  0
LINE
  5
16E
330
2B1
100
AcDbEntity
  8
0
100
AcDbLine
 10
-83.62557279018181
 20
-108.3487744133615
 30
0.0
 11
-83.62557279018162
 21
-60.84877441336146
 31
0.0
  0
LINE
  5
16F
330
2B1
100
AcDbEntity
  8
0
100
AcDbLine
 10
-83.62557279018181
 20
-108.3487744133615
 30
0.0
 11
-78.62557279018182
 21
-108.3487744133615
 31
0.0
  0
LINE
  5
170
330
2B1
100
AcDbEntity
  8
0
100
AcDbLine
 10
-75.24285841486616
 20
-90.84877441336153
 30
0.0
 11
-86.48428380694381
 21
-90.84877441336141
 31
0.0
  0
DIMENSION
  5
171
330
2B1
100
AcDbEntity
  8
koty
100
AcDbDimension
  2
*D3
 10
-322.9090142574351
 20
-60.84877441336067
 30
0.0
 11
-339.1590142574351
 21
189.1512255866404
 31
0.0
 70
    32
 71
     0
 42
500.0000000000021
  3
ISO-25
100
AcDbAlignedDimension
 13
-258.6255727901805
 23
439.1512255866414
 33
0.0
 14
-258.6255727901816
 24
-60.84877441336067
 34
0.0
 50
90.0
100
AcDbRotatedDimension
  0
DIMENSION
  5
18A
330
2B1
100
AcDbEntity
  8
koty
100
AcDbDimension
  2
*D4
 10
-406.1384231437114
 20
469.1512255866415
 30
0.0
 11
-422.3884231437114
 21
189.1512255866404
 31
0.0
 70
    32
 71
     0
 42
560.0000000000023
  3
ISO-25
100
AcDbAlignedDimension
 13
-258.6255727901817
 23
-90.84877441336073
 33
0.0
 14
-258.6255727901804
 24
469.1512255866415
 34
0.0
 50
90.0
100
AcDbRotatedDimension
  0
DIMENSION
  5
1A2
330
2B1
100
AcDbEntity
  8
koty
100
AcDbDimension
  2
*D5
 10
-489.9067986323498
 20
-108.3487744133607
 30
0.0
 11
-506.1567986323498
 21
189.1512255866405
 31
0.0
 70
    32
 71
     0
 42
595.0000000000023
  3
ISO-25
100
AcDbAlignedDimension
 13
-258.6255727901804
 23
486.6512255866416
 33
0.0
 14
-258.6255727901817
 24
-108.3487744133607
 34
0.0
 50
90.0
100
AcDbRotatedDimension
  0
DIMENSION
  5
1BA
330
2B1
100
AcDbEntity
  8
koty
100
AcDbDimension
  2
*D6
 10
-78.62557279018182
 20
-164.6027309421643
 30
0.0
 11
-168.6255727901818
 21
-148.3527309421643
 31
0.0
 70
    32
 71
     0
 42
179.9999999999999
  3
ISO-25
100
AcDbAlignedDimension
 13
-258.6255727901817
 23
-108.3487744133607
 33
0.0
 14
-78.62557279018182
 24
-108.3487744133615
 34
0.0
100
AcDbRotatedDimension
  0
DIMENSION
  5
1D2
330
2B1
100
AcDbEntity
  8
koty
100
AcDbDimension
  2
*D7
 10
341.035280053504
 20
469.1512255866415
 30
0.0
 11
347.0383042278469
 21
501.1170686114072
 31
0.0
 70
   163
 71
     0
 42
12.0
  3
ISO-25
100
AcDbDiametricDimension
 15
353.035280053504
 25
469.1512255866415
 35
0.0
 40
0.0
  0
TEXT
  5
1EC
330
2B1
100
AcDbEntity
  8
popis
100
AcDbText
 10
-104.3193729018362
 20
572.9992795152306
 30
0.0
 40
15.0
  1
TXBR/TXTR 500 axiální ventilátor
100
AcDbText
  0
LWPOLYLINE
  5
1F8
330
2B1
100
AcDbEntity
  8
koty
100
AcDbPolyline
 90
        4
 70
     1
 43
0.0
 10
191.2538573688067
 20
-71.09637399151752
 10
201.035280053504
 20
-53.33588747300121
 10
197.54274070912
 20
-73.30870099636442
 10
197.54274070912
 20
-73.30870099636442
1001
VDEXTRAPARAM
1071
       65
1071
        0
1071
        0
1040
1.0
1000

1000

1040
0.0
1040
0.0
  0
HATCH
  5
31B
330
2B1
100
AcDbEntity
  8
koty
100
AcDbHatch
 10
0.0
 20
0.0
 30
0.0
210
0.0
220
0.0
230
1.0
  2
SOLID
 70
     1
 71
     0
 91
        1
 92
        2
 72
     0
 73
     1
 93
        3
 10
191.2538573688067
 20
-71.09637399151752
 10
201.035280053504
 20
-53.33588747300121
 10
197.54274070912
 20
-73.30870099636442
 97
        0
 75
     0
 76
     1
 98
        1
 10
0.0
 20
0.0
1001
VDEXTRAPARAM
1071
       65
1071
        0
1071
        0
1040
1.0
1000

1000

1040
0.0
1040
0.0
1001
VD_TEMPHATCH
1000
VD_TEMPHATCH
  0
LWPOLYLINE
  5
1F9
330
2B1
100
AcDbEntity
  8
koty
100
AcDbPolyline
 90
        3
 70
     0
 43
0.0
 10
194.3982990389633
 20
-72.20253749394098
 10
186.129794339341
 20
-95.70704715315173
 10
166.129794339341
 20
-95.70704715315173
  0
TEXT
  5
1FE
330
2B1
100
AcDbEntity
  8
koty
100
AcDbText
 10
108.4512229107696
 20
-105.7070471531517
 30
0.0
 40
20.0
  1
12x
  7
Proxy_1FE
100
AcDbText
  0
VIEWPORT
  5
31C
330
2AD
100
AcDbEntity
 67
     1
  8
0
 60
     1
100
AcDbViewport
 10
0.0
 20
0.0
 30
0.0
 40
10.0
 41
10.0
 69
     1
 12
0.0
 22
0.0
 13
0.0
 23
0.0
 14
1.0
 24
1.0
 15
0.0
 25
0.0
 16
0.0
 26
0.0
 36
1.0
 17
0.0
 27
0.0
 37
0.0
 42
0.0
 43
0.0
 44
0.0
 45
10.0
 50
0.0
 51
0.0000000000007958
 72
   100
 90
   163872
  1

281
     0
 71
     0
 74
     0
110
0.0
120
0.0
130
0.0
111
1.0
121
0.0
131
0.0
112
0.0
122
1.0
132
0.0
 79
     0
146
0.0
1001
VD_INVISIBLE_NOT_FOR_READ
1000
VD_INVISIBLE_NOT_FOR_READ
  0
VIEWPORT
  5
31D
330
2AD
100
AcDbEntity
 67
     1
  8
0
 60
     1
100
AcDbViewport
 10
0.0
 20
0.0
 30
0.0
 40
10.0
 41
10.0
 69
     2
 12
0.0
 22
0.0
 13
0.0
 23
0.0
 14
1.0
 24
1.0
 15
0.0
 25
0.0
 16
0.0
 26
0.0
 36
1.0
 17
0.0
 27
0.0
 37
0.0
 42
0.0
 43
0.0
 44
0.0
 45
10.0
 50
0.0
 51
0.0000000000007958
 72
   100
 90
   163872
  1

281
     0
 71
     0
 74
     0
110
0.0
120
0.0
130
0.0
111
1.0
121
0.0
131
0.0
112
0.0
122
1.0
132
0.0
 79
     0
146
0.0
1001
VD_INVISIBLE_NOT_FOR_READ
1000
VD_INVISIBLE_NOT_FOR_READ
  0
ENDSEC
  0
SECTION
  2
OBJECTS
  0
DICTIONARY
  5
29E
330
0
100
AcDbDictionary
281
     1
  3
ACAD_GROUP
350
29F
  3
ACAD_LAYOUT
350
2AC
  3
ACAD_MLINESTYLE
350
2A9
  3
ACAD_PLOTSETTINGS
350
2AB
  3
ACAD_PLOTSTYLENAME
350
2A0
  3
VECTORDRAW_OBJECTS
350
2C1
  0
DICTIONARY
  5
29F
102
{ACAD_REACTORS
330
29E
102
}
330
29E
100
AcDbDictionary
281
     1
  0
DICTIONARY
  5
2AC
102
{ACAD_REACTORS
330
29E
102
}
330
29E
100
AcDbDictionary
281
     1
  3
Model
350
2B4
  3
Rozvržení1
350
2B0
  3
Rozvržení2
350
2B8
  0
DICTIONARY
  5
2A9
102
{ACAD_REACTORS
330
29E
102
}
330
29E
100
AcDbDictionary
281
     1
  3
Standard
350
2AA
  0
DICTIONARY
  5
2AB
102
{ACAD_REACTORS
330
29E
102
}
330
29E
100
AcDbDictionary
281
     1
  0
ACDBDICTIONARYWDFLT
  5
2A0
102
{ACAD_REACTORS
330
29E
102
}
330
29E
100
AcDbDictionary
281
     1
  3
Normal
350
2A1
100
AcDbDictionaryWithDefault
340
2A1
  0
DICTIONARY
  5
2C1
102
{ACAD_REACTORS
330
29E
102
}
330
29E
100
AcDbDictionary
281
     1
  3
SERIALNO
350
2C2
  0
LAYOUT
  5
2B4
102
{ACAD_REACTORS
330
2AC
102
}
330
2AC
100
AcDbPlotSettings
  1
VectorDraw Printer Drawing
  2

  4

  6

 40
0.0
 41
0.0
 42
0.0
 43
0.0
 44
0.0
 45
0.0
 46
0.0
 47
0.0
 48
0.0
 49
0.0
140
0.0
141
0.0
142
1.0
143
1.0
 70
  1712
 72
     0
 73
     0
 74
     0
  7

 75
     0
147
1.0
148
0.0
149
0.0
100
AcDbLayout
  1
Model
 70
     1
 71
     0
 10
0.0
 20
0.0
 11
12.0
 21
9.0
 12
0.0
 22
0.0
 32
0.0
 14
-522.3414140169653
 24
-177.1027309421643
 34
0.0
 15
644.535280053504
 25
587.9992795152306
 35
0.0
146
0.0
 13
0.0
 23
0.0
 33
0.0
 16
1.0
 26
0.0
 36
0.0
 17
0.0
 27
1.0
 37
0.0
 76
     0
330
2B1
  0
LAYOUT
  5
2B0
102
{ACAD_REACTORS
330
2AC
102
}
330
2AC
100
AcDbPlotSettings
  1
VectorDraw Printer Drawing
  2

  4

  6

 40
0.0
 41
0.0
 42
0.0
 43
0.0
 44
0.0
 45
0.0
 46
0.0
 47
0.0
 48
0.0
 49
0.0
140
0.0
141
0.0
142
1.0
143
1.0
 70
   688
 72
     0
 73
     0
 74
     5
  7

 75
    16
147
1.0
148
0.0
149
0.0
100
AcDbLayout
  1
Rozvržení1
 70
     1
 71
     1
 10
0.0
 20
0.0
 11
12.0
 21
9.0
 12
0.0
 22
0.0
 32
0.0
 14
1.000000000000000E+20
 24
1.000000000000000E+20
 34
1.000000000000000E+20
 15
-1.000000000000000E+20
 25
-1.000000000000000E+20
 35
-1.000000000000000E+20
146
0.0
 13
0.0
 23
0.0
 33
0.0
 16
1.0
 26
0.0
 36
0.0
 17
0.0
 27
1.0
 37
0.0
 76
     0
330
2AD
331
31C
  0
LAYOUT
  5
2B8
102
{ACAD_REACTORS
330
2AC
102
}
330
2AC
100
AcDbPlotSettings
  1
VectorDraw Printer Drawing
  2

  4

  6

 40
0.0
 41
0.0
 42
0.0
 43
0.0
 44
0.0
 45
0.0
 46
0.0
 47
0.0
 48
0.0
 49
0.0
140
0.0
141
0.0
142
1.0
143
1.0
 70
   688
 72
     0
 73
     0
 74
     5
  7

 75
    16
147
1.0
148
0.0
149
0.0
100
AcDbLayout
  1
Rozvržení2
 70
     1
 71
     2
 10
0.0
 20
0.0
 11
12.0
 21
9.0
 12
0.0
 22
0.0
 32
0.0
 14
0.0
 24
0.0
 34
0.0
 15
0.0
 25
0.0
 35
0.0
146
0.0
 13
0.0
 23
0.0
 33
0.0
 16
1.0
 26
0.0
 36
0.0
 17
0.0
 27
1.0
 37
0.0
 76
     0
330
2B5
331
31E
  0
MLINESTYLE
  5
2AA
102
{ACAD_REACTORS
330
2A9
102
}
330
2A9
100
AcDbMlineStyle
  2
Standard
 70
     0
  3

 62
   256
 51
90.0
 52
90.0
 71
     2
 49
0.5
 62
   256
  6
BYLAYER
 49
-0.5
 62
   256
  6
BYLAYER
  0
ACDBPLACEHOLDER
  5
2A1
102
{ACAD_REACTORS
330
2A0
102
}
330
2A0
  0
XRECORD
  5
2C2
102
{ACAD_REACTORS
330
2C1
102
}
330
2C1
100
AcDbXrecord
280
     1
1000
rInJVR9YY4Q8hfPWdUq5j5319
1070
     4
1070
     6
  0
ENDSEC
  0
EOF
