  0
SECTION
  2
HEADER
  9
$ACADVER
  1
AC1015
  9
$ACADMAINTVER
 70
     6
  9
$DWGCODEPAGE
  3
ANSI_1252
  9
$INSBASE
 10
0.0
 20
0.0
 30
0.0
  9
$EXTMIN
 10
-560.1197882951083
 20
-121.7636575804499
 30
0.0
  9
$EXTMAX
 10
526.8746363227817
 20
571.9036473153664
 30
0.0
  9
$LIMMIN
 10
0.0
 20
0.0
  9
$LIMMAX
 10
12.0
 20
9.0
  9
$ORTHOMODE
 70
     0
  9
$REGENMODE
 70
     1
  9
$FILLMODE
 70
     1
  9
$QTEXTMODE
 70
     0
  9
$MIRRTEXT
 70
     1
  9
$LTSCALE
 40
1.0
  9
$ATTMODE
 70
     1
  9
$TEXTSIZE
 40
0.2
  9
$TRACEWID
 40
0.05
  9
$TEXTSTYLE
  7
Standard
  9
$CLAYER
  8
popis
  9
$CELTYPE
  6
Continuous
  9
$CECOLOR
 62
    51
  9
$CELTSCALE
 40
1.0
  9
$DISPSILH
 70
     0
  9
$DIMSCALE
 40
10.0
  9
$DIMASZ
 40
2.0
  9
$DIMEXO
 40
0.625
  9
$DIMDLI
 40
0.38
  9
$DIMRND
 40
0.0
  9
$DIMDLE
 40
0.0
  9
$DIMEXE
 40
1.25
  9
$DIMTP
 40
0.0
  9
$DIMTM
 40
0.0
  9
$DIMTXT
 40
2.0
  9
$DIMCEN
 40
0.09
  9
$DIMTSZ
 40
0.0
  9
$DIMTOL
 70
     0
  9
$DIMLIM
 70
     0
  9
$DIMTIH
 70
     0
  9
$DIMTOH
 70
     0
  9
$DIMSE1
 70
     0
  9
$DIMSE2
 70
     0
  9
$DIMTAD
 70
     1
  9
$DIMZIN
 70
     0
  9
$DIMBLK
  1
VDDIM_DEFAULT
  9
$DIMASO
 70
     1
  9
$DIMSHO
 70
     1
  9
$DIMPOST
  1

  9
$DIMAPOST
  1

  9
$DIMALT
 70
     0
  9
$DIMALTD
 70
     2
  9
$DIMALTF
 40
25.4
  9
$DIMLFAC
 40
1.0
  9
$DIMTOFL
 70
     1
  9
$DIMTVP
 40
0.0
  9
$DIMTIX
 70
     1
  9
$DIMSOXD
 70
     0
  9
$DIMSAH
 70
     0
  9
$DIMBLK1
  1

  9
$DIMBLK2
  1

  9
$DIMSTYLE
  2
ISO-25
  9
$DIMCLRD
 70
     0
  9
$DIMCLRE
 70
     0
  9
$DIMCLRT
 70
   256
  9
$DIMTFAC
 40
1.0
  9
$DIMGAP
 40
0.625
  9
$DIMJUST
 70
     0
  9
$DIMSD1
 70
     0
  9
$DIMSD2
 70
     0
  9
$DIMTOLJ
 70
     1
  9
$DIMTZIN
 70
     0
  9
$DIMALTZ
 70
     0
  9
$DIMALTTZ
 70
     0
  9
$DIMUPT
 70
     1
  9
$DIMDEC
 70
     0
  9
$DIMTDEC
 70
     4
  9
$DIMALTU
 70
     2
  9
$DIMALTTD
 70
     2
  9
$DIMTXSTY
  7
Standard
  9
$DIMAUNIT
 70
     0
  9
$DIMADEC
 70
     0
  9
$DIMALTRND
 40
0.0
  9
$DIMAZIN
 70
     0
  9
$DIMDSEP
 70
    46
  9
$DIMATFIT
 70
     3
  9
$DIMFRAC
 70
     0
  9
$DIMLDRBLK
  1

  9
$DIMLUNIT
 70
     2
  9
$DIMLWD
 70
    -2
  9
$DIMLWE
 70
    -2
  9
$DIMTMOVE
 70
     0
  9
$LUNITS
 70
     2
  9
$LUPREC
 70
     4
  9
$SKETCHINC
 40
0.1
  9
$FILLETRAD
 40
0.5
  9
$AUNITS
 70
     0
  9
$AUPREC
 70
     0
  9
$MENU
  1
.
  9
$ELEVATION
 40
0.0
  9
$PELEVATION
 40
0.0
  9
$THICKNESS
 40
0.0
  9
$LIMCHECK
 70
     0
  9
$CHAMFERA
 40
0.5
  9
$CHAMFERB
 40
0.5
  9
$CHAMFERC
 40
1.0
  9
$CHAMFERD
 40
0.0
  9
$SKPOLY
 70
     0
  9
$TDCREATE
 40
2455643.636585428
  9
$TDUCREATE
 40
2455643.594918761
  9
$TDUPDATE
 40
2455643.63658544
  9
$TDUUPDATE
 40
2455643.594918773
  9
$TDINDWG
 40
0.0000000116
  9
$TDUSRTIMER
 40
0.0000000116
  9
$USRTIMER
 70
     1
  9
$ANGBASE
 50
0.0
  9
$ANGDIR
 70
     0
  9
$PDMODE
 70
     0
  9
$PDSIZE
 40
0.0
  9
$PLINEWID
 40
0.0
  9
$SPLFRAME
 70
     0
  9
$SPLINETYPE
 70
     6
  9
$SPLINESEGS
 70
     8
  9
$HANDSEED
  5
303
  9
$SURFTAB1
 70
     6
  9
$SURFTAB2
 70
     6
  9
$SURFTYPE
 70
     6
  9
$SURFU
 70
     6
  9
$SURFV
 70
     6
  9
$UCSBASE
  2

  9
$UCSNAME
  2

  9
$UCSORG
 10
0.0
 20
0.0
 30
0.0
  9
$UCSXDIR
 10
1.0
 20
0.0
 30
0.0
  9
$UCSYDIR
 10
0.0
 20
1.0
 30
0.0
  9
$UCSORTHOREF
  2

  9
$UCSORTHOVIEW
 70
     0
  9
$UCSORGTOP
 10
0.0
 20
0.0
 30
0.0
  9
$UCSORGBOTTOM
 10
0.0
 20
0.0
 30
0.0
  9
$UCSORGLEFT
 10
0.0
 20
0.0
 30
0.0
  9
$UCSORGRIGHT
 10
0.0
 20
0.0
 30
0.0
  9
$UCSORGFRONT
 10
0.0
 20
0.0
 30
0.0
  9
$UCSORGBACK
 10
0.0
 20
0.0
 30
0.0
  9
$PUCSBASE
  2

  9
$PUCSNAME
  2

  9
$PUCSORG
 10
0.0
 20
0.0
 30
0.0
  9
$PUCSXDIR
 10
1.0
 20
0.0
 30
0.0
  9
$PUCSYDIR
 10
0.0
 20
1.0
 30
0.0
  9
$PUCSORTHOREF
  2

  9
$PUCSORTHOVIEW
 70
     0
  9
$PUCSORGTOP
 10
0.0
 20
0.0
 30
0.0
  9
$PUCSORGBOTTOM
 10
0.0
 20
0.0
 30
0.0
  9
$PUCSORGLEFT
 10
0.0
 20
0.0
 30
0.0
  9
$PUCSORGRIGHT
 10
0.0
 20
0.0
 30
0.0
  9
$PUCSORGFRONT
 10
0.0
 20
0.0
 30
0.0
  9
$PUCSORGBACK
 10
0.0
 20
0.0
 30
0.0
  9
$USERI1
 70
     0
  9
$USERI2
 70
     0
  9
$USERI3
 70
     0
  9
$USERI4
 70
     0
  9
$USERI5
 70
     0
  9
$USERR1
 40
0.0
  9
$USERR2
 40
0.0
  9
$USERR3
 40
0.0
  9
$USERR4
 40
0.0
  9
$USERR5
 40
0.0
  9
$WORLDVIEW
 70
     1
  9
$SHADEDGE
 70
     3
  9
$SHADEDIF
 70
    70
  9
$TILEMODE
 70
     1
  9
$MAXACTVP
 70
    64
  9
$PINSBASE
 10
0.0
 20
0.0
 30
0.0
  9
$PLIMCHECK
 70
     0
  9
$PEXTMIN
 10
1.000000000000000E+20
 20
1.000000000000000E+20
 30
1.000000000000000E+20
  9
$PEXTMAX
 10
-1.000000000000000E+20
 20
-1.000000000000000E+20
 30
-1.000000000000000E+20
  9
$PLIMMIN
 10
0.0
 20
0.0
  9
$PLIMMAX
 10
12.0
 20
9.0
  9
$UNITMODE
 70
     0
  9
$VISRETAIN
 70
     1
  9
$PLINEGEN
 70
     0
  9
$PSLTSCALE
 70
     1
  9
$TREEDEPTH
 70
  3020
  9
$CMLSTYLE
  2
Standard
  9
$CMLJUST
 70
     0
  9
$CMLSCALE
 40
1.0
  9
$PROXYGRAPHICS
 70
     1
  9
$MEASUREMENT
 70
     0
  9
$CELWEIGHT
370
     0
  9
$ENDCAPS
280
     0
  9
$JOINSTYLE
280
     0
  9
$LWDISPLAY
290
     0
  9
$INSUNITS
 70
     1
  9
$HYPERLINKBASE
  1

  9
$STYLESHEET
  1

  9
$XEDIT
290
     1
  9
$CEPSNTYPE
380
     0
  9
$PSTYLEMODE
290
     0
  9
$FINGERPRINTGUID
  2
{FAEB1C30-E019-11D5-929B-00C0DF256EC4}
  9
$VERSIONGUID
  2
{FAEB1C32-E019-11D5-929B-00C0DF256EC4}
  9
$EXTNAMES
290
     1
  9
$PSVPSCALE
 40
0.0
  9
$OLESTARTUP
290
     0
  0
ENDSEC
  0
SECTION
  2
CLASSES
  0
CLASS
  1
ACDBDICTIONARYWDFLT
  2
AcDbDictionaryWithDefault
  3
ObjectDBX Classes
 90
        0
280
     0
281
     0
  0
CLASS
  1
ACDBPLACEHOLDER
  2
AcDbPlaceHolder
  3
ObjectDBX Classes
 90
        0
280
     0
281
     0
  0
CLASS
  1
LAYOUT
  2
AcDbLayout
  3
ObjectDBX Classes
 90
        0
280
     0
281
     0
  0
ENDSEC
  0
SECTION
  2
TABLES
  0
TABLE
  2
VPORT
  5
27D
330
0
100
AcDbSymbolTable
 70
     2
  0
VPORT
  5
29E
330
27D
100
AcDbSymbolTableRecord
100
AcDbViewportTableRecord
  2
*Active
 70
     0
 10
0.0
 20
0.0
 11
1.0
 21
1.0
 12
42.0
 22
118.0
 13
0.0
 23
0.0
 14
10.0
 24
10.0
 15
10.0
 25
10.0
 16
0.0
 26
0.0
 36
1.0
 17
0.0
 27
0.0
 37
0.0
 40
1210.785167981653
 41
0.0146654891596112
 42
50.0
 43
0.0
 44
0.0
 50
0.0
 51
0.0000000000007958
 71
     0
 72
   100
 73
     1
 74
     3
 75
     0
 76
     0
 77
     0
 78
     0
281
     0
 65
     1
110
0.0
120
0.0
130
0.0
111
1.0
121
0.0
131
0.0
112
0.0
122
1.0
132
0.0
 79
     0
146
0.0
  0
ENDTAB
  0
TABLE
  2
LTYPE
  5
27A
330
0
100
AcDbSymbolTable
 70
    25
  0
LTYPE
  5
289
330
27A
100
AcDbSymbolTableRecord
100
AcDbLinetypeTableRecord
  2
ByBlock
 70
     0
  3

 72
    65
 73
     0
 40
0.0
  0
LTYPE
  5
28A
330
27A
100
AcDbSymbolTableRecord
100
AcDbLinetypeTableRecord
  2
ByLayer
 70
     0
  3

 72
    65
 73
     0
 40
0.0
  0
LTYPE
  5
28B
330
27A
100
AcDbSymbolTableRecord
100
AcDbLinetypeTableRecord
  2
Continuous
 70
     0
  3
Solid line
 72
    65
 73
     0
 40
0.0
  0
LTYPE
  5
2A6
330
27A
100
AcDbSymbolTableRecord
100
AcDbLinetypeTableRecord
  2
CENTER
 70
     0
  3
Center ____ _ ____ _ ____ _ ____ _ ____ _ ____
 72
    65
 73
     4
 40
2.0
 49
1.25
 74
     0
 49
-0.25
 74
     0
 49
0.25
 74
     0
 49
-0.25
 74
     0
  0
LTYPE
  5
2A7
330
27A
100
AcDbSymbolTableRecord
100
AcDbLinetypeTableRecord
  2
DASHDOT
 70
     0
  3
Dashdot __ . __ . __ . __ . __ . __ . __ . __
 72
    65
 73
     4
 40
1.0
 49
0.5
 74
     0
 49
-0.25
 74
     0
 49
0.0
 74
     0
 49
-0.25
 74
     0
  0
LTYPE
  5
2A8
330
27A
100
AcDbSymbolTableRecord
100
AcDbLinetypeTableRecord
  2
DASHED
 70
     0
  3
Dashed __ __ __ __ __ __ __ __ __ __ __ __ __ _
 72
    65
 73
     2
 40
0.75
 49
0.5
 74
     0
 49
-0.25
 74
     0
  0
LTYPE
  5
2A9
330
27A
100
AcDbSymbolTableRecord
100
AcDbLinetypeTableRecord
  2
HIDDEN
 70
     0
  3
Hidden __ __ __ __ __ __ __ __ __ __ __ __ __ __
 72
    65
 73
     2
 40
0.375
 49
0.25
 74
     0
 49
-0.125
 74
     0
  0
LTYPE
  5
2AA
330
27A
100
AcDbSymbolTableRecord
100
AcDbLinetypeTableRecord
  2
HIDDEN2
 70
     0
  3
Hidden2 _ _ _ _ _ _ _ _ _ _ _ _ _ _ _ _ _ 
 72
    65
 73
     2
 40
0.1875
 49
0.125
 74
     0
 49
-0.0625
 74
     0
  0
LTYPE
  5
2AB
330
27A
100
AcDbSymbolTableRecord
100
AcDbLinetypeTableRecord
  2
BORDER
 70
     0
  3
Border __ __ . __ __ . __ __ . __ __ . __ __ .
 72
    65
 73
     6
 40
1.75
 49
0.5
 74
     0
 49
-0.25
 74
     0
 49
0.5
 74
     0
 49
-0.25
 74
     0
 49
0.0
 74
     0
 49
-0.25
 74
     0
  0
LTYPE
  5
2AC
330
27A
100
AcDbSymbolTableRecord
100
AcDbLinetypeTableRecord
  2
BORDER2
 70
     0
  3
Border2 __.__.__.__.__.__.__.__.__.__.__.
 72
    65
 73
     6
 40
0.875
 49
0.25
 74
     0
 49
-0.125
 74
     0
 49
0.25
 74
     0
 49
-0.125
 74
     0
 49
0.0
 74
     0
 49
-0.125
 74
     0
  0
LTYPE
  5
2AD
330
27A
100
AcDbSymbolTableRecord
100
AcDbLinetypeTableRecord
  2
BORDERX2
 70
     0
  3
Borderx2  ____  ____  .  ____  ____  .  ___
 72
    65
 73
     6
 40
3.5
 49
1.0
 74
     0
 49
-0.5
 74
     0
 49
1.0
 74
     0
 49
-0.5
 74
     0
 49
0.0
 74
     0
 49
-0.5
 74
     0
  0
LTYPE
  5
2AE
330
27A
100
AcDbSymbolTableRecord
100
AcDbLinetypeTableRecord
  2
CENTER2
 70
     0
  3
Center2  ___ _ ___ _ ___ _ ___ _ ___ _ ___
 72
    65
 73
     4
 40
1.125
 49
0.75
 74
     0
 49
-0.125
 74
     0
 49
0.125
 74
     0
 49
-0.125
 74
     0
  0
LTYPE
  5
2AF
330
27A
100
AcDbSymbolTableRecord
100
AcDbLinetypeTableRecord
  2
CENTERX2
 70
     0
  3
Centerx2  ________  __  ________  __  _____
 72
    65
 73
     4
 40
4.0
 49
2.5
 74
     0
 49
-0.5
 74
     0
 49
0.5
 74
     0
 49
-0.5
 74
     0
  0
LTYPE
  5
2B0
330
27A
100
AcDbSymbolTableRecord
100
AcDbLinetypeTableRecord
  2
DASHDOT2
 70
     0
  3
Dashdot2  _._._._._._._._._._._._._._._.
 72
    65
 73
     4
 40
0.5
 49
0.25
 74
     0
 49
-0.125
 74
     0
 49
0.0
 74
     0
 49
-0.125
 74
     0
  0
LTYPE
  5
2B1
330
27A
100
AcDbSymbolTableRecord
100
AcDbLinetypeTableRecord
  2
DASHDOTX2
 70
     0
  3
Dashdotx2 ____  .  ____  .  ____  .  ___
 72
    65
 73
     4
 40
2.0
 49
1.0
 74
     0
 49
-0.5
 74
     0
 49
0.0
 74
     0
 49
-0.5
 74
     0
  0
LTYPE
  5
2B2
330
27A
100
AcDbSymbolTableRecord
100
AcDbLinetypeTableRecord
  2
DASHED2
 70
     0
  3
Dashed2 _ _ _ _ _ _ _ _ _ _ _ _ _ _ _ _ _ 
 72
    65
 73
     2
 40
0.375
 49
0.25
 74
     0
 49
-0.125
 74
     0
  0
LTYPE
  5
2B3
330
27A
100
AcDbSymbolTableRecord
100
AcDbLinetypeTableRecord
  2
DASHEDX2
 70
     0
  3
Dashedx2 ____  ____  ____  ____  ____  ___
 72
    65
 73
     2
 40
1.5
 49
1.0
 74
     0
 49
-0.5
 74
     0
  0
LTYPE
  5
2B4
330
27A
100
AcDbSymbolTableRecord
100
AcDbLinetypeTableRecord
  2
DIVIDE
 70
     0
  3
Divide ____ . . ____ . . ____ . . ____ . . ____
 72
    65
 73
     6
 40
1.25
 49
0.5
 74
     0
 49
-0.25
 74
     0
 49
0.0
 74
     0
 49
-0.25
 74
     0
 49
0.0
 74
     0
 49
-0.25
 74
     0
  0
LTYPE
  5
2B5
330
27A
100
AcDbSymbolTableRecord
100
AcDbLinetypeTableRecord
  2
DIVIDE2
 70
     0
  3
Divide2 __..__..__..__..__..__..__..__.._
 72
    65
 73
     6
 40
0.625
 49
0.25
 74
     0
 49
-0.125
 74
     0
 49
0.0
 74
     0
 49
-0.125
 74
     0
 49
0.0
 74
     0
 49
-0.125
 74
     0
  0
LTYPE
  5
2B6
330
27A
100
AcDbSymbolTableRecord
100
AcDbLinetypeTableRecord
  2
DIVIDEX2
 70
     0
  3
Dividex2 ________  .  .  ________  .  .  _
 72
    65
 73
     6
 40
2.5
 49
1.0
 74
     0
 49
-0.5
 74
     0
 49
0.0
 74
     0
 49
-0.5
 74
     0
 49
0.0
 74
     0
 49
-0.5
 74
     0
  0
LTYPE
  5
2B7
330
27A
100
AcDbSymbolTableRecord
100
AcDbLinetypeTableRecord
  2
DOT
 70
     0
  3
Dot . . . . . . . . . . . . . . . . . . . . . . . .
 72
    65
 73
     2
 40
0.25
 49
0.0
 74
     0
 49
-0.25
 74
     0
  0
LTYPE
  5
2B8
330
27A
100
AcDbSymbolTableRecord
100
AcDbLinetypeTableRecord
  2
DOT2
 70
     0
  3
Dot2 ........................................
 72
    65
 73
     2
 40
0.125
 49
0.0
 74
     0
 49
-0.125
 74
     0
  0
LTYPE
  5
2B9
330
27A
100
AcDbSymbolTableRecord
100
AcDbLinetypeTableRecord
  2
DOTX2
 70
     0
  3
Dotx2 .  .  .  .  .  .  .  .  .  .  .  .  .  .
 72
    65
 73
     2
 40
0.5
 49
0.0
 74
     0
 49
-0.5
 74
     0
  0
LTYPE
  5
2BA
330
27A
100
AcDbSymbolTableRecord
100
AcDbLinetypeTableRecord
  2
HIDDENX2
 70
     0
  3
Hiddenx2 ____ ____ ____ ____ ____ ____ ____ 
 72
    65
 73
     2
 40
0.75
 49
0.5
 74
     0
 49
-0.25
 74
     0
  0
LTYPE
  5
2BB
330
27A
100
AcDbSymbolTableRecord
100
AcDbLinetypeTableRecord
  2
PHANTOM
 70
     0
  3
Phantom ______  __  __  ______  __  __  ______ 
 72
    65
 73
     6
 40
2.5
 49
1.25
 74
     0
 49
-0.25
 74
     0
 49
0.25
 74
     0
 49
-0.25
 74
     0
 49
0.25
 74
     0
 49
-0.25
 74
     0
  0
LTYPE
  5
2BC
330
27A
100
AcDbSymbolTableRecord
100
AcDbLinetypeTableRecord
  2
PHANTOM2
 70
     0
  3
Phantom2 ___ _ _ ___ _ _ ___ _ _ ___ _ _
 72
    65
 73
     6
 40
1.25
 49
0.625
 74
     0
 49
-0.125
 74
     0
 49
0.125
 74
     0
 49
-0.125
 74
     0
 49
0.125
 74
     0
 49
-0.125
 74
     0
  0
LTYPE
  5
2BD
330
27A
100
AcDbSymbolTableRecord
100
AcDbLinetypeTableRecord
  2
PHANTOMX2
 70
     0
  3
Phantomx2 ____________    ____    ____   _
 72
    65
 73
     6
 40
5.0
 49
2.5
 74
     0
 49
-0.5
 74
     0
 49
0.5
 74
     0
 49
-0.5
 74
     0
 49
0.5
 74
     0
 49
-0.5
 74
     0
  0
ENDTAB
  0
TABLE
  2
LAYER
  5
277
330
0
100
AcDbSymbolTable
 70
     4
  0
LAYER
  5
285
330
277
100
AcDbSymbolTableRecord
100
AcDbLayerTableRecord
  2
0
 70
     0
 62
    90
  6
Continuous
370
     0
390
284
  0
LAYER
  5
2B
330
277
100
AcDbSymbolTableRecord
100
AcDbLayerTableRecord
  2
koty
 70
     0
 62
    41
  6
Continuous
370
     0
390
284
  0
LAYER
  5
2C
330
277
100
AcDbSymbolTableRecord
100
AcDbLayerTableRecord
  2
popis
 70
     0
 62
   210
  6
Continuous
370
     0
390
284
  0
LAYER
  5
159
330
277
100
AcDbSymbolTableRecord
100
AcDbLayerTableRecord
  2
Defpoints
 70
     0
 62
     7
  6
Continuous
290
     0
370
     0
390
284
  0
ENDTAB
  0
TABLE
  2
STYLE
  5
278
330
0
100
AcDbSymbolTable
 70
     2
  0
STYLE
  5
286
330
278
100
AcDbSymbolTableRecord
100
AcDbTextStyleTableRecord
  2
Standard
 70
     0
 40
0.0
 41
1.0
 50
0.0
 71
     0
 42
0.2
  3
txt.shx
  4

1001
ACAD
1000
txt.shx
1071
        0
  0
STYLE
  5
1E2
330
278
100
AcDbSymbolTableRecord
100
AcDbTextStyleTableRecord
  2
Proxy_1E1
 70
     0
 40
20.0
 41
1.0
 50
0.0
 71
     0
 42
0.2
  3
txt.shx
  4

1001
ACAD
1000
txt.shx
1071
        0
  0
ENDTAB
  0
TABLE
  2
VIEW
  5
27B
330
0
100
AcDbSymbolTable
 70
     0
  0
ENDTAB
  0
TABLE
  2
UCS
  5
27C
330
0
100
AcDbSymbolTable
 70
     0
  0
ENDTAB
  0
TABLE
  2
APPID
  5
27E
330
0
100
AcDbSymbolTable
 70
     6
  0
APPID
  5
287
330
27E
100
AcDbSymbolTableRecord
100
AcDbRegAppTableRecord
  2
ACAD
 70
     0
  0
APPID
  5
29F
330
27E
100
AcDbSymbolTableRecord
100
AcDbRegAppTableRecord
  2
VD_INVISIBLE_NOT_FOR_READ
 70
     0
  0
APPID
  5
2A0
330
27E
100
AcDbSymbolTableRecord
100
AcDbRegAppTableRecord
  2
VD_TEMPHATCH
 70
     0
  0
APPID
  5
2A1
330
27E
100
AcDbSymbolTableRecord
100
AcDbRegAppTableRecord
  2
VDEXTRAPARAM
 70
     0
  0
APPID
  5
2A2
330
27E
100
AcDbSymbolTableRecord
100
AcDbRegAppTableRecord
  2
PE_URL
 70
     0
  0
APPID
  5
2A3
330
27E
100
AcDbSymbolTableRecord
100
AcDbRegAppTableRecord
  2
VD_UNKNOWN
 70
     0
  0
ENDTAB
  0
TABLE
  2
DIMSTYLE
  5
27F
330
0
100
AcDbSymbolTable
 70
     2
100
AcDbDimStyleTable
  0
DIMSTYLE
105
29C
330
27F
100
AcDbSymbolTableRecord
100
AcDbDimStyleTableRecord
  2
STANDARD
 70
     0
 41
0.2
 42
0.05
 44
0.2
 73
     0
 74
     0
140
0.2
172
     1
174
     1
177
   256
178
   256
288
     1
340
286
342
1E5
  0
DIMSTYLE
105
27
102
{ACAD_REACTORS
330
158
330
171
330
189
330
1A1
330
1B9
102
}
330
27F
100
AcDbSymbolTableRecord
100
AcDbDimStyleTableRecord
  2
ISO-25
 70
     0
 40
10.0
 41
2.0
 42
0.625
 44
1.25
 73
     0
 74
     0
 77
     1
140
2.0
147
0.625
172
     1
174
     1
178
   256
271
     0
288
     1
340
286
342
1E5
  0
ENDTAB
  0
TABLE
  2
BLOCK_RECORD
  5
276
330
0
100
AcDbSymbolTable
 70
     8
  0
BLOCK_RECORD
  5
294
330
276
100
AcDbSymbolTableRecord
100
AcDbBlockTableRecord
  2
*Model_Space
340
297
  0
BLOCK_RECORD
  5
290
330
276
100
AcDbSymbolTableRecord
100
AcDbBlockTableRecord
  2
*Paper_Space
340
293
  0
BLOCK_RECORD
  5
298
330
276
100
AcDbSymbolTableRecord
100
AcDbBlockTableRecord
  2
*Paper_Space0
340
29B
  0
BLOCK_RECORD
  5
1E5
330
276
100
AcDbSymbolTableRecord
100
AcDbBlockTableRecord
  2
VDDIM_DEFAULT
340
0
102
{BLKREFS
331
2C8
331
2C7
331
2D4
331
2D3
331
2E0
331
2DF
331
2EC
331
2EB
331
2F8
331
2F7
102
}
  0
BLOCK_RECORD
  5
1E7
330
276
100
AcDbSymbolTableRecord
100
AcDbBlockTableRecord
  2
VDDIM_NONE
340
0
  0
BLOCK_RECORD
  5
2C3
330
276
100
AcDbSymbolTableRecord
100
AcDbBlockTableRecord
  2
*D3
340
0
  0
BLOCK_RECORD
  5
2CF
330
276
100
AcDbSymbolTableRecord
100
AcDbBlockTableRecord
  2
*D4
340
0
  0
BLOCK_RECORD
  5
2DB
330
276
100
AcDbSymbolTableRecord
100
AcDbBlockTableRecord
  2
*D5
340
0
  0
BLOCK_RECORD
  5
2E7
330
276
100
AcDbSymbolTableRecord
100
AcDbBlockTableRecord
  2
*D6
340
0
  0
BLOCK_RECORD
  5
2F3
330
276
100
AcDbSymbolTableRecord
100
AcDbBlockTableRecord
  2
*D7
340
0
  0
ENDTAB
  0
ENDSEC
  0
SECTION
  2
BLOCKS
  0
BLOCK
  5
295
330
294
100
AcDbEntity
  8
0
100
AcDbBlockBegin
  2
*Model_Space
 70
     0
 71
     0
 10
0.0
 20
0.0
 30
0.0
  3
*Model_Space
  1

  0
ENDBLK
  5
296
330
294
100
AcDbEntity
  8
0
100
AcDbBlockEnd
  0
BLOCK
  5
291
330
290
100
AcDbEntity
 67
     1
  8
0
100
AcDbBlockBegin
  2
*Paper_Space
 70
     0
 71
     0
 10
0.0
 20
0.0
 30
0.0
  3
*Paper_Space
  1

  0
ENDBLK
  5
292
330
290
100
AcDbEntity
 67
     1
  8
0
100
AcDbBlockEnd
  0
BLOCK
  5
299
330
298
100
AcDbEntity
  8
0
100
AcDbBlockBegin
  2
*Paper_Space0
 70
     0
 71
     0
 10
0.0
 20
0.0
 30
0.0
  3
*Paper_Space0
  1

  0
VIEWPORT
  5
301
330
298
100
AcDbEntity
  8
0
 60
     1
100
AcDbViewport
 10
0.0
 20
0.0
 30
0.0
 40
10.0
 41
10.0
 69
     1
 12
0.0
 22
0.0
 13
0.0
 23
0.0
 14
1.0
 24
1.0
 15
0.0
 25
0.0
 16
0.0
 26
0.0
 36
1.0
 17
0.0
 27
0.0
 37
0.0
 42
0.0
 43
0.0
 44
0.0
 45
10.0
 50
0.0
 51
0.0000000000007958
 72
   100
 90
   163872
  1

281
     0
 71
     0
 74
     0
110
0.0
120
0.0
130
0.0
111
1.0
121
0.0
131
0.0
112
0.0
122
1.0
132
0.0
 79
     0
146
0.0
1001
VD_INVISIBLE_NOT_FOR_READ
1000
VD_INVISIBLE_NOT_FOR_READ
  0
VIEWPORT
  5
302
330
298
100
AcDbEntity
  8
0
 60
     1
100
AcDbViewport
 10
0.0
 20
0.0
 30
0.0
 40
10.0
 41
10.0
 69
     2
 12
0.0
 22
0.0
 13
0.0
 23
0.0
 14
1.0
 24
1.0
 15
0.0
 25
0.0
 16
0.0
 26
0.0
 36
1.0
 17
0.0
 27
0.0
 37
0.0
 42
0.0
 43
0.0
 44
0.0
 45
10.0
 50
0.0
 51
0.0000000000007958
 72
   100
 90
   163872
  1

281
     0
 71
     0
 74
     0
110
0.0
120
0.0
130
0.0
111
1.0
121
0.0
131
0.0
112
0.0
122
1.0
132
0.0
 79
     0
146
0.0
1001
VD_INVISIBLE_NOT_FOR_READ
1000
VD_INVISIBLE_NOT_FOR_READ
  0
ENDBLK
  5
29A
330
298
100
AcDbEntity
  8
0
100
AcDbBlockEnd
  0
BLOCK
  5
2BE
330
1E5
100
AcDbEntity
  8
0
100
AcDbBlockBegin
  2
VDDIM_DEFAULT
 70
     0
 71
     0
 10
0.0
 20
0.0
 30
0.0
  3
VDDIM_DEFAULT
  1

  0
LWPOLYLINE
  5
1E6
330
1E5
100
AcDbEntity
  8
0
  6
Continuous
 62
     0
100
AcDbPolyline
 90
        4
 70
     0
 43
0.0
 10
0.0
 20
0.0
 10
-1.0
 20
-0.1665
 10
-1.0
 20
0.1665
 10
0.0
 20
0.0
1001
VDEXTRAPARAM
1071
        1
1071
        0
1071
        0
1040
1.0
1000

1000

1040
0.0
1040
0.0
  0
HATCH
  5
2C2
330
1E5
100
AcDbEntity
  8
0
  6
Continuous
 62
     0
100
AcDbHatch
 10
0.0
 20
0.0
 30
0.0
210
0.0
220
0.0
230
1.0
  2
SOLID
 70
     1
 71
     0
 91
        1
 92
        2
 72
     0
 73
     1
 93
        3
 10
0.0
 20
0.0
 10
-1.0
 20
-0.1665
 10
-1.0
 20
0.1665
 97
        0
 75
     0
 76
     1
 98
        1
 10
0.0
 20
0.0
1001
VDEXTRAPARAM
1071
        1
1071
        0
1071
        0
1040
1.0
1000

1000

1040
0.0
1040
0.0
1001
VD_TEMPHATCH
1000
VD_TEMPHATCH
  0
ENDBLK
  5
2BF
330
1E5
100
AcDbEntity
  8
0
100
AcDbBlockEnd
  0
BLOCK
  5
2C0
330
1E7
100
AcDbEntity
  8
0
100
AcDbBlockBegin
  2
VDDIM_NONE
 70
     0
 71
     0
 10
0.0
 20
0.0
 30
0.0
  3
VDDIM_NONE
  1

  0
ENDBLK
  5
2C1
330
1E7
100
AcDbEntity
  8
0
100
AcDbBlockEnd
  0
BLOCK
  5
2CD
330
2C3
100
AcDbEntity
  8
0
100
AcDbBlockBegin
  2
*D3
 70
     1
 71
     0
 10
0.0
 20
0.0
 30
0.0
  3
*D3
  1

  0
LINE
  5
2C4
330
2C3
100
AcDbEntity
  8
koty
 62
     0
370
    -2
100
AcDbLine
 10
-341.4558492626072
 20
439.030191412686
 30
0.0
 11
-407.1822216039586
 21
439.030191412686
 31
0.0
  0
LINE
  5
2C5
330
2C3
100
AcDbEntity
  8
koty
 62
     0
370
    -2
100
AcDbLine
 10
-341.4558492626074
 20
-10.96980858731399
 30
0.0
 11
-407.1822216039586
 21
-10.96980858731399
 31
0.0
  0
LINE
  5
2C6
330
2C3
100
AcDbEntity
  8
koty
 62
     0
370
    -2
100
AcDbLine
 10
-394.6822216039585
 20
419.030191412686
 30
0.0
 11
-394.6822216039586
 21
9.030191412686008
 31
0.0
  0
INSERT
  5
2C7
330
2C3
100
AcDbEntity
  8
koty
 62
     0
370
    -2
100
AcDbBlockReference
  2
VDDIM_DEFAULT
 10
-394.6822216039585
 20
439.030191412686
 30
0.0
 41
20.0
 42
20.0
 43
20.0
 50
89.99999999999999
  0
INSERT
  5
2C8
330
2C3
100
AcDbEntity
  8
koty
 62
     0
370
    -2
100
AcDbBlockReference
  2
VDDIM_DEFAULT
 10
-394.6822216039586
 20
-10.96980858731399
 30
0.0
 41
20.0
 42
20.0
 43
20.0
 50
270.0
  0
MTEXT
  5
2C9
330
2C3
100
AcDbEntity
  8
koty
100
AcDbMText
 10
-410.9322216039586
 20
214.030191412686
 30
0.0
 40
20.0
 41
0.0
 71
     5
 72
     1
  1
\A1;450
 11
1.263187085795734E-16
 21
1.0
 31
0.0
 73
     1
 44
1.0
  0
POINT
  5
2CA
330
2C3
100
AcDbEntity
  8
Defpoints
 62
     0
100
AcDbPoint
 10
-335.2058492626072
 20
439.030191412686
 30
0.0
  0
POINT
  5
2CB
330
2C3
100
AcDbEntity
  8
Defpoints
 62
     0
100
AcDbPoint
 10
-335.2058492626074
 20
-10.96980858731399
 30
0.0
  0
POINT
  5
2CC
330
2C3
100
AcDbEntity
  8
Defpoints
 62
     0
100
AcDbPoint
 10
-394.6822216039586
 20
-10.96980858731399
 30
0.0
  0
ENDBLK
  5
2CE
330
2C3
100
AcDbEntity
  8
0
100
AcDbBlockEnd
  0
BLOCK
  5
2D9
330
2CF
100
AcDbEntity
  8
0
100
AcDbBlockBegin
  2
*D4
 70
     1
 71
     0
 10
0.0
 20
0.0
 30
0.0
  3
*D4
  1

  0
LINE
  5
2D0
330
2CF
100
AcDbEntity
  8
koty
 62
     0
370
    -2
100
AcDbLine
 10
-341.4558492626074
 20
-35.96980858731402
 30
0.0
 11
-470.7823315108836
 21
-35.96980858731405
 31
0.0
  0
LINE
  5
2D1
330
2CF
100
AcDbEntity
  8
koty
 62
     0
370
    -2
100
AcDbLine
 10
-341.4558492626072
 20
464.030191412686
 30
0.0
 11
-470.7823315108835
 21
464.030191412686
 31
0.0
  0
LINE
  5
2D2
330
2CF
100
AcDbEntity
  8
koty
 62
     0
370
    -2
100
AcDbLine
 10
-458.2823315108836
 20
-15.96980858731411
 30
0.0
 11
-458.2823315108835
 21
444.030191412686
 31
0.0
  0
INSERT
  5
2D3
330
2CF
100
AcDbEntity
  8
koty
 62
     0
370
    -2
100
AcDbBlockReference
  2
VDDIM_DEFAULT
 10
-458.2823315108836
 20
-35.96980858731411
 30
0.0
 41
20.0
 42
20.0
 43
20.0
 50
270.0
  0
INSERT
  5
2D4
330
2CF
100
AcDbEntity
  8
koty
 62
     0
370
    -2
100
AcDbBlockReference
  2
VDDIM_DEFAULT
 10
-458.2823315108835
 20
464.030191412686
 30
0.0
 41
20.0
 42
20.0
 43
20.0
 50
89.99999999999999
  0
MTEXT
  5
2D5
330
2CF
100
AcDbEntity
  8
koty
100
AcDbMText
 10
-474.5323315108835
 20
214.030191412686
 30
0.0
 40
20.0
 41
0.0
 71
     5
 72
     1
  1
\A1;500
 11
1.136868377216160E-16
 21
1.0
 31
0.0
 73
     1
 44
1.0
  0
POINT
  5
2D6
330
2CF
100
AcDbEntity
  8
Defpoints
 62
     0
100
AcDbPoint
 10
-335.2058492626074
 20
-35.96980858731402
 30
0.0
  0
POINT
  5
2D7
330
2CF
100
AcDbEntity
  8
Defpoints
 62
     0
100
AcDbPoint
 10
-335.2058492626072
 20
464.030191412686
 30
0.0
  0
POINT
  5
2D8
330
2CF
100
AcDbEntity
  8
Defpoints
 62
     0
100
AcDbPoint
 10
-458.2823315108835
 20
464.030191412686
 30
0.0
  0
ENDBLK
  5
2DA
330
2CF
100
AcDbEntity
  8
0
100
AcDbBlockEnd
  0
BLOCK
  5
2E5
330
2DB
100
AcDbEntity
  8
0
100
AcDbBlockBegin
  2
*D5
 70
     1
 71
     0
 10
0.0
 20
0.0
 30
0.0
  3
*D5
  1

  0
LINE
  5
2DC
330
2DB
100
AcDbEntity
  8
koty
 62
     0
370
    -2
100
AcDbLine
 10
-341.4558492626072
 20
482.530191412686
 30
0.0
 11
-540.1851729104927
 21
482.530191412686
 31
0.0
  0
LINE
  5
2DD
330
2DB
100
AcDbEntity
  8
koty
 62
     0
370
    -2
100
AcDbLine
 10
-341.4558492626074
 20
-54.46980858731402
 30
0.0
 11
-540.1851729104928
 21
-54.46980858731401
 31
0.0
  0
LINE
  5
2DE
330
2DB
100
AcDbEntity
  8
koty
 62
     0
370
    -2
100
AcDbLine
 10
-527.6851729104927
 20
462.530191412686
 30
0.0
 11
-527.6851729104928
 21
-34.46980858731399
 31
0.0
  0
INSERT
  5
2DF
330
2DB
100
AcDbEntity
  8
koty
 62
     0
370
    -2
100
AcDbBlockReference
  2
VDDIM_DEFAULT
 10
-527.6851729104927
 20
482.530191412686
 30
0.0
 41
20.0
 42
20.0
 43
20.0
 50
89.99999999999999
  0
INSERT
  5
2E0
330
2DB
100
AcDbEntity
  8
koty
 62
     0
370
    -2
100
AcDbBlockReference
  2
VDDIM_DEFAULT
 10
-527.6851729104928
 20
-54.46980858731399
 30
0.0
 41
20.0
 42
20.0
 43
20.0
 50
270.0
  0
MTEXT
  5
2E1
330
2DB
100
AcDbEntity
  8
koty
100
AcDbMText
 10
-543.9351729104928
 20
214.030191412686
 30
0.0
 40
20.0
 41
0.0
 71
     5
 72
     1
  1
\A1;537
 11
2.117073328149274E-16
 21
1.0
 31
0.0
 73
     1
 44
1.0
  0
POINT
  5
2E2
330
2DB
100
AcDbEntity
  8
Defpoints
 62
     0
100
AcDbPoint
 10
-335.2058492626072
 20
482.530191412686
 30
0.0
  0
POINT
  5
2E3
330
2DB
100
AcDbEntity
  8
Defpoints
 62
     0
100
AcDbPoint
 10
-335.2058492626074
 20
-54.46980858731402
 30
0.0
  0
POINT
  5
2E4
330
2DB
100
AcDbEntity
  8
Defpoints
 62
     0
100
AcDbPoint
 10
-527.6851729104928
 20
-54.46980858731401
 30
0.0
  0
ENDBLK
  5
2E6
330
2DB
100
AcDbEntity
  8
0
100
AcDbBlockEnd
  0
BLOCK
  5
2F1
330
2E7
100
AcDbEntity
  8
0
100
AcDbBlockBegin
  2
*D6
 70
     1
 71
     0
 10
0.0
 20
0.0
 30
0.0
  3
*D6
  1

  0
LINE
  5
2E8
330
2E7
100
AcDbEntity
  8
koty
 62
     0
370
    -2
100
AcDbLine
 10
-335.2058492626074
 20
-60.71980858731402
 30
0.0
 11
-335.2058492626074
 21
-121.7636575804499
 31
0.0
  0
LINE
  5
2E9
330
2E7
100
AcDbEntity
  8
koty
 62
     0
370
    -2
100
AcDbLine
 10
-155.2058492626074
 20
-60.71980858731416
 30
0.0
 11
-155.2058492626074
 21
-121.7636575804499
 31
0.0
  0
LINE
  5
2EA
330
2E7
100
AcDbEntity
  8
koty
 62
     0
370
    -2
100
AcDbLine
 10
-315.2058492626074
 20
-109.2636575804499
 30
0.0
 11
-175.2058492626074
 21
-109.2636575804499
 31
0.0
  0
INSERT
  5
2EB
330
2E7
100
AcDbEntity
  8
koty
 62
     0
370
    -2
100
AcDbBlockReference
  2
VDDIM_DEFAULT
 10
-335.2058492626074
 20
-109.2636575804499
 30
0.0
 41
20.0
 42
20.0
 43
20.0
 50
180.0
  0
INSERT
  5
2EC
330
2E7
100
AcDbEntity
  8
koty
 62
     0
370
    -2
100
AcDbBlockReference
  2
VDDIM_DEFAULT
 10
-155.2058492626074
 20
-109.2636575804499
 30
0.0
 41
20.0
 42
20.0
 43
20.0
 50
360.0
  0
MTEXT
  5
2ED
330
2E7
100
AcDbEntity
  8
koty
100
AcDbMText
 10
-245.2058492626074
 20
-93.01365758044994
 30
0.0
 40
20.0
 41
0.0
 71
     5
 72
     1
  1
\A1;180
 73
     1
 44
1.0
  0
POINT
  5
2EE
330
2E7
100
AcDbEntity
  8
Defpoints
 62
     0
100
AcDbPoint
 10
-335.2058492626074
 20
-54.46980858731402
 30
0.0
  0
POINT
  5
2EF
330
2E7
100
AcDbEntity
  8
Defpoints
 62
     0
100
AcDbPoint
 10
-155.2058492626074
 20
-54.46980858731416
 30
0.0
  0
POINT
  5
2F0
330
2E7
100
AcDbEntity
  8
Defpoints
 62
     0
100
AcDbPoint
 10
-155.2058492626074
 20
-109.2636575804499
 30
0.0
  0
ENDBLK
  5
2F2
330
2E7
100
AcDbEntity
  8
0
100
AcDbBlockEnd
  0
BLOCK
  5
2FC
330
2F3
100
AcDbEntity
  8
0
100
AcDbBlockBegin
  2
*D7
 70
     1
 71
     0
 10
0.0
 20
0.0
 30
0.0
  3
*D7
  1

  0
LINE
  5
2F4
330
2F3
100
AcDbEntity
  8
koty
 62
     0
370
    -2
100
AcDbLine
 10
293.5224046873054
 20
464.2219758796605
 30
0.0
 11
284.3742492746254
 21
464.1720587955537
 31
0.0
  0
LINE
  5
2F5
330
2F3
100
AcDbEntity
  8
koty
 62
     0
370
    -2
100
AcDbLine
 10
232.3750233709379
 20
463.8883240298184
 30
0.0
 11
212.3753211002889
 21
463.7791952737663
 31
0.0
  0
MTEXT
  5
2F6
330
2F3
100
AcDbEntity
  8
koty
100
AcDbMText
 10
261.8151644252405
 20
504.2981250227178
 30
0.0
 40
20.0
 41
0.0
 71
     5
 72
     1
  1
\A1;\U+220512
 11
0.9999851135324498
 21
0.005456437802602414
 31
0.0
 73
     1
 44
1.0
  0
INSERT
  5
2F7
330
2F3
100
AcDbEntity
  8
koty
 62
     0
370
    -2
100
AcDbBlockReference
  2
VDDIM_DEFAULT
 10
264.3745470039764
 20
464.0629300395016
 30
0.0
 41
20.0
 42
20.0
 43
20.0
 50
180.312632408597
  0
INSERT
  5
2F8
330
2F3
100
AcDbEntity
  8
koty
 62
     0
370
    -2
100
AcDbBlockReference
  2
VDDIM_DEFAULT
 10
252.3747256415869
 20
463.9974527858704
 30
0.0
 41
20.0
 42
20.0
 43
20.0
 50
0.3126324085970301
  0
LINE
  5
2F9
330
2F3
100
AcDbEntity
  8
koty
 62
     0
370
    -2
100
AcDbLine
 10
252.3747256415869
 20
463.9974527858704
 30
0.0
 11
264.3745470039764
 21
464.0629300395016
 31
0.0
  0
POINT
  5
2FA
330
2F3
100
AcDbEntity
  8
Defpoints
 62
     0
100
AcDbPoint
 10
264.3745470039764
 20
464.0629300395016
 30
0.0
  0
POINT
  5
2FB
330
2F3
100
AcDbEntity
  8
Defpoints
 62
     0
100
AcDbPoint
 10
252.3747256415869
 20
463.9974527858704
 30
0.0
  0
ENDBLK
  5
2FD
330
2F3
100
AcDbEntity
  8
0
100
AcDbBlockEnd
  0
ENDSEC
  0
SECTION
  2
ENTITIES
  0
CIRCLE
  5
34
330
294
100
AcDbEntity
  8
0
100
AcDbCircle
 10
258.3746363227817
 20
214.0301914126859
 30
0.0
 40
225.0
  0
CIRCLE
  5
36
330
294
100
AcDbEntity
  8
0
100
AcDbCircle
 10
258.3746363227817
 20
214.0301914126859
 30
0.0
 40
268.5
  0
CIRCLE
  5
37
330
294
100
AcDbEntity
  8
0
100
AcDbCircle
 10
258.3746363227817
 20
214.0301914126859
 30
0.0
 40
90.0
  0
CIRCLE
  5
38
330
294
100
AcDbEntity
  8
0
100
AcDbCircle
 10
258.3746363227817
 20
214.0301914126859
 30
0.0
 40
54.0
  0
CIRCLE
  5
3E
330
294
100
AcDbEntity
  8
0
100
AcDbCircle
 10
258.3746363227817
 20
464.030191412686
 30
0.0
 40
6.0
  0
CIRCLE
  5
3F
330
294
100
AcDbEntity
  8
0
100
AcDbCircle
 10
133.3746363227817
 20
430.5365423587956
 30
0.0
 40
6.0
  0
CIRCLE
  5
40
330
294
100
AcDbEntity
  8
0
100
AcDbCircle
 10
41.86828537667213
 20
339.0301914126859
 30
0.0
 40
6.0
  0
CIRCLE
  5
41
330
294
100
AcDbEntity
  8
0
100
AcDbCircle
 10
8.374636322781726
 20
214.030191412686
 30
0.0
 40
6.0
  0
CIRCLE
  5
42
330
294
100
AcDbEntity
  8
0
100
AcDbCircle
 10
41.8682853766721
 20
89.03019141268618
 30
0.0
 40
6.0
  0
CIRCLE
  5
43
330
294
100
AcDbEntity
  8
0
100
AcDbCircle
 10
133.3746363227816
 20
-2.476159533423611
 30
0.0
 40
6.0
  0
CIRCLE
  5
44
330
294
100
AcDbEntity
  8
0
100
AcDbCircle
 10
258.3746363227816
 20
-35.96980858731396
 30
0.0
 40
6.0
  0
CIRCLE
  5
45
330
294
100
AcDbEntity
  8
0
100
AcDbCircle
 10
383.3746363227816
 20
-2.476159533423697
 30
0.0
 40
6.0
  0
CIRCLE
  5
46
330
294
100
AcDbEntity
  8
0
100
AcDbCircle
 10
474.8809872688913
 20
89.03019141268599
 30
0.0
 40
6.0
  0
CIRCLE
  5
47
330
294
100
AcDbEntity
  8
0
100
AcDbCircle
 10
508.3746363227817
 20
214.030191412686
 30
0.0
 40
6.0
  0
CIRCLE
  5
48
330
294
100
AcDbEntity
  8
0
100
AcDbCircle
 10
474.8809872688913
 20
339.0301914126859
 30
0.0
 40
6.0
  0
CIRCLE
  5
49
330
294
100
AcDbEntity
  8
0
100
AcDbCircle
 10
383.3746363227816
 20
430.5365423587956
 30
0.0
 40
6.0
  0
ARC
  5
4A
330
294
100
AcDbEntity
  8
0
100
AcDbCircle
 10
258.3746363227817
 20
214.0301914126859
 30
0.0
 40
223.0165158279691
100
AcDbArc
 50
74.34005516042491
 51
104.8897349178757
  0
LINE
  5
4B
330
294
100
AcDbEntity
  8
0
100
AcDbLine
 10
256.3824242502189
 20
267.9934297426633
 30
0.0
 11
256.3824242502189
 21
294.4258552053769
 31
0.0
  0
LINE
  5
4C
330
294
100
AcDbEntity
  8
0
100
AcDbLine
 10
256.3824242502189
 20
294.4258552053769
 30
0.0
 11
258.3746363227817
 21
294.4258552053769
 31
0.0
  0
LINE
  5
4D
330
294
100
AcDbEntity
  8
0
100
AcDbLine
 10
260.3668483953445
 20
267.9934297426633
 30
0.0
 11
260.3668483953445
 21
294.4258552053769
 31
0.0
  0
LINE
  5
4E
330
294
100
AcDbEntity
  8
0
100
AcDbLine
 10
260.3668483953445
 20
294.4258552053769
 30
0.0
 11
258.3746363227817
 21
294.4258552053769
 31
0.0
  0
LINE
  5
4F
330
294
100
AcDbEntity
  8
0
100
AcDbLine
 10
245.8929985037422
 20
266.5678799548584
 30
0.0
 11
240.736288108554
 21
292.4924137740434
 31
0.0
  0
LINE
  5
50
330
294
100
AcDbEntity
  8
0
100
AcDbLine
 10
240.736288108554
 20
292.4924137740434
 30
0.0
 11
242.6902203847652
 21
292.8810750688041
 31
0.0
  0
LINE
  5
51
330
294
100
AcDbEntity
  8
0
100
AcDbLine
 10
244.6441526609764
 20
293.2697363635649
 30
0.0
 11
242.6902203847652
 21
292.8810750688041
 31
0.0
  0
LINE
  5
52
330
294
100
AcDbEntity
  8
0
100
AcDbLine
 10
249.8008630561646
 20
267.3452025443798
 30
0.0
 11
244.6441526609764
 21
293.2697363635649
 31
0.0
  0
LINE
  5
53
330
294
100
AcDbEntity
  8
0
100
AcDbLine
 10
235.8832350988679
 20
263.1233362598531
 30
0.0
 11
225.7679837970623
 21
287.5437131394844
 31
0.0
  0
LINE
  5
54
330
294
100
AcDbEntity
  8
0
100
AcDbLine
 10
225.7679837970623
 20
287.5437131394844
 30
0.0
 11
227.6085477553249
 21
288.3060996934118
 31
0.0
  0
LINE
  5
55
330
294
100
AcDbEntity
  8
0
100
AcDbLine
 10
229.4491117135876
 20
289.0684862473393
 30
0.0
 11
227.6085477553249
 21
288.3060996934118
 31
0.0
  0
LINE
  5
56
330
294
100
AcDbEntity
  8
0
100
AcDbLine
 10
239.5643630153932
 20
264.6481093677081
 30
0.0
 11
229.4491117135876
 21
289.0684862473393
 31
0.0
  0
LINE
  5
57
330
294
100
AcDbEntity
  8
0
100
AcDbLine
 10
226.7378036297056
 20
257.7921705401239
 30
0.0
 11
212.0527348561126
 21
279.7699290918223
 31
0.0
  0
LINE
  5
58
330
294
100
AcDbEntity
  8
0
100
AcDbLine
 10
212.0527348561126
 20
279.7699290918223
 30
0.0
 11
213.7091986557108
 21
280.8767428172004
 31
0.0
  0
LINE
  5
59
330
294
100
AcDbEntity
  8
0
100
AcDbLine
 10
215.365662455309
 20
281.9835565425786
 30
0.0
 11
213.7091986557108
 21
280.8767428172004
 31
0.0
  0
LINE
  5
5A
330
294
100
AcDbEntity
  8
0
100
AcDbLine
 10
230.0507312289021
 20
260.0057979908803
 30
0.0
 11
215.365662455309
 21
281.9835565425786
 31
0.0
  0
LINE
  5
5B
330
294
100
AcDbEntity
  8
0
100
AcDbLine
 10
218.808157898798
 20
250.7792565045279
 30
0.0
 11
200.1176106109053
 21
269.4698037924206
 31
0.0
  0
LINE
  5
5C
330
294
100
AcDbEntity
  8
0
100
AcDbLine
 10
200.1176106109053
 20
269.4698037924206
 30
0.0
 11
201.5263172769762
 21
270.8785104584915
 31
0.0
  0
LINE
  5
5D
330
294
100
AcDbEntity
  8
0
100
AcDbLine
 10
202.935023943047
 20
272.2872171245624
 30
0.0
 11
201.5263172769762
 21
270.8785104584915
 31
0.0
  0
LINE
  5
5E
330
294
100
AcDbEntity
  8
0
100
AcDbLine
 10
221.6255712309397
 20
253.5966698366696
 30
0.0
 11
202.935023943047
 21
272.2872171245624
 31
0.0
  0
LINE
  5
5F
330
294
100
AcDbEntity
  8
0
100
AcDbLine
 10
212.3990297445875
 20
242.3540965065656
 30
0.0
 11
190.4212711928891
 21
257.0391652801587
 31
0.0
  0
LINE
  5
60
330
294
100
AcDbEntity
  8
0
100
AcDbLine
 10
190.4212711928891
 20
257.0391652801587
 30
0.0
 11
191.5280849182672
 21
258.6956290797569
 31
0.0
  0
LINE
  5
61
330
294
100
AcDbEntity
  8
0
100
AcDbLine
 10
192.6348986436454
 20
260.3520928793551
 30
0.0
 11
191.5280849182672
 21
258.6956290797569
 31
0.0
  0
LINE
  5
62
330
294
100
AcDbEntity
  8
0
100
AcDbLine
 10
214.6126571953438
 20
245.667024105762
 30
0.0
 11
192.6348986436454
 21
260.3520928793551
 31
0.0
  0
LINE
  5
63
330
294
100
AcDbEntity
  8
0
100
AcDbLine
 10
207.7567183677596
 20
232.8404647200745
 30
0.0
 11
183.3363414881283
 21
242.9557160218802
 31
0.0
  0
LINE
  5
64
330
294
100
AcDbEntity
  8
0
100
AcDbLine
 10
183.3363414881283
 20
242.9557160218802
 30
0.0
 11
184.0987280420558
 21
244.7962799801428
 31
0.0
  0
LINE
  5
65
330
294
100
AcDbEntity
  8
0
100
AcDbLine
 10
184.8611145959833
 20
246.6368439384054
 30
0.0
 11
184.0987280420558
 21
244.7962799801428
 31
0.0
  0
LINE
  5
66
330
294
100
AcDbEntity
  8
0
100
AcDbLine
 10
209.2814914756146
 20
236.5215926365998
 30
0.0
 11
184.8611145959833
 21
246.6368439384054
 31
0.0
  0
LINE
  5
67
330
294
100
AcDbEntity
  8
0
100
AcDbLine
 10
205.0596251910879
 20
222.6039646793032
 30
0.0
 11
179.1350913719028
 21
227.7606750744913
 31
0.0
  0
LINE
  5
68
330
294
100
AcDbEntity
  8
0
100
AcDbLine
 10
179.1350913719028
 20
227.7606750744913
 30
0.0
 11
179.5237526666635
 21
229.7146073507025
 31
0.0
  0
LINE
  5
69
330
294
100
AcDbEntity
  8
0
100
AcDbLine
 10
179.9124139614242
 20
231.6685396269137
 30
0.0
 11
179.5237526666635
 21
229.7146073507025
 31
0.0
  0
LINE
  5
6A
330
294
100
AcDbEntity
  8
0
100
AcDbLine
 10
205.8369477806093
 20
226.5118292317256
 30
0.0
 11
179.9124139614242
 21
231.6685396269137
 31
0.0
  0
LINE
  5
6B
330
294
100
AcDbEntity
  8
0
100
AcDbLine
 10
204.4113979928043
 20
212.0379793401232
 30
0.0
 11
177.9789725300908
 21
212.0379793401232
 31
0.0
  0
LINE
  5
6C
330
294
100
AcDbEntity
  8
0
100
AcDbLine
 10
177.9789725300908
 20
212.0379793401232
 30
0.0
 11
177.9789725300908
 21
214.030191412686
 31
0.0
  0
LINE
  5
6D
330
294
100
AcDbEntity
  8
0
100
AcDbLine
 10
177.9789725300908
 20
216.0224034852488
 30
0.0
 11
177.9789725300908
 21
214.030191412686
 31
0.0
  0
LINE
  5
6E
330
294
100
AcDbEntity
  8
0
100
AcDbLine
 10
204.4113979928043
 20
216.0224034852488
 30
0.0
 11
177.9789725300908
 21
216.0224034852488
 31
0.0
  0
LINE
  5
6F
330
294
100
AcDbEntity
  8
0
100
AcDbLine
 10
205.8369477806092
 20
201.5485535936465
 30
0.0
 11
179.9124139614241
 21
196.3918431984584
 31
0.0
  0
LINE
  5
70
330
294
100
AcDbEntity
  8
0
100
AcDbLine
 10
179.9124139614241
 20
196.3918431984584
 30
0.0
 11
179.5237526666634
 21
198.3457754746696
 31
0.0
  0
LINE
  5
71
330
294
100
AcDbEntity
  8
0
100
AcDbLine
 10
179.1350913719028
 20
200.2997077508807
 30
0.0
 11
179.5237526666634
 21
198.3457754746696
 31
0.0
  0
LINE
  5
72
330
294
100
AcDbEntity
  8
0
100
AcDbLine
 10
205.0596251910878
 20
205.4564181460689
 30
0.0
 11
179.1350913719028
 21
200.2997077508807
 31
0.0
  0
LINE
  5
73
330
294
100
AcDbEntity
  8
0
100
AcDbLine
 10
209.2814914756146
 20
191.5387901887723
 30
0.0
 11
184.8611145959834
 21
181.4235388869666
 31
0.0
  0
LINE
  5
74
330
294
100
AcDbEntity
  8
0
100
AcDbLine
 10
184.8611145959834
 20
181.4235388869666
 30
0.0
 11
184.0987280420558
 21
183.2641028452293
 31
0.0
  0
LINE
  5
75
330
294
100
AcDbEntity
  8
0
100
AcDbLine
 10
183.3363414881283
 20
185.1046668034919
 30
0.0
 11
184.0987280420558
 21
183.2641028452293
 31
0.0
  0
LINE
  5
76
330
294
100
AcDbEntity
  8
0
100
AcDbLine
 10
207.7567183677596
 20
195.2199181052976
 30
0.0
 11
183.3363414881283
 21
185.1046668034919
 31
0.0
  0
LINE
  5
77
330
294
100
AcDbEntity
  8
0
100
AcDbLine
 10
214.6126571953437
 20
182.39335871961
 30
0.0
 11
192.6348986436453
 21
167.7082899460169
 31
0.0
  0
LINE
  5
78
330
294
100
AcDbEntity
  8
0
100
AcDbLine
 10
192.6348986436453
 20
167.7082899460169
 30
0.0
 11
191.5280849182671
 21
169.3647537456151
 31
0.0
  0
LINE
  5
79
330
294
100
AcDbEntity
  8
0
100
AcDbLine
 10
190.4212711928889
 20
171.0212175452133
 30
0.0
 11
191.5280849182671
 21
169.3647537456151
 31
0.0
  0
LINE
  5
7A
330
294
100
AcDbEntity
  8
0
100
AcDbLine
 10
212.3990297445874
 20
185.7062863188064
 30
0.0
 11
190.4212711928889
 21
171.0212175452133
 31
0.0
  0
LINE
  5
7B
330
294
100
AcDbEntity
  8
0
100
AcDbLine
 10
221.6255712309398
 20
174.4637129887024
 30
0.0
 11
202.935023943047
 21
155.7731657008097
 31
0.0
  0
LINE
  5
7C
330
294
100
AcDbEntity
  8
0
100
AcDbLine
 10
202.935023943047
 20
155.7731657008097
 30
0.0
 11
201.5263172769762
 21
157.1818723668805
 31
0.0
  0
LINE
  5
7D
330
294
100
AcDbEntity
  8
0
100
AcDbLine
 10
200.1176106109054
 20
158.5905790329513
 30
0.0
 11
201.5263172769762
 21
157.1818723668805
 31
0.0
  0
LINE
  5
7E
330
294
100
AcDbEntity
  8
0
100
AcDbLine
 10
218.8081578987981
 20
177.281126320844
 30
0.0
 11
200.1176106109054
 21
158.5905790329513
 31
0.0
  0
LINE
  5
7F
330
294
100
AcDbEntity
  8
0
100
AcDbLine
 10
230.050731228902
 20
168.0545848344917
 30
0.0
 11
215.3656624553089
 21
146.0768262827934
 31
0.0
  0
LINE
  5
80
330
294
100
AcDbEntity
  8
0
100
AcDbLine
 10
215.3656624553089
 20
146.0768262827934
 30
0.0
 11
213.7091986557107
 21
147.1836400081715
 31
0.0
  0
LINE
  5
81
330
294
100
AcDbEntity
  8
0
100
AcDbLine
 10
212.0527348561125
 20
148.2904537335497
 30
0.0
 11
213.7091986557107
 21
147.1836400081715
 31
0.0
  0
LINE
  5
82
330
294
100
AcDbEntity
  8
0
100
AcDbLine
 10
226.7378036297055
 20
170.2682122852481
 30
0.0
 11
212.0527348561125
 21
148.2904537335497
 31
0.0
  0
LINE
  5
83
330
294
100
AcDbEntity
  8
0
100
AcDbLine
 10
239.5643630153932
 20
163.412273457664
 30
0.0
 11
229.4491117135875
 21
138.9918965780327
 31
0.0
  0
LINE
  5
84
330
294
100
AcDbEntity
  8
0
100
AcDbLine
 10
229.4491117135875
 20
138.9918965780327
 30
0.0
 11
227.6085477553249
 21
139.7542831319602
 31
0.0
  0
LINE
  5
85
330
294
100
AcDbEntity
  8
0
100
AcDbLine
 10
225.7679837970623
 20
140.5166696858877
 30
0.0
 11
227.6085477553249
 21
139.7542831319602
 31
0.0
  0
LINE
  5
86
330
294
100
AcDbEntity
  8
0
100
AcDbLine
 10
235.8832350988679
 20
164.937046565519
 30
0.0
 11
225.7679837970623
 21
140.5166696858877
 31
0.0
  0
LINE
  5
87
330
294
100
AcDbEntity
  8
0
100
AcDbLine
 10
249.8008630561646
 20
160.7151802809922
 30
0.0
 11
244.6441526609764
 21
134.7906464618071
 31
0.0
  0
LINE
  5
88
330
294
100
AcDbEntity
  8
0
100
AcDbLine
 10
244.6441526609764
 20
134.7906464618071
 30
0.0
 11
242.6902203847652
 21
135.1793077565678
 31
0.0
  0
LINE
  5
89
330
294
100
AcDbEntity
  8
0
100
AcDbLine
 10
240.736288108554
 20
135.5679690513285
 30
0.0
 11
242.6902203847652
 21
135.1793077565678
 31
0.0
  0
LINE
  5
8A
330
294
100
AcDbEntity
  8
0
100
AcDbLine
 10
245.8929985037422
 20
161.4925028705135
 30
0.0
 11
240.736288108554
 21
135.5679690513285
 31
0.0
  0
LINE
  5
8B
330
294
100
AcDbEntity
  8
0
100
AcDbLine
 10
260.3668483953443
 20
160.0669530827087
 30
0.0
 11
260.3668483953442
 21
133.6345276199951
 31
0.0
  0
LINE
  5
8C
330
294
100
AcDbEntity
  8
0
100
AcDbLine
 10
260.3668483953442
 20
133.6345276199951
 30
0.0
 11
258.3746363227815
 21
133.6345276199951
 31
0.0
  0
LINE
  5
8D
330
294
100
AcDbEntity
  8
0
100
AcDbLine
 10
256.3824242502187
 20
133.6345276199951
 30
0.0
 11
258.3746363227815
 21
133.6345276199951
 31
0.0
  0
LINE
  5
8E
330
294
100
AcDbEntity
  8
0
100
AcDbLine
 10
256.3824242502187
 20
160.0669530827087
 30
0.0
 11
256.3824242502187
 21
133.6345276199951
 31
0.0
  0
LINE
  5
8F
330
294
100
AcDbEntity
  8
0
100
AcDbLine
 10
270.8562741418211
 20
161.4925028705135
 30
0.0
 11
276.0129845370091
 21
135.5679690513285
 31
0.0
  0
LINE
  5
90
330
294
100
AcDbEntity
  8
0
100
AcDbLine
 10
276.0129845370091
 20
135.5679690513285
 30
0.0
 11
274.059052260798
 21
135.1793077565678
 31
0.0
  0
LINE
  5
91
330
294
100
AcDbEntity
  8
0
100
AcDbLine
 10
272.1051199845868
 20
134.7906464618071
 30
0.0
 11
274.059052260798
 21
135.1793077565678
 31
0.0
  0
LINE
  5
92
330
294
100
AcDbEntity
  8
0
100
AcDbLine
 10
266.9484095893987
 20
160.7151802809922
 30
0.0
 11
272.1051199845868
 21
134.7906464618071
 31
0.0
  0
LINE
  5
93
330
294
100
AcDbEntity
  8
0
100
AcDbLine
 10
280.8660375466953
 20
164.9370465655188
 30
0.0
 11
290.981288848501
 21
140.5166696858875
 31
0.0
  0
LINE
  5
94
330
294
100
AcDbEntity
  8
0
100
AcDbLine
 10
290.981288848501
 20
140.5166696858875
 30
0.0
 11
289.1407248902382
 21
139.7542831319601
 31
0.0
  0
LINE
  5
95
330
294
100
AcDbEntity
  8
0
100
AcDbLine
 10
287.3001609319757
 20
138.9918965780325
 30
0.0
 11
289.1407248902382
 21
139.7542831319601
 31
0.0
  0
LINE
  5
96
330
294
100
AcDbEntity
  8
0
100
AcDbLine
 10
277.18490963017
 20
163.4122734576639
 30
0.0
 11
287.3001609319757
 21
138.9918965780325
 31
0.0
  0
LINE
  5
97
330
294
100
AcDbEntity
  8
0
100
AcDbLine
 10
290.0114690158576
 20
170.268212285248
 30
0.0
 11
304.6965377894506
 21
148.2904537335496
 31
0.0
  0
LINE
  5
98
330
294
100
AcDbEntity
  8
0
100
AcDbLine
 10
304.6965377894506
 20
148.2904537335496
 30
0.0
 11
303.0400739898524
 21
147.1836400081714
 31
0.0
  0
LINE
  5
99
330
294
100
AcDbEntity
  8
0
100
AcDbLine
 10
301.3836101902542
 20
146.0768262827933
 30
0.0
 11
303.0400739898524
 21
147.1836400081714
 31
0.0
  0
LINE
  5
9A
330
294
100
AcDbEntity
  8
0
100
AcDbLine
 10
286.6985414166612
 20
168.0545848344917
 30
0.0
 11
301.3836101902542
 21
146.0768262827933
 31
0.0
  0
LINE
  5
9B
330
294
100
AcDbEntity
  8
0
100
AcDbLine
 10
297.9411147467652
 20
177.2811263208439
 30
0.0
 11
316.6316620346579
 21
158.5905790329511
 31
0.0
  0
LINE
  5
9C
330
294
100
AcDbEntity
  8
0
100
AcDbLine
 10
316.6316620346579
 20
158.5905790329511
 30
0.0
 11
315.2229553685871
 21
157.1818723668803
 31
0.0
  0
LINE
  5
9D
330
294
100
AcDbEntity
  8
0
100
AcDbLine
 10
313.8142487025162
 20
155.7731657008095
 30
0.0
 11
315.2229553685871
 21
157.1818723668803
 31
0.0
  0
LINE
  5
9E
330
294
100
AcDbEntity
  8
0
100
AcDbLine
 10
295.1237014146235
 20
174.4637129887022
 30
0.0
 11
313.8142487025162
 21
155.7731657008095
 31
0.0
  0
LINE
  5
9F
330
294
100
AcDbEntity
  8
0
100
AcDbLine
 10
304.3502429009758
 20
185.7062863188063
 30
0.0
 11
326.3280014526742
 21
171.0212175452131
 31
0.0
  0
LINE
  5
A0
330
294
100
AcDbEntity
  8
0
100
AcDbLine
 10
326.3280014526742
 20
171.0212175452131
 30
0.0
 11
325.221187727296
 21
169.3647537456149
 31
0.0
  0
LINE
  5
A1
330
294
100
AcDbEntity
  8
0
100
AcDbLine
 10
324.1143740019178
 20
167.7082899460167
 30
0.0
 11
325.221187727296
 21
169.3647537456149
 31
0.0
  0
LINE
  5
A2
330
294
100
AcDbEntity
  8
0
100
AcDbLine
 10
302.1366154502195
 20
182.3933587196098
 30
0.0
 11
324.1143740019178
 21
167.7082899460167
 31
0.0
  0
LINE
  5
A3
330
294
100
AcDbEntity
  8
0
100
AcDbLine
 10
308.9925542778038
 20
195.2199181052973
 30
0.0
 11
333.4129311574349
 21
185.1046668034916
 31
0.0
  0
LINE
  5
A4
330
294
100
AcDbEntity
  8
0
100
AcDbLine
 10
333.4129311574349
 20
185.1046668034916
 30
0.0
 11
332.6505446035075
 21
183.2641028452291
 31
0.0
  0
LINE
  5
A5
330
294
100
AcDbEntity
  8
0
100
AcDbLine
 10
331.88815804958
 20
181.4235388869663
 30
0.0
 11
332.6505446035075
 21
183.2641028452291
 31
0.0
  0
LINE
  5
A6
330
294
100
AcDbEntity
  8
0
100
AcDbLine
 10
307.4677811699487
 20
191.5387901887721
 30
0.0
 11
331.88815804958
 21
181.4235388869663
 31
0.0
  0
LINE
  5
A7
330
294
100
AcDbEntity
  8
0
100
AcDbLine
 10
311.6896474544755
 20
205.4564181460687
 30
0.0
 11
337.6141812736606
 21
200.2997077508806
 31
0.0
  0
LINE
  5
A8
330
294
100
AcDbEntity
  8
0
100
AcDbLine
 10
337.6141812736606
 20
200.2997077508806
 30
0.0
 11
337.2255199788999
 21
198.3457754746694
 31
0.0
  0
LINE
  5
A9
330
294
100
AcDbEntity
  8
0
100
AcDbLine
 10
336.8368586841392
 20
196.3918431984582
 30
0.0
 11
337.2255199788999
 21
198.3457754746694
 31
0.0
  0
LINE
  5
AA
330
294
100
AcDbEntity
  8
0
100
AcDbLine
 10
310.9123248649541
 20
201.5485535936463
 30
0.0
 11
336.8368586841392
 21
196.3918431984582
 31
0.0
  0
LINE
  5
AB
330
294
100
AcDbEntity
  8
0
100
AcDbLine
 10
312.337874652759
 20
216.0224034852487
 30
0.0
 11
338.7703001154726
 21
216.0224034852486
 31
0.0
  0
LINE
  5
AC
330
294
100
AcDbEntity
  8
0
100
AcDbLine
 10
338.7703001154726
 20
216.0224034852486
 30
0.0
 11
338.7703001154726
 21
214.0301914126859
 31
0.0
  0
LINE
  5
AD
330
294
100
AcDbEntity
  8
0
100
AcDbLine
 10
338.7703001154726
 20
212.0379793401231
 30
0.0
 11
338.7703001154726
 21
214.0301914126859
 31
0.0
  0
LINE
  5
AE
330
294
100
AcDbEntity
  8
0
100
AcDbLine
 10
312.337874652759
 20
212.0379793401231
 30
0.0
 11
338.7703001154726
 21
212.0379793401231
 31
0.0
  0
LINE
  5
AF
330
294
100
AcDbEntity
  8
0
100
AcDbLine
 10
310.9123248649542
 20
226.5118292317255
 30
0.0
 11
336.8368586841392
 21
231.6685396269135
 31
0.0
  0
LINE
  5
B0
330
294
100
AcDbEntity
  8
0
100
AcDbLine
 10
336.8368586841392
 20
231.6685396269135
 30
0.0
 11
337.2255199788999
 21
229.7146073507023
 31
0.0
  0
LINE
  5
B1
330
294
100
AcDbEntity
  8
0
100
AcDbLine
 10
337.6141812736606
 20
227.7606750744912
 30
0.0
 11
337.2255199788999
 21
229.7146073507023
 31
0.0
  0
LINE
  5
B2
330
294
100
AcDbEntity
  8
0
100
AcDbLine
 10
311.6896474544755
 20
222.6039646793031
 30
0.0
 11
337.6141812736606
 21
227.7606750744912
 31
0.0
  0
LINE
  5
B3
330
294
100
AcDbEntity
  8
0
100
AcDbLine
 10
307.4677811699488
 20
236.5215926365997
 30
0.0
 11
331.8881580495801
 21
246.6368439384053
 31
0.0
  0
LINE
  5
B4
330
294
100
AcDbEntity
  8
0
100
AcDbLine
 10
331.8881580495801
 20
246.6368439384053
 30
0.0
 11
332.6505446035076
 21
244.7962799801426
 31
0.0
  0
LINE
  5
B5
330
294
100
AcDbEntity
  8
0
100
AcDbLine
 10
333.4129311574351
 20
242.95571602188
 30
0.0
 11
332.6505446035076
 21
244.7962799801426
 31
0.0
  0
LINE
  5
B6
330
294
100
AcDbEntity
  8
0
100
AcDbLine
 10
308.9925542778038
 20
232.8404647200744
 30
0.0
 11
333.4129311574351
 21
242.95571602188
 31
0.0
  0
LINE
  5
B7
330
294
100
AcDbEntity
  8
0
100
AcDbLine
 10
302.1366154502196
 20
245.667024105762
 30
0.0
 11
324.114374001918
 21
260.352092879355
 31
0.0
  0
LINE
  5
B8
330
294
100
AcDbEntity
  8
0
100
AcDbLine
 10
324.114374001918
 20
260.352092879355
 30
0.0
 11
325.2211877272961
 21
258.6956290797568
 31
0.0
  0
LINE
  5
B9
330
294
100
AcDbEntity
  8
0
100
AcDbLine
 10
326.3280014526743
 20
257.0391652801585
 30
0.0
 11
325.2211877272961
 21
258.6956290797568
 31
0.0
  0
LINE
  5
BA
330
294
100
AcDbEntity
  8
0
100
AcDbLine
 10
304.3502429009759
 20
242.3540965065655
 30
0.0
 11
326.3280014526743
 21
257.0391652801585
 31
0.0
  0
LINE
  5
BB
330
294
100
AcDbEntity
  8
0
100
AcDbLine
 10
295.1237014146236
 20
253.5966698366696
 30
0.0
 11
313.8142487025164
 21
272.2872171245624
 31
0.0
  0
LINE
  5
BC
330
294
100
AcDbEntity
  8
0
100
AcDbLine
 10
313.8142487025164
 20
272.2872171245624
 30
0.0
 11
315.2229553685872
 21
270.8785104584915
 31
0.0
  0
LINE
  5
BD
330
294
100
AcDbEntity
  8
0
100
AcDbLine
 10
316.6316620346581
 20
269.4698037924207
 30
0.0
 11
315.2229553685872
 21
270.8785104584915
 31
0.0
  0
LINE
  5
BE
330
294
100
AcDbEntity
  8
0
100
AcDbLine
 10
297.9411147467653
 20
250.7792565045279
 30
0.0
 11
316.6316620346581
 21
269.4698037924207
 31
0.0
  0
LINE
  5
BF
330
294
100
AcDbEntity
  8
0
100
AcDbLine
 10
286.6985414166613
 20
260.0057979908803
 30
0.0
 11
301.3836101902544
 21
281.9835565425786
 31
0.0
  0
LINE
  5
C0
330
294
100
AcDbEntity
  8
0
100
AcDbLine
 10
301.3836101902544
 20
281.9835565425786
 30
0.0
 11
303.0400739898526
 21
280.8767428172004
 31
0.0
  0
LINE
  5
C1
330
294
100
AcDbEntity
  8
0
100
AcDbLine
 10
304.6965377894508
 20
279.7699290918223
 30
0.0
 11
303.0400739898526
 21
280.8767428172004
 31
0.0
  0
LINE
  5
C2
330
294
100
AcDbEntity
  8
0
100
AcDbLine
 10
290.0114690158578
 20
257.7921705401239
 30
0.0
 11
304.6965377894508
 21
279.7699290918223
 31
0.0
  0
LINE
  5
C3
330
294
100
AcDbEntity
  8
0
100
AcDbLine
 10
277.1849096301701
 20
264.6481093677081
 30
0.0
 11
287.3001609319758
 21
289.0684862473393
 31
0.0
  0
LINE
  5
C4
330
294
100
AcDbEntity
  8
0
100
AcDbLine
 10
287.3001609319758
 20
289.0684862473393
 30
0.0
 11
289.1407248902384
 21
288.3060996934118
 31
0.0
  0
LINE
  5
C5
330
294
100
AcDbEntity
  8
0
100
AcDbLine
 10
290.981288848501
 20
287.5437131394843
 30
0.0
 11
289.1407248902384
 21
288.3060996934118
 31
0.0
  0
LINE
  5
C6
330
294
100
AcDbEntity
  8
0
100
AcDbLine
 10
280.8660375466954
 20
263.1233362598531
 30
0.0
 11
290.981288848501
 21
287.5437131394843
 31
0.0
  0
LINE
  5
C7
330
294
100
AcDbEntity
  8
0
100
AcDbLine
 10
266.9484095893989
 20
267.3452025443798
 30
0.0
 11
272.105119984587
 21
293.2697363635649
 31
0.0
  0
LINE
  5
C8
330
294
100
AcDbEntity
  8
0
100
AcDbLine
 10
272.105119984587
 20
293.2697363635649
 30
0.0
 11
274.0590522607982
 21
292.8810750688041
 31
0.0
  0
LINE
  5
C9
330
294
100
AcDbEntity
  8
0
100
AcDbLine
 10
276.0129845370093
 20
292.4924137740434
 30
0.0
 11
274.0590522607982
 21
292.8810750688041
 31
0.0
  0
LINE
  5
CA
330
294
100
AcDbEntity
  8
0
100
AcDbLine
 10
270.8562741418213
 20
266.5678799548584
 30
0.0
 11
276.0129845370093
 21
292.4924137740434
 31
0.0
  0
LINE
  5
CB
330
294
100
AcDbEntity
  8
0
100
AcDbLine
 10
292.8588341360498
 20
255.5854570378194
 30
0.0
 11
413.8988396227176
 21
376.6254625244873
 31
0.0
  0
LINE
  5
CC
330
294
100
AcDbEntity
  8
0
100
AcDbLine
 10
299.9299019479152
 20
248.5143892259539
 30
0.0
 11
420.9699074345832
 21
369.5543947126218
 31
0.0
  0
LINE
  5
CE
330
294
100
AcDbEntity
  8
0
100
AcDbLine
 10
299.2819289768474
 20
249.2806298172593
 30
0.0
 11
420.2769456532502
 21
370.2756464936619
 31
0.0
  0
LINE
  5
CF
330
294
100
AcDbEntity
  8
0
100
AcDbLine
 10
293.6250747273551
 20
254.9374840667517
 30
0.0
 11
414.6200914037579
 21
375.9325007431543
 31
0.0
  0
LINE
  5
D0
330
294
100
AcDbEntity
  8
0
100
AcDbLine
 10
217.467343668716
 20
249.2806298172594
 30
0.0
 11
96.47232699231341
 21
370.2756464936622
 31
0.0
  0
LINE
  5
D1
330
294
100
AcDbEntity
  8
0
100
AcDbLine
 10
216.8193706976482
 20
248.514389225954
 30
0.0
 11
95.77936521098042
 21
369.554394712622
 31
0.0
  0
LINE
  5
D2
330
294
100
AcDbEntity
  8
0
100
AcDbLine
 10
223.1241979182084
 20
254.9374840667517
 30
0.0
 11
102.1291812418058
 21
375.9325007431546
 31
0.0
  0
LINE
  5
D3
330
294
100
AcDbEntity
  8
0
100
AcDbLine
 10
223.8904385095137
 20
255.5854570378194
 30
0.0
 11
102.8504330228459
 21
376.6254625244876
 31
0.0
  0
LINE
  5
D4
330
294
100
AcDbEntity
  8
0
100
AcDbLine
 10
223.1241979182082
 20
173.1228987586203
 30
0.0
 11
102.1291812418054
 21
52.12788208221775
 31
0.0
  0
LINE
  5
D5
330
294
100
AcDbEntity
  8
0
100
AcDbLine
 10
223.8904385095136
 20
172.4749257875525
 30
0.0
 11
102.8504330228456
 21
51.43492030088476
 31
0.0
  0
LINE
  5
D6
330
294
100
AcDbEntity
  8
0
100
AcDbLine
 10
217.467343668716
 20
178.7797530081127
 30
0.0
 11
96.47232699231313
 21
57.78473633171018
 31
0.0
  0
LINE
  5
D7
330
294
100
AcDbEntity
  8
0
100
AcDbLine
 10
216.8193706976482
 20
179.545993599418
 30
0.0
 11
95.77936521098013
 21
58.50598811275029
 31
0.0
  0
LINE
  5
D8
330
294
100
AcDbEntity
  8
0
100
AcDbLine
 10
299.2819289768474
 20
178.7797530081125
 30
0.0
 11
420.2769456532498
 21
57.78473633170967
 31
0.0
  0
LINE
  5
D9
330
294
100
AcDbEntity
  8
0
100
AcDbLine
 10
299.9299019479151
 20
179.5459935994179
 30
0.0
 11
420.9699074345828
 21
58.50598811274989
 31
0.0
  0
LINE
  5
DA
330
294
100
AcDbEntity
  8
0
100
AcDbLine
 10
293.625074727355
 20
173.1228987586202
 30
0.0
 11
414.6200914037574
 21
52.12788208221735
 31
0.0
  0
LINE
  5
DB
330
294
100
AcDbEntity
  8
0
100
AcDbLine
 10
292.8588341360496
 20
172.4749257875524
 30
0.0
 11
413.8988396227173
 21
51.43492030088436
 31
0.0
  0
ARC
  5
DE
330
294
100
AcDbEntity
  8
0
100
AcDbCircle
 10
-32.13517956319501
 20
262.4705176252505
 30
0.0
 40
273.7503678940051
100
AcDbArc
 50
8.274596902662244
 51
29.08494370611661
  0
ARC
  5
DF
330
294
100
AcDbEntity
  8
0
100
AcDbCircle
 10
294.3314881606958
 20
428.5403742527413
 30
0.0
 40
93.26865330033824
100
AcDbArc
 50
179.3746739284831
 51
200.7197716654498
  0
ARC
  5
E0
330
294
100
AcDbEntity
  8
0
100
AcDbCircle
 10
428.3033993795138
 20
385.8332676171134
 30
0.0
 40
117.8313038333886
100
AcDbArc
 50
158.6306469359464
 51
175.1926733507267
  0
ARC
  5
E1
330
294
100
AcDbEntity
  8
0
100
AcDbCircle
 10
-638.1166614185815
 20
611.4806690639047
 30
0.0
 40
973.2240159382383
100
AcDbArc
 50
341.3526590420482
 51
347.190569720058
  0
ARC
  5
E3
330
294
100
AcDbEntity
  8
0
100
AcDbCircle
 10
113.082552496338
 20
375.8873015856325
 30
0.0
 40
93.26865330033824
100
AcDbArc
 50
230.8032453570545
 51
252.1483430940213
  0
ARC
  5
E4
330
294
100
AcDbEntity
  8
0
100
AcDbCircle
 10
230.0024333696478
 20
454.0033140887087
 30
0.0
 40
117.8313038333886
100
AcDbArc
 50
210.0592183645178
 51
226.621244779298
  0
ARC
  5
E5
330
294
100
AcDbEntity
  8
0
100
AcDbCircle
 10
258.3746363227817
 20
214.0301914126859
 30
0.0
 40
223.0165158279691
100
AcDbArc
 50
125.7686265889963
 51
156.3183063464471
  0
ARC
  5
E6
330
294
100
AcDbEntity
  8
0
100
AcDbCircle
 10
39.37255672401255
 20
17.10252077928274
 30
0.0
 40
273.7503678940051
100
AcDbArc
 50
59.70316833123366
 51
80.51351513468804
  0
ARC
  5
E7
330
294
100
AcDbEntity
  8
0
100
AcDbCircle
 10
-611.3178414237386
 20
-239.0686093607143
 30
0.0
 40
973.2240159382383
100
AcDbArc
 50
32.78123047061975
 51
38.61914114862943
  0
ARC
  5
E8
330
294
100
AcDbEntity
  8
0
100
AcDbCircle
 10
41.24151937168403
 20
201.352523674946
 30
0.0
 40
93.26865330033824
100
AcDbArc
 50
282.231816785626
 51
303.5769145225927
  0
ARC
  5
E9
330
294
100
AcDbEntity
  8
0
100
AcDbCircle
 10
53.06631487095945
 20
341.4687046256486
 30
0.0
 40
117.8313038333886
100
AcDbArc
 50
261.4877897930893
 51
278.0498162078694
  0
ARC
  5
EA
330
294
100
AcDbEntity
  8
0
100
AcDbCircle
 10
258.3746363227818
 20
214.030191412686
 30
0.0
 40
223.0165158279691
100
AcDbArc
 50
177.1971980175677
 51
207.7468777750185
  0
ARC
  5
EB
330
294
100
AcDbEntity
  8
0
100
AcDbCircle
 10
275.7933257773842
 20
-79.97492348732359
 30
0.0
 40
273.7503678940051
100
AcDbArc
 50
111.1317397598051
 51
131.9420865632594
  0
ARC
  5
EC
330
294
100
AcDbEntity
  8
0
100
AcDbCircle
 10
70.37715280772682
 20
-748.4252492718073
 30
0.0
 40
973.2240159382383
100
AcDbArc
 50
84.20980189919116
 51
90.04771257720086
  0
ARC
  5
ED
330
294
100
AcDbEntity
  8
0
100
AcDbCircle
 10
132.906152019607
 20
36.3642881480707
 30
0.0
 40
93.26865330033824
100
AcDbArc
 50
333.6603882141973
 51
355.0054859511641
  0
ARC
  5
EE
330
294
100
AcDbEntity
  8
0
100
AcDbCircle
 10
30.73154995202367
 20
132.9702954413066
 30
0.0
 40
117.8313038333886
100
AcDbArc
 50
312.9163612216607
 51
329.4783876364409
  0
ARC
  5
EF
330
294
100
AcDbEntity
  8
0
100
AcDbCircle
 10
258.3746363227818
 20
214.030191412686
 30
0.0
 40
223.0165158279691
100
AcDbArc
 50
228.6257694461391
 51
259.1754492035899
  0
ARC
  5
F0
330
294
100
AcDbEntity
  8
0
100
AcDbCircle
 10
499.0974663949287
 20
44.33948037716675
 30
0.0
 40
273.7503678940051
100
AcDbArc
 50
162.5603111883765
 51
183.3706579918308
  0
ARC
  5
F1
330
294
100
AcDbEntity
  8
0
100
AcDbCircle
 10
893.6380865758179
 20
-533.0333118343835
 30
0.0
 40
973.2240159382383
100
AcDbArc
 50
135.6383733277625
 51
141.4762840057722
  0
ARC
  5
F2
330
294
100
AcDbEntity
  8
0
100
AcDbCircle
 10
319.0511124384753
 20
5.162101503410212
 30
0.0
 40
93.26865330033824
100
AcDbArc
 50
25.08895964276885
 51
46.43405737973558
  0
ARC
  5
F3
330
294
100
AcDbEntity
  8
0
100
AcDbCircle
 10
179.8166721429749
 20
-14.48835875604646
 30
0.0
 40
117.8313038333886
100
AcDbArc
 50
4.344932650232161
 51
20.90695906501237
  0
ARC
  5
F4
330
294
100
AcDbEntity
  8
0
100
AcDbCircle
 10
258.3746363227816
 20
214.030191412686
 30
0.0
 40
223.0165158279691
100
AcDbArc
 50
280.0543408747106
 51
310.6040206321614
  0
ARC
  5
F5
330
294
100
AcDbEntity
  8
0
100
AcDbCircle
 10
541.1324061172921
 20
296.4344507110886
 30
0.0
 40
273.7503678940051
100
AcDbArc
 50
213.9888826169479
 51
234.7992294204023
  0
ARC
  5
F6
330
294
100
AcDbEntity
  8
0
100
AcDbCircle
 10
1238.532685290558
 20
244.9126808663659
 30
0.0
 40
973.2240159382383
100
AcDbArc
 50
187.0669447563339
 51
192.9048554343436
  0
ARC
  5
F7
330
294
100
AcDbEntity
  8
0
100
AcDbCircle
 10
459.5054487676765
 20
131.2418466930082
 30
0.0
 40
93.26865330033824
100
AcDbArc
 50
76.51753107134024
 51
97.86262880830697
  0
ARC
  5
F8
330
294
100
AcDbEntity
  8
0
100
AcDbCircle
 10
388.0575436517533
 20
10.13211625256923
 30
0.0
 40
117.8313038333886
100
AcDbArc
 50
55.77350407880356
 51
72.33553049358378
  0
ARC
  5
F9
330
294
100
AcDbEntity
  8
0
100
AcDbCircle
 10
258.3746363227817
 20
214.0301914126861
 30
0.0
 40
223.0165158279691
100
AcDbArc
 50
331.4829123032819
 51
2.032592060732789
  0
ARC
  5
FA
330
294
100
AcDbEntity
  8
0
100
AcDbCircle
 10
370.2449779770285
 20
486.4773330527588
 30
0.0
 40
273.7503678940051
100
AcDbArc
 50
265.4174540455193
 51
286.2278008489737
  0
ARC
  5
FB
330
294
100
AcDbEntity
  8
0
100
AcDbCircle
 10
845.3482815520702
 20
999.6035291205139
 30
0.0
 40
973.2240159382383
100
AcDbArc
 50
238.4955161849053
 51
244.3334268629151
  0
ARC
  5
FC
330
294
100
AcDbEntity
  8
0
100
AcDbCircle
 10
448.5041810049953
 20
319.6629040309929
 30
0.0
 40
93.26865330033824
100
AcDbArc
 50
127.9461024999116
 51
149.2912002368783
  0
ARC
  5
FD
330
294
100
AcDbEntity
  8
0
100
AcDbCircle
 10
498.6445408925987
 20
188.2920006195017
 30
0.0
 40
117.8313038333886
100
AcDbArc
 50
107.2020755073749
 51
123.7641019221552
  0
ARC
  5
FE
330
294
100
AcDbEntity
  8
0
100
AcDbCircle
 10
258.3746363227817
 20
214.030191412686
 30
0.0
 40
223.0165158279691
100
AcDbArc
 50
22.91148373185341
 51
53.46116348930422
  0
ARC
  5
FF
330
294
100
AcDbEntity
  8
0
100
AcDbCircle
 10
115.1169008320215
 20
471.3619608305781
 30
0.0
 40
273.7503678940051
100
AcDbArc
 50
316.8460254740907
 51
337.6563722775451
  0
ARC
  5
100
330
294
100
AcDbEntity
  8
0
100
AcDbCircle
 10
10.16075087562023
 20
1162.741631304921
 30
0.0
 40
973.2240159382383
100
AcDbArc
 50
289.9240876134768
 51
295.7619982914865
  0
CIRCLE
  5
101
330
294
100
AcDbEntity
  8
0
100
AcDbCircle
 10
258.3746363227817
 20
214.0301914126859
 30
0.0
 40
134.2184925974965
  0
CIRCLE
  5
102
330
294
100
AcDbEntity
  8
0
100
AcDbCircle
 10
258.3746363227817
 20
214.0301914126859
 30
0.0
 40
188.2804088377167
  0
LINE
  5
104
330
294
100
AcDbEntity
  8
0
100
AcDbLine
 10
-155.2058492626072
 20
439.030191412686
 30
0.0
 11
-335.2058492626072
 21
439.030191412686
 31
0.0
  0
LINE
  5
105
330
294
100
AcDbEntity
  8
0
100
AcDbLine
 10
-151.296391008143
 20
464.030191412686
 30
0.0
 11
-163.8022045429347
 21
464.030191412686
 31
0.0
  0
LINE
  5
107
330
294
100
AcDbEntity
  8
0
100
AcDbLine
 10
-270.5436983035258
 20
304.030191412686
 30
0.0
 11
-325.2058492626072
 21
304.0301914126861
 31
0.0
  0
LINE
  5
109
330
294
100
AcDbEntity
  8
0
100
AcDbLine
 10
-155.2058492626072
 20
482.530191412686
 30
0.0
 11
-155.2058492626072
 21
214.0301914126859
 31
0.0
  0
LINE
  5
10B
330
294
100
AcDbEntity
  8
0
100
AcDbLine
 10
-335.2058492626072
 20
214.0301914126859
 30
0.0
 11
-335.2058492626072
 21
482.530191412686
 31
0.0
  0
LINE
  5
10C
330
294
100
AcDbEntity
  8
0
100
AcDbLine
 10
-160.2058492626072
 20
482.530191412686
 30
0.0
 11
-160.2058492626071
 21
439.030191412686
 31
0.0
  0
LINE
  5
10D
330
294
100
AcDbEntity
  8
0
100
AcDbLine
 10
-330.2058492626072
 20
214.0301914126859
 30
0.0
 11
-330.2058492626072
 21
299.0301914126861
 31
0.0
  0
LWPOLYLINE
  5
10E
330
294
100
AcDbEntity
  8
0
100
AcDbPolyline
 90
        6
 70
     1
 43
0.0
 10
-312.1776738752103
 20
439.0774007757474
 10
-209.7695146713103
 20
439.0774007757474
 10
-209.7695146713104
 20
477.5245769976136
 42
0.4142135623730951
 10
-214.7695146713104
 20
482.5245769976135
 10
-307.1776738752103
 20
482.5245769976135
 42
0.4142135623730951
 10
-312.1776738752103
 20
477.5245769976135
  0
LINE
  5
10F
330
294
100
AcDbEntity
  8
0
100
AcDbLine
 10
-335.2058492626072
 20
482.530191412686
 30
0.0
 11
-330.2058492626072
 21
482.530191412686
 31
0.0
  0
LINE
  5
110
330
294
100
AcDbEntity
  8
0
100
AcDbLine
 10
-160.2058492626072
 20
482.530191412686
 30
0.0
 11
-155.2058492626072
 21
482.530191412686
 31
0.0
  0
CIRCLE
  5
112
330
294
100
AcDbEntity
  8
0
100
AcDbCircle
 10
-245.2058492626072
 20
464.030191412686
 30
0.0
 40
6.0
  0
LINE
  5
113
330
294
100
AcDbEntity
  8
0
100
AcDbLine
 10
-325.7017763756397
 20
464.030191412686
 30
0.0
 11
-339.2215740096685
 21
464.030191412686
 31
0.0
  0
LINE
  5
114
330
294
100
AcDbEntity
  8
0
100
AcDbLine
 10
-312.1776738752103
 20
439.0774007757474
 30
0.0
 11
-312.1776738752103
 21
325.6906967979848
 31
0.0
  0
LINE
  5
117
330
294
100
AcDbEntity
  8
0
100
AcDbLine
 10
-175.5629822961177
 20
308.1133012164508
 30
0.0
 11
-175.5629822961177
 21
214.0301914126859
 31
0.0
  0
ARC
  5
118
330
294
100
AcDbEntity
  8
0
100
AcDbCircle
 10
-235.7955587792775
 20
214.4863209480414
 30
0.0
 40
80.59100032965424
100
AcDbArc
 50
359.6757151951119
 51
41.63555984882419
  0
LWPOLYLINE
  5
119
330
294
100
AcDbEntity
  8
0
100
AcDbPolyline
 90
        4
 70
     1
 43
0.0
 10
-297.7745761300932
 20
304.030191412686
 10
-270.5436983035258
 20
304.030191412686
 10
-270.5436983035258
 20
297.1124534090946
 10
-297.7745761300932
 20
297.1124534090946
  0
LWPOLYLINE
  5
11A
330
294
100
AcDbEntity
  8
0
100
AcDbPolyline
 90
        4
 70
     1
 43
0.0
 10
-297.7745761300932
 20
297.1124534090946
 10
-270.5436983035258
 20
297.1124534090946
 10
-270.5436983035258
 20
290.1947154055032
 10
-297.7745761300932
 20
290.1947154055032
  0
LWPOLYLINE
  5
11B
330
294
100
AcDbEntity
  8
0
100
AcDbPolyline
 90
        4
 70
     1
 43
0.0
 10
-297.7745761300932
 20
290.1947154055033
 10
-270.5436983035258
 20
290.1947154055033
 10
-270.5436983035258
 20
283.2769774019118
 10
-297.7745761300932
 20
283.2769774019118
  0
LWPOLYLINE
  5
11C
330
294
100
AcDbEntity
  8
0
100
AcDbPolyline
 90
        4
 70
     1
 43
0.0
 10
-297.7745761300932
 20
283.2769774019119
 10
-270.5436983035258
 20
283.2769774019119
 10
-270.5436983035258
 20
276.3592393983205
 10
-297.7745761300932
 20
276.3592393983205
  0
LWPOLYLINE
  5
11D
330
294
100
AcDbEntity
  8
0
100
AcDbPolyline
 90
        4
 70
     1
 43
0.0
 10
-297.7745761300932
 20
276.3592393983206
 10
-270.5436983035258
 20
276.3592393983206
 10
-270.5436983035258
 20
269.4415013947291
 10
-297.7745761300932
 20
269.4415013947291
  0
LWPOLYLINE
  5
11E
330
294
100
AcDbEntity
  8
0
100
AcDbPolyline
 90
        4
 70
     1
 43
0.0
 10
-297.7745761300932
 20
269.4415013947292
 10
-270.5436983035258
 20
269.4415013947292
 10
-270.5436983035258
 20
262.5237633911378
 10
-297.7745761300932
 20
262.5237633911378
  0
LWPOLYLINE
  5
11F
330
294
100
AcDbEntity
  8
0
100
AcDbPolyline
 90
        4
 70
     1
 43
0.0
 10
-297.7745761300932
 20
262.5237633911378
 10
-270.5436983035258
 20
262.5237633911378
 10
-270.5436983035258
 20
255.6060253875464
 10
-297.7745761300932
 20
255.6060253875464
  0
LWPOLYLINE
  5
120
330
294
100
AcDbEntity
  8
0
100
AcDbPolyline
 90
        4
 70
     1
 43
0.0
 10
-297.7745761300932
 20
255.6060253875465
 10
-270.5436983035258
 20
255.6060253875465
 10
-270.5436983035258
 20
248.6882873839551
 10
-297.7745761300932
 20
248.6882873839551
  0
LWPOLYLINE
  5
121
330
294
100
AcDbEntity
  8
0
100
AcDbPolyline
 90
        4
 70
     1
 43
0.0
 10
-297.7745761300932
 20
248.6882873839553
 10
-270.5436983035258
 20
248.6882873839553
 10
-270.5436983035258
 20
241.7705493803639
 10
-297.7745761300932
 20
241.7705493803639
  0
LWPOLYLINE
  5
122
330
294
100
AcDbEntity
  8
0
100
AcDbPolyline
 90
        4
 70
     1
 43
0.0
 10
-297.7745761300932
 20
241.7705493803639
 10
-270.5436983035258
 20
241.7705493803639
 10
-270.5436983035258
 20
234.8528113767725
 10
-297.7745761300932
 20
234.8528113767725
  0
LWPOLYLINE
  5
123
330
294
100
AcDbEntity
  8
0
100
AcDbPolyline
 90
        4
 70
     1
 43
0.0
 10
-297.7745761300932
 20
234.8528113767727
 10
-270.5436983035258
 20
234.8528113767727
 10
-270.5436983035258
 20
227.9350733731813
 10
-297.7745761300932
 20
227.9350733731813
  0
LWPOLYLINE
  5
124
330
294
100
AcDbEntity
  8
0
100
AcDbPolyline
 90
        4
 70
     1
 43
0.0
 10
-297.7745761300932
 20
227.9350733731813
 10
-270.5436983035258
 20
227.9350733731813
 10
-270.5436983035258
 20
221.0173353695899
 10
-297.7745761300932
 20
221.0173353695899
  0
LWPOLYLINE
  5
125
330
294
100
AcDbEntity
  8
0
100
AcDbPolyline
 90
        4
 70
     1
 43
0.0
 10
-297.7745761300932
 20
221.0173353695901
 10
-270.5436983035258
 20
221.0173353695901
 10
-270.5436983035258
 20
214.0995973659987
 10
-297.7745761300932
 20
214.0995973659987
  0
LINE
  5
126
330
294
100
AcDbEntity
  8
0
100
AcDbLine
 10
-297.7745761300931
 20
308.1133012164508
 30
0.0
 11
-175.5629822961177
 21
308.1133012164508
 31
0.0
  0
LINE
  5
127
330
294
100
AcDbEntity
  8
0
100
AcDbLine
 10
-297.7745761300932
 20
308.1133012164508
 30
0.0
 11
-312.1776738752103
 21
325.6906967979848
 31
0.0
  0
LINE
  5
129
330
294
100
AcDbEntity
  8
0
100
AcDbLine
 10
-297.7745761300932
 20
308.1133012164508
 30
0.0
 11
-297.7745761300932
 21
304.030191412686
 31
0.0
  0
ARC
  5
12A
330
294
100
AcDbEntity
  8
0
100
AcDbCircle
 10
-325.2058492626072
 20
299.0301914126861
 30
0.0
 40
5.0
100
AcDbArc
 50
89.99999999999999
 51
180.0
  0
LINE
  5
12B
330
294
100
AcDbEntity
  8
0
100
AcDbLine
 10
-270.5436983035258
 20
304.030191412686
 30
0.0
 11
-270.5436983035258
 21
308.1133012164508
 31
0.0
  0
LINE
  5
12C
330
294
100
AcDbEntity
  8
0
100
AcDbLine
 10
-330.2058492626072
 20
482.530191412686
 30
0.0
 11
-330.2058492626072
 21
439.030191412686
 31
0.0
  0
ARC
  5
12D
330
294
100
AcDbEntity
  8
0
100
AcDbCircle
 10
528.2940711926307
 20
355.2841927903962
 30
0.0
 40
786.4834125145683
100
AcDbArc
 50
175.71011768628
 51
183.4384908311989
  0
ARC
  5
12E
330
294
100
AcDbEntity
  8
0
100
AcDbCircle
 10
-201.2232858827318
 20
341.5394938727814
 30
0.0
 40
90.91853652128206
100
AcDbArc
 50
80.26559827950464
 51
127.03667705278
  0
ARC
  5
12F
330
294
100
AcDbEntity
  8
0
100
AcDbCircle
 10
-541.3511687471423
 20
357.1802623225672
 30
0.0
 40
358.5711553678526
100
AcDbArc
 50
352.134954757364
 51
8.198412868269067
  0
ARC
  5
130
330
294
100
AcDbEntity
  8
0
100
AcDbCircle
 10
80.98146413601432
 20
412.9697184679365
 30
0.0
 40
267.4506961313789
100
AcDbArc
 50
176.1024604407607
 51
181.0245554588794
  0
LINE
  5
131
330
294
100
AcDbEntity
  8
0
100
AcDbLine
 10
-270.5436983035259
 20
124.0301914126858
 30
0.0
 11
-325.2058492626073
 21
124.0301914126858
 31
0.0
  0
LINE
  5
133
330
294
100
AcDbEntity
  8
0
100
AcDbLine
 10
-155.2058492626074
 20
-10.96980858731416
 30
0.0
 11
-335.2058492626074
 21
-10.96980858731399
 31
0.0
  0
LINE
  5
134
330
294
100
AcDbEntity
  8
0
100
AcDbLine
 10
-335.2058492626072
 20
214.0301914126859
 30
0.0
 11
-335.2058492626074
 21
-54.46980858731399
 31
0.0
  0
LINE
  5
135
330
294
100
AcDbEntity
  8
0
100
AcDbLine
 10
-330.2058492626072
 20
214.0301914126859
 30
0.0
 11
-330.2058492626073
 21
129.0301914126859
 31
0.0
  0
ARC
  5
136
330
294
100
AcDbEntity
  8
0
100
AcDbCircle
 10
-325.2058492626073
 20
129.0301914126858
 30
0.0
 40
5.0
100
AcDbArc
 50
179.9999999999999
 51
270.0
  0
LINE
  5
137
330
294
100
AcDbEntity
  8
0
100
AcDbLine
 10
-330.2058492626074
 20
-54.46980858731399
 30
0.0
 11
-330.2058492626074
 21
-10.96980858731399
 31
0.0
  0
LINE
  5
138
330
294
100
AcDbEntity
  8
0
100
AcDbLine
 10
-325.7017763756399
 20
-35.96980858731404
 30
0.0
 11
-339.2215740096687
 21
-35.96980858731399
 31
0.0
  0
LINE
  5
139
330
294
100
AcDbEntity
  8
0
100
AcDbLine
 10
-335.2058492626074
 20
-54.46980858731399
 30
0.0
 11
-330.2058492626074
 21
-54.46980858731399
 31
0.0
  0
ARC
  5
13A
330
294
100
AcDbEntity
  8
0
100
AcDbCircle
 10
-541.3511687471424
 20
70.88012050280491
 30
0.0
 40
358.5711553678526
100
AcDbArc
 50
351.8015871317309
 51
7.865045242635921
  0
ARC
  5
13B
330
294
100
AcDbEntity
  8
0
100
AcDbCircle
 10
528.2940711926306
 20
72.77619003497489
 30
0.0
 40
786.4834125145683
100
AcDbArc
 50
176.561509168801
 51
184.2898823137199
  0
LINE
  5
13C
330
294
100
AcDbEntity
  8
0
100
AcDbLine
 10
-312.1776738752105
 20
-11.01701795037541
 30
0.0
 11
-312.1776738752104
 21
102.3696860273871
 31
0.0
  0
LINE
  5
13D
330
294
100
AcDbEntity
  8
0
100
AcDbLine
 10
-155.2058492626074
 20
-54.46980858731416
 30
0.0
 11
-155.2058492626072
 21
214.0301914126858
 31
0.0
  0
LINE
  5
13E
330
294
100
AcDbEntity
  8
0
100
AcDbLine
 10
-297.7745761300932
 20
119.9470816089211
 30
0.0
 11
-175.5629822961178
 21
119.947081608921
 31
0.0
  0
LWPOLYLINE
  5
13F
330
294
100
AcDbEntity
  8
0
100
AcDbPolyline
 90
        4
 70
     1
 43
0.0
 10
-297.7745761300932
 20
186.2898334450079
 10
-270.5436983035258
 20
186.2898334450079
 10
-270.5436983035258
 20
193.2075714485993
 10
-297.7745761300932
 20
193.2075714485993
  0
LWPOLYLINE
  5
140
330
294
100
AcDbEntity
  8
0
100
AcDbPolyline
 90
        4
 70
     1
 43
0.0
 10
-297.7745761300932
 20
207.0430474557818
 10
-270.5436983035258
 20
207.0430474557818
 10
-270.5436983035258
 20
213.9607854593732
 10
-297.7745761300932
 20
213.9607854593732
  0
LWPOLYLINE
  5
141
330
294
100
AcDbEntity
  8
0
100
AcDbPolyline
 90
        4
 70
     1
 43
0.0
 10
-297.7745761300932
 20
200.1253094521905
 10
-270.5436983035258
 20
200.1253094521905
 10
-270.5436983035258
 20
207.0430474557819
 10
-297.7745761300932
 20
207.0430474557819
  0
LWPOLYLINE
  5
142
330
294
100
AcDbEntity
  8
0
100
AcDbPolyline
 90
        4
 70
     1
 43
0.0
 10
-297.7745761300932
 20
193.2075714485992
 10
-270.5436983035258
 20
193.2075714485992
 10
-270.5436983035258
 20
200.1253094521906
 10
-297.7745761300932
 20
200.1253094521906
  0
LWPOLYLINE
  5
143
330
294
100
AcDbEntity
  8
0
100
AcDbPolyline
 90
        4
 70
     1
 43
0.0
 10
-297.7745761300933
 20
137.8656674198686
 10
-270.5436983035259
 20
137.8656674198686
 10
-270.5436983035259
 20
144.78340542346
 10
-297.7745761300933
 20
144.78340542346
  0
LWPOLYLINE
  5
144
330
294
100
AcDbEntity
  8
0
100
AcDbPolyline
 90
        4
 70
     1
 43
0.0
 10
-297.7745761300932
 20
179.3720954414166
 10
-270.5436983035258
 20
179.3720954414166
 10
-270.5436983035258
 20
186.289833445008
 10
-297.7745761300932
 20
186.289833445008
  0
LWPOLYLINE
  5
145
330
294
100
AcDbEntity
  8
0
100
AcDbPolyline
 90
        4
 70
     1
 43
0.0
 10
-297.7745761300932
 20
172.4543574378253
 10
-270.5436983035258
 20
172.4543574378253
 10
-270.5436983035258
 20
179.3720954414167
 10
-297.7745761300932
 20
179.3720954414167
  0
LWPOLYLINE
  5
146
330
294
100
AcDbEntity
  8
0
100
AcDbPolyline
 90
        4
 70
     1
 43
0.0
 10
-297.7745761300932
 20
165.536619434234
 10
-270.5436983035258
 20
165.536619434234
 10
-270.5436983035258
 20
172.4543574378254
 10
-297.7745761300932
 20
172.4543574378254
  0
LWPOLYLINE
  5
147
330
294
100
AcDbEntity
  8
0
100
AcDbPolyline
 90
        4
 70
     1
 43
0.0
 10
-297.7745761300932
 20
158.6188814306427
 10
-270.5436983035258
 20
158.6188814306427
 10
-270.5436983035258
 20
165.5366194342341
 10
-297.7745761300932
 20
165.5366194342341
  0
LWPOLYLINE
  5
148
330
294
100
AcDbEntity
  8
0
100
AcDbPolyline
 90
        4
 70
     1
 43
0.0
 10
-297.7745761300933
 20
151.7011434270513
 10
-270.5436983035259
 20
151.7011434270513
 10
-270.5436983035258
 20
158.6188814306427
 10
-297.7745761300932
 20
158.6188814306427
  0
LWPOLYLINE
  5
149
330
294
100
AcDbEntity
  8
0
100
AcDbPolyline
 90
        4
 70
     1
 43
0.0
 10
-297.7745761300933
 20
144.78340542346
 10
-270.5436983035259
 20
144.78340542346
 10
-270.5436983035259
 20
151.7011434270514
 10
-297.7745761300933
 20
151.7011434270514
  0
LWPOLYLINE
  5
14A
330
294
100
AcDbEntity
  8
0
100
AcDbPolyline
 90
        4
 70
     1
 43
0.0
 10
-297.7745761300933
 20
130.9479294162773
 10
-270.5436983035259
 20
130.9479294162773
 10
-270.5436983035259
 20
137.8656674198687
 10
-297.7745761300933
 20
137.8656674198687
  0
LWPOLYLINE
  5
14B
330
294
100
AcDbEntity
  8
0
100
AcDbPolyline
 90
        4
 70
     1
 43
0.0
 10
-297.7745761300933
 20
124.0301914126858
 10
-270.5436983035259
 20
124.0301914126858
 10
-270.5436983035259
 20
130.9479294162773
 10
-297.7745761300933
 20
130.9479294162773
  0
LINE
  5
14C
330
294
100
AcDbEntity
  8
0
100
AcDbLine
 10
-297.7745761300933
 20
119.9470816089211
 30
0.0
 11
-312.1776738752104
 21
102.3696860273871
 31
0.0
  0
LINE
  5
14D
330
294
100
AcDbEntity
  8
0
100
AcDbLine
 10
-297.7745761300933
 20
119.9470816089211
 30
0.0
 11
-297.7745761300933
 21
124.0301914126858
 31
0.0
  0
LINE
  5
14E
330
294
100
AcDbEntity
  8
0
100
AcDbLine
 10
-270.5436983035259
 20
124.0301914126858
 30
0.0
 11
-270.5436983035259
 21
119.9470816089211
 31
0.0
  0
LINE
  5
14F
330
294
100
AcDbEntity
  8
0
100
AcDbLine
 10
-175.5629822961178
 20
119.947081608921
 30
0.0
 11
-175.5629822961177
 21
214.0301914126858
 31
0.0
  0
ARC
  5
150
330
294
100
AcDbEntity
  8
0
100
AcDbCircle
 10
-235.7955587792775
 20
213.5740618773304
 30
0.0
 40
80.59100032965424
100
AcDbArc
 50
318.3644401511756
 51
0.3242848048879447
  0
ARC
  5
151
330
294
100
AcDbEntity
  8
0
100
AcDbCircle
 10
80.98146413601413
 20
15.09066435743505
 30
0.0
 40
267.4506961313789
100
AcDbArc
 50
178.9754445411204
 51
183.8975395592391
  0
ARC
  5
152
330
294
100
AcDbEntity
  8
0
100
AcDbCircle
 10
-201.2232858827319
 20
86.5208889525904
 30
0.0
 40
90.91853652128206
100
AcDbArc
 50
232.9633229472199
 51
279.7344017204953
  0
LINE
  5
155
330
294
100
AcDbEntity
  8
0
100
AcDbLine
 10
-160.2058492626074
 20
-54.46980858731416
 30
0.0
 11
-160.2058492626074
 21
-10.96980858731416
 31
0.0
  0
LINE
  5
156
330
294
100
AcDbEntity
  8
0
100
AcDbLine
 10
-151.2963910081432
 20
-35.96980858731422
 30
0.0
 11
-163.8022045429349
 21
-35.96980858731416
 31
0.0
  0
LINE
  5
157
330
294
100
AcDbEntity
  8
0
100
AcDbLine
 10
-160.2058492626074
 20
-54.46980858731416
 30
0.0
 11
-155.2058492626074
 21
-54.46980858731416
 31
0.0
  0
DIMENSION
  5
158
330
294
100
AcDbEntity
  8
koty
100
AcDbDimension
  2
*D3
 10
-394.6822216039586
 20
-10.96980858731399
 30
0.0
 11
-410.9322216039586
 21
214.030191412686
 31
0.0
 70
    32
 71
     0
 42
450.0
  3
ISO-25
100
AcDbAlignedDimension
 13
-335.2058492626072
 23
439.030191412686
 33
0.0
 14
-335.2058492626074
 24
-10.96980858731399
 34
0.0
 50
90.0
100
AcDbRotatedDimension
  0
DIMENSION
  5
171
330
294
100
AcDbEntity
  8
koty
100
AcDbDimension
  2
*D4
 10
-458.2823315108835
 20
464.030191412686
 30
0.0
 11
-474.5323315108835
 21
214.030191412686
 31
0.0
 70
    32
 71
     0
 42
500.0
  3
ISO-25
100
AcDbAlignedDimension
 13
-335.2058492626074
 23
-35.96980858731402
 33
0.0
 14
-335.2058492626072
 24
464.030191412686
 34
0.0
 50
90.0
100
AcDbRotatedDimension
  0
DIMENSION
  5
189
330
294
100
AcDbEntity
  8
koty
100
AcDbDimension
  2
*D5
 10
-527.6851729104928
 20
-54.46980858731401
 30
0.0
 11
-543.9351729104928
 21
214.030191412686
 31
0.0
 70
    32
 71
     0
 42
537.0
  3
ISO-25
100
AcDbAlignedDimension
 13
-335.2058492626072
 23
482.530191412686
 33
0.0
 14
-335.2058492626074
 24
-54.46980858731402
 34
0.0
 50
90.0
100
AcDbRotatedDimension
  0
DIMENSION
  5
1A1
330
294
100
AcDbEntity
  8
koty
100
AcDbDimension
  2
*D6
 10
-155.2058492626074
 20
-109.2636575804499
 30
0.0
 11
-245.2058492626074
 21
-93.01365758044994
 31
0.0
 70
    32
 71
     0
 42
180.0
  3
ISO-25
100
AcDbAlignedDimension
 13
-335.2058492626074
 23
-54.46980858731402
 33
0.0
 14
-155.2058492626074
 24
-54.46980858731416
 34
0.0
100
AcDbRotatedDimension
  0
DIMENSION
  5
1B9
330
294
100
AcDbEntity
  8
koty
100
AcDbDimension
  2
*D7
 10
252.3747256415869
 20
463.9974527858704
 30
0.0
 11
261.8151644252405
 21
504.2981250227178
 31
0.0
 70
   163
 71
     0
 42
12.00000000000007
  3
ISO-25
100
AcDbDiametricDimension
 15
264.3745470039764
 25
464.0629300395016
 35
0.0
 40
0.0
  0
TEXT
  5
1D3
330
294
100
AcDbEntity
  8
popis
100
AcDbText
 10
-337.1874934186466
 20
556.9036473153664
 30
0.0
 40
15.0
  1
TXBR/TXTR 450 axiální ventilátor
100
AcDbText
  0
LWPOLYLINE
  5
1DB
330
294
100
AcDbEntity
  8
koty
100
AcDbPolyline
 90
        4
 70
     1
 43
0.0
 10
113.6218338200134
 20
-17.37486868660076
 10
127.3746363227816
 20
-2.476159533423611
 10
119.1972423293016
 20
-21.02990143597545
 10
119.1972423293016
 20
-21.02990143597545
1001
VDEXTRAPARAM
1071
       65
1071
        0
1071
        0
1040
1.0
1000

1000

1040
0.0
1040
0.0
  0
HATCH
  5
2FE
330
294
100
AcDbEntity
  8
koty
100
AcDbHatch
 10
0.0
 20
0.0
 30
0.0
210
0.0
220
0.0
230
1.0
  2
SOLID
 70
     1
 71
     0
 91
        1
 92
        2
 72
     0
 73
     1
 93
        3
 10
113.6218338200134
 20
-17.37486868660076
 10
127.3746363227816
 20
-2.476159533423611
 10
119.1972423293016
 20
-21.02990143597545
 97
        0
 75
     0
 76
     1
 98
        1
 10
0.0
 20
0.0
1001
VDEXTRAPARAM
1071
       65
1071
        0
1071
        0
1040
1.0
1000

1000

1040
0.0
1040
0.0
1001
VD_TEMPHATCH
1000
VD_TEMPHATCH
  0
LWPOLYLINE
  5
1DC
330
294
100
AcDbEntity
  8
koty
100
AcDbPolyline
 90
        3
 70
     0
 43
0.0
 10
116.4095380746575
 20
-19.2023850612881
 10
99.05704206441963
 20
-45.67198480137813
 10
79.05704206441963
 20
-45.67198480137813
  0
TEXT
  5
1E1
330
294
100
AcDbEntity
  8
koty
100
AcDbText
 10
50.34443030026038
 20
-40.14365851199568
 30
0.0
 40
20.0
  1
8x
  7
Proxy_1E1
100
AcDbText
  0
VIEWPORT
  5
2FF
330
290
100
AcDbEntity
 67
     1
  8
0
 60
     1
100
AcDbViewport
 10
0.0
 20
0.0
 30
0.0
 40
10.0
 41
10.0
 69
     1
 12
0.0
 22
0.0
 13
0.0
 23
0.0
 14
1.0
 24
1.0
 15
0.0
 25
0.0
 16
0.0
 26
0.0
 36
1.0
 17
0.0
 27
0.0
 37
0.0
 42
0.0
 43
0.0
 44
0.0
 45
10.0
 50
0.0
 51
0.0000000000007958
 72
   100
 90
   163872
  1

281
     0
 71
     0
 74
     0
110
0.0
120
0.0
130
0.0
111
1.0
121
0.0
131
0.0
112
0.0
122
1.0
132
0.0
 79
     0
146
0.0
1001
VD_INVISIBLE_NOT_FOR_READ
1000
VD_INVISIBLE_NOT_FOR_READ
  0
VIEWPORT
  5
300
330
290
100
AcDbEntity
 67
     1
  8
0
 60
     1
100
AcDbViewport
 10
0.0
 20
0.0
 30
0.0
 40
10.0
 41
10.0
 69
     2
 12
0.0
 22
0.0
 13
0.0
 23
0.0
 14
1.0
 24
1.0
 15
0.0
 25
0.0
 16
0.0
 26
0.0
 36
1.0
 17
0.0
 27
0.0
 37
0.0
 42
0.0
 43
0.0
 44
0.0
 45
10.0
 50
0.0
 51
0.0000000000007958
 72
   100
 90
   163872
  1

281
     0
 71
     0
 74
     0
110
0.0
120
0.0
130
0.0
111
1.0
121
0.0
131
0.0
112
0.0
122
1.0
132
0.0
 79
     0
146
0.0
1001
VD_INVISIBLE_NOT_FOR_READ
1000
VD_INVISIBLE_NOT_FOR_READ
  0
ENDSEC
  0
SECTION
  2
OBJECTS
  0
DICTIONARY
  5
281
330
0
100
AcDbDictionary
281
     1
  3
ACAD_GROUP
350
282
  3
ACAD_LAYOUT
350
28F
  3
ACAD_MLINESTYLE
350
28C
  3
ACAD_PLOTSETTINGS
350
28E
  3
ACAD_PLOTSTYLENAME
350
283
  3
VECTORDRAW_OBJECTS
350
2A4
  0
DICTIONARY
  5
282
102
{ACAD_REACTORS
330
281
102
}
330
281
100
AcDbDictionary
281
     1
  0
DICTIONARY
  5
28F
102
{ACAD_REACTORS
330
281
102
}
330
281
100
AcDbDictionary
281
     1
  3
Model
350
297
  3
Rozvržení1
350
293
  3
Rozvržení2
350
29B
  0
DICTIONARY
  5
28C
102
{ACAD_REACTORS
330
281
102
}
330
281
100
AcDbDictionary
281
     1
  3
Standard
350
28D
  0
DICTIONARY
  5
28E
102
{ACAD_REACTORS
330
281
102
}
330
281
100
AcDbDictionary
281
     1
  0
ACDBDICTIONARYWDFLT
  5
283
102
{ACAD_REACTORS
330
281
102
}
330
281
100
AcDbDictionary
281
     1
  3
Normal
350
284
100
AcDbDictionaryWithDefault
340
284
  0
DICTIONARY
  5
2A4
102
{ACAD_REACTORS
330
281
102
}
330
281
100
AcDbDictionary
281
     1
  3
SERIALNO
350
2A5
  0
LAYOUT
  5
297
102
{ACAD_REACTORS
330
28F
102
}
330
28F
100
AcDbPlotSettings
  1
VectorDraw Printer Drawing
  2

  4

  6

 40
0.0
 41
0.0
 42
0.0
 43
0.0
 44
0.0
 45
0.0
 46
0.0
 47
0.0
 48
0.0
 49
0.0
140
0.0
141
0.0
142
1.0
143
1.0
 70
  1712
 72
     0
 73
     0
 74
     0
  7

 75
     0
147
1.0
148
0.0
149
0.0
100
AcDbLayout
  1
Model
 70
     1
 71
     0
 10
0.0
 20
0.0
 11
12.0
 21
9.0
 12
0.0
 22
0.0
 32
0.0
 14
-560.1197882951083
 24
-121.7636575804499
 34
0.0
 15
526.8746363227817
 25
571.9036473153664
 35
0.0
146
0.0
 13
0.0
 23
0.0
 33
0.0
 16
1.0
 26
0.0
 36
0.0
 17
0.0
 27
1.0
 37
0.0
 76
     0
330
294
  0
LAYOUT
  5
293
102
{ACAD_REACTORS
330
28F
102
}
330
28F
100
AcDbPlotSettings
  1
VectorDraw Printer Drawing
  2

  4

  6

 40
0.0
 41
0.0
 42
0.0
 43
0.0
 44
0.0
 45
0.0
 46
0.0
 47
0.0
 48
0.0
 49
0.0
140
0.0
141
0.0
142
1.0
143
1.0
 70
   688
 72
     0
 73
     0
 74
     5
  7

 75
    16
147
1.0
148
0.0
149
0.0
100
AcDbLayout
  1
Rozvržení1
 70
     1
 71
     1
 10
0.0
 20
0.0
 11
12.0
 21
9.0
 12
0.0
 22
0.0
 32
0.0
 14
1.000000000000000E+20
 24
1.000000000000000E+20
 34
1.000000000000000E+20
 15
-1.000000000000000E+20
 25
-1.000000000000000E+20
 35
-1.000000000000000E+20
146
0.0
 13
0.0
 23
0.0
 33
0.0
 16
1.0
 26
0.0
 36
0.0
 17
0.0
 27
1.0
 37
0.0
 76
     0
330
290
331
2FF
  0
LAYOUT
  5
29B
102
{ACAD_REACTORS
330
28F
102
}
330
28F
100
AcDbPlotSettings
  1
VectorDraw Printer Drawing
  2

  4

  6

 40
0.0
 41
0.0
 42
0.0
 43
0.0
 44
0.0
 45
0.0
 46
0.0
 47
0.0
 48
0.0
 49
0.0
140
0.0
141
0.0
142
1.0
143
1.0
 70
   688
 72
     0
 73
     0
 74
     5
  7

 75
    16
147
1.0
148
0.0
149
0.0
100
AcDbLayout
  1
Rozvržení2
 70
     1
 71
     2
 10
0.0
 20
0.0
 11
12.0
 21
9.0
 12
0.0
 22
0.0
 32
0.0
 14
0.0
 24
0.0
 34
0.0
 15
0.0
 25
0.0
 35
0.0
146
0.0
 13
0.0
 23
0.0
 33
0.0
 16
1.0
 26
0.0
 36
0.0
 17
0.0
 27
1.0
 37
0.0
 76
     0
330
298
331
301
  0
MLINESTYLE
  5
28D
102
{ACAD_REACTORS
330
28C
102
}
330
28C
100
AcDbMlineStyle
  2
Standard
 70
     0
  3

 62
   256
 51
90.0
 52
90.0
 71
     2
 49
0.5
 62
   256
  6
BYLAYER
 49
-0.5
 62
   256
  6
BYLAYER
  0
ACDBPLACEHOLDER
  5
284
102
{ACAD_REACTORS
330
283
102
}
330
283
  0
XRECORD
  5
2A5
102
{ACAD_REACTORS
330
2A4
102
}
330
2A4
100
AcDbXrecord
280
     1
1000
rInJVR9YY4Q8hfPWdUq5j5319
1070
     4
1070
     6
  0
ENDSEC
  0
EOF
