  0
SECTION
  2
HEADER
  9
$ACADVER
  1
AC1015
  9
$ACADMAINTVER
 70
     6
  9
$DWGCODEPAGE
  3
ANSI_1250
  9
$INSBASE
 10
0.0
 20
0.0
 30
0.0
  9
$EXTMIN
 10
514.2656027967431
 20
-110.4727047026099
 30
0.0
  9
$EXTMAX
 10
1411.08634473148
 20
488.8769345917744
 30
0.0
  9
$LIMMIN
 10
0.0
 20
0.0
  9
$LIMMAX
 10
12.0
 20
9.0
  9
$ORTHOMODE
 70
     0
  9
$REGENMODE
 70
     1
  9
$FILLMODE
 70
     1
  9
$QTEXTMODE
 70
     0
  9
$MIRRTEXT
 70
     1
  9
$LTSCALE
 40
1.0
  9
$ATTMODE
 70
     1
  9
$TEXTSIZE
 40
0.2
  9
$TRACEWID
 40
0.05
  9
$TEXTSTYLE
  7
Standard
  9
$CLAYER
  8
popis
  9
$CELTYPE
  6
ByLayer
  9
$CECOLOR
 62
   256
  9
$CELTSCALE
 40
1.0
  9
$DISPSILH
 70
     0
  9
$DIMSCALE
 40
10.0
  9
$DIMASZ
 40
2.0
  9
$DIMEXO
 40
0.625
  9
$DIMDLI
 40
0.38
  9
$DIMRND
 40
0.0
  9
$DIMDLE
 40
0.0
  9
$DIMEXE
 40
1.25
  9
$DIMTP
 40
0.0
  9
$DIMTM
 40
0.0
  9
$DIMTXT
 40
2.0
  9
$DIMCEN
 40
0.09
  9
$DIMTSZ
 40
0.0
  9
$DIMTOL
 70
     0
  9
$DIMLIM
 70
     0
  9
$DIMTIH
 70
     0
  9
$DIMTOH
 70
     0
  9
$DIMSE1
 70
     0
  9
$DIMSE2
 70
     0
  9
$DIMTAD
 70
     1
  9
$DIMZIN
 70
     0
  9
$DIMBLK
  1
VDDIM_DEFAULT
  9
$DIMASO
 70
     1
  9
$DIMSHO
 70
     1
  9
$DIMPOST
  1

  9
$DIMAPOST
  1

  9
$DIMALT
 70
     0
  9
$DIMALTD
 70
     2
  9
$DIMALTF
 40
25.4
  9
$DIMLFAC
 40
1.0
  9
$DIMTOFL
 70
     1
  9
$DIMTVP
 40
0.0
  9
$DIMTIX
 70
     1
  9
$DIMSOXD
 70
     0
  9
$DIMSAH
 70
     0
  9
$DIMBLK1
  1

  9
$DIMBLK2
  1

  9
$DIMSTYLE
  2
ISO-25
  9
$DIMCLRD
 70
     0
  9
$DIMCLRE
 70
     0
  9
$DIMCLRT
 70
     0
  9
$DIMTFAC
 40
1.0
  9
$DIMGAP
 40
0.625
  9
$DIMJUST
 70
     0
  9
$DIMSD1
 70
     0
  9
$DIMSD2
 70
     0
  9
$DIMTOLJ
 70
     1
  9
$DIMTZIN
 70
     0
  9
$DIMALTZ
 70
     0
  9
$DIMALTTZ
 70
     0
  9
$DIMUPT
 70
     1
  9
$DIMDEC
 70
     2
  9
$DIMTDEC
 70
     4
  9
$DIMALTU
 70
     2
  9
$DIMALTTD
 70
     2
  9
$DIMTXSTY
  7
Standard
  9
$DIMAUNIT
 70
     0
  9
$DIMADEC
 70
     0
  9
$DIMALTRND
 40
0.0
  9
$DIMAZIN
 70
     0
  9
$DIMDSEP
 70
    46
  9
$DIMATFIT
 70
     3
  9
$DIMFRAC
 70
     0
  9
$DIMLDRBLK
  1

  9
$DIMLUNIT
 70
     2
  9
$DIMLWD
 70
    -2
  9
$DIMLWE
 70
    -2
  9
$DIMTMOVE
 70
     0
  9
$LUNITS
 70
     2
  9
$LUPREC
 70
     4
  9
$SKETCHINC
 40
0.1
  9
$FILLETRAD
 40
0.5
  9
$AUNITS
 70
     0
  9
$AUPREC
 70
     0
  9
$MENU
  1
.
  9
$ELEVATION
 40
0.0
  9
$PELEVATION
 40
0.0
  9
$THICKNESS
 40
0.0
  9
$LIMCHECK
 70
     0
  9
$CHAMFERA
 40
0.5
  9
$CHAMFERB
 40
0.5
  9
$CHAMFERC
 40
1.0
  9
$CHAMFERD
 40
0.0
  9
$SKPOLY
 70
     0
  9
$TDCREATE
 40
2455595.68093316
  9
$TDUCREATE
 40
2455595.639266493
  9
$TDUPDATE
 40
2455595.680933171
  9
$TDUUPDATE
 40
2455595.639266504
  9
$TDINDWG
 40
0.0000000116
  9
$TDUSRTIMER
 40
0.0000000116
  9
$USRTIMER
 70
     1
  9
$ANGBASE
 50
0.0
  9
$ANGDIR
 70
     0
  9
$PDMODE
 70
     0
  9
$PDSIZE
 40
0.0
  9
$PLINEWID
 40
0.0
  9
$SPLFRAME
 70
     0
  9
$SPLINETYPE
 70
     6
  9
$SPLINESEGS
 70
     8
  9
$HANDSEED
  5
354
  9
$SURFTAB1
 70
     6
  9
$SURFTAB2
 70
     6
  9
$SURFTYPE
 70
     6
  9
$SURFU
 70
     6
  9
$SURFV
 70
     6
  9
$UCSBASE
  2

  9
$UCSNAME
  2

  9
$UCSORG
 10
0.0
 20
0.0
 30
0.0
  9
$UCSXDIR
 10
1.0
 20
0.0
 30
0.0
  9
$UCSYDIR
 10
0.0
 20
1.0
 30
0.0
  9
$UCSORTHOREF
  2

  9
$UCSORTHOVIEW
 70
     0
  9
$UCSORGTOP
 10
0.0
 20
0.0
 30
0.0
  9
$UCSORGBOTTOM
 10
0.0
 20
0.0
 30
0.0
  9
$UCSORGLEFT
 10
0.0
 20
0.0
 30
0.0
  9
$UCSORGRIGHT
 10
0.0
 20
0.0
 30
0.0
  9
$UCSORGFRONT
 10
0.0
 20
0.0
 30
0.0
  9
$UCSORGBACK
 10
0.0
 20
0.0
 30
0.0
  9
$PUCSBASE
  2

  9
$PUCSNAME
  2

  9
$PUCSORG
 10
0.0
 20
0.0
 30
0.0
  9
$PUCSXDIR
 10
1.0
 20
0.0
 30
0.0
  9
$PUCSYDIR
 10
0.0
 20
1.0
 30
0.0
  9
$PUCSORTHOREF
  2

  9
$PUCSORTHOVIEW
 70
     0
  9
$PUCSORGTOP
 10
0.0
 20
0.0
 30
0.0
  9
$PUCSORGBOTTOM
 10
0.0
 20
0.0
 30
0.0
  9
$PUCSORGLEFT
 10
0.0
 20
0.0
 30
0.0
  9
$PUCSORGRIGHT
 10
0.0
 20
0.0
 30
0.0
  9
$PUCSORGFRONT
 10
0.0
 20
0.0
 30
0.0
  9
$PUCSORGBACK
 10
0.0
 20
0.0
 30
0.0
  9
$USERI1
 70
     0
  9
$USERI2
 70
     0
  9
$USERI3
 70
     0
  9
$USERI4
 70
     0
  9
$USERI5
 70
     0
  9
$USERR1
 40
0.0
  9
$USERR2
 40
0.0
  9
$USERR3
 40
0.0
  9
$USERR4
 40
0.0
  9
$USERR5
 40
0.0
  9
$WORLDVIEW
 70
     1
  9
$SHADEDGE
 70
     3
  9
$SHADEDIF
 70
    70
  9
$TILEMODE
 70
     1
  9
$MAXACTVP
 70
    64
  9
$PINSBASE
 10
0.0
 20
0.0
 30
0.0
  9
$PLIMCHECK
 70
     0
  9
$PEXTMIN
 10
1.000000000000000E+20
 20
1.000000000000000E+20
 30
1.000000000000000E+20
  9
$PEXTMAX
 10
-1.000000000000000E+20
 20
-1.000000000000000E+20
 30
-1.000000000000000E+20
  9
$PLIMMIN
 10
0.0
 20
0.0
  9
$PLIMMAX
 10
12.0
 20
9.0
  9
$UNITMODE
 70
     0
  9
$VISRETAIN
 70
     1
  9
$PLINEGEN
 70
     0
  9
$PSLTSCALE
 70
     1
  9
$TREEDEPTH
 70
  3020
  9
$CMLSTYLE
  2
Standard
  9
$CMLJUST
 70
     0
  9
$CMLSCALE
 40
1.0
  9
$PROXYGRAPHICS
 70
     1
  9
$MEASUREMENT
 70
     0
  9
$CELWEIGHT
370
    -1
  9
$ENDCAPS
280
     0
  9
$JOINSTYLE
280
     0
  9
$LWDISPLAY
290
     0
  9
$INSUNITS
 70
     1
  9
$HYPERLINKBASE
  1

  9
$STYLESHEET
  1

  9
$XEDIT
290
     1
  9
$CEPSNTYPE
380
     0
  9
$PSTYLEMODE
290
     0
  9
$FINGERPRINTGUID
  2
{FAEB1C30-E019-11D5-929B-00C0DF256EC4}
  9
$VERSIONGUID
  2
{FAEB1C32-E019-11D5-929B-00C0DF256EC4}
  9
$EXTNAMES
290
     1
  9
$PSVPSCALE
 40
0.0
  9
$OLESTARTUP
290
     0
  0
ENDSEC
  0
SECTION
  2
CLASSES
  0
CLASS
  1
ACDBDICTIONARYWDFLT
  2
AcDbDictionaryWithDefault
  3
ObjectDBX Classes
 90
        0
280
     0
281
     0
  0
CLASS
  1
ACDBPLACEHOLDER
  2
AcDbPlaceHolder
  3
ObjectDBX Classes
 90
        0
280
     0
281
     0
  0
CLASS
  1
LAYOUT
  2
AcDbLayout
  3
ObjectDBX Classes
 90
        0
280
     0
281
     0
  0
ENDSEC
  0
SECTION
  2
TABLES
  0
TABLE
  2
VPORT
  5
2E6
330
0
100
AcDbSymbolTable
 70
     2
  0
VPORT
  5
307
330
2E6
100
AcDbSymbolTableRecord
100
AcDbViewportTableRecord
  2
*Active
 70
     0
 10
0.0
 20
0.0
 11
1.0
 21
1.0
 12
965.7682814564095
 22
189.2021149445831
 13
0.0
 23
0.0
 14
10.0
 24
10.0
 15
10.0
 25
10.0
 16
0.0
 26
0.0
 36
1.0
 17
0.0
 27
0.0
 37
0.0
 40
605.2064761604514
 41
0.0293399979265016
 42
50.0
 43
0.0
 44
0.0
 50
0.0
 51
0.0000000000007958
 71
     0
 72
   100
 73
     1
 74
     3
 75
     0
 76
     0
 77
     0
 78
     0
281
     0
 65
     1
110
0.0
120
0.0
130
0.0
111
1.0
121
0.0
131
0.0
112
0.0
122
1.0
132
0.0
 79
     0
146
0.0
  0
ENDTAB
  0
TABLE
  2
LTYPE
  5
2E3
330
0
100
AcDbSymbolTable
 70
    25
  0
LTYPE
  5
2F2
330
2E3
100
AcDbSymbolTableRecord
100
AcDbLinetypeTableRecord
  2
ByBlock
 70
     0
  3

 72
    65
 73
     0
 40
0.0
  0
LTYPE
  5
2F3
330
2E3
100
AcDbSymbolTableRecord
100
AcDbLinetypeTableRecord
  2
ByLayer
 70
     0
  3

 72
    65
 73
     0
 40
0.0
  0
LTYPE
  5
2F4
330
2E3
100
AcDbSymbolTableRecord
100
AcDbLinetypeTableRecord
  2
Continuous
 70
     0
  3
Solid line
 72
    65
 73
     0
 40
0.0
  0
LTYPE
  5
30F
330
2E3
100
AcDbSymbolTableRecord
100
AcDbLinetypeTableRecord
  2
CENTER
 70
     0
  3
Center ____ _ ____ _ ____ _ ____ _ ____ _ ____
 72
    65
 73
     4
 40
2.0
 49
1.25
 74
     0
 49
-0.25
 74
     0
 49
0.25
 74
     0
 49
-0.25
 74
     0
  0
LTYPE
  5
310
330
2E3
100
AcDbSymbolTableRecord
100
AcDbLinetypeTableRecord
  2
DASHDOT
 70
     0
  3
Dashdot __ . __ . __ . __ . __ . __ . __ . __
 72
    65
 73
     4
 40
1.0
 49
0.5
 74
     0
 49
-0.25
 74
     0
 49
0.0
 74
     0
 49
-0.25
 74
     0
  0
LTYPE
  5
311
330
2E3
100
AcDbSymbolTableRecord
100
AcDbLinetypeTableRecord
  2
DASHED
 70
     0
  3
Dashed __ __ __ __ __ __ __ __ __ __ __ __ __ _
 72
    65
 73
     2
 40
0.75
 49
0.5
 74
     0
 49
-0.25
 74
     0
  0
LTYPE
  5
312
330
2E3
100
AcDbSymbolTableRecord
100
AcDbLinetypeTableRecord
  2
HIDDEN
 70
     0
  3
Hidden __ __ __ __ __ __ __ __ __ __ __ __ __ __
 72
    65
 73
     2
 40
0.375
 49
0.25
 74
     0
 49
-0.125
 74
     0
  0
LTYPE
  5
313
330
2E3
100
AcDbSymbolTableRecord
100
AcDbLinetypeTableRecord
  2
HIDDEN2
 70
     0
  3
Hidden2 _ _ _ _ _ _ _ _ _ _ _ _ _ _ _ _ _ 
 72
    65
 73
     2
 40
0.1875
 49
0.125
 74
     0
 49
-0.0625
 74
     0
  0
LTYPE
  5
314
330
2E3
100
AcDbSymbolTableRecord
100
AcDbLinetypeTableRecord
  2
BORDER
 70
     0
  3
Border __ __ . __ __ . __ __ . __ __ . __ __ .
 72
    65
 73
     6
 40
1.75
 49
0.5
 74
     0
 49
-0.25
 74
     0
 49
0.5
 74
     0
 49
-0.25
 74
     0
 49
0.0
 74
     0
 49
-0.25
 74
     0
  0
LTYPE
  5
315
330
2E3
100
AcDbSymbolTableRecord
100
AcDbLinetypeTableRecord
  2
BORDER2
 70
     0
  3
Border2 __.__.__.__.__.__.__.__.__.__.__.
 72
    65
 73
     6
 40
0.875
 49
0.25
 74
     0
 49
-0.125
 74
     0
 49
0.25
 74
     0
 49
-0.125
 74
     0
 49
0.0
 74
     0
 49
-0.125
 74
     0
  0
LTYPE
  5
316
330
2E3
100
AcDbSymbolTableRecord
100
AcDbLinetypeTableRecord
  2
BORDERX2
 70
     0
  3
Borderx2  ____  ____  .  ____  ____  .  ___
 72
    65
 73
     6
 40
3.5
 49
1.0
 74
     0
 49
-0.5
 74
     0
 49
1.0
 74
     0
 49
-0.5
 74
     0
 49
0.0
 74
     0
 49
-0.5
 74
     0
  0
LTYPE
  5
317
330
2E3
100
AcDbSymbolTableRecord
100
AcDbLinetypeTableRecord
  2
CENTER2
 70
     0
  3
Center2  ___ _ ___ _ ___ _ ___ _ ___ _ ___
 72
    65
 73
     4
 40
1.125
 49
0.75
 74
     0
 49
-0.125
 74
     0
 49
0.125
 74
     0
 49
-0.125
 74
     0
  0
LTYPE
  5
318
330
2E3
100
AcDbSymbolTableRecord
100
AcDbLinetypeTableRecord
  2
CENTERX2
 70
     0
  3
Centerx2  ________  __  ________  __  _____
 72
    65
 73
     4
 40
4.0
 49
2.5
 74
     0
 49
-0.5
 74
     0
 49
0.5
 74
     0
 49
-0.5
 74
     0
  0
LTYPE
  5
319
330
2E3
100
AcDbSymbolTableRecord
100
AcDbLinetypeTableRecord
  2
DASHDOT2
 70
     0
  3
Dashdot2  _._._._._._._._._._._._._._._.
 72
    65
 73
     4
 40
0.5
 49
0.25
 74
     0
 49
-0.125
 74
     0
 49
0.0
 74
     0
 49
-0.125
 74
     0
  0
LTYPE
  5
31A
330
2E3
100
AcDbSymbolTableRecord
100
AcDbLinetypeTableRecord
  2
DASHDOTX2
 70
     0
  3
Dashdotx2 ____  .  ____  .  ____  .  ___
 72
    65
 73
     4
 40
2.0
 49
1.0
 74
     0
 49
-0.5
 74
     0
 49
0.0
 74
     0
 49
-0.5
 74
     0
  0
LTYPE
  5
31B
330
2E3
100
AcDbSymbolTableRecord
100
AcDbLinetypeTableRecord
  2
DASHED2
 70
     0
  3
Dashed2 _ _ _ _ _ _ _ _ _ _ _ _ _ _ _ _ _ 
 72
    65
 73
     2
 40
0.375
 49
0.25
 74
     0
 49
-0.125
 74
     0
  0
LTYPE
  5
31C
330
2E3
100
AcDbSymbolTableRecord
100
AcDbLinetypeTableRecord
  2
DASHEDX2
 70
     0
  3
Dashedx2 ____  ____  ____  ____  ____  ___
 72
    65
 73
     2
 40
1.5
 49
1.0
 74
     0
 49
-0.5
 74
     0
  0
LTYPE
  5
31D
330
2E3
100
AcDbSymbolTableRecord
100
AcDbLinetypeTableRecord
  2
DIVIDE
 70
     0
  3
Divide ____ . . ____ . . ____ . . ____ . . ____
 72
    65
 73
     6
 40
1.25
 49
0.5
 74
     0
 49
-0.25
 74
     0
 49
0.0
 74
     0
 49
-0.25
 74
     0
 49
0.0
 74
     0
 49
-0.25
 74
     0
  0
LTYPE
  5
31E
330
2E3
100
AcDbSymbolTableRecord
100
AcDbLinetypeTableRecord
  2
DIVIDE2
 70
     0
  3
Divide2 __..__..__..__..__..__..__..__.._
 72
    65
 73
     6
 40
0.625
 49
0.25
 74
     0
 49
-0.125
 74
     0
 49
0.0
 74
     0
 49
-0.125
 74
     0
 49
0.0
 74
     0
 49
-0.125
 74
     0
  0
LTYPE
  5
31F
330
2E3
100
AcDbSymbolTableRecord
100
AcDbLinetypeTableRecord
  2
DIVIDEX2
 70
     0
  3
Dividex2 ________  .  .  ________  .  .  _
 72
    65
 73
     6
 40
2.5
 49
1.0
 74
     0
 49
-0.5
 74
     0
 49
0.0
 74
     0
 49
-0.5
 74
     0
 49
0.0
 74
     0
 49
-0.5
 74
     0
  0
LTYPE
  5
320
330
2E3
100
AcDbSymbolTableRecord
100
AcDbLinetypeTableRecord
  2
DOT
 70
     0
  3
Dot . . . . . . . . . . . . . . . . . . . . . . . .
 72
    65
 73
     2
 40
0.25
 49
0.0
 74
     0
 49
-0.25
 74
     0
  0
LTYPE
  5
321
330
2E3
100
AcDbSymbolTableRecord
100
AcDbLinetypeTableRecord
  2
DOT2
 70
     0
  3
Dot2 ........................................
 72
    65
 73
     2
 40
0.125
 49
0.0
 74
     0
 49
-0.125
 74
     0
  0
LTYPE
  5
322
330
2E3
100
AcDbSymbolTableRecord
100
AcDbLinetypeTableRecord
  2
DOTX2
 70
     0
  3
Dotx2 .  .  .  .  .  .  .  .  .  .  .  .  .  .
 72
    65
 73
     2
 40
0.5
 49
0.0
 74
     0
 49
-0.5
 74
     0
  0
LTYPE
  5
323
330
2E3
100
AcDbSymbolTableRecord
100
AcDbLinetypeTableRecord
  2
HIDDENX2
 70
     0
  3
Hiddenx2 ____ ____ ____ ____ ____ ____ ____ 
 72
    65
 73
     2
 40
0.75
 49
0.5
 74
     0
 49
-0.25
 74
     0
  0
LTYPE
  5
324
330
2E3
100
AcDbSymbolTableRecord
100
AcDbLinetypeTableRecord
  2
PHANTOM
 70
     0
  3
Phantom ______  __  __  ______  __  __  ______ 
 72
    65
 73
     6
 40
2.5
 49
1.25
 74
     0
 49
-0.25
 74
     0
 49
0.25
 74
     0
 49
-0.25
 74
     0
 49
0.25
 74
     0
 49
-0.25
 74
     0
  0
LTYPE
  5
325
330
2E3
100
AcDbSymbolTableRecord
100
AcDbLinetypeTableRecord
  2
PHANTOM2
 70
     0
  3
Phantom2 ___ _ _ ___ _ _ ___ _ _ ___ _ _
 72
    65
 73
     6
 40
1.25
 49
0.625
 74
     0
 49
-0.125
 74
     0
 49
0.125
 74
     0
 49
-0.125
 74
     0
 49
0.125
 74
     0
 49
-0.125
 74
     0
  0
LTYPE
  5
326
330
2E3
100
AcDbSymbolTableRecord
100
AcDbLinetypeTableRecord
  2
PHANTOMX2
 70
     0
  3
Phantomx2 ____________    ____    ____   _
 72
    65
 73
     6
 40
5.0
 49
2.5
 74
     0
 49
-0.5
 74
     0
 49
0.5
 74
     0
 49
-0.5
 74
     0
 49
0.5
 74
     0
 49
-0.5
 74
     0
  0
ENDTAB
  0
TABLE
  2
LAYER
  5
2E0
330
0
100
AcDbSymbolTable
 70
     5
  0
LAYER
  5
2EE
330
2E0
100
AcDbSymbolTableRecord
100
AcDbLayerTableRecord
  2
0
 70
     0
 62
    90
  6
Continuous
370
     0
390
2ED
  0
LAYER
  5
2B
330
2E0
100
AcDbSymbolTableRecord
100
AcDbLayerTableRecord
  2
koty
 70
     0
 62
    41
  6
Continuous
370
     0
390
2ED
  0
LAYER
  5
2C
330
2E0
100
AcDbSymbolTableRecord
100
AcDbLayerTableRecord
  2
popis
 70
     0
 62
   210
  6
Continuous
370
     0
390
2ED
  0
LAYER
  5
4E
330
2E0
100
AcDbSymbolTableRecord
100
AcDbLayerTableRecord
  2
Defpoints
 70
     0
 62
    90
  6
Continuous
290
     0
370
     0
390
2ED
  0
LAYER
  5
C4
330
2E0
100
AcDbSymbolTableRecord
100
AcDbLayerTableRecord
  2
srafy
 70
     0
 62
    90
  6
Continuous
370
     0
390
2ED
  0
ENDTAB
  0
TABLE
  2
STYLE
  5
2E1
330
0
100
AcDbSymbolTable
 70
     2
  0
STYLE
  5
2EF
330
2E1
100
AcDbSymbolTableRecord
100
AcDbTextStyleTableRecord
  2
Standard
 70
     0
 40
0.0
 41
1.0
 50
0.0
 71
     0
 42
0.2
  3
txt.shx
  4

1001
ACAD
1000
txt.shx
1071
        0
  0
STYLE
  5
120
330
2E1
100
AcDbSymbolTableRecord
100
AcDbTextStyleTableRecord
  2
vd_recov_1_120_
 70
     0
 40
0.0
 41
1.0
 50
0.0
 71
     0
 42
0.2
  3
ltypeshp.shx
  4

1001
ACAD
1000
ltypeshp.shx
1071
        0
  0
ENDTAB
  0
TABLE
  2
VIEW
  5
2E4
330
0
100
AcDbSymbolTable
 70
     0
  0
ENDTAB
  0
TABLE
  2
UCS
  5
2E5
330
0
100
AcDbSymbolTable
 70
     0
  0
ENDTAB
  0
TABLE
  2
APPID
  5
2E7
330
0
100
AcDbSymbolTable
 70
     6
  0
APPID
  5
2F0
330
2E7
100
AcDbSymbolTableRecord
100
AcDbRegAppTableRecord
  2
ACAD
 70
     0
  0
APPID
  5
308
330
2E7
100
AcDbSymbolTableRecord
100
AcDbRegAppTableRecord
  2
VD_INVISIBLE_NOT_FOR_READ
 70
     0
  0
APPID
  5
309
330
2E7
100
AcDbSymbolTableRecord
100
AcDbRegAppTableRecord
  2
VD_TEMPHATCH
 70
     0
  0
APPID
  5
30A
330
2E7
100
AcDbSymbolTableRecord
100
AcDbRegAppTableRecord
  2
VDEXTRAPARAM
 70
     0
  0
APPID
  5
30B
330
2E7
100
AcDbSymbolTableRecord
100
AcDbRegAppTableRecord
  2
PE_URL
 70
     0
  0
APPID
  5
30C
330
2E7
100
AcDbSymbolTableRecord
100
AcDbRegAppTableRecord
  2
VD_UNKNOWN
 70
     0
  0
ENDTAB
  0
TABLE
  2
DIMSTYLE
  5
2E8
330
0
100
AcDbSymbolTable
 70
     2
100
AcDbDimStyleTable
  0
DIMSTYLE
105
305
330
2E8
100
AcDbSymbolTableRecord
100
AcDbDimStyleTableRecord
  2
STANDARD
 70
     0
 41
0.2
 42
0.05
 44
0.2
 73
     0
 74
     0
140
0.2
172
     1
174
     1
177
   256
178
   256
288
     1
340
2EF
342
2DB
  0
DIMSTYLE
105
27
102
{ACAD_REACTORS
330
28B
330
2A3
330
2BB
102
}
330
2E8
100
AcDbSymbolTableRecord
100
AcDbDimStyleTableRecord
  2
ISO-25
 70
     0
 40
10.0
 41
2.0
 42
0.625
 44
1.25
 73
     0
 74
     0
 77
     1
140
2.0
147
0.625
172
     1
174
     1
271
     2
288
     1
340
2EF
342
2DB
  0
ENDTAB
  0
TABLE
  2
BLOCK_RECORD
  5
2DF
330
0
100
AcDbSymbolTable
 70
     6
  0
BLOCK_RECORD
  5
2FD
330
2DF
100
AcDbSymbolTableRecord
100
AcDbBlockTableRecord
  2
*Model_Space
340
300
  0
BLOCK_RECORD
  5
2F9
330
2DF
100
AcDbSymbolTableRecord
100
AcDbBlockTableRecord
  2
*Paper_Space
340
2FC
  0
BLOCK_RECORD
  5
301
330
2DF
100
AcDbSymbolTableRecord
100
AcDbBlockTableRecord
  2
*Paper_Space0
340
304
  0
BLOCK_RECORD
  5
2DB
330
2DF
100
AcDbSymbolTableRecord
100
AcDbBlockTableRecord
  2
VDDIM_DEFAULT
340
0
102
{BLKREFS
331
331
331
330
331
33D
331
33C
331
349
331
348
102
}
  0
BLOCK_RECORD
  5
2DD
330
2DF
100
AcDbSymbolTableRecord
100
AcDbBlockTableRecord
  2
VDDIM_NONE
340
0
  0
BLOCK_RECORD
  5
32C
330
2DF
100
AcDbSymbolTableRecord
100
AcDbBlockTableRecord
  2
*D3
340
0
  0
BLOCK_RECORD
  5
338
330
2DF
100
AcDbSymbolTableRecord
100
AcDbBlockTableRecord
  2
*D4
340
0
  0
BLOCK_RECORD
  5
344
330
2DF
100
AcDbSymbolTableRecord
100
AcDbBlockTableRecord
  2
*D5
340
0
  0
ENDTAB
  0
ENDSEC
  0
SECTION
  2
BLOCKS
  0
BLOCK
  5
2FE
330
2FD
100
AcDbEntity
  8
0
100
AcDbBlockBegin
  2
*Model_Space
 70
     0
 71
     0
 10
0.0
 20
0.0
 30
0.0
  3
*Model_Space
  1

  0
ENDBLK
  5
2FF
330
2FD
100
AcDbEntity
  8
0
100
AcDbBlockEnd
  0
BLOCK
  5
2FA
330
2F9
100
AcDbEntity
 67
     1
  8
0
100
AcDbBlockBegin
  2
*Paper_Space
 70
     0
 71
     0
 10
0.0
 20
0.0
 30
0.0
  3
*Paper_Space
  1

  0
ENDBLK
  5
2FB
330
2F9
100
AcDbEntity
 67
     1
  8
0
100
AcDbBlockEnd
  0
BLOCK
  5
302
330
301
100
AcDbEntity
  8
0
100
AcDbBlockBegin
  2
*Paper_Space0
 70
     0
 71
     0
 10
0.0
 20
0.0
 30
0.0
  3
*Paper_Space0
  1

  0
VIEWPORT
  5
352
330
301
100
AcDbEntity
  8
0
 60
     1
100
AcDbViewport
 10
0.0
 20
0.0
 30
0.0
 40
10.0
 41
10.0
 69
     1
 12
0.0
 22
0.0
 13
0.0
 23
0.0
 14
1.0
 24
1.0
 15
0.0
 25
0.0
 16
0.0
 26
0.0
 36
1.0
 17
0.0
 27
0.0
 37
0.0
 42
0.0
 43
0.0
 44
0.0
 45
10.0
 50
0.0
 51
0.0000000000007958
 72
   100
 90
   163872
  1

281
     0
 71
     0
 74
     0
110
0.0
120
0.0
130
0.0
111
1.0
121
0.0
131
0.0
112
0.0
122
1.0
132
0.0
 79
     0
146
0.0
1001
VD_INVISIBLE_NOT_FOR_READ
1000
VD_INVISIBLE_NOT_FOR_READ
  0
VIEWPORT
  5
353
330
301
100
AcDbEntity
  8
0
 60
     1
100
AcDbViewport
 10
0.0
 20
0.0
 30
0.0
 40
10.0
 41
10.0
 69
     2
 12
0.0
 22
0.0
 13
0.0
 23
0.0
 14
1.0
 24
1.0
 15
0.0
 25
0.0
 16
0.0
 26
0.0
 36
1.0
 17
0.0
 27
0.0
 37
0.0
 42
0.0
 43
0.0
 44
0.0
 45
10.0
 50
0.0
 51
0.0000000000007958
 72
   100
 90
   163872
  1

281
     0
 71
     0
 74
     0
110
0.0
120
0.0
130
0.0
111
1.0
121
0.0
131
0.0
112
0.0
122
1.0
132
0.0
 79
     0
146
0.0
1001
VD_INVISIBLE_NOT_FOR_READ
1000
VD_INVISIBLE_NOT_FOR_READ
  0
ENDBLK
  5
303
330
301
100
AcDbEntity
  8
0
100
AcDbBlockEnd
  0
BLOCK
  5
327
330
2DB
100
AcDbEntity
  8
0
100
AcDbBlockBegin
  2
VDDIM_DEFAULT
 70
     0
 71
     0
 10
0.0
 20
0.0
 30
0.0
  3
VDDIM_DEFAULT
  1

  0
LWPOLYLINE
  5
2DC
330
2DB
100
AcDbEntity
  8
0
  6
Continuous
 62
     0
100
AcDbPolyline
 90
        4
 70
     0
 43
0.0
 10
0.0
 20
0.0
 10
-1.0
 20
-0.1665
 10
-1.0
 20
0.1665
 10
0.0
 20
0.0
1001
VDEXTRAPARAM
1071
        1
1071
        0
1071
        0
1040
1.0
1000

1000

1040
0.0
1040
0.0
  0
HATCH
  5
32B
330
2DB
100
AcDbEntity
  8
0
  6
Continuous
 62
     0
100
AcDbHatch
 10
0.0
 20
0.0
 30
0.0
210
0.0
220
0.0
230
1.0
  2
SOLID
 70
     1
 71
     0
 91
        1
 92
        2
 72
     0
 73
     1
 93
        3
 10
0.0
 20
0.0
 10
-1.0
 20
-0.1665
 10
-1.0
 20
0.1665
 97
        0
 75
     0
 76
     1
 98
        1
 10
0.0
 20
0.0
1001
VDEXTRAPARAM
1071
        1
1071
        0
1071
        0
1040
1.0
1000

1000

1040
0.0
1040
0.0
1001
VD_TEMPHATCH
1000
VD_TEMPHATCH
  0
ENDBLK
  5
328
330
2DB
100
AcDbEntity
  8
0
100
AcDbBlockEnd
  0
BLOCK
  5
329
330
2DD
100
AcDbEntity
  8
0
100
AcDbBlockBegin
  2
VDDIM_NONE
 70
     0
 71
     0
 10
0.0
 20
0.0
 30
0.0
  3
VDDIM_NONE
  1

  0
ENDBLK
  5
32A
330
2DD
100
AcDbEntity
  8
0
100
AcDbBlockEnd
  0
BLOCK
  5
336
330
32C
100
AcDbEntity
  8
0
100
AcDbBlockBegin
  2
*D3
 70
     1
 71
     0
 10
0.0
 20
0.0
 30
0.0
  3
*D3
  1

  0
LINE
  5
32D
330
32C
100
AcDbEntity
  8
koty
 62
     0
370
    -2
100
AcDbLine
 10
650.0943558450895
 20
20.28809298444412
 30
0.0
 11
650.0943558450895
 21
-35.98140797818632
 31
0.0
  0
LINE
  5
32E
330
32C
100
AcDbEntity
  8
koty
 62
     0
370
    -2
100
AcDbLine
 10
824.0943558450895
 20
20.28809298444298
 30
0.0
 11
824.0943558450895
 21
-35.98140797818633
 31
0.0
  0
LINE
  5
32F
330
32C
100
AcDbEntity
  8
koty
 62
     0
370
    -2
100
AcDbLine
 10
670.0943558450895
 20
-23.48140797818632
 30
0.0
 11
804.0943558450895
 21
-23.48140797818633
 31
0.0
  0
INSERT
  5
330
330
32C
100
AcDbEntity
  8
koty
 62
     0
370
    -2
100
AcDbBlockReference
  2
VDDIM_DEFAULT
 10
650.0943558450895
 20
-23.48140797818632
 30
0.0
 41
20.0
 42
20.0
 43
20.0
 50
180.0
  0
INSERT
  5
331
330
32C
100
AcDbEntity
  8
koty
 62
     0
370
    -2
100
AcDbBlockReference
  2
VDDIM_DEFAULT
 10
824.0943558450895
 20
-23.48140797818633
 30
0.0
 41
20.0
 42
20.0
 43
20.0
 50
360.0
  0
MTEXT
  5
332
330
32C
100
AcDbEntity
  8
koty
 62
     0
100
AcDbMText
 10
737.0943558450895
 20
-7.231407978186329
 30
0.0
 40
20.0
 41
0.0
 71
     5
 72
     1
  1
\A1;174.00
 73
     1
 44
1.0
  0
POINT
  5
333
330
32C
100
AcDbEntity
  8
Defpoints
 62
     0
100
AcDbPoint
 10
650.0943558450895
 20
26.53809298444412
 30
0.0
  0
POINT
  5
334
330
32C
100
AcDbEntity
  8
Defpoints
 62
     0
100
AcDbPoint
 10
824.0943558450895
 20
26.53809298444298
 30
0.0
  0
POINT
  5
335
330
32C
100
AcDbEntity
  8
Defpoints
 62
     0
100
AcDbPoint
 10
824.0943558450895
 20
-23.48140797818633
 30
0.0
  0
ENDBLK
  5
337
330
32C
100
AcDbEntity
  8
0
100
AcDbBlockEnd
  0
BLOCK
  5
342
330
338
100
AcDbEntity
  8
0
100
AcDbBlockBegin
  2
*D4
 70
     1
 71
     0
 10
0.0
 20
0.0
 30
0.0
  3
*D4
  1

  0
LINE
  5
339
330
338
100
AcDbEntity
  8
koty
 62
     0
370
    -2
100
AcDbLine
 10
612.0943558450908
 20
25.28809298444412
 30
0.0
 11
612.0943558450908
 21
-110.4727047026099
 31
0.0
  0
LINE
  5
33A
330
338
100
AcDbEntity
  8
koty
 62
     0
370
    -2
100
AcDbLine
 10
862.0943558450909
 20
25.28809298444412
 30
0.0
 11
862.0943558450909
 21
-110.4727047026099
 31
0.0
  0
LINE
  5
33B
330
338
100
AcDbEntity
  8
koty
 62
     0
370
    -2
100
AcDbLine
 10
632.0943558450908
 20
-97.9727047026099
 30
0.0
 11
842.0943558450909
 21
-97.97270470260992
 31
0.0
  0
INSERT
  5
33C
330
338
100
AcDbEntity
  8
koty
 62
     0
370
    -2
100
AcDbBlockReference
  2
VDDIM_DEFAULT
 10
612.0943558450908
 20
-97.9727047026099
 30
0.0
 41
20.0
 42
20.0
 43
20.0
 50
180.0
  0
INSERT
  5
33D
330
338
100
AcDbEntity
  8
koty
 62
     0
370
    -2
100
AcDbBlockReference
  2
VDDIM_DEFAULT
 10
862.0943558450909
 20
-97.97270470260992
 30
0.0
 41
20.0
 42
20.0
 43
20.0
 50
360.0
  0
MTEXT
  5
33E
330
338
100
AcDbEntity
  8
koty
 62
     0
100
AcDbMText
 10
737.0943558450908
 20
-81.72270470260992
 30
0.0
 40
20.0
 41
0.0
 71
     5
 72
     1
  1
\A1;250.00
 73
     1
 44
1.0
  0
POINT
  5
33F
330
338
100
AcDbEntity
  8
Defpoints
 62
     0
100
AcDbPoint
 10
612.0943558450908
 20
31.53809298444412
 30
0.0
  0
POINT
  5
340
330
338
100
AcDbEntity
  8
Defpoints
 62
     0
100
AcDbPoint
 10
862.0943558450909
 20
31.53809298444412
 30
0.0
  0
POINT
  5
341
330
338
100
AcDbEntity
  8
Defpoints
 62
     0
100
AcDbPoint
 10
862.0943558450909
 20
-97.97270470260992
 30
0.0
  0
ENDBLK
  5
343
330
338
100
AcDbEntity
  8
0
100
AcDbBlockEnd
  0
BLOCK
  5
34E
330
344
100
AcDbEntity
  8
0
100
AcDbBlockBegin
  2
*D5
 70
     1
 71
     0
 10
0.0
 20
0.0
 30
0.0
  3
*D5
  1

  0
LINE
  5
345
330
344
100
AcDbEntity
  8
koty
 62
     0
370
    -2
100
AcDbLine
 10
605.8443558450908
 20
31.53809298444412
 30
0.0
 11
534.2002181813587
 21
31.53809298444412
 31
0.0
  0
LINE
  5
346
330
344
100
AcDbEntity
  8
koty
 62
     0
370
    -2
100
AcDbLine
 10
605.8443558450908
 20
394.5380929844441
 30
0.0
 11
534.2002181813587
 21
394.5380929844441
 31
0.0
  0
LINE
  5
347
330
344
100
AcDbEntity
  8
koty
 62
     0
370
    -2
100
AcDbLine
 10
546.7002181813587
 20
51.53809298444412
 30
0.0
 11
546.7002181813587
 21
374.5380929844441
 31
0.0
  0
INSERT
  5
348
330
344
100
AcDbEntity
  8
koty
 62
     0
370
    -2
100
AcDbBlockReference
  2
VDDIM_DEFAULT
 10
546.7002181813587
 20
31.53809298444412
 30
0.0
 41
20.0
 42
20.0
 43
20.0
 50
270.0
  0
INSERT
  5
349
330
344
100
AcDbEntity
  8
koty
 62
     0
370
    -2
100
AcDbBlockReference
  2
VDDIM_DEFAULT
 10
546.7002181813587
 20
394.5380929844441
 30
0.0
 41
20.0
 42
20.0
 43
20.0
 50
90.0
  0
MTEXT
  5
34A
330
344
100
AcDbEntity
  8
koty
 62
     0
100
AcDbMText
 10
530.4502181813587
 20
213.0380929844441
 30
0.0
 40
20.0
 41
0.0
 71
     5
 72
     1
  1
\A1;363.00
 11
0.0
 21
-1.0
 31
0.0
 73
     1
 44
1.0
  0
POINT
  5
34B
330
344
100
AcDbEntity
  8
Defpoints
 62
     0
100
AcDbPoint
 10
612.0943558450908
 20
31.53809298444412
 30
0.0
  0
POINT
  5
34C
330
344
100
AcDbEntity
  8
Defpoints
 62
     0
100
AcDbPoint
 10
612.0943558450908
 20
394.5380929844441
 30
0.0
  0
POINT
  5
34D
330
344
100
AcDbEntity
  8
Defpoints
 62
     0
100
AcDbPoint
 10
546.7002181813587
 20
394.5380929844441
 30
0.0
  0
ENDBLK
  5
34F
330
344
100
AcDbEntity
  8
0
100
AcDbBlockEnd
  0
ENDSEC
  0
SECTION
  2
ENTITIES
  0
LWPOLYLINE
  5
16C
330
2FD
100
AcDbEntity
  8
0
100
AcDbPolyline
 90
        4
 70
     1
 43
0.0
 10
612.0943558450908
 20
31.53809298444412
 10
862.0943558450909
 20
31.53809298444412
 10
862.0943558450909
 20
394.5380929844441
 10
612.0943558450908
 20
394.5380929844441
  0
LINE
  5
170
330
2FD
100
AcDbEntity
  8
0
100
AcDbLine
 10
737.0943558450895
 20
394.5380929844441
 30
0.0
 11
650.0943558450895
 21
394.5380929844441
 31
0.0
  0
LINE
  5
172
330
2FD
100
AcDbEntity
  8
0
100
AcDbLine
 10
645.0943558450895
 20
394.5380929844441
 30
0.0
 11
645.0943558450894
 21
31.53809298444412
 31
0.0
  0
LINE
  5
174
330
2FD
100
AcDbEntity
  8
0
100
AcDbLine
 10
819.0943558450895
 20
394.5380929844452
 30
0.0
 11
819.0943558450946
 21
31.53809298444526
 31
0.0
  0
LINE
  5
175
330
2FD
100
AcDbEntity
  8
0
100
AcDbLine
 10
829.0943558450896
 20
394.5380929844454
 30
0.0
 11
829.0943558450946
 21
31.53809298444543
 31
0.0
  0
ARC
  5
176
330
2FD
100
AcDbEntity
  8
0
100
AcDbCircle
 10
650.0943558450895
 20
394.5380929844441
 30
0.0
 40
5.0
100
AcDbArc
 50
0.0
 51
180.0
  0
ARC
  5
177
330
2FD
100
AcDbEntity
  8
0
100
AcDbCircle
 10
824.0943558450895
 20
394.5380929844452
 30
0.0
 40
5.0
100
AcDbArc
 50
0.0000000000007966
 51
180.0000000000007
  0
ARC
  5
178
330
2FD
100
AcDbEntity
  8
0
100
AcDbCircle
 10
650.0943558450895
 20
31.53809298444412
 30
0.0
 40
5.0
100
AcDbArc
 50
180.0
 51
0.0
  0
ARC
  5
179
330
2FD
100
AcDbEntity
  8
0
100
AcDbCircle
 10
824.0943558450895
 20
31.53809298444298
 30
0.0
 40
5.0
100
AcDbArc
 50
179.9999999999992
 51
359.9999999999993
  0
CIRCLE
  5
17C
330
2FD
100
AcDbEntity
  8
0
100
AcDbCircle
 10
1229.58634473148
 20
213.0380929844441
 30
0.0
 40
181.4999999999999
  0
CIRCLE
  5
183
330
2FD
100
AcDbEntity
  8
0
100
AcDbCircle
 10
1229.58634473148
 20
213.0380929844441
 30
0.0
 40
44.36705623742901
  0
CIRCLE
  5
184
330
2FD
100
AcDbEntity
  8
0
100
AcDbCircle
 10
1229.58634473148
 20
213.0380929844441
 30
0.0
 40
55.29420786348802
  0
CIRCLE
  5
185
330
2FD
100
AcDbEntity
  8
0
100
AcDbCircle
 10
1229.58634473148
 20
213.0380929844441
 30
0.0
 40
77.11368689582288
  0
CIRCLE
  5
186
330
2FD
100
AcDbEntity
  8
0
100
AcDbCircle
 10
1229.58634473148
 20
213.0380929844441
 30
0.0
 40
178.0923852508947
  0
ARC
  5
187
330
2FD
100
AcDbEntity
  8
0
100
AcDbCircle
 10
1229.58634473148
 20
213.0380929844441
 30
0.0
 40
176.7879147713507
100
AcDbArc
 50
85.61731373199712
 51
103.5882940161404
  0
CIRCLE
  5
188
330
2FD
100
AcDbEntity
  8
0
100
AcDbCircle
 10
1229.58634473148
 20
213.0380929844441
 30
0.0
 40
110.075838620898
  0
CIRCLE
  5
189
330
2FD
100
AcDbEntity
  8
0
100
AcDbCircle
 10
1229.58634473148
 20
213.0380929844441
 30
0.0
 40
138.7029739966517
  0
CIRCLE
  5
18A
330
2FD
100
AcDbEntity
  8
0
100
AcDbCircle
 10
1229.58634473148
 20
213.0380929844441
 30
0.0
 40
159.8624242750037
  0
LINE
  5
18B
330
2FD
100
AcDbEntity
  8
0
100
AcDbLine
 10
1228.372851285201
 20
268.3189835064542
 30
0.0
 11
1228.372851285201
 21
279.5298035804489
 31
0.0
  0
LINE
  5
18C
330
2FD
100
AcDbEntity
  8
0
100
AcDbLine
 10
1228.372851285201
 20
279.5298035804489
 30
0.0
 11
1230.799838177759
 21
279.5298035804489
 31
0.0
  0
LINE
  5
18D
330
2FD
100
AcDbEntity
  8
0
100
AcDbLine
 10
1230.799838177759
 20
268.3189835064542
 30
0.0
 11
1230.799838177759
 21
279.5298035804489
 31
0.0
  0
LINE
  5
18E
330
2FD
100
AcDbEntity
  8
0
100
AcDbLine
 10
1223.094415585175
 20
267.9498793259026
 30
0.0
 11
1221.534170991173
 21
279.0515964695866
 31
0.0
  0
LINE
  5
18F
330
2FD
100
AcDbEntity
  8
0
100
AcDbLine
 10
1219.130803368217
 20
278.7138251777598
 30
0.0
 11
1221.534170991173
 21
279.0515964695866
 31
0.0
  0
LINE
  5
190
330
2FD
100
AcDbEntity
  8
0
100
AcDbLine
 10
1220.691047962221
 20
267.6121080340758
 30
0.0
 11
1219.130803368217
 21
278.7138251777598
 31
0.0
  0
LINE
  5
191
330
2FD
100
AcDbEntity
  8
0
100
AcDbLine
 10
1215.515351008964
 20
266.5119796854458
 30
0.0
 11
1212.425230207228
 21
277.2885116026334
 31
0.0
  0
LINE
  5
192
330
2FD
100
AcDbEntity
  8
0
100
AcDbLine
 10
1210.092260670868
 20
276.619543352966
 30
0.0
 11
1212.425230207228
 21
277.2885116026334
 31
0.0
  0
LINE
  5
193
330
2FD
100
AcDbEntity
  8
0
100
AcDbLine
 10
1213.182381472604
 20
265.8430114357784
 30
0.0
 11
1210.092260670868
 21
276.619543352966
 31
0.0
  0
LINE
  5
194
330
2FD
100
AcDbEntity
  8
0
100
AcDbLine
 10
1208.210162320044
 20
264.0332716659984
 30
0.0
 11
1203.650310997021
 21
274.2748654210448
 31
0.0
  0
LINE
  5
195
330
2FD
100
AcDbEntity
  8
0
100
AcDbLine
 10
1201.433148145566
 20
273.2877209195767
 30
0.0
 11
1203.650310997021
 21
274.2748654210448
 31
0.0
  0
LINE
  5
196
330
2FD
100
AcDbEntity
  8
0
100
AcDbLine
 10
1205.992999468589
 20
263.0461271645302
 30
0.0
 11
1201.433148145566
 21
273.2877209195767
 31
0.0
  0
LINE
  5
197
330
2FD
100
AcDbEntity
  8
0
100
AcDbLine
 10
1201.321036706715
 20
260.5620004996707
 30
0.0
 11
1195.380207181653
 21
270.0693151197743
 31
0.0
  0
LINE
  5
198
330
2FD
100
AcDbEntity
  8
0
100
AcDbLine
 10
1193.322005568023
 20
268.783208011366
 30
0.0
 11
1195.380207181653
 21
270.0693151197743
 31
0.0
  0
LINE
  5
199
330
2FD
100
AcDbEntity
  8
0
100
AcDbLine
 10
1199.262835093085
 20
259.2758933912624
 30
0.0
 11
1193.322005568023
 21
268.783208011366
 31
0.0
  0
LINE
  5
19A
330
2FD
100
AcDbEntity
  8
0
100
AcDbLine
 10
1194.982063162777
 20
256.1657305312026
 30
0.0
 11
1187.775886924788
 21
264.753716951693
 31
0.0
  0
LINE
  5
19B
330
2FD
100
AcDbEntity
  8
0
100
AcDbLine
 10
1185.916707102221
 20
263.1936798482847
 30
0.0
 11
1187.775886924788
 21
264.753716951693
 31
0.0
  0
LINE
  5
19C
330
2FD
100
AcDbEntity
  8
0
100
AcDbLine
 10
1193.12288334021
 20
254.6056934277943
 30
0.0
 11
1185.916707102221
 21
263.1936798482847
 31
0.0
  0
LINE
  5
19E
330
2FD
100
AcDbEntity
  8
0
100
AcDbLine
 10
1179.361388459397
 20
256.6279302380332
 30
0.0
 11
1180.494935386917
 21
257.886861641882
 31
0.0
  0
LINE
  5
19F
330
2FD
100
AcDbEntity
  8
0
100
AcDbLine
 10
1187.692651386745
 20
249.1264274041411
 30
0.0
 11
1179.361388459397
 21
256.6279302380332
 31
0.0
  0
LINE
  5
1A0
330
2FD
100
AcDbEntity
  8
0
100
AcDbLine
 10
1184.434986367999
 20
244.95680632291
 30
0.0
 11
1175.140795307503
 21
251.2258173503753
 31
0.0
  0
LINE
  5
1A1
330
2FD
100
AcDbEntity
  8
0
100
AcDbLine
 10
1173.783641460368
 20
249.2137540283458
 30
0.0
 11
1175.140795307503
 21
251.2258173503753
 31
0.0
  0
LINE
  5
1A2
330
2FD
100
AcDbEntity
  8
0
100
AcDbLine
 10
1183.077832520864
 20
242.9447430008804
 30
0.0
 11
1173.783641460368
 21
249.2137540283458
 31
0.0
  0
LINE
  5
1A3
330
2FD
100
AcDbEntity
  8
0
100
AcDbLine
 10
1180.432169969848
 20
238.3623210428379
 30
0.0
 11
1170.35595163321
 21
243.276821095121
 31
0.0
  0
LINE
  5
1A4
330
2FD
100
AcDbEntity
  8
0
100
AcDbLine
 10
1169.292030605877
 20
241.0954597256434
 30
0.0
 11
1170.35595163321
 21
243.276821095121
 31
0.0
  0
LINE
  5
1A5
330
2FD
100
AcDbEntity
  8
0
100
AcDbLine
 10
1179.368248942515
 20
236.1809596733603
 30
0.0
 11
1169.292030605877
 21
241.0954597256434
 31
0.0
  0
LINE
  5
1A6
330
2FD
100
AcDbEntity
  8
0
100
AcDbLine
 10
1177.386083671386
 20
231.2749284694914
 30
0.0
 11
1166.723960187001
 21
234.7392623932355
 31
0.0
  0
LINE
  5
1A7
330
2FD
100
AcDbEntity
  8
0
100
AcDbLine
 10
1165.973979992075
 20
232.4310606941048
 30
0.0
 11
1166.723960187001
 21
234.7392623932355
 31
0.0
  0
LINE
  5
1A8
330
2FD
100
AcDbEntity
  8
0
100
AcDbLine
 10
1176.63610347646
 20
228.9667267703607
 30
0.0
 11
1165.973979992075
 21
232.4310606941048
 31
0.0
  0
LINE
  5
1A9
330
2FD
100
AcDbEntity
  8
0
100
AcDbLine
 10
1175.356016077543
 20
223.8325766375217
 30
0.0
 11
1164.315513551048
 21
225.7793151135226
 31
0.0
  0
LINE
  5
1AA
330
2FD
100
AcDbEntity
  8
0
100
AcDbLine
 10
1163.894071699933
 20
223.3891996052721
 30
0.0
 11
1164.315513551048
 21
225.7793151135226
 31
0.0
  0
LINE
  5
1AB
330
2FD
100
AcDbEntity
  8
0
100
AcDbLine
 10
1174.934574226428
 20
221.4424611292711
 30
0.0
 11
1163.894071699933
 21
223.3891996052721
 31
0.0
  0
LINE
  5
1AC
330
2FD
100
AcDbEntity
  8
0
100
AcDbLine
 10
1174.381480144863
 20
216.1801224597872
 30
0.0
 11
1163.177489399551
 21
216.571374437992
 31
0.0
  0
LINE
  5
1AD
330
2FD
100
AcDbEntity
  8
0
100
AcDbLine
 10
1163.092788778498
 20
214.1458660002736
 30
0.0
 11
1163.177489399551
 21
216.571374437992
 31
0.0
  0
LINE
  5
1AE
330
2FD
100
AcDbEntity
  8
0
100
AcDbLine
 10
1174.29677952381
 20
213.7546140220688
 30
0.0
 11
1163.092788778498
 21
214.1458660002736
 31
0.0
  0
LINE
  5
1AF
330
2FD
100
AcDbEntity
  8
0
100
AcDbLine
 10
1174.48144410676
 20
208.4665122523215
 30
0.0
 11
1163.332038078138
 21
207.2946624580167
 31
0.0
  0
LINE
  5
1B0
330
2FD
100
AcDbEntity
  8
0
100
AcDbLine
 10
1163.585727288388
 20
204.8809708535955
 30
0.0
 11
1163.332038078138
 21
207.2946624580167
 31
0.0
  0
LINE
  5
1B1
330
2FD
100
AcDbEntity
  8
0
100
AcDbLine
 10
1174.735133317009
 20
206.0528206479002
 30
0.0
 11
1163.585727288388
 21
204.8809708535955
 31
0.0
  0
LINE
  5
1B2
330
2FD
100
AcDbEntity
  8
0
100
AcDbLine
 10
1175.653962278421
 20
200.8418826637105
 30
0.0
 11
1164.776151472574
 21
198.1297398201829
 31
0.0
  0
LINE
  5
1B3
330
2FD
100
AcDbEntity
  8
0
100
AcDbLine
 10
1165.363292742218
 20
195.7748448106056
 30
0.0
 11
1164.776151472574
 21
198.1297398201829
 31
0.0
  0
LINE
  5
1B4
330
2FD
100
AcDbEntity
  8
0
100
AcDbLine
 10
1176.241103548064
 20
198.4869876541331
 30
0.0
 11
1165.363292742218
 21
195.7748448106056
 31
0.0
  0
LINE
  5
1B5
330
2FD
100
AcDbEntity
  8
0
100
AcDbLine
 10
1177.876212927355
 20
193.4546384360085
 30
0.0
 11
1167.481721558294
 21
189.2549913186906
 31
0.0
  0
LINE
  5
1B6
330
2FD
100
AcDbEntity
  8
0
100
AcDbLine
 10
1168.39088685038
 20
187.0047282566652
 30
0.0
 11
1167.481721558294
 21
189.2549913186906
 31
0.0
  0
LINE
  5
1B7
330
2FD
100
AcDbEntity
  8
0
100
AcDbLine
 10
1178.785378219441
 20
191.2043753739831
 30
0.0
 11
1168.39088685038
 21
187.0047282566652
 31
0.0
  0
LINE
  5
1B8
330
2FD
100
AcDbEntity
  8
0
100
AcDbLine
 10
1181.104942472454
 20
186.4485638752428
 30
0.0
 11
1171.396087491117
 21
180.8431538382454
 31
0.0
  0
LINE
  5
1B9
330
2FD
100
AcDbEntity
  8
0
100
AcDbLine
 10
1172.609580937397
 20
178.7413215346379
 30
0.0
 11
1171.396087491117
 21
180.8431538382454
 31
0.0
  0
LINE
  5
1BA
330
2FD
100
AcDbEntity
  8
0
100
AcDbLine
 10
1182.318435918733
 20
184.3467315716352
 30
0.0
 11
1172.609580937397
 21
178.7413215346379
 31
0.0
  0
LINE
  5
1BB
330
2FD
100
AcDbEntity
  8
0
100
AcDbLine
 10
1185.277307365746
 20
179.9600242534465
 30
0.0
 11
1176.443060590688
 21
173.0579542270803
 31
0.0
  0
LINE
  5
1BC
330
2FD
100
AcDbEntity
  8
0
100
AcDbLine
 10
1177.937262921556
 20
171.1454624568817
 30
0.0
 11
1176.443060590688
 21
173.0579542270803
 31
0.0
  0
LINE
  5
1BD
330
2FD
100
AcDbEntity
  8
0
100
AcDbLine
 10
1186.771509696614
 20
178.047532483248
 30
0.0
 11
1177.937262921556
 21
171.1454624568817
 31
0.0
  0
LINE
  5
1BE
330
2FD
100
AcDbEntity
  8
0
100
AcDbLine
 10
1182.576539821876
 20
166.1049073815529
 30
0.0
 11
1182.52440726647
 21
166.0509225400936
 31
0.0
  0
LINE
  5
1BF
330
2FD
100
AcDbEntity
  8
0
100
AcDbLine
 10
1184.001342060326
 20
164.6246631885444
 30
0.0
 11
1182.52440726647
 21
166.0509225400936
 31
0.0
  0
LINE
  5
1C1
330
2FD
100
AcDbEntity
  8
0
100
AcDbLine
 10
1196.111315728445
 20
169.0281866394334
 30
0.0
 11
1189.521761022847
 21
159.9584426786918
 31
0.0
  0
LINE
  5
1C2
330
2FD
100
AcDbEntity
  8
0
100
AcDbLine
 10
1191.485234664052
 20
158.5318955757388
 30
0.0
 11
1189.521761022847
 21
159.9584426786918
 31
0.0
  0
LINE
  5
1C3
330
2FD
100
AcDbEntity
  8
0
100
AcDbLine
 10
1198.07478936965
 20
167.6016395364804
 30
0.0
 11
1191.485234664052
 21
158.5318955757388
 31
0.0
  0
LINE
  5
1C4
330
2FD
100
AcDbEntity
  8
0
100
AcDbLine
 10
1202.562087548574
 20
164.7976644315926
 30
0.0
 11
1197.298926328324
 21
154.8990978332844
 31
0.0
  0
LINE
  5
1C5
330
2FD
100
AcDbEntity
  8
0
100
AcDbLine
 10
1199.441828563009
 20
153.7596965039741
 30
0.0
 11
1197.298926328324
 21
154.8990978332844
 31
0.0
  0
LINE
  5
1C6
330
2FD
100
AcDbEntity
  8
0
100
AcDbLine
 10
1204.704989783259
 20
163.6582631022823
 30
0.0
 11
1199.441828563009
 21
153.7596965039741
 31
0.0
  0
LINE
  5
1C7
330
2FD
100
AcDbEntity
  8
0
100
AcDbLine
 10
1209.538855795131
 20
161.5060872928587
 30
0.0
 11
1205.704529506625
 21
150.9713623963673
 31
0.0
  0
LINE
  5
1C8
330
2FD
100
AcDbEntity
  8
0
100
AcDbLine
 10
1207.985151180306
 20
150.1412839915249
 30
0.0
 11
1205.704529506625
 21
150.9713623963673
 31
0.0
  0
LINE
  5
1C9
330
2FD
100
AcDbEntity
  8
0
100
AcDbLine
 10
1211.819477468812
 20
160.6760088880164
 30
0.0
 11
1207.985151180306
 21
150.1412839915249
 31
0.0
  0
LINE
  5
1CA
330
2FD
100
AcDbEntity
  8
0
100
AcDbLine
 10
1216.905825610153
 20
159.217522028124
 30
0.0
 11
1214.574965053115
 21
148.2516852704876
 31
0.0
  0
LINE
  5
1CB
330
2FD
100
AcDbEntity
  8
0
100
AcDbLine
 10
1216.948916459084
 20
147.7470863220632
 30
0.0
 11
1214.574965053115
 21
148.2516852704876
 31
0.0
  0
LINE
  5
1CC
330
2FD
100
AcDbEntity
  8
0
100
AcDbLine
 10
1219.279777016122
 20
158.7129230796996
 30
0.0
 11
1216.948916459084
 21
147.7470863220632
 31
0.0
  0
LINE
  5
1CD
330
2FD
100
AcDbEntity
  8
0
100
AcDbLine
 10
1224.519607305996
 20
157.9765129570618
 30
0.0
 11
1223.737580029854
 21
146.7930018773134
 31
0.0
  0
LINE
  5
1CE
330
2FD
100
AcDbEntity
  8
0
100
AcDbLine
 10
1226.158654904322
 20
146.6237038298654
 30
0.0
 11
1223.737580029854
 21
146.7930018773134
 31
0.0
  0
LINE
  5
1CF
330
2FD
100
AcDbEntity
  8
0
100
AcDbLine
 10
1226.940682180464
 20
157.8072149096137
 30
0.0
 11
1226.158654904322
 21
146.6237038298654
 31
0.0
  0
LINE
  5
1D0
330
2FD
100
AcDbEntity
  8
0
100
AcDbLine
 10
1232.232007282496
 20
157.8072149096138
 30
0.0
 11
1233.014034558638
 21
146.6237038298654
 31
0.0
  0
LINE
  5
1D1
330
2FD
100
AcDbEntity
  8
0
100
AcDbLine
 10
1235.435109433106
 20
146.7930018773134
 30
0.0
 11
1233.014034558638
 21
146.6237038298654
 31
0.0
  0
LINE
  5
1D2
330
2FD
100
AcDbEntity
  8
0
100
AcDbLine
 10
1234.653082156964
 20
157.9765129570619
 30
0.0
 11
1235.435109433106
 21
146.7930018773134
 31
0.0
  0
LINE
  5
1D3
330
2FD
100
AcDbEntity
  8
0
100
AcDbLine
 10
1239.892912446838
 20
158.7129230796996
 30
0.0
 11
1242.223773003876
 21
147.7470863220633
 31
0.0
  0
LINE
  5
1D4
330
2FD
100
AcDbEntity
  8
0
100
AcDbLine
 10
1244.597724409845
 20
148.2516852704876
 30
0.0
 11
1242.223773003876
 21
147.7470863220633
 31
0.0
  0
LINE
  5
1D5
330
2FD
100
AcDbEntity
  8
0
100
AcDbLine
 10
1242.266863852807
 20
159.217522028124
 30
0.0
 11
1244.597724409845
 21
148.2516852704876
 31
0.0
  0
LINE
  5
1D6
330
2FD
100
AcDbEntity
  8
0
100
AcDbLine
 10
1247.353211994148
 20
160.6760088880164
 30
0.0
 11
1251.187538282654
 21
150.1412839915249
 31
0.0
  0
LINE
  5
1D7
330
2FD
100
AcDbEntity
  8
0
100
AcDbLine
 10
1253.468159956335
 20
150.9713623963673
 30
0.0
 11
1251.187538282654
 21
150.1412839915249
 31
0.0
  0
LINE
  5
1D8
330
2FD
100
AcDbEntity
  8
0
100
AcDbLine
 10
1249.63383366783
 20
161.5060872928587
 30
0.0
 11
1253.468159956335
 21
150.9713623963673
 31
0.0
  0
LINE
  5
1D9
330
2FD
100
AcDbEntity
  8
0
100
AcDbLine
 10
1254.467699679702
 20
163.6582631022823
 30
0.0
 11
1259.730860899952
 21
153.7596965039741
 31
0.0
  0
LINE
  5
1DA
330
2FD
100
AcDbEntity
  8
0
100
AcDbLine
 10
1261.873763134636
 20
154.8990978332844
 30
0.0
 11
1259.730860899952
 21
153.7596965039741
 31
0.0
  0
LINE
  5
1DB
330
2FD
100
AcDbEntity
  8
0
100
AcDbLine
 10
1256.610601914387
 20
164.7976644315926
 30
0.0
 11
1261.873763134636
 21
154.8990978332844
 31
0.0
  0
LINE
  5
1DC
330
2FD
100
AcDbEntity
  8
0
100
AcDbLine
 10
1261.09790009331
 20
167.6016395364806
 30
0.0
 11
1267.687454798908
 21
158.5318955757389
 31
0.0
  0
LINE
  5
1DD
330
2FD
100
AcDbEntity
  8
0
100
AcDbLine
 10
1269.650928440113
 20
159.9584426786919
 30
0.0
 11
1267.687454798908
 21
158.5318955757389
 31
0.0
  0
LINE
  5
1DE
330
2FD
100
AcDbEntity
  8
0
100
AcDbLine
 10
1263.061373734515
 20
169.0281866394336
 30
0.0
 11
1269.650928440113
 21
159.9584426786919
 31
0.0
  0
LINE
  5
1E0
330
2FD
100
AcDbEntity
  8
0
100
AcDbLine
 10
1276.648282196491
 20
166.0509225400935
 30
0.0
 11
1275.171347402634
 21
164.6246631885436
 31
0.0
  0
LINE
  5
1E1
330
2FD
100
AcDbEntity
  8
0
100
AcDbLine
 10
1276.596100620286
 20
166.1049581440757
 30
0.0
 11
1276.648282196491
 21
166.0509225400935
 31
0.0
  0
LINE
  5
1E2
330
2FD
100
AcDbEntity
  8
0
100
AcDbLine
 10
1272.401179766346
 20
178.0475324832477
 30
0.0
 11
1281.235426541404
 21
171.1454624568818
 31
0.0
  0
LINE
  5
1E3
330
2FD
100
AcDbEntity
  8
0
100
AcDbLine
 10
1282.729628872272
 20
173.0579542270802
 30
0.0
 11
1281.235426541404
 21
171.1454624568818
 31
0.0
  0
LINE
  5
1E4
330
2FD
100
AcDbEntity
  8
0
100
AcDbLine
 10
1273.895382097214
 20
179.9600242534465
 30
0.0
 11
1282.729628872272
 21
173.0579542270802
 31
0.0
  0
LINE
  5
1E5
330
2FD
100
AcDbEntity
  8
0
100
AcDbLine
 10
1276.854253544227
 20
184.3467315716354
 30
0.0
 11
1286.563108525564
 21
178.741321534638
 31
0.0
  0
LINE
  5
1E6
330
2FD
100
AcDbEntity
  8
0
100
AcDbLine
 10
1287.776601971843
 20
180.8431538382453
 30
0.0
 11
1286.563108525564
 21
178.741321534638
 31
0.0
  0
LINE
  5
1E7
330
2FD
100
AcDbEntity
  8
0
100
AcDbLine
 10
1278.067746990507
 20
186.4485638752428
 30
0.0
 11
1287.776601971843
 21
180.8431538382453
 31
0.0
  0
LINE
  5
1E8
330
2FD
100
AcDbEntity
  8
0
100
AcDbLine
 10
1280.387311243519
 20
191.2043753739833
 30
0.0
 11
1290.78180261258
 21
187.0047282566654
 31
0.0
  0
LINE
  5
1E9
330
2FD
100
AcDbEntity
  8
0
100
AcDbLine
 10
1291.690967904666
 20
189.254991318691
 30
0.0
 11
1290.78180261258
 21
187.0047282566654
 31
0.0
  0
LINE
  5
1EA
330
2FD
100
AcDbEntity
  8
0
100
AcDbLine
 10
1281.296476535605
 20
193.4546384360089
 30
0.0
 11
1291.690967904666
 21
189.254991318691
 31
0.0
  0
LINE
  5
1EB
330
2FD
100
AcDbEntity
  8
0
100
AcDbLine
 10
1282.931585914896
 20
198.4869876541331
 30
0.0
 11
1293.809396720742
 21
195.7748448106053
 31
0.0
  0
LINE
  5
1EC
330
2FD
100
AcDbEntity
  8
0
100
AcDbLine
 10
1294.396537990386
 20
198.1297398201827
 30
0.0
 11
1293.809396720742
 21
195.7748448106053
 31
0.0
  0
LINE
  5
1ED
330
2FD
100
AcDbEntity
  8
0
100
AcDbLine
 10
1283.51872718454
 20
200.8418826637105
 30
0.0
 11
1294.396537990386
 21
198.1297398201827
 31
0.0
  0
LINE
  5
1EE
330
2FD
100
AcDbEntity
  8
0
100
AcDbLine
 10
1284.437556145951
 20
206.0528206479005
 30
0.0
 11
1295.586962174573
 21
204.8809708535957
 31
0.0
  0
LINE
  5
1EF
330
2FD
100
AcDbEntity
  8
0
100
AcDbLine
 10
1295.840651384823
 20
207.294662458017
 30
0.0
 11
1295.586962174573
 21
204.8809708535957
 31
0.0
  0
LINE
  5
1F0
330
2FD
100
AcDbEntity
  8
0
100
AcDbLine
 10
1284.6912453562
 20
208.4665122523217
 30
0.0
 11
1295.840651384823
 21
207.294662458017
 31
0.0
  0
LINE
  5
1F1
330
2FD
100
AcDbEntity
  8
0
100
AcDbLine
 10
1284.875909939151
 20
213.7546140220692
 30
0.0
 11
1296.079900684463
 21
214.145866000274
 31
0.0
  0
LINE
  5
1F2
330
2FD
100
AcDbEntity
  8
0
100
AcDbLine
 10
1295.995200063409
 20
216.5713744379925
 30
0.0
 11
1296.079900684463
 21
214.145866000274
 31
0.0
  0
LINE
  5
1F3
330
2FD
100
AcDbEntity
  8
0
100
AcDbLine
 10
1284.791209318097
 20
216.1801224597877
 30
0.0
 11
1295.995200063409
 21
216.5713744379925
 31
0.0
  0
LINE
  5
1F4
330
2FD
100
AcDbEntity
  8
0
100
AcDbLine
 10
1284.238115236532
 20
221.4424611292709
 30
0.0
 11
1295.278617763027
 21
223.3891996052721
 31
0.0
  0
LINE
  5
1F5
330
2FD
100
AcDbEntity
  8
0
100
AcDbLine
 10
1294.857175911912
 20
225.7793151135226
 30
0.0
 11
1295.278617763027
 21
223.3891996052721
 31
0.0
  0
LINE
  5
1F6
330
2FD
100
AcDbEntity
  8
0
100
AcDbLine
 10
1283.816673385418
 20
223.8325766375214
 30
0.0
 11
1294.857175911912
 21
225.7793151135226
 31
0.0
  0
LINE
  5
1F7
330
2FD
100
AcDbEntity
  8
0
100
AcDbLine
 10
1282.5365859865
 20
228.966726770361
 30
0.0
 11
1293.198709470885
 21
232.4310606941053
 31
0.0
  0
LINE
  5
1F8
330
2FD
100
AcDbEntity
  8
0
100
AcDbLine
 10
1292.448729275959
 20
234.739262393236
 30
0.0
 11
1293.198709470885
 21
232.4310606941053
 31
0.0
  0
LINE
  5
1F9
330
2FD
100
AcDbEntity
  8
0
100
AcDbLine
 10
1281.786605791574
 20
231.2749284694916
 30
0.0
 11
1292.448729275959
 21
234.739262393236
 31
0.0
  0
LINE
  5
1FA
330
2FD
100
AcDbEntity
  8
0
100
AcDbLine
 10
1279.804440520445
 20
236.1809596733602
 30
0.0
 11
1289.880658857083
 21
241.0954597256433
 31
0.0
  0
LINE
  5
1FB
330
2FD
100
AcDbEntity
  8
0
100
AcDbLine
 10
1288.81673782975
 20
243.2768210951211
 30
0.0
 11
1289.880658857083
 21
241.0954597256433
 31
0.0
  0
LINE
  5
1FC
330
2FD
100
AcDbEntity
  8
0
100
AcDbLine
 10
1278.740519493112
 20
238.362321042838
 30
0.0
 11
1288.81673782975
 21
243.2768210951211
 31
0.0
  0
LINE
  5
1FD
330
2FD
100
AcDbEntity
  8
0
100
AcDbLine
 10
1276.094856942096
 20
242.9447430008808
 30
0.0
 11
1285.389048002592
 21
249.2137540283461
 31
0.0
  0
LINE
  5
1FE
330
2FD
100
AcDbEntity
  8
0
100
AcDbLine
 10
1284.031894155456
 20
251.2258173503758
 30
0.0
 11
1285.389048002592
 21
249.2137540283461
 31
0.0
  0
LINE
  5
1FF
330
2FD
100
AcDbEntity
  8
0
100
AcDbLine
 10
1274.737703094961
 20
244.9568063229105
 30
0.0
 11
1284.031894155456
 21
251.2258173503758
 31
0.0
  0
LINE
  5
200
330
2FD
100
AcDbEntity
  8
0
100
AcDbLine
 10
1271.480038076215
 20
249.1264274041415
 30
0.0
 11
1279.811301003563
 21
256.6279302380336
 31
0.0
  0
LINE
  5
201
330
2FD
100
AcDbEntity
  8
0
100
AcDbLine
 10
1278.67775407604
 20
257.8868616418847
 30
0.0
 11
1279.811301003563
 21
256.6279302380336
 31
0.0
  0
LINE
  5
203
330
2FD
100
AcDbEntity
  8
0
100
AcDbLine
 10
1266.049806122749
 20
254.6056934277945
 30
0.0
 11
1273.255982360738
 21
263.193679848285
 31
0.0
  0
LINE
  5
204
330
2FD
100
AcDbEntity
  8
0
100
AcDbLine
 10
1271.396802538172
 20
264.7537169516932
 30
0.0
 11
1273.255982360738
 21
263.193679848285
 31
0.0
  0
LINE
  5
205
330
2FD
100
AcDbEntity
  8
0
100
AcDbLine
 10
1264.190626300182
 20
256.1657305312028
 30
0.0
 11
1271.396802538172
 21
264.7537169516932
 31
0.0
  0
LINE
  5
206
330
2FD
100
AcDbEntity
  8
0
100
AcDbLine
 10
1259.909854369875
 20
259.2758933912625
 30
0.0
 11
1265.850683894937
 21
268.7832080113661
 31
0.0
  0
LINE
  5
207
330
2FD
100
AcDbEntity
  8
0
100
AcDbLine
 10
1263.792482281307
 20
270.0693151197743
 30
0.0
 11
1265.850683894937
 21
268.7832080113661
 31
0.0
  0
LINE
  5
208
330
2FD
100
AcDbEntity
  8
0
100
AcDbLine
 10
1257.851652756245
 20
260.5620004996708
 30
0.0
 11
1263.792482281307
 21
270.0693151197743
 31
0.0
  0
LINE
  5
209
330
2FD
100
AcDbEntity
  8
0
100
AcDbLine
 10
1253.179689994371
 20
263.0461271645302
 30
0.0
 11
1257.739541317394
 21
273.2877209195767
 31
0.0
  0
LINE
  5
20A
330
2FD
100
AcDbEntity
  8
0
100
AcDbLine
 10
1255.522378465939
 20
274.2748654210449
 30
0.0
 11
1257.739541317394
 21
273.2877209195767
 31
0.0
  0
LINE
  5
20B
330
2FD
100
AcDbEntity
  8
0
100
AcDbLine
 10
1250.962527142916
 20
264.0332716659985
 30
0.0
 11
1255.522378465939
 21
274.2748654210449
 31
0.0
  0
LINE
  5
20C
330
2FD
100
AcDbEntity
  8
0
100
AcDbLine
 10
1245.990307990356
 20
265.8430114357784
 30
0.0
 11
1249.080428792092
 21
276.6195433529659
 31
0.0
  0
LINE
  5
20D
330
2FD
100
AcDbEntity
  8
0
100
AcDbLine
 10
1246.747459255731
 20
277.2885116026333
 30
0.0
 11
1249.080428792092
 21
276.6195433529659
 31
0.0
  0
LINE
  5
20E
330
2FD
100
AcDbEntity
  8
0
100
AcDbLine
 10
1243.657338453995
 20
266.5119796854457
 30
0.0
 11
1246.747459255731
 21
277.2885116026333
 31
0.0
  0
LINE
  5
20F
330
2FD
100
AcDbEntity
  8
0
100
AcDbLine
 10
1238.481641500739
 20
267.6121080340758
 30
0.0
 11
1240.041886094742
 21
278.7138251777599
 31
0.0
  0
LINE
  5
210
330
2FD
100
AcDbEntity
  8
0
100
AcDbLine
 10
1237.638518471787
 20
279.0515964695866
 30
0.0
 11
1240.041886094742
 21
278.7138251777599
 31
0.0
  0
LINE
  5
211
330
2FD
100
AcDbEntity
  8
0
100
AcDbLine
 10
1236.078273877784
 20
267.9498793259026
 30
0.0
 11
1237.638518471787
 21
279.0515964695866
 31
0.0
  0
LINE
  5
212
330
2FD
100
AcDbEntity
  8
0
100
AcDbLine
 10
1102.249739029438
 20
337.5462715617402
 30
0.0
 11
1181.201581731539
 21
258.5944288596386
 31
0.0
  0
LINE
  5
213
330
2FD
100
AcDbEntity
  8
0
100
AcDbLine
 10
1105.078166154185
 20
340.3746986864865
 30
0.0
 11
1184.028167110019
 21
261.4246977306513
 31
0.0
  0
LINE
  5
214
330
2FD
100
AcDbEntity
  8
0
100
AcDbLine
 10
1101.552559388714
 20
336.8292376400921
 30
0.0
 11
1188.423703820792
 21
249.9580932080134
 31
0.0
  0
LINE
  5
215
330
2FD
100
AcDbEntity
  8
0
100
AcDbLine
 10
1105.795200075833
 20
341.071878327211
 30
0.0
 11
1192.666344507911
 21
254.2007338951324
 31
0.0
  0
LINE
  5
216
330
2FD
100
AcDbEntity
  8
0
100
AcDbLine
 10
1180.49493538692
 20
257.8868616418856
 30
0.0
 11
1184.734813454639
 21
262.1322649484042
 31
0.0
  0
CIRCLE
  5
21A
330
2FD
100
AcDbEntity
  8
0
100
AcDbCircle
 10
1186.5795799116
 20
256.0441188017958
 30
0.0
 40
0.8014776607701671
  0
LINE
  5
21B
330
2FD
100
AcDbEntity
  8
0
100
AcDbLine
 10
1105.795200075832
 20
85.004307641678
 30
0.0
 11
1192.666344507911
 21
171.8754520737561
 31
0.0
  0
LINE
  5
21C
330
2FD
100
AcDbEntity
  8
0
100
AcDbLine
 10
1105.078166154184
 20
85.7014872824027
 30
0.0
 11
1184.030008856285
 21
164.6533299845039
 31
0.0
  0
LINE
  5
21D
330
2FD
100
AcDbEntity
  8
0
100
AcDbLine
 10
1102.249739029437
 20
88.52991440714891
 30
0.0
 11
1181.199739985273
 21
167.4799153629837
 31
0.0
  0
LINE
  5
21E
330
2FD
100
AcDbEntity
  8
0
100
AcDbLine
 10
1101.552559388713
 20
89.24694832879708
 30
0.0
 11
1188.423703820792
 21
176.1180927608752
 31
0.0
  0
LINE
  5
21F
330
2FD
100
AcDbEntity
  8
0
100
AcDbLine
 10
1184.737576074038
 20
163.9466836398839
 30
0.0
 11
1180.49217276752
 21
168.1865617076034
 31
0.0
  0
CIRCLE
  5
220
330
2FD
100
AcDbEntity
  8
0
100
AcDbCircle
 10
1186.580318914128
 20
170.0313281645643
 30
0.0
 40
0.8014776607701671
  0
LINE
  5
221
330
2FD
100
AcDbEntity
  8
0
100
AcDbLine
 10
1357.620130074246
 20
89.24694832879607
 30
0.0
 11
1270.748985642168
 21
176.1180927608748
 31
0.0
  0
LINE
  5
222
330
2FD
100
AcDbEntity
  8
0
100
AcDbLine
 10
1356.922950433522
 20
88.52991440714793
 30
0.0
 11
1277.97110773142
 21
167.4817571092495
 31
0.0
  0
LINE
  5
223
330
2FD
100
AcDbEntity
  8
0
100
AcDbLine
 10
1354.094523308775
 20
85.70148728240162
 30
0.0
 11
1275.14452235294
 21
164.6514882382369
 31
0.0
  0
LINE
  5
224
330
2FD
100
AcDbEntity
  8
0
100
AcDbLine
 10
1353.377489387127
 20
85.00430764167714
 30
0.0
 11
1266.506344955049
 21
171.8754520737558
 31
0.0
  0
LINE
  5
225
330
2FD
100
AcDbEntity
  8
0
100
AcDbLine
 10
1278.67775407604
 20
168.1893243270025
 30
0.0
 11
1274.437876008321
 21
163.943921020484
 31
0.0
  0
CIRCLE
  5
226
330
2FD
100
AcDbEntity
  8
0
100
AcDbCircle
 10
1272.59310955136
 20
170.0320671670923
 30
0.0
 40
0.8014776607701671
  0
LINE
  5
227
330
2FD
100
AcDbEntity
  8
0
100
AcDbLine
 10
1353.377489387128
 20
341.07187832721
 30
0.0
 11
1266.506344955049
 21
254.2007338951321
 31
0.0
  0
LINE
  5
228
330
2FD
100
AcDbEntity
  8
0
100
AcDbLine
 10
1354.094523308776
 20
340.3746986864853
 30
0.0
 11
1275.142680606675
 21
261.4228559843843
 31
0.0
  0
LINE
  5
229
330
2FD
100
AcDbEntity
  8
0
100
AcDbLine
 10
1356.922950433522
 20
337.5462715617391
 30
0.0
 11
1277.972949477687
 21
258.5962706059044
 31
0.0
  0
LINE
  5
22A
330
2FD
100
AcDbEntity
  8
0
100
AcDbLine
 10
1357.620130074247
 20
336.8292376400909
 30
0.0
 11
1270.748985642168
 21
249.9580932080129
 31
0.0
  0
LINE
  5
22B
330
2FD
100
AcDbEntity
  8
0
100
AcDbLine
 10
1274.435113388922
 20
262.1295023290042
 30
0.0
 11
1278.68051669544
 21
257.8896242612847
 31
0.0
  0
CIRCLE
  5
22C
330
2FD
100
AcDbEntity
  8
0
100
AcDbCircle
 10
1272.592370548832
 20
256.0448578043239
 30
0.0
 40
0.8014776607701671
  0
LINE
  5
22D
330
2FD
100
AcDbEntity
  8
0
100
AcDbLine
 10
1213.457873712108
 20
288.4462697907049
 30
0.0
 11
1187.7597674249
 21
356.3401665523473
 31
0.0
  0
LINE
  5
22E
330
2FD
100
AcDbEntity
  8
0
100
AcDbLine
 10
1187.7597674249
 20
356.3401665523473
 30
0.0
 11
1188.051168181202
 21
384.8775410693923
 31
0.0
  0
LINE
  5
22F
330
2FD
100
AcDbEntity
  8
0
100
AcDbLine
 10
1243.096076506818
 20
389.3090604083531
 30
0.0
 11
1237.596720859591
 21
371.9361958169912
 31
0.0
  0
LINE
  5
230
330
2FD
100
AcDbEntity
  8
0
100
AcDbLine
 10
1237.596720859591
 20
371.9361958169912
 30
0.0
 11
1238.79956358714
 21
289.5994233345935
 31
0.0
  0
LINE
  5
231
330
2FD
100
AcDbEntity
  8
0
100
AcDbLine
 10
1160.573920868678
 20
247.4445757928904
 30
0.0
 11
1091.469827715836
 21
269.6841394970752
 31
0.0
  0
LINE
  5
232
330
2FD
100
AcDbEntity
  8
0
100
AcDbLine
 10
1091.469827715836
 20
269.6841394970752
 30
0.0
 11
1069.340095291237
 21
287.7047277655676
 31
0.0
  0
ARC
  5
233
330
2FD
100
AcDbEntity
  8
0
100
AcDbCircle
 10
1229.58634473148
 20
213.0380929844442
 30
0.0
 40
176.7879147713507
100
AcDbArc
 50
137.0458851605685
 51
155.0168654447118
  0
LINE
  5
234
330
2FD
100
AcDbEntity
  8
0
100
AcDbLine
 10
1100.195332942142
 20
333.5035771586826
 30
0.0
 11
1110.349193257482
 21
318.3722038786052
 31
0.0
  0
LINE
  5
235
330
2FD
100
AcDbEntity
  8
0
100
AcDbLine
 10
1110.349193257482
 20
318.3722038786052
 30
0.0
 11
1175.472634322895
 21
267.9764862307231
 31
0.0
  0
LINE
  5
236
330
2FD
100
AcDbEntity
  8
0
100
AcDbLine
 10
1159.657730790832
 20
180.5340984759714
 30
0.0
 11
1099.184442383054
 21
140.3724840490228
 31
0.0
  0
LINE
  5
237
330
2FD
100
AcDbEntity
  8
0
100
AcDbLine
 10
1099.184442383054
 20
140.3724840490228
 30
0.0
 11
1071.297716657553
 21
134.3064155497779
 31
0.0
  0
ARC
  5
238
330
2FD
100
AcDbEntity
  8
0
100
AcDbCircle
 10
1229.58634473148
 20
213.0380929844442
 30
0.0
 40
176.7879147713507
100
AcDbArc
 50
188.4744565891399
 51
206.4454368732832
  0
LINE
  5
239
330
2FD
100
AcDbEntity
  8
0
100
AcDbLine
 10
1054.728660350471
 20
186.9851272777598
 30
0.0
 11
1072.889672709923
 21
185.4894780126299
 31
0.0
  0
LINE
  5
23A
330
2FD
100
AcDbEntity
  8
0
100
AcDbLine
 10
1072.889672709923
 20
185.4894780126299
 30
0.0
 11
1152.89443271484
 21
204.9838184734137
 31
0.0
  0
LINE
  5
23B
330
2FD
100
AcDbEntity
  8
0
100
AcDbLine
 10
1211.399213294061
 20
138.0997919845877
 30
0.0
 11
1205.09434923268
 21
65.77951423763295
 31
0.0
  0
LINE
  5
23C
330
2FD
100
AcDbEntity
  8
0
100
AcDbLine
 10
1205.09434923268
 20
65.77951423763295
 30
0.0
 11
1192.449903463116
 21
40.19466227582933
 31
0.0
  0
ARC
  5
23D
330
2FD
100
AcDbEntity
  8
0
100
AcDbCircle
 10
1229.58634473148
 20
213.0380929844442
 30
0.0
 40
176.7879147713507
100
AcDbArc
 50
239.9030280177113
 51
257.8740083018547
  0
LINE
  5
23E
330
2FD
100
AcDbEntity
  8
0
100
AcDbLine
 10
1140.933390544433
 20
60.08509195761973
 30
0.0
 11
1153.425942224191
 21
73.35142110976489
 31
0.0
  0
LINE
  5
23F
330
2FD
100
AcDbEntity
  8
0
100
AcDbLine
 10
1153.425942224191
 20
73.35142110976489
 30
0.0
 11
1188.066805085221
 21
148.056183700169
 31
0.0
  0
LINE
  5
240
330
2FD
100
AcDbEntity
  8
0
100
AcDbLine
 10
1276.835976719538
 20
152.0955546088558
 30
0.0
 11
1329.447228238563
 21
102.0752577501695
 31
0.0
  0
LINE
  5
241
330
2FD
100
AcDbEntity
  8
0
100
AcDbLine
 10
1329.447228238563
 20
102.0752577501695
 30
0.0
 11
1341.566587989105
 21
76.23753768891424
 31
0.0
  0
ARC
  5
242
330
2FD
100
AcDbEntity
  8
0
100
AcDbCircle
 10
1229.586344731479
 20
213.038092984444
 30
0.0
 40
176.7879147713507
100
AcDbArc
 50
291.3315994462827
 51
309.3025797304262
  0
LINE
  5
243
330
2FD
100
AcDbEntity
  8
0
100
AcDbLine
 10
1293.895603431942
 20
48.36178608330158
 30
0.0
 11
1291.312548215534
 21
66.40027721735908
 31
0.0
  0
LINE
  5
244
330
2FD
100
AcDbEntity
  8
0
100
AcDbLine
 10
1291.312548215534
 20
66.40027721735908
 30
0.0
 11
1254.504237653496
 21
140.0612520073645
 31
0.0
  0
LINE
  5
245
330
2FD
100
AcDbEntity
  8
0
100
AcDbLine
 10
1306.692803541164
 20
211.9822916311725
 30
0.0
 11
1378.602825172818
 21
221.9282794234525
 31
0.0
  0
LINE
  5
246
330
2FD
100
AcDbEntity
  8
0
100
AcDbLine
 10
1378.602825172818
 20
221.9282794234525
 30
0.0
 11
1406.359865361424
 21
215.2940214623094
 31
0.0
  0
ARC
  5
247
330
2FD
100
AcDbEntity
  8
0
100
AcDbCircle
 10
1229.58634473148
 20
213.0380929844437
 30
0.0
 40
176.7879147713507
100
AcDbArc
 50
342.7601708748542
 51
0.7311511589975464
  0
LINE
  5
248
330
2FD
100
AcDbEntity
  8
0
100
AcDbLine
 10
1398.431632848194
 20
160.6430980900254
 30
0.0
 11
1382.718063998299
 21
169.8703994638883
 31
0.0
  0
LINE
  5
249
330
2FD
100
AcDbEntity
  8
0
100
AcDbLine
 10
1382.718063998299
 20
169.8703994638883
 30
0.0
 11
1302.177988619108
 21
187.0193700265679
 31
0.0
  0
LINE
  5
24A
330
2FD
100
AcDbEntity
  8
0
100
AcDbLine
 10
1278.486894193978
 20
272.6640686069255
 30
0.0
 11
1315.545972952508
 21
335.0868093814081
 31
0.0
  0
LINE
  5
24B
330
2FD
100
AcDbEntity
  8
0
100
AcDbLine
 10
1315.545972952508
 20
335.0868093814081
 30
0.0
 11
1338.039076176723
 21
352.6517450793174
 31
0.0
  0
ARC
  5
24C
330
2FD
100
AcDbEntity
  8
0
100
AcDbCircle
 10
1229.58634473148
 20
213.0380929844438
 30
0.0
 40
176.7879147713507
100
AcDbArc
 50
34.18874230342564
 51
52.15972258756897
  0
LINE
  5
24D
330
2FD
100
AcDbEntity
  8
0
100
AcDbLine
 10
1375.823716496359
 20
312.3789099153657
 30
0.0
 11
1358.812271855337
 21
305.8466753918696
 31
0.0
  0
LINE
  5
24E
330
2FD
100
AcDbEntity
  8
0
100
AcDbLine
 10
1358.812271855337
 20
305.8466753918696
 30
0.0
 11
1295.188751137659
 21
253.5701171182763
 31
0.0
  0
LINE
  5
251
330
2FD
100
AcDbEntity
  8
0
100
AcDbLine
 10
799.7050710292824
 20
290.1517798802669
 30
0.0
 11
717.0327177353792
 21
290.151779880267
 31
0.0
  0
LINE
  5
252
330
2FD
100
AcDbEntity
  8
0
100
AcDbLine
 10
797.2945264963591
 20
389.8260077557948
 30
0.0
 11
759.9105952524423
 21
389.8260077557949
 31
0.0
  0
LINE
  5
253
330
2FD
100
AcDbEntity
  8
0
100
AcDbLine
 10
662.2610924721811
 20
268.3323008479321
 30
0.0
 11
662.2610924721811
 21
213.0380929844441
 31
0.0
  0
LINE
  5
255
330
2FD
100
AcDbEntity
  8
0
100
AcDbLine
 10
717.0327177353792
 20
290.151779880267
 30
0.0
 11
717.0327177353792
 21
213.0380929844441
 31
0.0
  0
LINE
  5
256
330
2FD
100
AcDbEntity
  8
0
100
AcDbLine
 10
799.7050710292824
 20
290.1517798802669
 30
0.0
 11
799.7050710292824
 21
213.0380929844441
 31
0.0
  0
LINE
  5
257
330
2FD
100
AcDbEntity
  8
0
100
AcDbLine
 10
659.6429649952406
 20
264.3404315487682
 30
0.0
 11
662.2610924721811
 21
268.3323008479321
 31
0.0
  0
LINE
  5
258
330
2FD
100
AcDbEntity
  8
0
100
AcDbLine
 10
655.0943558450896
 20
257.405149221873
 30
0.0
 11
655.0943558450897
 21
213.0380929844441
 31
0.0
  0
LINE
  5
259
330
2FD
100
AcDbEntity
  8
0
100
AcDbLine
 10
697.2527358494826
 20
281.7141059351133
 30
0.0
 11
717.0327177353794
 21
281.7141059351133
 31
0.0
  0
LINE
  5
25A
330
2FD
100
AcDbEntity
  8
0
100
AcDbLine
 10
674.3221728719926
 20
268.3323008479321
 30
0.0
 11
662.2610924721811
 21
268.3323008479321
 31
0.0
  0
LINE
  5
25B
330
2FD
100
AcDbEntity
  8
0
100
AcDbLine
 10
697.2527358494825
 20
213.0380929844441
 30
0.0
 11
697.2527358494826
 21
281.7141059351133
 31
0.0
  0
LINE
  5
25C
330
2FD
100
AcDbEntity
  8
0
100
AcDbLine
 10
674.3221728719926
 20
268.3323008479321
 30
0.0
 11
697.2527358494826
 21
268.3323008479321
 31
0.0
  0
CIRCLE
  5
25F
330
2FD
100
AcDbEntity
  8
0
100
AcDbCircle
 10
679.7569141608318
 20
240.6851969161881
 30
0.0
 40
5.186701366498766
  0
LINE
  5
262
330
2FD
100
AcDbEntity
  8
srafy
100
AcDbLine
 10
736.9065231732893
 20
213.0380929844441
 30
0.0
 11
736.9065231732894
 21
290.1517798802669
 31
0.0
  0
LWPOLYLINE
  5
263
330
2FD
100
AcDbEntity
  8
srafy
100
AcDbPolyline
 90
        4
 70
     1
 43
0.0
 10
717.0327177353792
 20
290.151779880267
 10
736.9065231732893
 20
290.151779880267
 10
736.9065231732893
 20
213.0380929844441
 10
717.0327177353792
 20
213.0380929844441
  0
HATCH
  5
264
330
2FD
100
AcDbEntity
  8
srafy
100
AcDbHatch
 10
0.0
 20
0.0
 30
0.0
210
0.0
220
0.0
230
1.0
  2
LINE
 70
     0
 71
     0
 91
        1
 92
        3
 72
     0
 73
     1
 93
        4
 10
717.0327177353792
 20
213.0380929844441
 10
717.0327177353792
 20
290.151779880267
 10
736.9065231732893
 20
290.151779880267
 10
736.9065231732893
 20
213.0380929844441
 97
        0
 75
     0
 76
     2
 52
0.0
 41
1.0
 77
     0
 78
     1
 53
0.0
 43
0.0
 44
0.0
 45
0.0
 46
3.174999999999999
 79
     0
 98
        1
 10
0.0
 20
0.0
1001
VDEXTRAPARAM
1071
       76
1071
        0
1071
        0
1040
1.0
1000
LINE
1000

1040
0.0
1040
0.0
  0
LINE
  5
265
330
2FD
100
AcDbEntity
  8
0
100
AcDbLine
 10
739.9105952524425
 20
290.1517798802669
 30
0.0
 11
739.9105952524423
 21
369.8260077557949
 31
0.0
  0
ARC
  5
267
330
2FD
100
AcDbEntity
  8
0
100
AcDbCircle
 10
759.9105952524423
 20
369.8260077557949
 30
0.0
 40
20.0
100
AcDbArc
 50
90.0
 51
180.0
  0
LINE
  5
268
330
2FD
100
AcDbEntity
  8
0
100
AcDbLine
 10
797.2945264963591
 20
389.8260077557948
 30
0.0
 11
791.9106030179046
 21
367.3090926284422
 31
0.0
  0
LINE
  5
269
330
2FD
100
AcDbEntity
  8
0
100
AcDbLine
 10
798.1863134932173
 20
290.1517798802669
 30
0.0
 11
791.674981815138
 21
364.1065325726042
 31
0.0
  0
ARC
  5
26A
330
2FD
100
AcDbEntity
  8
0
100
AcDbCircle
 10
801.6364462761094
 20
364.9835877549077
 30
0.0
 40
10.0
100
AcDbArc
 50
166.5527237525079
 51
185.0316209040104
  0
LINE
  5
26B
330
2FD
100
AcDbEntity
  8
0
100
AcDbLine
 10
739.9105952524425
 20
135.9244060886213
 30
0.0
 11
739.9105952524423
 21
56.25017821309331
 31
0.0
  0
ARC
  5
26C
330
2FD
100
AcDbEntity
  8
0
100
AcDbCircle
 10
759.9105952524423
 20
56.25017821309331
 30
0.0
 40
20.0
100
AcDbArc
 50
179.9999999999999
 51
270.0
  0
LINE
  5
26D
330
2FD
100
AcDbEntity
  8
0
100
AcDbLine
 10
797.2945264963591
 20
36.25017821309342
 30
0.0
 11
759.9105952524423
 21
36.2501782130933
 31
0.0
  0
LINE
  5
26E
330
2FD
100
AcDbEntity
  8
0
100
AcDbLine
 10
797.2945264963591
 20
36.25017821309342
 30
0.0
 11
791.9106030179046
 21
58.76709334044602
 31
0.0
  0
LINE
  5
26F
330
2FD
100
AcDbEntity
  8
0
100
AcDbLine
 10
798.1863134932173
 20
135.9244060886213
 30
0.0
 11
791.674981815138
 21
61.96965339628395
 31
0.0
  0
LINE
  5
270
330
2FD
100
AcDbEntity
  8
0
100
AcDbLine
 10
799.7050710292824
 20
135.9244060886213
 30
0.0
 11
717.0327177353792
 21
135.9244060886212
 31
0.0
  0
LINE
  5
271
330
2FD
100
AcDbEntity
  8
0
100
AcDbLine
 10
799.7050710292824
 20
135.9244060886213
 30
0.0
 11
799.7050710292824
 21
213.0380929844441
 31
0.0
  0
HATCH
  5
273
330
2FD
100
AcDbEntity
  8
srafy
100
AcDbHatch
 10
0.0
 20
0.0
 30
0.0
210
0.0
220
0.0
230
1.0
  2
LINE
 70
     0
 71
     0
 91
        1
 92
        3
 72
     0
 73
     1
 93
        4
 10
717.0327177353792
 20
213.0380929844441
 10
717.0327177353792
 20
135.9244060886212
 10
736.9065231732893
 20
135.9244060886212
 10
736.9065231732893
 20
213.0380929844441
 97
        0
 75
     0
 76
     2
 52
0.0
 41
1.0
 77
     0
 78
     1
 53
0.0
 43
0.0
 44
0.0
 45
0.0
 46
3.174999999999999
 79
     0
 98
        1
 10
0.0
 20
0.0
1001
VDEXTRAPARAM
1071
       76
1071
        0
1071
        0
1040
1.0
1000
LINE
1000

1040
0.0
1040
0.0
  0
LWPOLYLINE
  5
274
330
2FD
100
AcDbEntity
  8
srafy
100
AcDbPolyline
 90
        4
 70
     1
 43
0.0
 10
717.0327177353792
 20
135.9244060886212
 10
736.9065231732893
 20
135.9244060886212
 10
736.9065231732893
 20
213.0380929844441
 10
717.0327177353792
 20
213.0380929844441
  0
LINE
  5
275
330
2FD
100
AcDbEntity
  8
0
100
AcDbLine
 10
674.3221728719926
 20
157.7438851209561
 30
0.0
 11
697.2527358494826
 21
157.743885120956
 31
0.0
  0
LINE
  5
276
330
2FD
100
AcDbEntity
  8
0
100
AcDbLine
 10
674.3221728719926
 20
157.7438851209561
 30
0.0
 11
662.2610924721811
 21
157.7438851209561
 31
0.0
  0
LINE
  5
277
330
2FD
100
AcDbEntity
  8
0
100
AcDbLine
 10
662.2610924721811
 20
157.7438851209561
 30
0.0
 11
662.2610924721811
 21
213.0380929844441
 31
0.0
  0
LINE
  5
278
330
2FD
100
AcDbEntity
  8
0
100
AcDbLine
 10
659.6429649952406
 20
161.73575442012
 30
0.0
 11
662.2610924721811
 21
157.7438851209561
 31
0.0
  0
LINE
  5
279
330
2FD
100
AcDbEntity
  8
0
100
AcDbLine
 10
655.0943558450896
 20
168.6710367470151
 30
0.0
 11
655.0943558450897
 21
213.0380929844441
 31
0.0
  0
ARC
  5
27A
330
2FD
100
AcDbEntity
  8
0
100
AcDbCircle
 10
736.9065231732893
 20
213.0380929844441
 30
0.0
 40
74.5197389781584
100
AcDbArc
 50
327.4274317299542
 51
32.57256827004579
  0
LINE
  5
27B
330
2FD
100
AcDbEntity
  8
0
100
AcDbLine
 10
655.0943558450896
 20
394.5380929844441
 30
0.0
 11
655.0943558450896
 21
31.53809298444412
 31
0.0
  0
LINE
  5
27C
330
2FD
100
AcDbEntity
  8
0
100
AcDbLine
 10
659.6429649952406
 20
161.73575442012
 30
0.0
 11
659.6429649952405
 21
264.3404315487682
 31
0.0
  0
LINE
  5
27D
330
2FD
100
AcDbEntity
  8
0
100
AcDbLine
 10
717.0327177353792
 20
290.151779880267
 30
0.0
 11
717.0327177353792
 21
394.5380929844441
 31
0.0
  0
LINE
  5
27E
330
2FD
100
AcDbEntity
  8
0
100
AcDbLine
 10
704.6731430441886
 20
394.5380929844441
 30
0.0
 11
704.6731430441886
 21
302.4851631991008
 31
0.0
  0
LINE
  5
27F
330
2FD
100
AcDbEntity
  8
0
100
AcDbLine
 10
717.0327177353792
 20
290.151779880267
 30
0.0
 11
704.6731430441886
 21
302.4851631991008
 31
0.0
  0
LINE
  5
280
330
2FD
100
AcDbEntity
  8
0
100
AcDbLine
 10
704.6731430441884
 20
31.53809298444412
 30
0.0
 11
704.6731430441885
 21
123.5910227697873
 31
0.0
  0
LINE
  5
281
330
2FD
100
AcDbEntity
  8
0
100
AcDbLine
 10
717.0327177353792
 20
135.9244060886212
 30
0.0
 11
717.0327177353789
 21
31.53809298444412
 31
0.0
  0
LINE
  5
282
330
2FD
100
AcDbEntity
  8
0
100
AcDbLine
 10
717.0327177353792
 20
135.9244060886212
 30
0.0
 11
704.6731430441885
 21
123.5910227697873
 31
0.0
  0
LINE
  5
283
330
2FD
100
AcDbEntity
  8
0
100
AcDbLine
 10
697.2527358494826
 20
281.7141059351133
 30
0.0
 11
717.0327177353792
 21
281.7141059351133
 31
0.0
  0
LINE
  5
284
330
2FD
100
AcDbEntity
  8
0
100
AcDbLine
 10
717.0327177353792
 20
281.7141059351133
 30
0.0
 11
717.0327177353792
 21
213.0380929844441
 31
0.0
  0
LINE
  5
286
330
2FD
100
AcDbEntity
  8
0
100
AcDbLine
 10
697.2527358494826
 20
213.0380929844441
 30
0.0
 11
697.2527358494826
 21
281.7141059351133
 31
0.0
  0
LINE
  5
287
330
2FD
100
AcDbEntity
  8
0
100
AcDbLine
 10
697.2527358494826
 20
144.3620800337748
 30
0.0
 11
717.0327177353792
 21
144.3620800337748
 31
0.0
  0
LINE
  5
288
330
2FD
100
AcDbEntity
  8
0
100
AcDbLine
 10
717.0327177353792
 20
144.3620800337748
 30
0.0
 11
717.0327177353792
 21
213.0380929844441
 31
0.0
  0
LINE
  5
28A
330
2FD
100
AcDbEntity
  8
0
100
AcDbLine
 10
697.2527358494826
 20
213.0380929844441
 30
0.0
 11
697.2527358494826
 21
144.3620800337748
 31
0.0
  0
DIMENSION
  5
28B
330
2FD
100
AcDbEntity
  8
koty
100
AcDbDimension
  2
*D3
 10
824.0943558450895
 20
-23.48140797818633
 30
0.0
 11
737.0943558450895
 21
-7.231407978186329
 31
0.0
 70
    32
 71
     0
 42
174.0
  3
ISO-25
100
AcDbAlignedDimension
 13
650.0943558450895
 23
26.53809298444412
 33
0.0
 14
824.0943558450895
 24
26.53809298444298
 34
0.0
100
AcDbRotatedDimension
  0
DIMENSION
  5
2A3
330
2FD
100
AcDbEntity
  8
koty
100
AcDbDimension
  2
*D4
 10
862.0943558450909
 20
-97.97270470260992
 30
0.0
 11
737.0943558450908
 21
-81.72270470260992
 31
0.0
 70
    32
 71
     0
 42
250.0000000000001
  3
ISO-25
100
AcDbAlignedDimension
 13
612.0943558450908
 23
31.53809298444412
 33
0.0
 14
862.0943558450909
 24
31.53809298444412
 34
0.0
100
AcDbRotatedDimension
  0
DIMENSION
  5
2BB
330
2FD
100
AcDbEntity
  8
koty
100
AcDbDimension
  2
*D5
 10
546.7002181813587
 20
394.5380929844441
 30
0.0
 11
530.4502181813587
 21
213.0380929844441
 31
0.0
 70
    32
 71
     0
 42
363.0
  3
ISO-25
100
AcDbAlignedDimension
 13
612.0943558450908
 23
31.53809298444412
 33
0.0
 14
612.0943558450908
 24
394.5380929844441
 34
0.0
 50
90.0
100
AcDbRotatedDimension
  0
TEXT
  5
2D3
330
2FD
100
AcDbEntity
  8
popis
100
AcDbText
 10
614.4085127641574
 20
468.8769345917744
 30
0.0
 40
20.0
  1
TREB 350 malý axiální ventilátor
100
AcDbText
  0
VIEWPORT
  5
350
330
2F9
100
AcDbEntity
 67
     1
  8
0
 60
     1
100
AcDbViewport
 10
0.0
 20
0.0
 30
0.0
 40
10.0
 41
10.0
 69
     1
 12
0.0
 22
0.0
 13
0.0
 23
0.0
 14
1.0
 24
1.0
 15
0.0
 25
0.0
 16
0.0
 26
0.0
 36
1.0
 17
0.0
 27
0.0
 37
0.0
 42
0.0
 43
0.0
 44
0.0
 45
10.0
 50
0.0
 51
0.0000000000007958
 72
   100
 90
   163872
  1

281
     0
 71
     0
 74
     0
110
0.0
120
0.0
130
0.0
111
1.0
121
0.0
131
0.0
112
0.0
122
1.0
132
0.0
 79
     0
146
0.0
1001
VD_INVISIBLE_NOT_FOR_READ
1000
VD_INVISIBLE_NOT_FOR_READ
  0
VIEWPORT
  5
351
330
2F9
100
AcDbEntity
 67
     1
  8
0
 60
     1
100
AcDbViewport
 10
0.0
 20
0.0
 30
0.0
 40
10.0
 41
10.0
 69
     2
 12
0.0
 22
0.0
 13
0.0
 23
0.0
 14
1.0
 24
1.0
 15
0.0
 25
0.0
 16
0.0
 26
0.0
 36
1.0
 17
0.0
 27
0.0
 37
0.0
 42
0.0
 43
0.0
 44
0.0
 45
10.0
 50
0.0
 51
0.0000000000007958
 72
   100
 90
   163872
  1

281
     0
 71
     0
 74
     0
110
0.0
120
0.0
130
0.0
111
1.0
121
0.0
131
0.0
112
0.0
122
1.0
132
0.0
 79
     0
146
0.0
1001
VD_INVISIBLE_NOT_FOR_READ
1000
VD_INVISIBLE_NOT_FOR_READ
  0
ENDSEC
  0
SECTION
  2
OBJECTS
  0
DICTIONARY
  5
2EA
330
0
100
AcDbDictionary
281
     1
  3
ACAD_GROUP
350
2EB
  3
ACAD_LAYOUT
350
2F8
  3
ACAD_MLINESTYLE
350
2F5
  3
ACAD_PLOTSETTINGS
350
2F7
  3
ACAD_PLOTSTYLENAME
350
2EC
  3
VECTORDRAW_OBJECTS
350
30D
  0
DICTIONARY
  5
2EB
102
{ACAD_REACTORS
330
2EA
102
}
330
2EA
100
AcDbDictionary
281
     1
  0
DICTIONARY
  5
2F8
102
{ACAD_REACTORS
330
2EA
102
}
330
2EA
100
AcDbDictionary
281
     1
  3
Model
350
300
  3
Rozvržení1
350
2FC
  3
Rozvržení2
350
304
  0
DICTIONARY
  5
2F5
102
{ACAD_REACTORS
330
2EA
102
}
330
2EA
100
AcDbDictionary
281
     1
  3
Standard
350
2F6
  0
DICTIONARY
  5
2F7
102
{ACAD_REACTORS
330
2EA
102
}
330
2EA
100
AcDbDictionary
281
     1
  0
ACDBDICTIONARYWDFLT
  5
2EC
102
{ACAD_REACTORS
330
2EA
102
}
330
2EA
100
AcDbDictionary
281
     1
  3
Normal
350
2ED
100
AcDbDictionaryWithDefault
340
2ED
  0
DICTIONARY
  5
30D
102
{ACAD_REACTORS
330
2EA
102
}
330
2EA
100
AcDbDictionary
281
     1
  3
SERIALNO
350
30E
  0
LAYOUT
  5
300
102
{ACAD_REACTORS
330
2F8
102
}
330
2F8
100
AcDbPlotSettings
  1
VectorDraw Printer Drawing
  2

  4

  6

 40
0.0
 41
0.0
 42
0.0
 43
0.0
 44
0.0
 45
0.0
 46
0.0
 47
0.0
 48
0.0
 49
0.0
140
0.0
141
0.0
142
1.0
143
1.0
 70
  1712
 72
     0
 73
     0
 74
     0
  7

 75
     0
147
1.0
148
0.0
149
0.0
100
AcDbLayout
  1
Model
 70
     1
 71
     0
 10
0.0
 20
0.0
 11
12.0
 21
9.0
 12
0.0
 22
0.0
 32
0.0
 14
514.2656027967431
 24
-110.4727047026099
 34
0.0
 15
1411.08634473148
 25
488.8769345917744
 35
0.0
146
0.0
 13
0.0
 23
0.0
 33
0.0
 16
1.0
 26
0.0
 36
0.0
 17
0.0
 27
1.0
 37
0.0
 76
     0
330
2FD
  0
LAYOUT
  5
2FC
102
{ACAD_REACTORS
330
2F8
102
}
330
2F8
100
AcDbPlotSettings
  1
VectorDraw Printer Drawing
  2

  4

  6

 40
0.0
 41
0.0
 42
0.0
 43
0.0
 44
0.0
 45
0.0
 46
0.0
 47
0.0
 48
0.0
 49
0.0
140
0.0
141
0.0
142
1.0
143
1.0
 70
   688
 72
     0
 73
     0
 74
     5
  7

 75
    16
147
1.0
148
0.0
149
0.0
100
AcDbLayout
  1
Rozvržení1
 70
     1
 71
     1
 10
0.0
 20
0.0
 11
12.0
 21
9.0
 12
0.0
 22
0.0
 32
0.0
 14
1.000000000000000E+20
 24
1.000000000000000E+20
 34
1.000000000000000E+20
 15
-1.000000000000000E+20
 25
-1.000000000000000E+20
 35
-1.000000000000000E+20
146
0.0
 13
0.0
 23
0.0
 33
0.0
 16
1.0
 26
0.0
 36
0.0
 17
0.0
 27
1.0
 37
0.0
 76
     0
330
2F9
331
350
  0
LAYOUT
  5
304
102
{ACAD_REACTORS
330
2F8
102
}
330
2F8
100
AcDbPlotSettings
  1
VectorDraw Printer Drawing
  2

  4

  6

 40
0.0
 41
0.0
 42
0.0
 43
0.0
 44
0.0
 45
0.0
 46
0.0
 47
0.0
 48
0.0
 49
0.0
140
0.0
141
0.0
142
1.0
143
1.0
 70
   688
 72
     0
 73
     0
 74
     5
  7

 75
    16
147
1.0
148
0.0
149
0.0
100
AcDbLayout
  1
Rozvržení2
 70
     1
 71
     2
 10
0.0
 20
0.0
 11
12.0
 21
9.0
 12
0.0
 22
0.0
 32
0.0
 14
0.0
 24
0.0
 34
0.0
 15
0.0
 25
0.0
 35
0.0
146
0.0
 13
0.0
 23
0.0
 33
0.0
 16
1.0
 26
0.0
 36
0.0
 17
0.0
 27
1.0
 37
0.0
 76
     0
330
301
331
352
  0
MLINESTYLE
  5
2F6
102
{ACAD_REACTORS
330
2F5
102
}
330
2F5
100
AcDbMlineStyle
  2
Standard
 70
     0
  3

 62
   256
 51
90.0
 52
90.0
 71
     2
 49
0.5
 62
   256
  6
BYLAYER
 49
-0.5
 62
   256
  6
BYLAYER
  0
ACDBPLACEHOLDER
  5
2ED
102
{ACAD_REACTORS
330
2EC
102
}
330
2EC
  0
XRECORD
  5
30E
102
{ACAD_REACTORS
330
30D
102
}
330
30D
100
AcDbXrecord
280
     1
1000
rInJVR9YY4Q8hfPWdUq5j5319
1070
     4
1070
     6
  0
ENDSEC
  0
EOF
