  0
SECTION
  2
HEADER
  9
$ACADVER
  1
AC1015
  9
$ACADMAINTVER
 70
     6
  9
$DWGCODEPAGE
  3
ANSI_1250
  9
$INSBASE
 10
0.0
 20
0.0
 30
0.0
  9
$EXTMIN
 10
299.5882421783289
 20
-148.810103875745
 30
0.0
  9
$EXTMAX
 10
1012.301148845318
 20
376.9875788832023
 30
0.0
  9
$LIMMIN
 10
0.0
 20
0.0
  9
$LIMMAX
 10
12.0
 20
9.0
  9
$ORTHOMODE
 70
     0
  9
$REGENMODE
 70
     1
  9
$FILLMODE
 70
     1
  9
$QTEXTMODE
 70
     0
  9
$MIRRTEXT
 70
     1
  9
$LTSCALE
 40
1.0
  9
$ATTMODE
 70
     1
  9
$TEXTSIZE
 40
0.2
  9
$TRACEWID
 40
0.05
  9
$TEXTSTYLE
  7
Standard
  9
$CLAYER
  8
popis
  9
$CELTYPE
  6
ByLayer
  9
$CECOLOR
 62
   256
  9
$CELTSCALE
 40
1.0
  9
$DISPSILH
 70
     0
  9
$DIMSCALE
 40
10.0
  9
$DIMASZ
 40
2.0
  9
$DIMEXO
 40
0.625
  9
$DIMDLI
 40
0.38
  9
$DIMRND
 40
0.0
  9
$DIMDLE
 40
0.0
  9
$DIMEXE
 40
1.25
  9
$DIMTP
 40
0.0
  9
$DIMTM
 40
0.0
  9
$DIMTXT
 40
2.0
  9
$DIMCEN
 40
0.09
  9
$DIMTSZ
 40
0.0
  9
$DIMTOL
 70
     0
  9
$DIMLIM
 70
     0
  9
$DIMTIH
 70
     0
  9
$DIMTOH
 70
     0
  9
$DIMSE1
 70
     0
  9
$DIMSE2
 70
     0
  9
$DIMTAD
 70
     1
  9
$DIMZIN
 70
     0
  9
$DIMBLK
  1
VDDIM_DEFAULT
  9
$DIMASO
 70
     1
  9
$DIMSHO
 70
     1
  9
$DIMPOST
  1

  9
$DIMAPOST
  1

  9
$DIMALT
 70
     0
  9
$DIMALTD
 70
     2
  9
$DIMALTF
 40
25.4
  9
$DIMLFAC
 40
1.0
  9
$DIMTOFL
 70
     1
  9
$DIMTVP
 40
0.0
  9
$DIMTIX
 70
     1
  9
$DIMSOXD
 70
     0
  9
$DIMSAH
 70
     0
  9
$DIMBLK1
  1

  9
$DIMBLK2
  1

  9
$DIMSTYLE
  2
ISO-25
  9
$DIMCLRD
 70
     0
  9
$DIMCLRE
 70
     0
  9
$DIMCLRT
 70
     0
  9
$DIMTFAC
 40
1.0
  9
$DIMGAP
 40
0.625
  9
$DIMJUST
 70
     0
  9
$DIMSD1
 70
     0
  9
$DIMSD2
 70
     0
  9
$DIMTOLJ
 70
     1
  9
$DIMTZIN
 70
     0
  9
$DIMALTZ
 70
     0
  9
$DIMALTTZ
 70
     0
  9
$DIMUPT
 70
     1
  9
$DIMDEC
 70
     2
  9
$DIMTDEC
 70
     4
  9
$DIMALTU
 70
     2
  9
$DIMALTTD
 70
     2
  9
$DIMTXSTY
  7
Standard
  9
$DIMAUNIT
 70
     0
  9
$DIMADEC
 70
     0
  9
$DIMALTRND
 40
0.0
  9
$DIMAZIN
 70
     0
  9
$DIMDSEP
 70
    46
  9
$DIMATFIT
 70
     3
  9
$DIMFRAC
 70
     0
  9
$DIMLDRBLK
  1

  9
$DIMLUNIT
 70
     2
  9
$DIMLWD
 70
    -2
  9
$DIMLWE
 70
    -2
  9
$DIMTMOVE
 70
     0
  9
$LUNITS
 70
     2
  9
$LUPREC
 70
     4
  9
$SKETCHINC
 40
0.1
  9
$FILLETRAD
 40
0.5
  9
$AUNITS
 70
     0
  9
$AUPREC
 70
     0
  9
$MENU
  1
.
  9
$ELEVATION
 40
0.0
  9
$PELEVATION
 40
0.0
  9
$THICKNESS
 40
0.0
  9
$LIMCHECK
 70
     0
  9
$CHAMFERA
 40
0.5
  9
$CHAMFERB
 40
0.5
  9
$CHAMFERC
 40
1.0
  9
$CHAMFERD
 40
0.0
  9
$SKPOLY
 70
     0
  9
$TDCREATE
 40
2455595.680366204
  9
$TDUCREATE
 40
2455595.638699537
  9
$TDUPDATE
 40
2455595.680366215
  9
$TDUUPDATE
 40
2455595.638699549
  9
$TDINDWG
 40
0.0000000116
  9
$TDUSRTIMER
 40
0.0000000116
  9
$USRTIMER
 70
     1
  9
$ANGBASE
 50
0.0
  9
$ANGDIR
 70
     0
  9
$PDMODE
 70
     0
  9
$PDSIZE
 40
0.0
  9
$PLINEWID
 40
0.0
  9
$SPLFRAME
 70
     0
  9
$SPLINETYPE
 70
     6
  9
$SPLINESEGS
 70
     8
  9
$HANDSEED
  5
38A
  9
$SURFTAB1
 70
     6
  9
$SURFTAB2
 70
     6
  9
$SURFTYPE
 70
     6
  9
$SURFU
 70
     6
  9
$SURFV
 70
     6
  9
$UCSBASE
  2

  9
$UCSNAME
  2

  9
$UCSORG
 10
0.0
 20
0.0
 30
0.0
  9
$UCSXDIR
 10
1.0
 20
0.0
 30
0.0
  9
$UCSYDIR
 10
0.0
 20
1.0
 30
0.0
  9
$UCSORTHOREF
  2

  9
$UCSORTHOVIEW
 70
     0
  9
$UCSORGTOP
 10
0.0
 20
0.0
 30
0.0
  9
$UCSORGBOTTOM
 10
0.0
 20
0.0
 30
0.0
  9
$UCSORGLEFT
 10
0.0
 20
0.0
 30
0.0
  9
$UCSORGRIGHT
 10
0.0
 20
0.0
 30
0.0
  9
$UCSORGFRONT
 10
0.0
 20
0.0
 30
0.0
  9
$UCSORGBACK
 10
0.0
 20
0.0
 30
0.0
  9
$PUCSBASE
  2

  9
$PUCSNAME
  2

  9
$PUCSORG
 10
0.0
 20
0.0
 30
0.0
  9
$PUCSXDIR
 10
1.0
 20
0.0
 30
0.0
  9
$PUCSYDIR
 10
0.0
 20
1.0
 30
0.0
  9
$PUCSORTHOREF
  2

  9
$PUCSORTHOVIEW
 70
     0
  9
$PUCSORGTOP
 10
0.0
 20
0.0
 30
0.0
  9
$PUCSORGBOTTOM
 10
0.0
 20
0.0
 30
0.0
  9
$PUCSORGLEFT
 10
0.0
 20
0.0
 30
0.0
  9
$PUCSORGRIGHT
 10
0.0
 20
0.0
 30
0.0
  9
$PUCSORGFRONT
 10
0.0
 20
0.0
 30
0.0
  9
$PUCSORGBACK
 10
0.0
 20
0.0
 30
0.0
  9
$USERI1
 70
     0
  9
$USERI2
 70
     0
  9
$USERI3
 70
     0
  9
$USERI4
 70
     0
  9
$USERI5
 70
     0
  9
$USERR1
 40
0.0
  9
$USERR2
 40
0.0
  9
$USERR3
 40
0.0
  9
$USERR4
 40
0.0
  9
$USERR5
 40
0.0
  9
$WORLDVIEW
 70
     1
  9
$SHADEDGE
 70
     3
  9
$SHADEDIF
 70
    70
  9
$TILEMODE
 70
     1
  9
$MAXACTVP
 70
    64
  9
$PINSBASE
 10
0.0
 20
0.0
 30
0.0
  9
$PLIMCHECK
 70
     0
  9
$PEXTMIN
 10
1.000000000000000E+20
 20
1.000000000000000E+20
 30
1.000000000000000E+20
  9
$PEXTMAX
 10
-1.000000000000000E+20
 20
-1.000000000000000E+20
 30
-1.000000000000000E+20
  9
$PLIMMIN
 10
0.0
 20
0.0
  9
$PLIMMAX
 10
12.0
 20
9.0
  9
$UNITMODE
 70
     0
  9
$VISRETAIN
 70
     1
  9
$PLINEGEN
 70
     0
  9
$PSLTSCALE
 70
     1
  9
$TREEDEPTH
 70
  3020
  9
$CMLSTYLE
  2
Standard
  9
$CMLJUST
 70
     0
  9
$CMLSCALE
 40
1.0
  9
$PROXYGRAPHICS
 70
     1
  9
$MEASUREMENT
 70
     0
  9
$CELWEIGHT
370
    -1
  9
$ENDCAPS
280
     0
  9
$JOINSTYLE
280
     0
  9
$LWDISPLAY
290
     0
  9
$INSUNITS
 70
     1
  9
$HYPERLINKBASE
  1

  9
$STYLESHEET
  1

  9
$XEDIT
290
     1
  9
$CEPSNTYPE
380
     0
  9
$PSTYLEMODE
290
     0
  9
$FINGERPRINTGUID
  2
{FAEB1C30-E019-11D5-929B-00C0DF256EC4}
  9
$VERSIONGUID
  2
{FAEB1C32-E019-11D5-929B-00C0DF256EC4}
  9
$EXTNAMES
290
     1
  9
$PSVPSCALE
 40
0.0
  9
$OLESTARTUP
290
     0
  0
ENDSEC
  0
SECTION
  2
CLASSES
  0
CLASS
  1
ACDBDICTIONARYWDFLT
  2
AcDbDictionaryWithDefault
  3
ObjectDBX Classes
 90
        0
280
     0
281
     0
  0
CLASS
  1
ACDBPLACEHOLDER
  2
AcDbPlaceHolder
  3
ObjectDBX Classes
 90
        0
280
     0
281
     0
  0
CLASS
  1
LAYOUT
  2
AcDbLayout
  3
ObjectDBX Classes
 90
        0
280
     0
281
     0
  0
ENDSEC
  0
SECTION
  2
TABLES
  0
TABLE
  2
VPORT
  5
314
330
0
100
AcDbSymbolTable
 70
     2
  0
VPORT
  5
335
330
314
100
AcDbSymbolTableRecord
100
AcDbViewportTableRecord
  2
*Active
 70
     0
 10
0.0
 20
0.0
 11
1.0
 21
1.0
 12
757.2778186730169
 22
-30.39658360742072
 13
0.0
 23
0.0
 14
10.0
 24
10.0
 15
10.0
 25
10.0
 16
0.0
 26
0.0
 36
1.0
 17
0.0
 27
0.0
 37
0.0
 40
917.4570120531442
 41
0.0193543201723596
 42
50.0
 43
0.0
 44
0.0
 50
0.0
 51
0.0000000000007958
 71
     0
 72
   100
 73
     1
 74
     3
 75
     0
 76
     0
 77
     0
 78
     0
281
     0
 65
     1
110
0.0
120
0.0
130
0.0
111
1.0
121
0.0
131
0.0
112
0.0
122
1.0
132
0.0
 79
     0
146
0.0
  0
ENDTAB
  0
TABLE
  2
LTYPE
  5
311
330
0
100
AcDbSymbolTable
 70
    25
  0
LTYPE
  5
320
330
311
100
AcDbSymbolTableRecord
100
AcDbLinetypeTableRecord
  2
ByBlock
 70
     0
  3

 72
    65
 73
     0
 40
0.0
  0
LTYPE
  5
321
330
311
100
AcDbSymbolTableRecord
100
AcDbLinetypeTableRecord
  2
ByLayer
 70
     0
  3

 72
    65
 73
     0
 40
0.0
  0
LTYPE
  5
322
330
311
100
AcDbSymbolTableRecord
100
AcDbLinetypeTableRecord
  2
Continuous
 70
     0
  3
Solid line
 72
    65
 73
     0
 40
0.0
  0
LTYPE
  5
33D
330
311
100
AcDbSymbolTableRecord
100
AcDbLinetypeTableRecord
  2
CENTER
 70
     0
  3
Center ____ _ ____ _ ____ _ ____ _ ____ _ ____
 72
    65
 73
     4
 40
2.0
 49
1.25
 74
     0
 49
-0.25
 74
     0
 49
0.25
 74
     0
 49
-0.25
 74
     0
  0
LTYPE
  5
33E
330
311
100
AcDbSymbolTableRecord
100
AcDbLinetypeTableRecord
  2
DASHDOT
 70
     0
  3
Dashdot __ . __ . __ . __ . __ . __ . __ . __
 72
    65
 73
     4
 40
1.0
 49
0.5
 74
     0
 49
-0.25
 74
     0
 49
0.0
 74
     0
 49
-0.25
 74
     0
  0
LTYPE
  5
33F
330
311
100
AcDbSymbolTableRecord
100
AcDbLinetypeTableRecord
  2
DASHED
 70
     0
  3
Dashed __ __ __ __ __ __ __ __ __ __ __ __ __ _
 72
    65
 73
     2
 40
0.75
 49
0.5
 74
     0
 49
-0.25
 74
     0
  0
LTYPE
  5
340
330
311
100
AcDbSymbolTableRecord
100
AcDbLinetypeTableRecord
  2
HIDDEN
 70
     0
  3
Hidden __ __ __ __ __ __ __ __ __ __ __ __ __ __
 72
    65
 73
     2
 40
0.375
 49
0.25
 74
     0
 49
-0.125
 74
     0
  0
LTYPE
  5
341
330
311
100
AcDbSymbolTableRecord
100
AcDbLinetypeTableRecord
  2
HIDDEN2
 70
     0
  3
Hidden2 _ _ _ _ _ _ _ _ _ _ _ _ _ _ _ _ _ 
 72
    65
 73
     2
 40
0.1875
 49
0.125
 74
     0
 49
-0.0625
 74
     0
  0
LTYPE
  5
342
330
311
100
AcDbSymbolTableRecord
100
AcDbLinetypeTableRecord
  2
BORDER
 70
     0
  3
Border __ __ . __ __ . __ __ . __ __ . __ __ .
 72
    65
 73
     6
 40
1.75
 49
0.5
 74
     0
 49
-0.25
 74
     0
 49
0.5
 74
     0
 49
-0.25
 74
     0
 49
0.0
 74
     0
 49
-0.25
 74
     0
  0
LTYPE
  5
343
330
311
100
AcDbSymbolTableRecord
100
AcDbLinetypeTableRecord
  2
BORDER2
 70
     0
  3
Border2 __.__.__.__.__.__.__.__.__.__.__.
 72
    65
 73
     6
 40
0.875
 49
0.25
 74
     0
 49
-0.125
 74
     0
 49
0.25
 74
     0
 49
-0.125
 74
     0
 49
0.0
 74
     0
 49
-0.125
 74
     0
  0
LTYPE
  5
344
330
311
100
AcDbSymbolTableRecord
100
AcDbLinetypeTableRecord
  2
BORDERX2
 70
     0
  3
Borderx2  ____  ____  .  ____  ____  .  ___
 72
    65
 73
     6
 40
3.5
 49
1.0
 74
     0
 49
-0.5
 74
     0
 49
1.0
 74
     0
 49
-0.5
 74
     0
 49
0.0
 74
     0
 49
-0.5
 74
     0
  0
LTYPE
  5
345
330
311
100
AcDbSymbolTableRecord
100
AcDbLinetypeTableRecord
  2
CENTER2
 70
     0
  3
Center2  ___ _ ___ _ ___ _ ___ _ ___ _ ___
 72
    65
 73
     4
 40
1.125
 49
0.75
 74
     0
 49
-0.125
 74
     0
 49
0.125
 74
     0
 49
-0.125
 74
     0
  0
LTYPE
  5
346
330
311
100
AcDbSymbolTableRecord
100
AcDbLinetypeTableRecord
  2
CENTERX2
 70
     0
  3
Centerx2  ________  __  ________  __  _____
 72
    65
 73
     4
 40
4.0
 49
2.5
 74
     0
 49
-0.5
 74
     0
 49
0.5
 74
     0
 49
-0.5
 74
     0
  0
LTYPE
  5
347
330
311
100
AcDbSymbolTableRecord
100
AcDbLinetypeTableRecord
  2
DASHDOT2
 70
     0
  3
Dashdot2  _._._._._._._._._._._._._._._.
 72
    65
 73
     4
 40
0.5
 49
0.25
 74
     0
 49
-0.125
 74
     0
 49
0.0
 74
     0
 49
-0.125
 74
     0
  0
LTYPE
  5
348
330
311
100
AcDbSymbolTableRecord
100
AcDbLinetypeTableRecord
  2
DASHDOTX2
 70
     0
  3
Dashdotx2 ____  .  ____  .  ____  .  ___
 72
    65
 73
     4
 40
2.0
 49
1.0
 74
     0
 49
-0.5
 74
     0
 49
0.0
 74
     0
 49
-0.5
 74
     0
  0
LTYPE
  5
349
330
311
100
AcDbSymbolTableRecord
100
AcDbLinetypeTableRecord
  2
DASHED2
 70
     0
  3
Dashed2 _ _ _ _ _ _ _ _ _ _ _ _ _ _ _ _ _ 
 72
    65
 73
     2
 40
0.375
 49
0.25
 74
     0
 49
-0.125
 74
     0
  0
LTYPE
  5
34A
330
311
100
AcDbSymbolTableRecord
100
AcDbLinetypeTableRecord
  2
DASHEDX2
 70
     0
  3
Dashedx2 ____  ____  ____  ____  ____  ___
 72
    65
 73
     2
 40
1.5
 49
1.0
 74
     0
 49
-0.5
 74
     0
  0
LTYPE
  5
34B
330
311
100
AcDbSymbolTableRecord
100
AcDbLinetypeTableRecord
  2
DIVIDE
 70
     0
  3
Divide ____ . . ____ . . ____ . . ____ . . ____
 72
    65
 73
     6
 40
1.25
 49
0.5
 74
     0
 49
-0.25
 74
     0
 49
0.0
 74
     0
 49
-0.25
 74
     0
 49
0.0
 74
     0
 49
-0.25
 74
     0
  0
LTYPE
  5
34C
330
311
100
AcDbSymbolTableRecord
100
AcDbLinetypeTableRecord
  2
DIVIDE2
 70
     0
  3
Divide2 __..__..__..__..__..__..__..__.._
 72
    65
 73
     6
 40
0.625
 49
0.25
 74
     0
 49
-0.125
 74
     0
 49
0.0
 74
     0
 49
-0.125
 74
     0
 49
0.0
 74
     0
 49
-0.125
 74
     0
  0
LTYPE
  5
34D
330
311
100
AcDbSymbolTableRecord
100
AcDbLinetypeTableRecord
  2
DIVIDEX2
 70
     0
  3
Dividex2 ________  .  .  ________  .  .  _
 72
    65
 73
     6
 40
2.5
 49
1.0
 74
     0
 49
-0.5
 74
     0
 49
0.0
 74
     0
 49
-0.5
 74
     0
 49
0.0
 74
     0
 49
-0.5
 74
     0
  0
LTYPE
  5
34E
330
311
100
AcDbSymbolTableRecord
100
AcDbLinetypeTableRecord
  2
DOT
 70
     0
  3
Dot . . . . . . . . . . . . . . . . . . . . . . . .
 72
    65
 73
     2
 40
0.25
 49
0.0
 74
     0
 49
-0.25
 74
     0
  0
LTYPE
  5
34F
330
311
100
AcDbSymbolTableRecord
100
AcDbLinetypeTableRecord
  2
DOT2
 70
     0
  3
Dot2 ........................................
 72
    65
 73
     2
 40
0.125
 49
0.0
 74
     0
 49
-0.125
 74
     0
  0
LTYPE
  5
350
330
311
100
AcDbSymbolTableRecord
100
AcDbLinetypeTableRecord
  2
DOTX2
 70
     0
  3
Dotx2 .  .  .  .  .  .  .  .  .  .  .  .  .  .
 72
    65
 73
     2
 40
0.5
 49
0.0
 74
     0
 49
-0.5
 74
     0
  0
LTYPE
  5
351
330
311
100
AcDbSymbolTableRecord
100
AcDbLinetypeTableRecord
  2
HIDDENX2
 70
     0
  3
Hiddenx2 ____ ____ ____ ____ ____ ____ ____ 
 72
    65
 73
     2
 40
0.75
 49
0.5
 74
     0
 49
-0.25
 74
     0
  0
LTYPE
  5
352
330
311
100
AcDbSymbolTableRecord
100
AcDbLinetypeTableRecord
  2
PHANTOM
 70
     0
  3
Phantom ______  __  __  ______  __  __  ______ 
 72
    65
 73
     6
 40
2.5
 49
1.25
 74
     0
 49
-0.25
 74
     0
 49
0.25
 74
     0
 49
-0.25
 74
     0
 49
0.25
 74
     0
 49
-0.25
 74
     0
  0
LTYPE
  5
353
330
311
100
AcDbSymbolTableRecord
100
AcDbLinetypeTableRecord
  2
PHANTOM2
 70
     0
  3
Phantom2 ___ _ _ ___ _ _ ___ _ _ ___ _ _
 72
    65
 73
     6
 40
1.25
 49
0.625
 74
     0
 49
-0.125
 74
     0
 49
0.125
 74
     0
 49
-0.125
 74
     0
 49
0.125
 74
     0
 49
-0.125
 74
     0
  0
LTYPE
  5
354
330
311
100
AcDbSymbolTableRecord
100
AcDbLinetypeTableRecord
  2
PHANTOMX2
 70
     0
  3
Phantomx2 ____________    ____    ____   _
 72
    65
 73
     6
 40
5.0
 49
2.5
 74
     0
 49
-0.5
 74
     0
 49
0.5
 74
     0
 49
-0.5
 74
     0
 49
0.5
 74
     0
 49
-0.5
 74
     0
  0
ENDTAB
  0
TABLE
  2
LAYER
  5
30E
330
0
100
AcDbSymbolTable
 70
     5
  0
LAYER
  5
31C
330
30E
100
AcDbSymbolTableRecord
100
AcDbLayerTableRecord
  2
0
 70
     0
 62
    90
  6
Continuous
370
     0
390
31B
  0
LAYER
  5
2B
330
30E
100
AcDbSymbolTableRecord
100
AcDbLayerTableRecord
  2
koty
 70
     0
 62
    41
  6
Continuous
370
     0
390
31B
  0
LAYER
  5
2C
330
30E
100
AcDbSymbolTableRecord
100
AcDbLayerTableRecord
  2
popis
 70
     0
 62
   210
  6
Continuous
370
     0
390
31B
  0
LAYER
  5
4E
330
30E
100
AcDbSymbolTableRecord
100
AcDbLayerTableRecord
  2
Defpoints
 70
     0
 62
    90
  6
Continuous
290
     0
370
     0
390
31B
  0
LAYER
  5
C4
330
30E
100
AcDbSymbolTableRecord
100
AcDbLayerTableRecord
  2
srafy
 70
     0
 62
    90
  6
Continuous
370
     0
390
31B
  0
ENDTAB
  0
TABLE
  2
STYLE
  5
30F
330
0
100
AcDbSymbolTable
 70
     3
  0
STYLE
  5
31D
330
30F
100
AcDbSymbolTableRecord
100
AcDbTextStyleTableRecord
  2
Standard
 70
     0
 40
0.0
 41
1.0
 50
0.0
 71
     0
 42
0.2
  3
txt.shx
  4

1001
ACAD
1000
txt.shx
1071
        0
  0
STYLE
  5
120
330
30F
100
AcDbSymbolTableRecord
100
AcDbTextStyleTableRecord
  2
vd_recov_1_120_
 70
     0
 40
0.0
 41
1.0
 50
0.0
 71
     0
 42
0.2
  3
ltypeshp.shx
  4

1001
ACAD
1000
ltypeshp.shx
1071
        0
  0
STYLE
  5
305
330
30F
100
AcDbSymbolTableRecord
100
AcDbTextStyleTableRecord
  2
Proxy_304
 70
     0
 40
20.0
 41
1.0
 50
0.0
 71
     0
 42
0.2
  3
txt.shx
  4

1001
ACAD
1000
txt.shx
1071
        0
  0
ENDTAB
  0
TABLE
  2
VIEW
  5
312
330
0
100
AcDbSymbolTable
 70
     0
  0
ENDTAB
  0
TABLE
  2
UCS
  5
313
330
0
100
AcDbSymbolTable
 70
     0
  0
ENDTAB
  0
TABLE
  2
APPID
  5
315
330
0
100
AcDbSymbolTable
 70
     6
  0
APPID
  5
31E
330
315
100
AcDbSymbolTableRecord
100
AcDbRegAppTableRecord
  2
ACAD
 70
     0
  0
APPID
  5
336
330
315
100
AcDbSymbolTableRecord
100
AcDbRegAppTableRecord
  2
VD_INVISIBLE_NOT_FOR_READ
 70
     0
  0
APPID
  5
337
330
315
100
AcDbSymbolTableRecord
100
AcDbRegAppTableRecord
  2
VD_TEMPHATCH
 70
     0
  0
APPID
  5
338
330
315
100
AcDbSymbolTableRecord
100
AcDbRegAppTableRecord
  2
VDEXTRAPARAM
 70
     0
  0
APPID
  5
339
330
315
100
AcDbSymbolTableRecord
100
AcDbRegAppTableRecord
  2
PE_URL
 70
     0
  0
APPID
  5
33A
330
315
100
AcDbSymbolTableRecord
100
AcDbRegAppTableRecord
  2
VD_UNKNOWN
 70
     0
  0
ENDTAB
  0
TABLE
  2
DIMSTYLE
  5
316
330
0
100
AcDbSymbolTable
 70
     2
100
AcDbDimStyleTable
  0
DIMSTYLE
105
333
330
316
100
AcDbSymbolTableRecord
100
AcDbDimStyleTableRecord
  2
STANDARD
 70
     0
 41
0.2
 42
0.05
 44
0.2
 73
     0
 74
     0
140
0.2
172
     1
174
     1
177
   256
178
   256
288
     1
340
31D
342
309
  0
DIMSTYLE
105
27
102
{ACAD_REACTORS
330
2B6
330
2CE
330
2E6
102
}
330
316
100
AcDbSymbolTableRecord
100
AcDbDimStyleTableRecord
  2
ISO-25
 70
     0
 40
10.0
 41
2.0
 42
0.625
 44
1.25
 73
     0
 74
     0
 77
     1
140
2.0
147
0.625
172
     1
174
     1
271
     2
288
     1
340
31D
342
309
  0
ENDTAB
  0
TABLE
  2
BLOCK_RECORD
  5
30D
330
0
100
AcDbSymbolTable
 70
     8
  0
BLOCK_RECORD
  5
32B
330
30D
100
AcDbSymbolTableRecord
100
AcDbBlockTableRecord
  2
*Model_Space
340
32E
  0
BLOCK_RECORD
  5
327
330
30D
100
AcDbSymbolTableRecord
100
AcDbBlockTableRecord
  2
*Paper_Space
340
32A
  0
BLOCK_RECORD
  5
32F
330
30D
100
AcDbSymbolTableRecord
100
AcDbBlockTableRecord
  2
*Paper_Space0
340
332
  0
BLOCK_RECORD
  5
287
330
30D
100
AcDbSymbolTableRecord
100
AcDbBlockTableRecord
  2
VD_ANONYM_287
340
0
  0
BLOCK_RECORD
  5
29F
330
30D
100
AcDbSymbolTableRecord
100
AcDbBlockTableRecord
  2
VD_ANONYM_29F
340
0
  0
BLOCK_RECORD
  5
309
330
30D
100
AcDbSymbolTableRecord
100
AcDbBlockTableRecord
  2
VDDIM_DEFAULT
340
0
102
{BLKREFS
331
367
331
366
331
373
331
372
331
37F
331
37E
102
}
  0
BLOCK_RECORD
  5
30B
330
30D
100
AcDbSymbolTableRecord
100
AcDbBlockTableRecord
  2
VDDIM_NONE
340
0
  0
BLOCK_RECORD
  5
362
330
30D
100
AcDbSymbolTableRecord
100
AcDbBlockTableRecord
  2
*D5
340
0
  0
BLOCK_RECORD
  5
36E
330
30D
100
AcDbSymbolTableRecord
100
AcDbBlockTableRecord
  2
*D6
340
0
  0
BLOCK_RECORD
  5
37A
330
30D
100
AcDbSymbolTableRecord
100
AcDbBlockTableRecord
  2
*D7
340
0
  0
ENDTAB
  0
ENDSEC
  0
SECTION
  2
BLOCKS
  0
BLOCK
  5
32C
330
32B
100
AcDbEntity
  8
0
100
AcDbBlockBegin
  2
*Model_Space
 70
     0
 71
     0
 10
0.0
 20
0.0
 30
0.0
  3
*Model_Space
  1

  0
ENDBLK
  5
32D
330
32B
100
AcDbEntity
  8
0
100
AcDbBlockEnd
  0
BLOCK
  5
328
330
327
100
AcDbEntity
 67
     1
  8
0
100
AcDbBlockBegin
  2
*Paper_Space
 70
     0
 71
     0
 10
0.0
 20
0.0
 30
0.0
  3
*Paper_Space
  1

  0
ENDBLK
  5
329
330
327
100
AcDbEntity
 67
     1
  8
0
100
AcDbBlockEnd
  0
BLOCK
  5
330
330
32F
100
AcDbEntity
  8
0
100
AcDbBlockBegin
  2
*Paper_Space0
 70
     0
 71
     0
 10
0.0
 20
0.0
 30
0.0
  3
*Paper_Space0
  1

  0
VIEWPORT
  5
388
330
32F
100
AcDbEntity
  8
0
 60
     1
100
AcDbViewport
 10
0.0
 20
0.0
 30
0.0
 40
10.0
 41
10.0
 69
     1
 12
0.0
 22
0.0
 13
0.0
 23
0.0
 14
1.0
 24
1.0
 15
0.0
 25
0.0
 16
0.0
 26
0.0
 36
1.0
 17
0.0
 27
0.0
 37
0.0
 42
0.0
 43
0.0
 44
0.0
 45
10.0
 50
0.0
 51
0.0000000000007958
 72
   100
 90
   163872
  1

281
     0
 71
     0
 74
     0
110
0.0
120
0.0
130
0.0
111
1.0
121
0.0
131
0.0
112
0.0
122
1.0
132
0.0
 79
     0
146
0.0
1001
VD_INVISIBLE_NOT_FOR_READ
1000
VD_INVISIBLE_NOT_FOR_READ
  0
VIEWPORT
  5
389
330
32F
100
AcDbEntity
  8
0
 60
     1
100
AcDbViewport
 10
0.0
 20
0.0
 30
0.0
 40
10.0
 41
10.0
 69
     2
 12
0.0
 22
0.0
 13
0.0
 23
0.0
 14
1.0
 24
1.0
 15
0.0
 25
0.0
 16
0.0
 26
0.0
 36
1.0
 17
0.0
 27
0.0
 37
0.0
 42
0.0
 43
0.0
 44
0.0
 45
10.0
 50
0.0
 51
0.0000000000007958
 72
   100
 90
   163872
  1

281
     0
 71
     0
 74
     0
110
0.0
120
0.0
130
0.0
111
1.0
121
0.0
131
0.0
112
0.0
122
1.0
132
0.0
 79
     0
146
0.0
1001
VD_INVISIBLE_NOT_FOR_READ
1000
VD_INVISIBLE_NOT_FOR_READ
  0
ENDBLK
  5
331
330
32F
100
AcDbEntity
  8
0
100
AcDbBlockEnd
  0
BLOCK
  5
355
330
287
100
AcDbEntity
  8
0
100
AcDbBlockBegin
  2
VD_ANONYM_287
 70
     0
 71
     0
 10
0.0
 20
0.0
 30
0.0
  3
VD_ANONYM_287
  1

  0
LINE
  5
294
330
287
100
AcDbEntity
  8
0
 62
     0
370
    -2
100
AcDbLine
 10
428.0313056732065
 20
-25.42344266616874
 30
0.0
 11
428.0313056732065
 21
-101.1370684294879
 31
0.0
  0
LINE
  5
295
330
287
100
AcDbEntity
  8
0
 62
     0
370
    -2
100
AcDbLine
 10
602.0313056732065
 20
-25.42344266616874
 30
0.0
 11
602.0313056732065
 21
-101.1370684294879
 31
0.0
  0
LINE
  5
296
330
287
100
AcDbEntity
  8
0
 62
     0
370
    -2
100
AcDbLine
 10
448.0313056732065
 20
-88.63706842948795
 30
0.0
 11
582.0313056732065
 21
-88.63706842948795
 31
0.0
  0
LWPOLYLINE
  5
297
330
287
100
AcDbEntity
  8
0
 62
     0
100
AcDbPolyline
 90
        4
 70
     1
 43
0.0
 10
448.0313056732065
 20
-85.30373509615463
 10
448.0313056732065
 20
-91.97040176282127
 10
428.0313056732065
 20
-88.63706842948795
 10
428.0313056732065
 20
-88.63706842948795
1001
VDEXTRAPARAM
1071
       65
1071
        0
1071
        0
1040
1.0
1000

1000

1040
0.0
1040
0.0
  0
HATCH
  5
35D
330
287
100
AcDbEntity
  8
0
 62
     0
100
AcDbHatch
 10
0.0
 20
0.0
 30
0.0
210
0.0
220
0.0
230
1.0
  2
SOLID
 70
     1
 71
     0
 91
        1
 92
        2
 72
     0
 73
     1
 93
        3
 10
448.0313056732065
 20
-85.30373509615463
 10
448.0313056732065
 20
-91.97040176282127
 10
428.0313056732065
 20
-88.63706842948795
 97
        0
 75
     0
 76
     1
 98
        1
 10
0.0
 20
0.0
1001
VDEXTRAPARAM
1071
       65
1071
        0
1071
        0
1040
1.0
1000

1000

1040
0.0
1040
0.0
1001
VD_TEMPHATCH
1000
VD_TEMPHATCH
  0
LWPOLYLINE
  5
298
330
287
100
AcDbEntity
  8
0
 62
     0
100
AcDbPolyline
 90
        4
 70
     1
 43
0.0
 10
582.0313056732065
 20
-85.30373509615463
 10
582.0313056732065
 20
-91.97040176282127
 10
602.0313056732065
 20
-88.63706842948795
 10
602.0313056732065
 20
-88.63706842948795
1001
VDEXTRAPARAM
1071
       65
1071
        0
1071
        0
1040
1.0
1000

1000

1040
0.0
1040
0.0
  0
HATCH
  5
35E
330
287
100
AcDbEntity
  8
0
 62
     0
100
AcDbHatch
 10
0.0
 20
0.0
 30
0.0
210
0.0
220
0.0
230
1.0
  2
SOLID
 70
     1
 71
     0
 91
        1
 92
        2
 72
     0
 73
     1
 93
        3
 10
582.0313056732065
 20
-85.30373509615463
 10
582.0313056732065
 20
-91.97040176282127
 10
602.0313056732065
 20
-88.63706842948795
 97
        0
 75
     0
 76
     1
 98
        1
 10
0.0
 20
0.0
1001
VDEXTRAPARAM
1071
       65
1071
        0
1071
        0
1040
1.0
1000

1000

1040
0.0
1040
0.0
1001
VD_TEMPHATCH
1000
VD_TEMPHATCH
  0
POINT
  5
29A
330
287
100
AcDbEntity
  8
Defpoints
 62
     0
100
AcDbPoint
 10
428.0313056732065
 20
-19.17344266616874
 30
0.0
  0
POINT
  5
29B
330
287
100
AcDbEntity
  8
Defpoints
 62
     0
100
AcDbPoint
 10
602.0313056732065
 20
-19.17344266616874
 30
0.0
  0
POINT
  5
29C
330
287
100
AcDbEntity
  8
Defpoints
 62
     0
100
AcDbPoint
 10
602.0313056732065
 20
-88.63706842948795
 30
0.0
  0
TEXT
  5
304
330
287
100
AcDbEntity
  8
0
 62
     0
100
AcDbText
 10
484.555115197016
 20
-82.38706842948795
 30
0.0
 40
20.0
  1
174
  7
Proxy_304
100
AcDbText
  0
ENDBLK
  5
356
330
287
100
AcDbEntity
  8
0
100
AcDbBlockEnd
  0
BLOCK
  5
357
330
29F
100
AcDbEntity
  8
0
100
AcDbBlockBegin
  2
VD_ANONYM_29F
 70
     0
 71
     0
 10
0.0
 20
0.0
 30
0.0
  3
VD_ANONYM_29F
  1

  0
LINE
  5
2AC
330
29F
100
AcDbEntity
  8
0
 62
     0
370
    -2
100
AcDbLine
 10
390.0313056732065
 20
-20.42344266616873
 30
0.0
 11
390.0313056732065
 21
-177.4185135036914
 31
0.0
  0
LINE
  5
2AD
330
29F
100
AcDbEntity
  8
0
 62
     0
370
    -2
100
AcDbLine
 10
640.0313056732065
 20
-20.42344266616873
 30
0.0
 11
640.0313056732065
 21
-177.4185135036914
 31
0.0
  0
LINE
  5
2AE
330
29F
100
AcDbEntity
  8
0
 62
     0
370
    -2
100
AcDbLine
 10
410.0313056732066
 20
-164.9185135036914
 30
0.0
 11
620.0313056732065
 21
-164.9185135036914
 31
0.0
  0
LWPOLYLINE
  5
2AF
330
29F
100
AcDbEntity
  8
0
 62
     0
100
AcDbPolyline
 90
        4
 70
     1
 43
0.0
 10
410.0313056732066
 20
-161.5851801703581
 10
410.0313056732066
 20
-168.2518468370247
 10
390.0313056732065
 20
-164.9185135036914
 10
390.0313056732065
 20
-164.9185135036914
1001
VDEXTRAPARAM
1071
       65
1071
        0
1071
        0
1040
1.0
1000

1000

1040
0.0
1040
0.0
  0
HATCH
  5
35F
330
29F
100
AcDbEntity
  8
0
 62
     0
100
AcDbHatch
 10
0.0
 20
0.0
 30
0.0
210
0.0
220
0.0
230
1.0
  2
SOLID
 70
     1
 71
     0
 91
        1
 92
        2
 72
     0
 73
     1
 93
        3
 10
410.0313056732066
 20
-161.5851801703581
 10
410.0313056732066
 20
-168.2518468370247
 10
390.0313056732065
 20
-164.9185135036914
 97
        0
 75
     0
 76
     1
 98
        1
 10
0.0
 20
0.0
1001
VDEXTRAPARAM
1071
       65
1071
        0
1071
        0
1040
1.0
1000

1000

1040
0.0
1040
0.0
1001
VD_TEMPHATCH
1000
VD_TEMPHATCH
  0
LWPOLYLINE
  5
2B0
330
29F
100
AcDbEntity
  8
0
 62
     0
100
AcDbPolyline
 90
        4
 70
     1
 43
0.0
 10
620.0313056732065
 20
-161.5851801703581
 10
620.0313056732065
 20
-168.2518468370247
 10
640.0313056732065
 20
-164.9185135036914
 10
640.0313056732065
 20
-164.9185135036914
1001
VDEXTRAPARAM
1071
       65
1071
        0
1071
        0
1040
1.0
1000

1000

1040
0.0
1040
0.0
  0
HATCH
  5
360
330
29F
100
AcDbEntity
  8
0
 62
     0
100
AcDbHatch
 10
0.0
 20
0.0
 30
0.0
210
0.0
220
0.0
230
1.0
  2
SOLID
 70
     1
 71
     0
 91
        1
 92
        2
 72
     0
 73
     1
 93
        3
 10
620.0313056732065
 20
-161.5851801703581
 10
620.0313056732065
 20
-168.2518468370247
 10
640.0313056732065
 20
-164.9185135036914
 97
        0
 75
     0
 76
     1
 98
        1
 10
0.0
 20
0.0
1001
VDEXTRAPARAM
1071
       65
1071
        0
1071
        0
1040
1.0
1000

1000

1040
0.0
1040
0.0
1001
VD_TEMPHATCH
1000
VD_TEMPHATCH
  0
POINT
  5
2B2
330
29F
100
AcDbEntity
  8
Defpoints
 62
     0
100
AcDbPoint
 10
390.0313056732065
 20
-14.17344266616874
 30
0.0
  0
POINT
  5
2B3
330
29F
100
AcDbEntity
  8
Defpoints
 62
     0
100
AcDbPoint
 10
640.0313056732065
 20
-14.17344266616874
 30
0.0
  0
POINT
  5
2B4
330
29F
100
AcDbEntity
  8
Defpoints
 62
     0
100
AcDbPoint
 10
640.0313056732065
 20
-164.9185135036914
 30
0.0
  0
TEXT
  5
306
330
29F
100
AcDbEntity
  8
0
 62
     0
100
AcDbText
 10
486.4598771017779
 20
-158.6685135036914
 30
0.0
 40
20.0
  1
250
  7
Proxy_304
100
AcDbText
  0
ENDBLK
  5
358
330
29F
100
AcDbEntity
  8
0
100
AcDbBlockEnd
  0
BLOCK
  5
359
330
309
100
AcDbEntity
  8
0
100
AcDbBlockBegin
  2
VDDIM_DEFAULT
 70
     0
 71
     0
 10
0.0
 20
0.0
 30
0.0
  3
VDDIM_DEFAULT
  1

  0
LWPOLYLINE
  5
30A
330
309
100
AcDbEntity
  8
0
  6
Continuous
 62
     0
100
AcDbPolyline
 90
        4
 70
     0
 43
0.0
 10
0.0
 20
0.0
 10
-1.0
 20
-0.1665
 10
-1.0
 20
0.1665
 10
0.0
 20
0.0
1001
VDEXTRAPARAM
1071
        1
1071
        0
1071
        0
1040
1.0
1000

1000

1040
0.0
1040
0.0
  0
HATCH
  5
361
330
309
100
AcDbEntity
  8
0
  6
Continuous
 62
     0
100
AcDbHatch
 10
0.0
 20
0.0
 30
0.0
210
0.0
220
0.0
230
1.0
  2
SOLID
 70
     1
 71
     0
 91
        1
 92
        2
 72
     0
 73
     1
 93
        3
 10
0.0
 20
0.0
 10
-1.0
 20
-0.1665
 10
-1.0
 20
0.1665
 97
        0
 75
     0
 76
     1
 98
        1
 10
0.0
 20
0.0
1001
VDEXTRAPARAM
1071
        1
1071
        0
1071
        0
1040
1.0
1000

1000

1040
0.0
1040
0.0
1001
VD_TEMPHATCH
1000
VD_TEMPHATCH
  0
ENDBLK
  5
35A
330
309
100
AcDbEntity
  8
0
100
AcDbBlockEnd
  0
BLOCK
  5
35B
330
30B
100
AcDbEntity
  8
0
100
AcDbBlockBegin
  2
VDDIM_NONE
 70
     0
 71
     0
 10
0.0
 20
0.0
 30
0.0
  3
VDDIM_NONE
  1

  0
ENDBLK
  5
35C
330
30B
100
AcDbEntity
  8
0
100
AcDbBlockEnd
  0
BLOCK
  5
36C
330
362
100
AcDbEntity
  8
0
100
AcDbBlockBegin
  2
*D5
 70
     1
 71
     0
 10
0.0
 20
0.0
 30
0.0
  3
*D5
  1

  0
LINE
  5
363
330
362
100
AcDbEntity
  8
koty
 62
     0
370
    -2
100
AcDbLine
 10
428.0313056732065
 20
-25.42344266616874
 30
0.0
 11
428.0313056732065
 21
-91.5062573244504
 31
0.0
  0
LINE
  5
364
330
362
100
AcDbEntity
  8
koty
 62
     0
370
    -2
100
AcDbLine
 10
602.0313056732065
 20
-25.42344266616874
 30
0.0
 11
602.0313056732065
 21
-91.50625732445042
 31
0.0
  0
LINE
  5
365
330
362
100
AcDbEntity
  8
koty
 62
     0
370
    -2
100
AcDbLine
 10
448.0313056732065
 20
-79.0062573244504
 30
0.0
 11
582.0313056732065
 21
-79.00625732445042
 31
0.0
  0
INSERT
  5
366
330
362
100
AcDbEntity
  8
koty
 62
     0
370
    -2
100
AcDbBlockReference
  2
VDDIM_DEFAULT
 10
428.0313056732065
 20
-79.0062573244504
 30
0.0
 41
20.0
 42
20.0
 43
20.0
 50
180.0
  0
INSERT
  5
367
330
362
100
AcDbEntity
  8
koty
 62
     0
370
    -2
100
AcDbBlockReference
  2
VDDIM_DEFAULT
 10
602.0313056732065
 20
-79.00625732445042
 30
0.0
 41
20.0
 42
20.0
 43
20.0
 50
360.0
  0
MTEXT
  5
368
330
362
100
AcDbEntity
  8
koty
 62
     0
100
AcDbMText
 10
515.0313056732065
 20
-62.75625732445042
 30
0.0
 40
20.0
 41
0.0
 71
     5
 72
     1
  1
\A1;174.00
 73
     1
 44
1.0
  0
POINT
  5
369
330
362
100
AcDbEntity
  8
Defpoints
 62
     0
100
AcDbPoint
 10
428.0313056732065
 20
-19.17344266616874
 30
0.0
  0
POINT
  5
36A
330
362
100
AcDbEntity
  8
Defpoints
 62
     0
100
AcDbPoint
 10
602.0313056732065
 20
-19.17344266616874
 30
0.0
  0
POINT
  5
36B
330
362
100
AcDbEntity
  8
Defpoints
 62
     0
100
AcDbPoint
 10
602.0313056732065
 20
-79.00625732445042
 30
0.0
  0
ENDBLK
  5
36D
330
362
100
AcDbEntity
  8
0
100
AcDbBlockEnd
  0
BLOCK
  5
378
330
36E
100
AcDbEntity
  8
0
100
AcDbBlockBegin
  2
*D6
 70
     1
 71
     0
 10
0.0
 20
0.0
 30
0.0
  3
*D6
  1

  0
LINE
  5
36F
330
36E
100
AcDbEntity
  8
koty
 62
     0
370
    -2
100
AcDbLine
 10
390.0313056732065
 20
-20.42344266616874
 30
0.0
 11
390.0313056732065
 21
-148.8101038757449
 31
0.0
  0
LINE
  5
370
330
36E
100
AcDbEntity
  8
koty
 62
     0
370
    -2
100
AcDbLine
 10
640.0313056732065
 20
-20.42344266616874
 30
0.0
 11
640.0313056732065
 21
-148.810103875745
 31
0.0
  0
LINE
  5
371
330
36E
100
AcDbEntity
  8
koty
 62
     0
370
    -2
100
AcDbLine
 10
410.0313056732065
 20
-136.3101038757449
 30
0.0
 11
620.0313056732065
 21
-136.310103875745
 31
0.0
  0
INSERT
  5
372
330
36E
100
AcDbEntity
  8
koty
 62
     0
370
    -2
100
AcDbBlockReference
  2
VDDIM_DEFAULT
 10
390.0313056732065
 20
-136.3101038757449
 30
0.0
 41
20.0
 42
20.0
 43
20.0
 50
180.0
  0
INSERT
  5
373
330
36E
100
AcDbEntity
  8
koty
 62
     0
370
    -2
100
AcDbBlockReference
  2
VDDIM_DEFAULT
 10
640.0313056732065
 20
-136.310103875745
 30
0.0
 41
20.0
 42
20.0
 43
20.0
 50
360.0
  0
MTEXT
  5
374
330
36E
100
AcDbEntity
  8
koty
 62
     0
100
AcDbMText
 10
515.0313056732065
 20
-120.060103875745
 30
0.0
 40
20.0
 41
0.0
 71
     5
 72
     1
  1
\A1;250.00
 73
     1
 44
1.0
  0
POINT
  5
375
330
36E
100
AcDbEntity
  8
Defpoints
 62
     0
100
AcDbPoint
 10
390.0313056732065
 20
-14.17344266616874
 30
0.0
  0
POINT
  5
376
330
36E
100
AcDbEntity
  8
Defpoints
 62
     0
100
AcDbPoint
 10
640.0313056732065
 20
-14.17344266616874
 30
0.0
  0
POINT
  5
377
330
36E
100
AcDbEntity
  8
Defpoints
 62
     0
100
AcDbPoint
 10
640.0313056732065
 20
-136.310103875745
 30
0.0
  0
ENDBLK
  5
379
330
36E
100
AcDbEntity
  8
0
100
AcDbBlockEnd
  0
BLOCK
  5
384
330
37A
100
AcDbEntity
  8
0
100
AcDbBlockBegin
  2
*D7
 70
     1
 71
     0
 10
0.0
 20
0.0
 30
0.0
  3
*D7
  1

  0
LINE
  5
37B
330
37A
100
AcDbEntity
  8
koty
 62
     0
370
    -2
100
AcDbLine
 10
383.7813056732065
 20
-14.17344266616874
 30
0.0
 11
319.5228575629444
 21
-14.17344266616874
 31
0.0
  0
LINE
  5
37C
330
37A
100
AcDbEntity
  8
koty
 62
     0
370
    -2
100
AcDbLine
 10
383.7813056732065
 20
294.8265573338312
 30
0.0
 11
319.5228575629444
 21
294.8265573338312
 31
0.0
  0
LINE
  5
37D
330
37A
100
AcDbEntity
  8
koty
 62
     0
370
    -2
100
AcDbLine
 10
332.0228575629444
 20
5.826557333831261
 30
0.0
 11
332.0228575629444
 21
274.8265573338312
 31
0.0
  0
INSERT
  5
37E
330
37A
100
AcDbEntity
  8
koty
 62
     0
370
    -2
100
AcDbBlockReference
  2
VDDIM_DEFAULT
 10
332.0228575629444
 20
-14.17344266616874
 30
0.0
 41
20.0
 42
20.0
 43
20.0
 50
270.0
  0
INSERT
  5
37F
330
37A
100
AcDbEntity
  8
koty
 62
     0
370
    -2
100
AcDbBlockReference
  2
VDDIM_DEFAULT
 10
332.0228575629444
 20
294.8265573338312
 30
0.0
 41
20.0
 42
20.0
 43
20.0
 50
90.0
  0
MTEXT
  5
380
330
37A
100
AcDbEntity
  8
koty
 62
     0
100
AcDbMText
 10
315.7728575629444
 20
140.3265573338312
 30
0.0
 40
20.0
 41
0.0
 71
     5
 72
     1
  1
\A1;309.00
 11
0.0
 21
-1.0
 31
0.0
 73
     1
 44
1.0
  0
POINT
  5
381
330
37A
100
AcDbEntity
  8
Defpoints
 62
     0
100
AcDbPoint
 10
390.0313056732065
 20
-14.17344266616874
 30
0.0
  0
POINT
  5
382
330
37A
100
AcDbEntity
  8
Defpoints
 62
     0
100
AcDbPoint
 10
390.0313056732065
 20
294.8265573338312
 30
0.0
  0
POINT
  5
383
330
37A
100
AcDbEntity
  8
Defpoints
 62
     0
100
AcDbPoint
 10
332.0228575629444
 20
294.8265573338312
 30
0.0
  0
ENDBLK
  5
385
330
37A
100
AcDbEntity
  8
0
100
AcDbBlockEnd
  0
ENDSEC
  0
SECTION
  2
ENTITIES
  0
LWPOLYLINE
  5
16C
330
32B
100
AcDbEntity
  8
0
100
AcDbPolyline
 90
        4
 70
     1
 43
0.0
 10
390.0313056732065
 20
-14.17344266616874
 10
640.0313056732065
 20
-14.17344266616874
 10
640.0313056732065
 20
294.8265573338312
 10
390.0313056732065
 20
294.8265573338312
  0
LINE
  5
16F
330
32B
100
AcDbEntity
  8
0
100
AcDbLine
 10
515.0313056732065
 20
140.3265573338312
 30
0.0
 11
515.0313056732064
 21
204.8650755668049
 31
0.0
  0
LINE
  5
170
330
32B
100
AcDbEntity
  8
0
100
AcDbLine
 10
515.0313056732065
 20
294.8265573338312
 30
0.0
 11
428.0313056732065
 21
294.8265573338312
 31
0.0
  0
LINE
  5
172
330
32B
100
AcDbEntity
  8
0
100
AcDbLine
 10
433.0313056732065
 20
294.8265573338312
 30
0.0
 11
433.0313056732065
 21
-14.17344266616874
 31
0.0
  0
LINE
  5
173
330
32B
100
AcDbEntity
  8
0
100
AcDbLine
 10
423.0313056732065
 20
294.8265573338312
 30
0.0
 11
423.0313056732065
 21
-14.17344266616874
 31
0.0
  0
LINE
  5
174
330
32B
100
AcDbEntity
  8
0
100
AcDbLine
 10
597.0313056732066
 20
294.8265573338312
 30
0.0
 11
597.0313056732066
 21
-14.17344266616874
 31
0.0
  0
LINE
  5
175
330
32B
100
AcDbEntity
  8
0
100
AcDbLine
 10
607.0313056732065
 20
294.8265573338312
 30
0.0
 11
607.0313056732065
 21
-14.17344266616874
 31
0.0
  0
CIRCLE
  5
178
330
32B
100
AcDbEntity
  8
0
100
AcDbCircle
 10
857.8011488453176
 20
140.3265573338312
 30
0.0
 40
154.4999999999999
  0
ARC
  5
179
330
32B
100
AcDbEntity
  8
0
100
AcDbCircle
 10
428.0313056732065
 20
294.8265573338312
 30
0.0
 40
5.0
100
AcDbArc
 50
0.0
 51
180.0
  0
ARC
  5
17A
330
32B
100
AcDbEntity
  8
0
100
AcDbCircle
 10
602.0313056732065
 20
294.8265573338312
 30
0.0
 40
5.0
100
AcDbArc
 50
0.000000000000007
 51
180.0
  0
ARC
  5
17B
330
32B
100
AcDbEntity
  8
0
100
AcDbCircle
 10
428.0313056732065
 20
-14.17344266616874
 30
0.0
 40
5.0
100
AcDbArc
 50
180.0
 51
0.0
  0
ARC
  5
17C
330
32B
100
AcDbEntity
  8
0
100
AcDbCircle
 10
602.0313056732065
 20
-14.17344266616874
 30
0.0
 40
5.0
100
AcDbArc
 50
180.0
 51
0.0
  0
CIRCLE
  5
17D
330
32B
100
AcDbEntity
  8
0
100
AcDbCircle
 10
857.8011488453176
 20
140.3265573338312
 30
0.0
 40
33.79588739389692
  0
CIRCLE
  5
17E
330
32B
100
AcDbEntity
  8
0
100
AcDbCircle
 10
857.8011488453176
 20
140.3265573338312
 30
0.0
 40
43.78104166125194
  0
CIRCLE
  5
17F
330
32B
100
AcDbEntity
  8
0
100
AcDbCircle
 10
857.8011488453176
 20
140.3265573338312
 30
0.0
 40
64.53851823297373
  0
CIRCLE
  5
180
330
32B
100
AcDbEntity
  8
0
100
AcDbCircle
 10
857.8011488453176
 20
140.3265573338312
 30
0.0
 40
91.90065545381731
  0
CIRCLE
  5
181
330
32B
100
AcDbEntity
  8
0
100
AcDbCircle
 10
857.8011488453176
 20
140.3265573338312
 30
0.0
 40
149.4554987451265
  0
CIRCLE
  5
182
330
32B
100
AcDbEntity
  8
0
100
AcDbCircle
 10
857.8011488453176
 20
140.3265573338312
 30
0.0
 40
117.3757562167502
  0
CIRCLE
  5
183
330
32B
100
AcDbEntity
  8
0
100
AcDbCircle
 10
857.8011488453176
 20
140.3265573338312
 30
0.0
 40
136.2461963305613
  0
LINE
  5
184
330
32B
100
AcDbEntity
  8
0
100
AcDbLine
 10
856.2045527902991
 20
184.0784771772093
 30
0.0
 11
856.2045527902991
 21
195.2613766098056
 31
0.0
  0
LINE
  5
185
330
32B
100
AcDbEntity
  8
0
100
AcDbLine
 10
856.2045527902991
 20
195.2613766098056
 30
0.0
 11
859.3977449003359
 21
195.2613766098056
 31
0.0
  0
LINE
  5
186
330
32B
100
AcDbEntity
  8
0
100
AcDbLine
 10
859.3977449003359
 20
184.0784771772093
 30
0.0
 11
859.3977449003359
 21
195.2613766098056
 31
0.0
  0
LINE
  5
187
330
32B
100
AcDbEntity
  8
0
100
AcDbLine
 10
853.2931165797219
 20
183.8748897248267
 30
0.0
 11
851.7367577879628
 21
194.9489579488751
 31
0.0
  0
LINE
  5
188
330
32B
100
AcDbEntity
  8
0
100
AcDbLine
 10
848.574641604036
 20
194.5045515009601
 30
0.0
 11
851.7367577879628
 21
194.9489579488751
 31
0.0
  0
LINE
  5
189
330
32B
100
AcDbEntity
  8
0
100
AcDbLine
 10
850.131000395795
 20
183.4304832769117
 30
0.0
 11
848.574641604036
 21
194.5045515009601
 31
0.0
  0
LINE
  5
18A
330
32B
100
AcDbEntity
  8
0
100
AcDbLine
 10
847.2762319793469
 20
182.8236835179473
 30
0.0
 11
844.1938071493785
 21
193.5733763920325
 31
0.0
  0
LINE
  5
18B
330
32B
100
AcDbEntity
  8
0
100
AcDbLine
 10
841.1243138862278
 20
192.6932133622062
 30
0.0
 11
844.1938071493785
 21
193.5733763920325
 31
0.0
  0
LINE
  5
18C
330
32B
100
AcDbEntity
  8
0
100
AcDbLine
 10
844.206738716196
 20
181.943520488121
 30
0.0
 11
841.1243138862278
 21
192.6932133622062
 31
0.0
  0
LINE
  5
18D
330
32B
100
AcDbEntity
  8
0
100
AcDbLine
 10
841.4642029138526
 20
180.9453190896587
 30
0.0
 11
836.9157079387841
 21
191.1614060695811
 31
0.0
  0
LINE
  5
18E
330
32B
100
AcDbEntity
  8
0
100
AcDbLine
 10
833.9985817912797
 20
189.8626178300487
 30
0.0
 11
836.9157079387841
 21
191.1614060695811
 31
0.0
  0
LINE
  5
18F
330
32B
100
AcDbEntity
  8
0
100
AcDbLine
 10
838.5470767663483
 20
179.6465308501262
 30
0.0
 11
833.9985817912797
 21
189.8626178300487
 31
0.0
  0
LINE
  5
190
330
32B
100
AcDbEntity
  8
0
100
AcDbLine
 10
835.9701539179138
 20
178.2763566669496
 30
0.0
 11
830.0441200785982
 21
187.7599932402716
 31
0.0
  0
LINE
  5
191
330
32B
100
AcDbEntity
  8
0
100
AcDbLine
 10
827.33613958902
 20
186.0678592267656
 30
0.0
 11
830.0441200785982
 21
187.7599932402716
 31
0.0
  0
LINE
  5
192
330
32B
100
AcDbEntity
  8
0
100
AcDbLine
 10
833.2621734283353
 20
176.5842226534435
 30
0.0
 11
827.33613958902
 21
186.0678592267656
 31
0.0
  0
LINE
  5
193
330
32B
100
AcDbEntity
  8
0
100
AcDbLine
 10
830.9010204058479
 20
174.8687445674781
 30
0.0
 11
823.7127912102044
 21
183.435342535777
 31
0.0
  0
LINE
  5
194
330
32B
100
AcDbEntity
  8
0
100
AcDbLine
 10
821.2666641384993
 20
181.3827982120966
 30
0.0
 11
823.7127912102044
 21
183.4353425357769
 31
0.0
  0
LINE
  5
195
330
32B
100
AcDbEntity
  8
0
100
AcDbLine
 10
828.4548933341428
 20
172.8162002437977
 30
0.0
 11
821.2666641384993
 21
181.3827982120966
 31
0.0
  0
LINE
  5
197
330
32B
100
AcDbEntity
  8
0
100
AcDbLine
 10
815.9082908754367
 20
175.8986241695138
 30
0.0
 11
817.5629593590716
 21
177.7363196953318
 31
0.0
  0
LINE
  5
198
330
32B
100
AcDbEntity
  8
0
100
AcDbLine
 10
824.2188047226049
 20
168.4158038913304
 30
0.0
 11
815.9082908754367
 21
175.8986241695138
 31
0.0
  0
LINE
  5
199
330
32B
100
AcDbEntity
  8
0
100
AcDbLine
 10
822.4219686074164
 20
166.1159585412726
 30
0.0
 11
813.1509248076895
 21
172.3693565442075
 31
0.0
  0
LINE
  5
19A
330
32B
100
AcDbEntity
  8
0
100
AcDbLine
 10
811.3653144403381
 20
169.7220803086007
 30
0.0
 11
813.1509248076895
 21
172.3693565442075
 31
0.0
  0
LINE
  5
19B
330
32B
100
AcDbEntity
  8
0
100
AcDbLine
 10
820.636358240065
 20
163.4686823056658
 30
0.0
 11
811.3653144403381
 21
169.7220803086007
 31
0.0
  0
LINE
  5
19C
330
32B
100
AcDbEntity
  8
0
100
AcDbLine
 10
819.1770854195283
 20
160.941147638392
 30
0.0
 11
809.1259619891484
 21
165.8434080870862
 31
0.0
  0
LINE
  5
19D
330
32B
100
AcDbEntity
  8
0
100
AcDbLine
 10
807.7261587019538
 20
162.9733860298956
 30
0.0
 11
809.1259619891484
 21
165.8434080870862
 31
0.0
  0
LINE
  5
19E
330
32B
100
AcDbEntity
  8
0
100
AcDbLine
 10
817.7772821323337
 20
158.0711255812015
 30
0.0
 11
807.7261587019538
 21
162.9733860298956
 31
0.0
  0
LINE
  5
19F
330
32B
100
AcDbEntity
  8
0
100
AcDbLine
 10
816.6839756920023
 20
155.3650971839819
 30
0.0
 11
806.0484063155581
 21
158.8208031550401
 31
0.0
  0
LINE
  5
1A0
330
32B
100
AcDbEntity
  8
0
100
AcDbLine
 10
805.0616556872528
 20
155.7838969910072
 30
0.0
 11
806.0484063155581
 21
158.82080315504
 31
0.0
  0
LINE
  5
1A1
330
32B
100
AcDbEntity
  8
0
100
AcDbLine
 10
815.697225063697
 20
152.3281910199491
 30
0.0
 11
805.0616556872528
 21
155.7838969910072
 31
0.0
  0
LINE
  5
1A2
330
32B
100
AcDbEntity
  8
0
100
AcDbLine
 10
814.9911649698144
 20
149.4963386574743
 30
0.0
 11
803.9781589074376
 21
151.4382287649772
 31
0.0
  0
LINE
  5
1A3
330
32B
100
AcDbEntity
  8
0
100
AcDbLine
 10
803.4236669165894
 20
148.2935484181556
 30
0.0
 11
803.9781589074378
 21
151.4382287649772
 31
0.0
  0
LINE
  5
1A4
330
32B
100
AcDbEntity
  8
0
100
AcDbLine
 10
814.436672978966
 20
146.3516583106527
 30
0.0
 11
803.4236669165894
 21
148.2935484181556
 31
0.0
  0
LINE
  5
1A5
330
32B
100
AcDbEntity
  8
0
100
AcDbLine
 10
814.131601888128
 20
143.4491007679735
 30
0.0
 11
802.9555147757143
 21
143.8393783298457
 31
0.0
  0
LINE
  5
1A6
330
32B
100
AcDbEntity
  8
0
100
AcDbLine
 10
802.8440739781995
 20
140.6481314261652
 30
0.0
 11
802.9555147757143
 21
143.8393783298457
 31
0.0
  0
LINE
  5
1A7
330
32B
100
AcDbEntity
  8
0
100
AcDbLine
 10
814.0201610906133
 20
140.2578538642929
 30
0.0
 11
802.8440739781995
 21
140.6481314261652
 31
0.0
  0
LINE
  5
1A8
330
32B
100
AcDbEntity
  8
0
100
AcDbLine
 10
814.1220168645899
 20
137.3410861223677
 30
0.0
 11
803.0003785251714
 21
136.1721548298018
 31
0.0
  0
LINE
  5
1A9
330
32B
100
AcDbEntity
  8
0
100
AcDbLine
 10
803.3341579893521
 20
132.9964553602529
 30
0.0
 11
803.0003785251716
 21
136.1721548298018
 31
0.0
  0
LINE
  5
1AA
330
32B
100
AcDbEntity
  8
0
100
AcDbLine
 10
814.4557963287706
 20
134.1653866528189
 30
0.0
 11
803.3341579893521
 21
132.9964553602529
 31
0.0
  0
LINE
  5
1AB
330
32B
100
AcDbEntity
  8
0
100
AcDbLine
 10
814.9625964607807
 20
131.29118027797
 30
0.0
 11
804.1118769339583
 21
128.5857920489358
 31
0.0
  0
LINE
  5
1AC
330
32B
100
AcDbEntity
  8
0
100
AcDbLine
 10
804.8843800222323
 20
125.4874513913889
 30
0.0
 11
804.1118769339583
 21
128.5857920489358
 31
0.0
  0
LINE
  5
1AD
330
32B
100
AcDbEntity
  8
0
100
AcDbLine
 10
815.7350995490549
 20
128.1928396204231
 30
0.0
 11
804.8843800222323
 21
125.4874513913889
 31
0.0
  0
LINE
  5
1AE
330
32B
100
AcDbEntity
  8
0
100
AcDbLine
 10
816.6369797510054
 20
125.4171377703753
 30
0.0
 11
806.268375949858
 21
121.2279499094176
 31
0.0
  0
LINE
  5
1AF
330
32B
100
AcDbEntity
  8
0
100
AcDbLine
 10
807.4645667683213
 20
118.2672737404616
 30
0.0
 11
806.268375949858
 21
121.2279499094178
 31
0.0
  0
LINE
  5
1B0
330
32B
100
AcDbEntity
  8
0
100
AcDbLine
 10
817.8331705694689
 20
122.4564616014192
 30
0.0
 11
807.4645667683213
 21
118.2672737404616
 31
0.0
  0
LINE
  5
1B1
330
32B
100
AcDbEntity
  8
0
100
AcDbLine
 10
819.1125767691024
 20
119.8332901553701
 30
0.0
 11
809.4279017725074
 21
114.241840439072
 31
0.0
  0
LINE
  5
1B2
330
32B
100
AcDbEntity
  8
0
100
AcDbLine
 10
811.0244978275257
 20
111.4764549526161
 30
0.0
 11
809.4279017725074
 21
114.241840439072
 31
0.0
  0
LINE
  5
1B3
330
32B
100
AcDbEntity
  8
0
100
AcDbLine
 10
820.7091728241207
 20
117.0679046689142
 30
0.0
 11
811.0244978275257
 21
111.4764549526161
 31
0.0
  0
LINE
  5
1B4
330
32B
100
AcDbEntity
  8
0
100
AcDbLine
 10
822.3412028350647
 20
114.6483206752477
 30
0.0
 11
813.5289578256761
 21
107.7634403121569
 31
0.0
  0
LINE
  5
1B5
330
32B
100
AcDbEntity
  8
0
100
AcDbLine
 10
815.4948831911397
 20
105.2471705911159
 30
0.0
 11
813.5289578256761
 21
107.763440312157
 31
0.0
  0
LINE
  5
1B6
330
32B
100
AcDbEntity
  8
0
100
AcDbLine
 10
824.3071282005282
 20
112.1320509542067
 30
0.0
 11
815.4948831911397
 21
105.2471705911159
 31
0.0
  0
LINE
  5
1B7
330
32B
100
AcDbEntity
  8
0
100
AcDbLine
 10
819.779496392117
 20
103.2523739302749
 30
0.0
 11
818.4917217181711
 21
101.9188442180722
 31
0.0
  0
LINE
  5
1B8
330
32B
100
AcDbEntity
  8
0
100
AcDbLine
 10
820.788711893048
 20
99.70066659035162
 30
0.0
 11
820.3893472140986
 21
100.0863285778673
 31
0.0
  0
LINE
  5
1B9
330
32B
100
AcDbEntity
  8
0
100
AcDbLine
 10
828.5570065899022
 20
107.7449712354026
 30
0.0
 11
820.788711893048
 21
99.70066659035162
 31
0.0
  0
LINE
  5
1BA
330
32B
100
AcDbEntity
  8
0
100
AcDbLine
 10
830.7927422602356
 20
105.868966259016
 30
0.0
 11
824.2195988958856
 21
96.82181057165963
 31
0.0
  0
LINE
  5
1BB
330
32B
100
AcDbEntity
  8
0
100
AcDbLine
 10
826.8029455792095
 20
94.94489934164334
 30
0.0
 11
824.2195988958856
 21
96.82181057165963
 31
0.0
  0
LINE
  5
1BC
330
32B
100
AcDbEntity
  8
0
100
AcDbLine
 10
833.3760889435594
 20
103.9920550289997
 30
0.0
 11
826.8029455792095
 21
94.94489934164334
 31
0.0
  0
LINE
  5
1BD
330
32B
100
AcDbEntity
  8
0
100
AcDbLine
 10
835.8511560180174
 20
102.4454614702511
 30
0.0
 11
830.6011027449189
 21
92.57154733505672
 31
0.0
  0
LINE
  5
1BE
330
32B
100
AcDbEntity
  8
0
100
AcDbLine
 10
833.4205240320121
 20
91.07243444488218
 30
0.0
 11
830.6011027449189
 21
92.57154733505675
 31
0.0
  0
LINE
  5
1BF
330
32B
100
AcDbEntity
  8
0
100
AcDbLine
 10
838.6705773051104
 20
100.9463485800765
 30
0.0
 11
833.4205240320121
 21
91.07243444488218
 31
0.0
  0
LINE
  5
1C0
330
32B
100
AcDbEntity
  8
0
100
AcDbLine
 10
841.3368014184356
 20
99.75926912336291
 30
0.0
 11
837.5120245517026
 21
89.25078104756119
 31
0.0
  0
LINE
  5
1C1
330
32B
100
AcDbEntity
  8
0
100
AcDbLine
 10
840.5126436142559
 20
88.15864502442003
 30
0.0
 11
837.5120245517026
 21
89.25078104756122
 31
0.0
  0
LINE
  5
1C2
330
32B
100
AcDbEntity
  8
0
100
AcDbLine
 10
844.337420480989
 20
98.66713310022175
 30
0.0
 11
840.5126436142559
 21
88.15864502442003
 31
0.0
  0
LINE
  5
1C3
330
32B
100
AcDbEntity
  8
0
100
AcDbLine
 10
847.1429066136003
 20
97.86267289688509
 30
0.0
 11
844.8178510843243
 21
86.92414664764351
 31
0.0
  0
LINE
  5
1C4
330
32B
100
AcDbEntity
  8
0
100
AcDbLine
 10
847.9412642854391
 20
86.26024467693983
 30
0.0
 11
844.8178510843243
 21
86.92414664764354
 31
0.0
  0
LINE
  5
1C5
330
32B
100
AcDbEntity
  8
0
100
AcDbLine
 10
850.266319814715
 20
97.19877092618141
 30
0.0
 11
847.9412642854391
 21
86.26024467693983
 31
0.0
  0
LINE
  5
1C6
330
32B
100
AcDbEntity
  8
0
100
AcDbLine
 10
853.1564623702351
 20
96.79258787901972
 30
0.0
 11
852.376382739582
 21
85.63692942739061
 31
0.0
  0
LINE
  5
1C7
330
32B
100
AcDbEntity
  8
0
100
AcDbLine
 10
855.561796394128
 20
85.4141836058069
 30
0.0
 11
852.376382739582
 21
85.63692942739066
 31
0.0
  0
LINE
  5
1C8
330
32B
100
AcDbEntity
  8
0
100
AcDbLine
 10
856.3418760247811
 20
96.56984205743599
 30
0.0
 11
855.561796394128
 21
85.4141836058069
 31
0.0
  0
LINE
  5
1C9
330
32B
100
AcDbEntity
  8
0
100
AcDbLine
 10
859.2604216658541
 20
96.56984205743603
 30
0.0
 11
860.0405012965072
 21
85.41418360580693
 31
0.0
  0
LINE
  5
1CA
330
32B
100
AcDbEntity
  8
0
100
AcDbLine
 10
863.2259149510533
 20
85.63692942739066
 30
0.0
 11
860.0405012965072
 21
85.41418360580695
 31
0.0
  0
LINE
  5
1CB
330
32B
100
AcDbEntity
  8
0
100
AcDbLine
 10
862.4458353204001
 20
96.79258787901979
 30
0.0
 11
863.2259149510533
 21
85.63692942739066
 31
0.0
  0
LINE
  5
1CC
330
32B
100
AcDbEntity
  8
0
100
AcDbLine
 10
865.3359778759201
 20
97.19877092618141
 30
0.0
 11
867.6610334051961
 21
86.26024467693985
 31
0.0
  0
LINE
  5
1CD
330
32B
100
AcDbEntity
  8
0
100
AcDbLine
 10
870.7844466063106
 20
86.92414664764351
 30
0.0
 11
867.6610334051961
 21
86.26024467693993
 31
0.0
  0
LINE
  5
1CE
330
32B
100
AcDbEntity
  8
0
100
AcDbLine
 10
868.4593910770345
 20
97.8626728968851
 30
0.0
 11
870.7844466063106
 21
86.92414664764351
 31
0.0
  0
LINE
  5
1CF
330
32B
100
AcDbEntity
  8
0
100
AcDbLine
 10
871.2648772096462
 20
98.6671331002218
 30
0.0
 11
875.0896540763795
 21
88.15864502442003
 31
0.0
  0
LINE
  5
1D0
330
32B
100
AcDbEntity
  8
0
100
AcDbLine
 10
878.0902731389328
 20
89.25078104756119
 30
0.0
 11
875.0896540763795
 21
88.1586450244201
 31
0.0
  0
LINE
  5
1D1
330
32B
100
AcDbEntity
  8
0
100
AcDbLine
 10
874.2654962721996
 20
99.75926912336298
 30
0.0
 11
878.0902731389328
 21
89.25078104756119
 31
0.0
  0
LINE
  5
1D2
330
32B
100
AcDbEntity
  8
0
100
AcDbLine
 10
876.9317203855248
 20
100.9463485800766
 30
0.0
 11
882.1817736586233
 21
91.07243444488233
 31
0.0
  0
LINE
  5
1D3
330
32B
100
AcDbEntity
  8
0
100
AcDbLine
 10
885.0011949457163
 20
92.57154733505684
 30
0.0
 11
882.1817736586233
 21
91.07243444488233
 31
0.0
  0
LINE
  5
1D4
330
32B
100
AcDbEntity
  8
0
100
AcDbLine
 10
879.7511416726178
 20
102.4454614702511
 30
0.0
 11
885.0011949457163
 21
92.57154733505684
 31
0.0
  0
LINE
  5
1D5
330
32B
100
AcDbEntity
  8
0
100
AcDbLine
 10
882.2262087470759
 20
103.9920550289998
 30
0.0
 11
888.799352111426
 21
94.94489934164346
 31
0.0
  0
LINE
  5
1D6
330
32B
100
AcDbEntity
  8
0
100
AcDbLine
 10
891.3826987947496
 20
96.82181057165985
 30
0.0
 11
888.799352111426
 21
94.94489934164346
 31
0.0
  0
LINE
  5
1D7
330
32B
100
AcDbEntity
  8
0
100
AcDbLine
 10
884.8095554303997
 20
105.8689662590161
 30
0.0
 11
891.3826987947496
 21
96.82181057165985
 31
0.0
  0
LINE
  5
1D8
330
32B
100
AcDbEntity
  8
0
100
AcDbLine
 10
887.045291100733
 20
107.7449712354027
 30
0.0
 11
894.8135857975872
 21
99.70066659035172
 31
0.0
  0
LINE
  5
1D9
330
32B
100
AcDbEntity
  8
0
100
AcDbLine
 10
897.110575972464
 20
101.9188442180724
 30
0.0
 11
895.9323998524993
 21
100.7810927642769
 31
0.0
  0
LINE
  5
1DA
330
32B
100
AcDbEntity
  8
0
100
AcDbLine
 10
895.8074012045463
 20
103.2683211944183
 30
0.0
 11
897.110575972464
 21
101.9188442180724
 31
0.0
  0
LINE
  5
1DB
330
32B
100
AcDbEntity
  8
0
100
AcDbLine
 10
891.2951694901074
 20
112.1320509542067
 30
0.0
 11
900.1074144994957
 21
105.2471705911159
 31
0.0
  0
LINE
  5
1DC
330
32B
100
AcDbEntity
  8
0
100
AcDbLine
 10
902.0733398649591
 20
107.763440312157
 30
0.0
 11
900.1074144994957
 21
105.2471705911159
 31
0.0
  0
LINE
  5
1DD
330
32B
100
AcDbEntity
  8
0
100
AcDbLine
 10
893.2610948555707
 20
114.6483206752477
 30
0.0
 11
902.0733398649591
 21
107.763440312157
 31
0.0
  0
LINE
  5
1DE
330
32B
100
AcDbEntity
  8
0
100
AcDbLine
 10
894.8931248665143
 20
117.0679046689143
 30
0.0
 11
904.5777998631093
 21
111.4764549526162
 31
0.0
  0
LINE
  5
1DF
330
32B
100
AcDbEntity
  8
0
100
AcDbLine
 10
906.1743959181276
 20
114.2418404390721
 30
0.0
 11
904.5777998631093
 21
111.4764549526162
 31
0.0
  0
LINE
  5
1E0
330
32B
100
AcDbEntity
  8
0
100
AcDbLine
 10
896.4897209215326
 20
119.8332901553702
 30
0.0
 11
906.1743959181276
 21
114.2418404390721
 31
0.0
  0
LINE
  5
1E1
330
32B
100
AcDbEntity
  8
0
100
AcDbLine
 10
897.7691271211662
 20
122.4564616014193
 30
0.0
 11
908.1377309223137
 21
118.2672737404617
 31
0.0
  0
LINE
  5
1E2
330
32B
100
AcDbEntity
  8
0
100
AcDbLine
 10
909.3339217407772
 20
121.2279499094178
 30
0.0
 11
908.1377309223135
 21
118.2672737404618
 31
0.0
  0
LINE
  5
1E3
330
32B
100
AcDbEntity
  8
0
100
AcDbLine
 10
898.9653179396297
 20
125.4171377703754
 30
0.0
 11
909.3339217407772
 21
121.2279499094178
 31
0.0
  0
LINE
  5
1E4
330
32B
100
AcDbEntity
  8
0
100
AcDbLine
 10
899.8671981415803
 20
128.1928396204232
 30
0.0
 11
910.7179176684027
 21
125.487451391389
 31
0.0
  0
LINE
  5
1E5
330
32B
100
AcDbEntity
  8
0
100
AcDbLine
 10
911.4904207566766
 20
128.585792048936
 30
0.0
 11
910.7179176684027
 21
125.487451391389
 31
0.0
  0
LINE
  5
1E6
330
32B
100
AcDbEntity
  8
0
100
AcDbLine
 10
900.6397012298542
 20
131.2911802779701
 30
0.0
 11
911.4904207566766
 21
128.585792048936
 31
0.0
  0
LINE
  5
1E7
330
32B
100
AcDbEntity
  8
0
100
AcDbLine
 10
901.1465013618644
 20
134.1653866528191
 30
0.0
 11
912.2681397012829
 21
132.9964553602532
 31
0.0
  0
LINE
  5
1E8
330
32B
100
AcDbEntity
  8
0
100
AcDbLine
 10
912.6019191654634
 20
136.172154829802
 30
0.0
 11
912.2681397012827
 21
132.9964553602532
 31
0.0
  0
LINE
  5
1E9
330
32B
100
AcDbEntity
  8
0
100
AcDbLine
 10
901.480280826045
 20
137.3410861223679
 30
0.0
 11
912.6019191654634
 21
136.172154829802
 31
0.0
  0
LINE
  5
1EA
330
32B
100
AcDbEntity
  8
0
100
AcDbLine
 10
901.5821366000217
 20
140.2578538642932
 30
0.0
 11
912.7582237124356
 21
140.6481314261656
 31
0.0
  0
LINE
  5
1EB
330
32B
100
AcDbEntity
  8
0
100
AcDbLine
 10
912.6467829149209
 20
143.839378329846
 30
0.0
 11
912.7582237124356
 21
140.6481314261656
 31
0.0
  0
LINE
  5
1EC
330
32B
100
AcDbEntity
  8
0
100
AcDbLine
 10
901.4706958025071
 20
143.4491007679736
 30
0.0
 11
912.6467829149209
 21
143.839378329846
 31
0.0
  0
LINE
  5
1ED
330
32B
100
AcDbEntity
  8
0
100
AcDbLine
 10
901.1656247116691
 20
146.3516583106527
 30
0.0
 11
912.1786307740459
 21
148.2935484181557
 31
0.0
  0
LINE
  5
1EE
330
32B
100
AcDbEntity
  8
0
100
AcDbLine
 10
911.6241387831975
 20
151.4382287649773
 30
0.0
 11
912.1786307740459
 21
148.2935484181557
 31
0.0
  0
LINE
  5
1EF
330
32B
100
AcDbEntity
  8
0
100
AcDbLine
 10
900.6111327208207
 20
149.4963386574743
 30
0.0
 11
911.6241387831975
 21
151.4382287649773
 31
0.0
  0
LINE
  5
1F0
330
32B
100
AcDbEntity
  8
0
100
AcDbLine
 10
899.9050726269381
 20
152.3281910199493
 30
0.0
 11
910.5406420033824
 21
155.7838969910077
 31
0.0
  0
LINE
  5
1F1
330
32B
100
AcDbEntity
  8
0
100
AcDbLine
 10
909.5538913750768
 20
158.8208031550403
 30
0.0
 11
910.5406420033824
 21
155.7838969910076
 31
0.0
  0
LINE
  5
1F2
330
32B
100
AcDbEntity
  8
0
100
AcDbLine
 10
898.9183219986328
 20
155.365097183982
 30
0.0
 11
909.5538913750768
 21
158.8208031550403
 31
0.0
  0
LINE
  5
1F3
330
32B
100
AcDbEntity
  8
0
100
AcDbLine
 10
897.8250155583014
 20
158.0711255812016
 30
0.0
 11
907.8761389886812
 21
162.9733860298957
 31
0.0
  0
LINE
  5
1F4
330
32B
100
AcDbEntity
  8
0
100
AcDbLine
 10
906.4763357014866
 20
165.8434080870863
 30
0.0
 11
907.8761389886812
 21
162.9733860298957
 31
0.0
  0
LINE
  5
1F5
330
32B
100
AcDbEntity
  8
0
100
AcDbLine
 10
896.4252122711068
 20
160.9411476383921
 30
0.0
 11
906.4763357014866
 21
165.8434080870863
 31
0.0
  0
LINE
  5
1F6
330
32B
100
AcDbEntity
  8
0
100
AcDbLine
 10
894.9659394505701
 20
163.4686823056658
 30
0.0
 11
904.2369832502968
 21
169.7220803086008
 31
0.0
  0
LINE
  5
1F7
330
32B
100
AcDbEntity
  8
0
100
AcDbLine
 10
902.4513728829456
 20
172.3693565442076
 30
0.0
 11
904.2369832502968
 21
169.7220803086008
 31
0.0
  0
LINE
  5
1F8
330
32B
100
AcDbEntity
  8
0
100
AcDbLine
 10
893.1803290832188
 20
166.1159585412726
 30
0.0
 11
902.4513728829456
 21
172.3693565442076
 31
0.0
  0
LINE
  5
1F9
330
32B
100
AcDbEntity
  8
0
100
AcDbLine
 10
891.3834929680302
 20
168.4158038913305
 30
0.0
 11
899.6940068151982
 21
175.8986241695139
 31
0.0
  0
LINE
  5
1FA
330
32B
100
AcDbEntity
  8
0
100
AcDbLine
 10
898.0393383315645
 20
177.736319695331
 30
0.0
 11
899.6940068151982
 21
175.8986241695139
 31
0.0
  0
LINE
  5
1FC
330
32B
100
AcDbEntity
  8
0
100
AcDbLine
 10
887.1474043564919
 20
172.8162002437977
 30
0.0
 11
894.3356335521354
 21
181.3827982120966
 31
0.0
  0
LINE
  5
1FD
330
32B
100
AcDbEntity
  8
0
100
AcDbLine
 10
891.8895064804303
 20
183.4353425357771
 30
0.0
 11
894.3356335521354
 21
181.3827982120966
 31
0.0
  0
LINE
  5
1FE
330
32B
100
AcDbEntity
  8
0
100
AcDbLine
 10
884.7012772847868
 20
174.8687445674782
 30
0.0
 11
891.8895064804303
 21
183.4353425357771
 31
0.0
  0
LINE
  5
1FF
330
32B
100
AcDbEntity
  8
0
100
AcDbLine
 10
882.3401242622997
 20
176.5842226534437
 30
0.0
 11
888.2661581016149
 21
186.0678592267658
 31
0.0
  0
LINE
  5
200
330
32B
100
AcDbEntity
  8
0
100
AcDbLine
 10
885.5581776120367
 20
187.7599932402717
 30
0.0
 11
888.2661581016149
 21
186.0678592267658
 31
0.0
  0
LINE
  5
201
330
32B
100
AcDbEntity
  8
0
100
AcDbLine
 10
879.6321437727213
 20
178.2763566669497
 30
0.0
 11
885.5581776120367
 21
187.7599932402717
 31
0.0
  0
LINE
  5
202
330
32B
100
AcDbEntity
  8
0
100
AcDbLine
 10
877.0552209242866
 20
179.6465308501263
 30
0.0
 11
881.6037158993552
 21
189.8626178300487
 31
0.0
  0
LINE
  5
203
330
32B
100
AcDbEntity
  8
0
100
AcDbLine
 10
878.6865897518508
 20
191.1614060695812
 30
0.0
 11
881.6037158993552
 21
189.8626178300487
 31
0.0
  0
LINE
  5
204
330
32B
100
AcDbEntity
  8
0
100
AcDbLine
 10
874.1380947767824
 20
180.9453190896587
 30
0.0
 11
878.6865897518508
 21
191.1614060695812
 31
0.0
  0
LINE
  5
205
330
32B
100
AcDbEntity
  8
0
100
AcDbLine
 10
871.3955589744388
 20
181.9435204881211
 30
0.0
 11
874.477983804407
 21
192.6932133622064
 31
0.0
  0
LINE
  5
206
330
32B
100
AcDbEntity
  8
0
100
AcDbLine
 10
871.4084905412562
 20
193.5733763920326
 30
0.0
 11
874.477983804407
 21
192.6932133622063
 31
0.0
  0
LINE
  5
207
330
32B
100
AcDbEntity
  8
0
100
AcDbLine
 10
868.326065711288
 20
182.8236835179474
 30
0.0
 11
871.4084905412562
 21
193.5733763920326
 31
0.0
  0
LINE
  5
208
330
32B
100
AcDbEntity
  8
0
100
AcDbLine
 10
865.4712972948399
 20
183.4304832769117
 30
0.0
 11
867.0276560865989
 21
194.5045515009601
 31
0.0
  0
LINE
  5
209
330
32B
100
AcDbEntity
  8
0
100
AcDbLine
 10
863.865539902672
 20
194.9489579488751
 30
0.0
 11
867.0276560865989
 21
194.5045515009601
 31
0.0
  0
LINE
  5
20A
330
32B
100
AcDbEntity
  8
0
100
AcDbLine
 10
862.309181110913
 20
183.8748897248267
 30
0.0
 11
863.865539902672
 21
194.9489579488751
 31
0.0
  0
LINE
  5
214
330
32B
100
AcDbEntity
  8
0
100
AcDbLine
 10
753.5438286222042
 20
247.4123046816913
 30
0.0
 11
828.2898097938389
 21
172.6663235100569
 31
0.0
  0
LINE
  5
215
330
32B
100
AcDbEntity
  8
0
100
AcDbLine
 10
750.715401497458
 20
244.5838775569451
 30
0.0
 11
825.4613826690926
 21
169.8378963853107
 31
0.0
  0
LINE
  5
216
330
32B
100
AcDbEntity
  8
0
100
AcDbLine
 10
751.4154110520991
 20
245.2980815646772
 30
0.0
 11
819.5656527788358
 21
177.1478398379406
 31
0.0
  0
LINE
  5
217
330
32B
100
AcDbEntity
  8
0
100
AcDbLine
 10
752.8296246144722
 20
246.7122951270503
 30
0.0
 11
820.956478209576
 21
178.5854415319465
 31
0.0
  0
LINE
  5
218
330
32B
100
AcDbEntity
  8
0
100
AcDbLine
 10
890.1409150215432
 20
110.8152182823526
 30
0.0
 11
964.8868961931777
 21
36.06923711071795
 31
0.0
  0
LINE
  5
219
330
32B
100
AcDbEntity
  8
0
100
AcDbLine
 10
896.0366449117996
 20
103.5052748297229
 30
0.0
 11
964.1868866385365
 21
35.35503310298583
 31
0.0
  0
LINE
  5
21A
330
32B
100
AcDbEntity
  8
0
100
AcDbLine
 10
894.6458194810595
 20
102.067673135717
 30
0.0
 11
962.7726730761636
 21
33.94081954061284
 31
0.0
  0
LINE
  5
21B
330
32B
100
AcDbEntity
  8
0
100
AcDbLine
 10
887.3124878967971
 20
107.9867911576063
 30
0.0
 11
962.0584690684315
 21
33.24080998597184
 31
0.0
  0
LINE
  5
21D
330
32B
100
AcDbEntity
  8
0
100
AcDbLine
 10
818.8702400634656
 20
176.4290389909376
 30
0.0
 11
821.6518909249463
 21
179.3042423789494
 31
0.0
  0
CIRCLE
  5
220
330
32B
100
AcDbEntity
  8
0
100
AcDbCircle
 10
823.5633717339263
 20
174.5543334899726
 30
0.0
 40
0.72800523737235
  0
CIRCLE
  5
221
330
32B
100
AcDbEntity
  8
0
100
AcDbCircle
 10
823.573372689176
 20
106.0887802224401
 30
0.0
 40
0.72800523737235
  0
LINE
  5
222
330
32B
100
AcDbEntity
  8
0
100
AcDbLine
 10
750.7154014974574
 20
36.06923711071829
 30
0.0
 11
825.4613826690917
 21
110.8152182823528
 31
0.0
  0
LINE
  5
223
330
32B
100
AcDbEntity
  8
0
100
AcDbLine
 10
821.698667188211
 20
101.3956485519795
 30
0.0
 11
818.823463800199
 21
104.1772994134602
 31
0.0
  0
LINE
  5
224
330
32B
100
AcDbEntity
  8
0
100
AcDbLine
 10
751.4154110520983
 20
35.35503310298622
 30
0.0
 11
819.5422646472021
 21
103.4818866980898
 31
0.0
  0
LINE
  5
225
330
32B
100
AcDbEntity
  8
0
100
AcDbLine
 10
752.8296246144712
 20
33.94081954061312
 30
0.0
 11
820.979866341208
 21
102.0910612673497
 31
0.0
  0
LINE
  5
226
330
32B
100
AcDbEntity
  8
0
100
AcDbLine
 10
753.5438286222034
 20
33.24080998597207
 30
0.0
 11
828.2898097938378
 21
107.9867911576064
 31
0.0
  0
CIRCLE
  5
227
330
32B
100
AcDbEntity
  8
0
100
AcDbCircle
 10
892.0389259567085
 20
106.0987811776899
 30
0.0
 40
0.72800523737235
  0
LINE
  5
228
330
32B
100
AcDbEntity
  8
0
100
AcDbLine
 10
962.0584690684303
 20
33.2408099859712
 30
0.0
 11
887.3124878967956
 21
107.9867911576056
 31
0.0
  0
LINE
  5
229
330
32B
100
AcDbEntity
  8
0
100
AcDbLine
 10
896.7320576271688
 20
104.2240756767249
 30
0.0
 11
893.9504067656882
 21
101.348872288713
 31
0.0
  0
LINE
  5
22A
330
32B
100
AcDbEntity
  8
0
100
AcDbLine
 10
962.7726730761624
 20
33.94081954061212
 30
0.0
 11
894.6458194810587
 21
102.0676731357159
 31
0.0
  0
LINE
  5
22B
330
32B
100
AcDbEntity
  8
0
100
AcDbLine
 10
964.1868866385355
 20
35.3550331029852
 30
0.0
 11
896.0366449117987
 21
103.5052748297218
 31
0.0
  0
LINE
  5
22C
330
32B
100
AcDbEntity
  8
0
100
AcDbLine
 10
964.8868961931767
 20
36.06923711071735
 30
0.0
 11
890.1409150215419
 21
110.8152182823518
 31
0.0
  0
CIRCLE
  5
22D
330
32B
100
AcDbEntity
  8
0
100
AcDbCircle
 10
892.0289250014588
 20
174.5643344452223
 30
0.0
 40
0.72800523737235
  0
LINE
  5
22E
330
32B
100
AcDbEntity
  8
0
100
AcDbLine
 10
964.8868961931775
 20
244.5838775569442
 30
0.0
 11
890.140915021543
 21
169.8378963853095
 31
0.0
  0
LINE
  5
22F
330
32B
100
AcDbEntity
  8
0
100
AcDbLine
 10
893.9036305024238
 20
179.2574661156828
 30
0.0
 11
896.7788338904355
 21
176.4758152542021
 31
0.0
  0
LINE
  5
230
330
32B
100
AcDbEntity
  8
0
100
AcDbLine
 10
964.1868866385365
 20
245.2980815646763
 30
0.0
 11
896.0600330434326
 21
177.1712279695725
 31
0.0
  0
LINE
  5
231
330
32B
100
AcDbEntity
  8
0
100
AcDbLine
 10
962.7726730761635
 20
246.7122951270494
 30
0.0
 11
894.6224313494267
 21
178.5620534003126
 31
0.0
  0
LINE
  5
232
330
32B
100
AcDbEntity
  8
0
100
AcDbLine
 10
962.0584690684314
 20
247.4123046816904
 30
0.0
 11
887.3124878967969
 21
172.6663235100559
 31
0.0
  0
LINE
  5
233
330
32B
100
AcDbEntity
  8
0
100
AcDbLine
 10
895.2129504765364
 20
100.0863285778673
 30
0.0
 11
894.8135857975872
 21
99.70066659035172
 31
0.0
  0
LINE
  5
234
330
32B
100
AcDbEntity
  8
0
100
AcDbLine
 10
819.6698978381352
 20
100.781092764277
 30
0.0
 11
818.4917217181711
 21
101.9188442180722
 31
0.0
  0
LINE
  5
235
330
32B
100
AcDbEntity
  8
0
100
AcDbLine
 10
844.1220320416652
 20
203.3987548473151
 30
0.0
 11
832.6825534570334
 21
252.2682372038092
 31
0.0
  0
LINE
  5
236
330
32B
100
AcDbEntity
  8
0
100
AcDbLine
 10
832.6825534570334
 20
252.2682372038092
 30
0.0
 11
832.8874919863915
 21
286.2639627288455
 31
0.0
  0
LINE
  5
237
330
32B
100
AcDbEntity
  8
0
100
AcDbLine
 10
879.2501962822672
 20
286.8132630636022
 30
0.0
 11
871.9471098615787
 21
269.4806041249169
 31
0.0
  0
LINE
  5
238
330
32B
100
AcDbEntity
  8
0
100
AcDbLine
 10
868.5923616811626
 20
203.9565035953155
 30
0.0
 11
871.9471098615787
 21
269.4806041249169
 31
0.0
  0
ARC
  5
239
330
32B
100
AcDbEntity
  8
0
100
AcDbCircle
 10
857.8011488453176
 20
140.3265573338312
 30
0.0
 40
148.0486966896806
100
AcDbArc
 50
81.66976658069112
 51
99.68783836661838
  0
LINE
  5
23A
330
32B
100
AcDbEntity
  8
0
100
AcDbLine
 10
799.9605293353225
 20
168.9566650948552
 30
0.0
 11
754.620431261
 21
190.4825444657608
 31
0.0
  0
LINE
  5
23B
330
32B
100
AcDbEntity
  8
0
100
AcDbLine
 10
754.620431261
 20
190.4825444657608
 30
0.0
 11
728.1692798592474
 21
211.8387600316323
 31
0.0
  0
ARC
  5
23C
330
32B
100
AcDbEntity
  8
0
100
AcDbCircle
 10
857.8011488453174
 20
140.3265573338313
 30
0.0
 40
148.0486966896806
100
AcDbArc
 50
133.0983380092625
 51
151.1164097951898
  0
LINE
  5
23D
330
32B
100
AcDbEntity
  8
0
100
AcDbLine
 10
756.646492879275
 20
248.4290650193822
 30
0.0
 11
765.6443114070277
 21
231.9125460491373
 31
0.0
  0
LINE
  5
23E
330
32B
100
AcDbEntity
  8
0
100
AcDbLine
 10
814.7814647831765
 20
188.4360898497626
 30
0.0
 11
765.6443114070277
 21
231.9125460491373
 31
0.0
  0
LINE
  5
23F
330
32B
100
AcDbEntity
  8
0
100
AcDbLine
 10
799.3541928536234
 20
112.9555202505776
 30
0.0
 11
754.2554939090255
 21
90.92837042168502
 31
0.0
  0
LINE
  5
240
330
32B
100
AcDbEntity
  8
0
100
AcDbLine
 10
754.2554939090255
 20
90.92837042168502
 30
0.0
 11
721.0665090868392
 21
83.56341011988423
 31
0.0
  0
ARC
  5
241
330
32B
100
AcDbEntity
  8
0
100
AcDbCircle
 10
857.8011488453176
 20
140.3265573338313
 30
0.0
 40
148.0486966896806
100
AcDbArc
 50
184.5269094378339
 51
202.5449812237611
  0
LINE
  5
242
330
32B
100
AcDbEntity
  8
0
100
AcDbLine
 10
710.2143085976554
 20
128.6414737986531
 30
0.0
 11
728.7374912004026
 21
125.3783704570301
 31
0.0
  0
LINE
  5
243
330
32B
100
AcDbEntity
  8
0
100
AcDbLine
 10
793.3652674256133
 20
136.6882168640956
 30
0.0
 11
728.7374912004026
 21
125.3783704570301
 31
0.0
  0
LINE
  5
244
330
32B
100
AcDbEntity
  8
0
100
AcDbLine
 10
842.7596063342974
 20
77.5653245973954
 30
0.0
 11
831.8625466705119
 21
28.5720386618323
 31
0.0
  0
LINE
  5
245
330
32B
100
AcDbEntity
  8
0
100
AcDbLine
 10
831.8625466705119
 20
28.57203866183229
 30
0.0
 11
816.9277109309096
 21
-1.968132182573754
 31
0.0
  0
ARC
  5
246
330
32B
100
AcDbEntity
  8
0
100
AcDbCircle
 10
857.8011488453176
 20
140.3265573338311
 30
0.0
 40
148.0486966896806
100
AcDbArc
 50
235.9554808664054
 51
253.9735526523326
  0
LINE
  5
247
330
32B
100
AcDbEntity
  8
0
100
AcDbLine
 10
774.9180252454169
 20
17.6529888121783
 30
0.0
 11
789.0182376192245
 21
30.10048447059728
 31
0.0
  0
LINE
  5
248
330
32B
100
AcDbEntity
  8
0
100
AcDbLine
 10
820.47060302953
 20
87.68008846075981
 30
0.0
 11
789.0182376192245
 21
30.10048447059728
 31
0.0
  0
LINE
  5
249
330
32B
100
AcDbEntity
  8
0
100
AcDbLine
 10
897.4916081173207
 20
89.43561729058433
 30
0.0
 11
929.0018959206857
 21
50.36913883873182
 31
0.0
  0
LINE
  5
24A
330
32B
100
AcDbEntity
  8
0
100
AcDbLine
 10
929.0018959206857
 20
50.36913883873182
 30
0.0
 11
943.5674451907171
 21
19.65112900351141
 31
0.0
  0
ARC
  5
24B
330
32B
100
AcDbEntity
  8
0
100
AcDbCircle
 10
857.8011488453176
 20
140.3265573338312
 30
0.0
 40
148.0486966896806
100
AcDbArc
 50
287.3840522949768
 51
305.402124080904
  0
LINE
  5
24C
330
32B
100
AcDbEntity
  8
0
100
AcDbLine
 10
902.0344244715101
 20
-0.959796992729025
 30
0.0
 11
901.0939191069851
 21
17.82507955230403
 31
0.0
  0
LINE
  5
24D
330
32B
100
AcDbEntity
  8
0
100
AcDbLine
 10
875.6866010370943
 20
78.31582491110009
 30
0.0
 11
901.0939191069851
 21
17.82507955230403
 31
0.0
  0
LINE
  5
24E
330
32B
100
AcDbEntity
  8
0
100
AcDbLine
 10
922.3358845307043
 20
139.6278258223297
 30
0.0
 11
972.5256303925529
 21
139.9060099393648
 31
0.0
  0
LINE
  5
24F
330
32B
100
AcDbEntity
  8
0
100
AcDbLine
 10
972.5256303925529
 20
139.9060099393648
 30
0.0
 11
1005.623408988826
 21
132.1414490524584
 31
0.0
  0
ARC
  5
250
330
32B
100
AcDbEntity
  8
0
100
AcDbCircle
 10
857.8011488453174
 20
140.3265573338313
 30
0.0
 40
148.0486966896806
100
AcDbArc
 50
338.8126237235482
 51
356.8306955094754
  0
LINE
  5
251
330
32B
100
AcDbEntity
  8
0
100
AcDbLine
 10
995.8422649566928
 20
86.81892372666437
 30
0.0
 11
980.569261576136
 21
97.7957859782523
 31
0.0
  0
LINE
  5
252
330
32B
100
AcDbEntity
  8
0
100
AcDbLine
 10
917.4344887475145
 20
115.6469076641755
 30
0.0
 11
980.569261576136
 21
97.7957859782523
 31
0.0
  0
LINE
  5
253
330
32B
100
AcDbEntity
  8
0
100
AcDbLine
 10
898.5841887042894
 20
190.3461934337609
 30
0.0
 11
929.6594903064132
 21
229.7595618056344
 31
0.0
  0
LINE
  5
254
330
32B
100
AcDbEntity
  8
0
100
AcDbLine
 10
929.6594903064132
 20
229.7595618056344
 30
0.0
 11
956.3661958742912
 21
250.7953225830601
 31
0.0
  0
ARC
  5
255
330
32B
100
AcDbEntity
  8
0
100
AcDbCircle
 10
857.8011488453176
 20
140.3265573338312
 30
0.0
 40
148.0486966896806
100
AcDbArc
 50
30.24119515211962
 51
48.25926693804689
  0
LINE
  5
256
330
32B
100
AcDbEntity
  8
0
100
AcDbLine
 10
985.7023294844049
 20
214.889983909067
 30
0.0
 11
967.5977111458674
 21
209.7930307045803
 31
0.0
  0
LINE
  5
257
330
32B
100
AcDbEntity
  8
0
100
AcDbLine
 10
914.2772552131313
 20
171.5622699916091
 30
0.0
 11
967.5977111458674
 21
209.7930307045803
 31
0.0
  0
LINE
  5
259
330
32B
100
AcDbEntity
  8
0
100
AcDbLine
 10
471.7715323166523
 20
184.1075989950832
 30
0.0
 11
447.018052408448
 21
184.1075989950832
 31
0.0
  0
LINE
  5
25A
330
32B
100
AcDbEntity
  8
0
100
AcDbLine
 10
580.8419827658435
 20
204.865075566805
 30
0.0
 11
498.8456556871697
 21
204.8650755668049
 31
0.0
  0
LINE
  5
25B
330
32B
100
AcDbEntity
  8
0
100
AcDbLine
 10
437.7354974428708
 20
140.3265573338312
 30
0.0
 11
437.7354974428708
 21
174.1224447277281
 31
0.0
  0
LINE
  5
25C
330
32B
100
AcDbEntity
  8
0
100
AcDbLine
 10
447.0180524084481
 20
184.1075989950832
 30
0.0
 11
447.018052408448
 21
140.3265573338312
 31
0.0
  0
LINE
  5
25D
330
32B
100
AcDbEntity
  8
0
100
AcDbLine
 10
471.7715323166522
 20
140.3265573338312
 30
0.0
 11
471.7715323166522
 21
192.9604252200461
 31
0.0
  0
LINE
  5
25E
330
32B
100
AcDbEntity
  8
0
100
AcDbLine
 10
498.8456556871697
 20
204.8650755668049
 30
0.0
 11
498.8456556871697
 21
140.3265573338312
 31
0.0
  0
LINE
  5
25F
330
32B
100
AcDbEntity
  8
0
100
AcDbLine
 10
437.7354974428708
 20
174.1224447277281
 30
0.0
 11
447.018052408448
 21
184.1075989950832
 31
0.0
  0
LINE
  5
260
330
32B
100
AcDbEntity
  8
0
100
AcDbLine
 10
471.7715323166522
 20
192.9604252200461
 30
0.0
 11
498.8456556871697
 21
192.9604252200461
 31
0.0
  0
LINE
  5
261
330
32B
100
AcDbEntity
  8
0
100
AcDbLine
 10
580.8419827658436
 20
204.865075566805
 30
0.0
 11
580.8419827658435
 21
140.3265573338312
 31
0.0
  0
CIRCLE
  5
265
330
32B
100
AcDbEntity
  8
0
100
AcDbCircle
 10
459.3947923625502
 20
162.2170781644572
 30
0.0
 40
5.901501811001253
  0
LWPOLYLINE
  5
266
330
32B
100
AcDbEntity
  8
0
100
AcDbPolyline
 90
        4
 70
     1
 43
0.0
 10
498.8456556871697
 20
204.8650755668049
 10
515.0313056732065
 20
204.8650755668049
 10
515.0313056732065
 20
140.3265573338312
 10
498.8456556871697
 20
140.3265573338312
  0
HATCH
  5
267
330
32B
100
AcDbEntity
  8
srafy
100
AcDbHatch
 10
0.0
 20
0.0
 30
0.0
210
0.0
220
0.0
230
1.0
  2
LINE
 70
     0
 71
     0
 91
        1
 92
        3
 72
     0
 73
     1
 93
        4
 10
498.8456556871697
 20
140.3265573338312
 10
498.8456556871697
 20
204.8650755668049
 10
515.0313056732065
 20
204.8650755668049
 10
515.0313056732065
 20
140.3265573338312
 97
        0
 75
     0
 76
     2
 52
0.0
 41
1.0
 77
     0
 78
     1
 53
0.0
 43
0.0
 44
0.0
 45
0.0
 46
3.174999999999999
 79
     0
 98
        1
 10
0.0
 20
0.0
1001
VDEXTRAPARAM
1071
       76
1071
        0
1071
        0
1040
1.0
1000
LINE
1000

1040
0.0
1040
0.0
  0
LINE
  5
268
330
32B
100
AcDbEntity
  8
0
100
AcDbLine
 10
517.4657076782186
 20
204.8650755668049
 30
0.0
 11
517.4657076782186
 21
272.5945008850922
 31
0.0
  0
LINE
  5
26A
330
32B
100
AcDbEntity
  8
0
100
AcDbLine
 10
537.4657076782186
 20
292.5945008850922
 30
0.0
 11
578.276313464536
 21
292.5945008850922
 31
0.0
  0
LINE
  5
26B
330
32B
100
AcDbEntity
  8
0
100
AcDbLine
 10
578.276313464536
 20
292.5945008850922
 30
0.0
 11
572.9748622145669
 21
264.5606502643439
 31
0.0
  0
LINE
  5
26C
330
32B
100
AcDbEntity
  8
0
100
AcDbLine
 10
572.875984811339
 20
261.4778090566852
 30
0.0
 11
579.8618538069968
 21
204.865075566805
 31
0.0
  0
ARC
  5
26D
330
32B
100
AcDbEntity
  8
0
100
AcDbCircle
 10
537.4657076782186
 20
272.5945008850922
 30
0.0
 40
20.0
100
AcDbArc
 50
90.00000000000006
 51
180.0
  0
ARC
  5
26E
330
32B
100
AcDbEntity
  8
0
100
AcDbCircle
 10
582.8007086994114
 20
262.702495035018
 30
0.0
 40
10.0
100
AcDbArc
 50
169.2913171330578
 51
187.0345938819654
  0
LINE
  5
26F
330
32B
100
AcDbEntity
  8
0
100
AcDbLine
 10
437.7354974428708
 20
140.3265573338312
 30
0.0
 11
437.7354974428708
 21
106.5306699399343
 31
0.0
  0
LINE
  5
270
330
32B
100
AcDbEntity
  8
0
100
AcDbLine
 10
437.7354974428708
 20
106.5306699399343
 30
0.0
 11
447.018052408448
 21
96.54551567257931
 31
0.0
  0
LINE
  5
271
330
32B
100
AcDbEntity
  8
0
100
AcDbLine
 10
447.0180524084481
 20
96.54551567257931
 30
0.0
 11
447.018052408448
 21
140.3265573338312
 31
0.0
  0
LINE
  5
272
330
32B
100
AcDbEntity
  8
0
100
AcDbLine
 10
471.7715323166523
 20
96.54551567257929
 30
0.0
 11
447.018052408448
 21
96.54551567257929
 31
0.0
  0
LINE
  5
273
330
32B
100
AcDbEntity
  8
0
100
AcDbLine
 10
471.7715323166522
 20
140.3265573338312
 30
0.0
 11
471.7715323166522
 21
87.69268944761635
 31
0.0
  0
LINE
  5
274
330
32B
100
AcDbEntity
  8
0
100
AcDbLine
 10
471.7715323166522
 20
87.69268944761639
 30
0.0
 11
498.8456556871697
 21
87.69268944761637
 31
0.0
  0
HATCH
  5
275
330
32B
100
AcDbEntity
  8
srafy
100
AcDbHatch
 10
0.0
 20
0.0
 30
0.0
210
0.0
220
0.0
230
1.0
  2
LINE
 70
     0
 71
     0
 91
        1
 92
        3
 72
     0
 73
     1
 93
        4
 10
498.8456556871697
 20
140.3265573338312
 10
498.8456556871697
 20
75.78803910085753
 10
515.0313056732065
 20
75.78803910085753
 10
515.0313056732065
 20
140.3265573338312
 97
        0
 75
     0
 76
     2
 52
0.0
 41
1.0
 77
     0
 78
     1
 53
0.0
 43
0.0
 44
0.0
 45
0.0
 46
3.174999999999999
 79
     0
 98
        1
 10
0.0
 20
0.0
1001
VDEXTRAPARAM
1071
       76
1071
        0
1071
        0
1040
1.0
1000
LINE
1000

1040
0.0
1040
0.0
  0
LWPOLYLINE
  5
276
330
32B
100
AcDbEntity
  8
0
100
AcDbPolyline
 90
        4
 70
     1
 43
0.0
 10
498.8456556871697
 20
75.78803910085753
 10
515.0313056732065
 20
75.78803910085753
 10
515.0313056732065
 20
140.3265573338312
 10
498.8456556871697
 20
140.3265573338312
  0
LINE
  5
277
330
32B
100
AcDbEntity
  8
0
100
AcDbLine
 10
580.8419827658435
 20
75.7880391008575
 30
0.0
 11
498.8456556871697
 21
75.78803910085753
 31
0.0
  0
LINE
  5
278
330
32B
100
AcDbEntity
  8
0
100
AcDbLine
 10
517.4657076782186
 20
75.78803910085756
 30
0.0
 11
517.4657076782186
 21
8.058613782570319
 31
0.0
  0
LINE
  5
279
330
32B
100
AcDbEntity
  8
0
100
AcDbLine
 10
572.875984811339
 20
19.17530561097732
 30
0.0
 11
579.8618538069968
 21
75.7880391008575
 31
0.0
  0
ARC
  5
27A
330
32B
100
AcDbEntity
  8
0
100
AcDbCircle
 10
582.8007086994114
 20
17.95061963264447
 30
0.0
 40
10.0
100
AcDbArc
 50
172.9654061180345
 51
190.7086828669421
  0
LINE
  5
27B
330
32B
100
AcDbEntity
  8
0
100
AcDbLine
 10
578.276313464536
 20
-11.94138621742968
 30
0.0
 11
572.9748622145669
 21
16.09246440331856
 31
0.0
  0
ARC
  5
27C
330
32B
100
AcDbEntity
  8
0
100
AcDbCircle
 10
537.4657076782186
 20
8.058613782570319
 30
0.0
 40
20.0
100
AcDbArc
 50
180.0
 51
269.9999999999999
  0
LINE
  5
27D
330
32B
100
AcDbEntity
  8
0
100
AcDbLine
 10
537.4657076782186
 20
-11.94138621742968
 30
0.0
 11
578.276313464536
 21
-11.94138621742973
 31
0.0
  0
LINE
  5
27E
330
32B
100
AcDbEntity
  8
0
100
AcDbLine
 10
580.8419827658436
 20
75.7880391008575
 30
0.0
 11
580.8419827658435
 21
140.3265573338312
 31
0.0
  0
LINE
  5
27F
330
32B
100
AcDbEntity
  8
0
100
AcDbLine
 10
498.8456556871697
 20
204.8650755668049
 30
0.0
 11
498.8456556871697
 21
294.8265573338312
 31
0.0
  0
LINE
  5
280
330
32B
100
AcDbEntity
  8
0
100
AcDbLine
 10
481.6548148331421
 20
294.8265573338312
 30
0.0
 11
481.6548148331421
 21
222.0391258896011
 31
0.0
  0
LINE
  5
281
330
32B
100
AcDbEntity
  8
0
100
AcDbLine
 10
498.8456556871697
 20
204.8650755668049
 30
0.0
 11
481.6548148331421
 21
222.0391258896011
 31
0.0
  0
LINE
  5
282
330
32B
100
AcDbEntity
  8
0
100
AcDbLine
 10
481.6548148331421
 20
-14.17344266616874
 30
0.0
 11
481.6548148331421
 21
58.61398877806138
 31
0.0
  0
LINE
  5
283
330
32B
100
AcDbEntity
  8
0
100
AcDbLine
 10
498.8456556871697
 20
75.78803910085753
 30
0.0
 11
498.8456556871697
 21
-14.17344266616874
 31
0.0
  0
LINE
  5
284
330
32B
100
AcDbEntity
  8
0
100
AcDbLine
 10
498.8456556871697
 20
75.78803910085753
 30
0.0
 11
481.6548148331421
 21
58.61398877806135
 31
0.0
  0
ARC
  5
285
330
32B
100
AcDbEntity
  8
0
100
AcDbCircle
 10
515.0313056732065
 20
140.3265573338312
 30
0.0
 40
73.43746399952578
100
AcDbArc
 50
333.655989371776
 51
26.34401062822393
  0
DIMENSION
  5
2B6
330
32B
100
AcDbEntity
  8
koty
100
AcDbDimension
  2
*D5
 10
602.0313056732065
 20
-79.00625732445042
 30
0.0
 11
515.0313056732065
 21
-62.75625732445042
 31
0.0
 70
    32
 71
     0
 42
174.0
  3
ISO-25
100
AcDbAlignedDimension
 13
428.0313056732065
 23
-19.17344266616874
 33
0.0
 14
602.0313056732065
 24
-19.17344266616874
 34
0.0
100
AcDbRotatedDimension
  0
DIMENSION
  5
2CE
330
32B
100
AcDbEntity
  8
koty
100
AcDbDimension
  2
*D6
 10
640.0313056732065
 20
-136.310103875745
 30
0.0
 11
515.0313056732065
 21
-120.060103875745
 31
0.0
 70
    32
 71
     0
 42
250.0
  3
ISO-25
100
AcDbAlignedDimension
 13
390.0313056732065
 23
-14.17344266616874
 33
0.0
 14
640.0313056732065
 24
-14.17344266616874
 34
0.0
100
AcDbRotatedDimension
  0
DIMENSION
  5
2E6
330
32B
100
AcDbEntity
  8
koty
100
AcDbDimension
  2
*D7
 10
332.0228575629444
 20
294.8265573338312
 30
0.0
 11
315.7728575629444
 21
140.3265573338312
 31
0.0
 70
    32
 71
     0
 42
308.9999999999999
  3
ISO-25
100
AcDbAlignedDimension
 13
390.0313056732065
 23
-14.17344266616874
 33
0.0
 14
390.0313056732065
 24
294.8265573338312
 34
0.0
 50
90.0
100
AcDbRotatedDimension
  0
TEXT
  5
2FE
330
32B
100
AcDbEntity
  8
popis
100
AcDbText
 10
322.1917128802306
 20
356.9875788832023
 30
0.0
 40
20.0
  1
TREB 300 malý axiální ventilátor
100
AcDbText
  0
VIEWPORT
  5
386
330
327
100
AcDbEntity
 67
     1
  8
0
 60
     1
100
AcDbViewport
 10
0.0
 20
0.0
 30
0.0
 40
10.0
 41
10.0
 69
     1
 12
0.0
 22
0.0
 13
0.0
 23
0.0
 14
1.0
 24
1.0
 15
0.0
 25
0.0
 16
0.0
 26
0.0
 36
1.0
 17
0.0
 27
0.0
 37
0.0
 42
0.0
 43
0.0
 44
0.0
 45
10.0
 50
0.0
 51
0.0000000000007958
 72
   100
 90
   163872
  1

281
     0
 71
     0
 74
     0
110
0.0
120
0.0
130
0.0
111
1.0
121
0.0
131
0.0
112
0.0
122
1.0
132
0.0
 79
     0
146
0.0
1001
VD_INVISIBLE_NOT_FOR_READ
1000
VD_INVISIBLE_NOT_FOR_READ
  0
VIEWPORT
  5
387
330
327
100
AcDbEntity
 67
     1
  8
0
 60
     1
100
AcDbViewport
 10
0.0
 20
0.0
 30
0.0
 40
10.0
 41
10.0
 69
     2
 12
0.0
 22
0.0
 13
0.0
 23
0.0
 14
1.0
 24
1.0
 15
0.0
 25
0.0
 16
0.0
 26
0.0
 36
1.0
 17
0.0
 27
0.0
 37
0.0
 42
0.0
 43
0.0
 44
0.0
 45
10.0
 50
0.0
 51
0.0000000000007958
 72
   100
 90
   163872
  1

281
     0
 71
     0
 74
     0
110
0.0
120
0.0
130
0.0
111
1.0
121
0.0
131
0.0
112
0.0
122
1.0
132
0.0
 79
     0
146
0.0
1001
VD_INVISIBLE_NOT_FOR_READ
1000
VD_INVISIBLE_NOT_FOR_READ
  0
ENDSEC
  0
SECTION
  2
OBJECTS
  0
DICTIONARY
  5
318
330
0
100
AcDbDictionary
281
     1
  3
ACAD_GROUP
350
319
  3
ACAD_LAYOUT
350
326
  3
ACAD_MLINESTYLE
350
323
  3
ACAD_PLOTSETTINGS
350
325
  3
ACAD_PLOTSTYLENAME
350
31A
  3
VECTORDRAW_OBJECTS
350
33B
  0
DICTIONARY
  5
319
102
{ACAD_REACTORS
330
318
102
}
330
318
100
AcDbDictionary
281
     1
  0
DICTIONARY
  5
326
102
{ACAD_REACTORS
330
318
102
}
330
318
100
AcDbDictionary
281
     1
  3
Model
350
32E
  3
Rozvržení1
350
32A
  3
Rozvržení2
350
332
  0
DICTIONARY
  5
323
102
{ACAD_REACTORS
330
318
102
}
330
318
100
AcDbDictionary
281
     1
  3
Standard
350
324
  0
DICTIONARY
  5
325
102
{ACAD_REACTORS
330
318
102
}
330
318
100
AcDbDictionary
281
     1
  0
ACDBDICTIONARYWDFLT
  5
31A
102
{ACAD_REACTORS
330
318
102
}
330
318
100
AcDbDictionary
281
     1
  3
Normal
350
31B
100
AcDbDictionaryWithDefault
340
31B
  0
DICTIONARY
  5
33B
102
{ACAD_REACTORS
330
318
102
}
330
318
100
AcDbDictionary
281
     1
  3
SERIALNO
350
33C
  0
LAYOUT
  5
32E
102
{ACAD_REACTORS
330
326
102
}
330
326
100
AcDbPlotSettings
  1
VectorDraw Printer Drawing
  2

  4

  6

 40
0.0
 41
0.0
 42
0.0
 43
0.0
 44
0.0
 45
0.0
 46
0.0
 47
0.0
 48
0.0
 49
0.0
140
0.0
141
0.0
142
1.0
143
1.0
 70
  1712
 72
     0
 73
     0
 74
     0
  7

 75
     0
147
1.0
148
0.0
149
0.0
100
AcDbLayout
  1
Model
 70
     1
 71
     0
 10
0.0
 20
0.0
 11
12.0
 21
9.0
 12
0.0
 22
0.0
 32
0.0
 14
299.5882421783289
 24
-148.810103875745
 34
0.0
 15
1012.301148845318
 25
376.9875788832023
 35
0.0
146
0.0
 13
0.0
 23
0.0
 33
0.0
 16
1.0
 26
0.0
 36
0.0
 17
0.0
 27
1.0
 37
0.0
 76
     0
330
32B
  0
LAYOUT
  5
32A
102
{ACAD_REACTORS
330
326
102
}
330
326
100
AcDbPlotSettings
  1
VectorDraw Printer Drawing
  2

  4

  6

 40
0.0
 41
0.0
 42
0.0
 43
0.0
 44
0.0
 45
0.0
 46
0.0
 47
0.0
 48
0.0
 49
0.0
140
0.0
141
0.0
142
1.0
143
1.0
 70
   688
 72
     0
 73
     0
 74
     5
  7

 75
    16
147
1.0
148
0.0
149
0.0
100
AcDbLayout
  1
Rozvržení1
 70
     1
 71
     1
 10
0.0
 20
0.0
 11
12.0
 21
9.0
 12
0.0
 22
0.0
 32
0.0
 14
1.000000000000000E+20
 24
1.000000000000000E+20
 34
1.000000000000000E+20
 15
-1.000000000000000E+20
 25
-1.000000000000000E+20
 35
-1.000000000000000E+20
146
0.0
 13
0.0
 23
0.0
 33
0.0
 16
1.0
 26
0.0
 36
0.0
 17
0.0
 27
1.0
 37
0.0
 76
     0
330
327
331
386
  0
LAYOUT
  5
332
102
{ACAD_REACTORS
330
326
102
}
330
326
100
AcDbPlotSettings
  1
VectorDraw Printer Drawing
  2

  4

  6

 40
0.0
 41
0.0
 42
0.0
 43
0.0
 44
0.0
 45
0.0
 46
0.0
 47
0.0
 48
0.0
 49
0.0
140
0.0
141
0.0
142
1.0
143
1.0
 70
   688
 72
     0
 73
     0
 74
     5
  7

 75
    16
147
1.0
148
0.0
149
0.0
100
AcDbLayout
  1
Rozvržení2
 70
     1
 71
     2
 10
0.0
 20
0.0
 11
12.0
 21
9.0
 12
0.0
 22
0.0
 32
0.0
 14
0.0
 24
0.0
 34
0.0
 15
0.0
 25
0.0
 35
0.0
146
0.0
 13
0.0
 23
0.0
 33
0.0
 16
1.0
 26
0.0
 36
0.0
 17
0.0
 27
1.0
 37
0.0
 76
     0
330
32F
331
388
  0
MLINESTYLE
  5
324
102
{ACAD_REACTORS
330
323
102
}
330
323
100
AcDbMlineStyle
  2
Standard
 70
     0
  3

 62
   256
 51
90.0
 52
90.0
 71
     2
 49
0.5
 62
   256
  6
BYLAYER
 49
-0.5
 62
   256
  6
BYLAYER
  0
ACDBPLACEHOLDER
  5
31B
102
{ACAD_REACTORS
330
31A
102
}
330
31A
  0
XRECORD
  5
33C
102
{ACAD_REACTORS
330
33B
102
}
330
33B
100
AcDbXrecord
280
     1
1000
rInJVR9YY4Q8hfPWdUq5j5319
1070
     4
1070
     6
  0
ENDSEC
  0
EOF
