  0
SECTION
  2
HEADER
  9
$ACADVER
  1
AC1014
  9
$ACADMAINTVER
 70
     0
  9
$DWGCODEPAGE
  3
ANSI_1250
  9
$INSBASE
 10
0.0
 20
0.0
 30
0.0
  9
$EXTMIN
 10
-129.308307
 20
-918.857381
 30
0.0
  9
$EXTMAX
 10
981.931543
 20
79.56292
 30
0.0
  9
$LIMMIN
 10
0.0
 20
0.0
  9
$LIMMAX
 10
420.0
 20
297.0
  9
$ORTHOMODE
 70
     1
  9
$REGENMODE
 70
     1
  9
$FILLMODE
 70
     1
  9
$QTEXTMODE
 70
     0
  9
$MIRRTEXT
 70
     1
  9
$DRAGMODE
 70
     2
  9
$LTSCALE
 40
1.0
  9
$OSMODE
 70
    45
  9
$ATTMODE
 70
     1
  9
$TEXTSIZE
 40
40.0
  9
$TRACEWID
 40
1.0
  9
$TEXTSTYLE
  7
ED40
  9
$CLAYER
  8
V0-VYPLNE
  9
$CELTYPE
  6
DASHDOT
  9
$CECOLOR
 62
    63
  9
$CELTSCALE
 40
1.0
  9
$DELOBJ
 70
     1
  9
$DISPSILH
 70
     0
  9
$DIMSCALE
 40
0.0
  9
$DIMASZ
 40
15.0
  9
$DIMEXO
 40
1.0
  9
$DIMDLI
 40
3.75
  9
$DIMRND
 40
0.0
  9
$DIMDLE
 40
0.0
  9
$DIMEXE
 40
1.25
  9
$DIMTP
 40
0.0
  9
$DIMTM
 40
0.0
  9
$DIMTXT
 40
10.0
  9
$DIMCEN
 40
3.0
  9
$DIMTSZ
 40
0.0
  9
$DIMTOL
 70
     0
  9
$DIMLIM
 70
     0
  9
$DIMTIH
 70
     0
  9
$DIMTOH
 70
     0
  9
$DIMSE1
 70
     0
  9
$DIMSE2
 70
     0
  9
$DIMTAD
 70
     1
  9
$DIMZIN
 70
     8
  9
$DIMBLK
  1

  9
$DIMASO
 70
     1
  9
$DIMSHO
 70
     1
  9
$DIMPOST
  1

  9
$DIMAPOST
  1

  9
$DIMALT
 70
     0
  9
$DIMALTD
 70
     4
  9
$DIMALTF
 40
0.0394
  9
$DIMLFAC
 40
1.0
  9
$DIMTOFL
 70
     1
  9
$DIMTVP
 40
0.0
  9
$DIMTIX
 70
     0
  9
$DIMSOXD
 70
     0
  9
$DIMSAH
 70
     1
  9
$DIMBLK1
  1
_OPEN
  9
$DIMBLK2
  1
_OPEN
  9
$DIMSTYLE
  2
ED10
  9
$DIMCLRD
 70
     0
  9
$DIMCLRE
 70
     0
  9
$DIMCLRT
 70
     0
  9
$DIMTFAC
 40
1.0
  9
$DIMGAP
 40
1.5
  9
$DIMJUST
 70
     0
  9
$DIMSD1
 70
     0
  9
$DIMSD2
 70
     0
  9
$DIMTOLJ
 70
     1
  9
$DIMTZIN
 70
     8
  9
$DIMALTZ
 70
     0
  9
$DIMALTTZ
 70
     0
  9
$DIMFIT
 70
     3
  9
$DIMUPT
 70
     0
  9
$DIMUNIT
 70
     2
  9
$DIMDEC
 70
     0
  9
$DIMTDEC
 70
     1
  9
$DIMALTU
 70
     8
  9
$DIMALTTD
 70
     4
  9
$DIMTXSTY
  7
ED20
  9
$DIMAUNIT
 70
     0
  9
$LUNITS
 70
     2
  9
$LUPREC
 70
     4
  9
$SKETCHINC
 40
1.0
  9
$FILLETRAD
 40
5.0
  9
$AUNITS
 70
     0
  9
$AUPREC
 70
     0
  9
$MENU
  1
.
  9
$ELEVATION
 40
0.0
  9
$PELEVATION
 40
0.0
  9
$THICKNESS
 40
0.0
  9
$LIMCHECK
 70
     0
  9
$BLIPMODE
 70
     0
  9
$CHAMFERA
 40
10.0
  9
$CHAMFERB
 40
10.0
  9
$CHAMFERC
 40
20.0
  9
$CHAMFERD
 40
0.0
  9
$SKPOLY
 70
     1
  9
$TDCREATE
 40
2451196.643769328
  9
$TDUPDATE
 40
2452916.480018866
  9
$TDINDWG
 40
0.5968978009
  9
$TDUSRTIMER
 40
0.5968978009
  9
$USRTIMER
 70
     1
  9
$ANGBASE
 50
0.0
  9
$ANGDIR
 70
     0
  9
$PDMODE
 70
     3
  9
$PDSIZE
 40
20.0
  9
$PLINEWID
 40
0.0
  9
$COORDS
 70
     1
  9
$SPLFRAME
 70
     0
  9
$SPLINETYPE
 70
     6
  9
$SPLINESEGS
 70
     8
  9
$ATTDIA
 70
     0
  9
$ATTREQ
 70
     1
  9
$HANDLING
 70
     1
  9
$HANDSEED
  5
17D1
  9
$SURFTAB1
 70
     6
  9
$SURFTAB2
 70
     6
  9
$SURFTYPE
 70
     6
  9
$SURFU
 70
     6
  9
$SURFV
 70
     6
  9
$UCSNAME
  2

  9
$UCSORG
 10
210.8860132018115
 20
-718.8273814619748
 30
0.0
  9
$UCSXDIR
 10
1.0
 20
0.0
 30
0.0
  9
$UCSYDIR
 10
0.0
 20
1.0
 30
0.0
  9
$PUCSNAME
  2

  9
$PUCSORG
 10
0.0
 20
0.0
 30
0.0
  9
$PUCSXDIR
 10
1.0
 20
0.0
 30
0.0
  9
$PUCSYDIR
 10
0.0
 20
1.0
 30
0.0
  9
$USERI1
 70
     0
  9
$USERI2
 70
     0
  9
$USERI3
 70
     0
  9
$USERI4
 70
     0
  9
$USERI5
 70
     0
  9
$USERR1
 40
0.0
  9
$USERR2
 40
0.0
  9
$USERR3
 40
0.0
  9
$USERR4
 40
0.0
  9
$USERR5
 40
0.0
  9
$WORLDVIEW
 70
     1
  9
$SHADEDGE
 70
     3
  9
$SHADEDIF
 70
    70
  9
$TILEMODE
 70
     1
  9
$MAXACTVP
 70
    48
  9
$PINSBASE
 10
0.0
 20
0.0
 30
0.0
  9
$PLIMCHECK
 70
     0
  9
$PEXTMIN
 10
1.000000E+20
 20
1.000000E+20
 30
1.000000E+20
  9
$PEXTMAX
 10
-1.000000E+20
 20
-1.000000E+20
 30
-1.000000E+20
  9
$PLIMMIN
 10
0.0
 20
0.0
  9
$PLIMMAX
 10
420.0
 20
297.0
  9
$UNITMODE
 70
     0
  9
$VISRETAIN
 70
     1
  9
$PLINEGEN
 70
     0
  9
$PSLTSCALE
 70
     0
  9
$TREEDEPTH
 70
  3020
  9
$PICKSTYLE
 70
     0
  9
$CMLSTYLE
  2
STANDARD
  9
$CMLJUST
 70
     1
  9
$CMLSCALE
 40
6.0
  9
$PROXYGRAPHICS
 70
     1
  9
$MEASUREMENT
 70
     1
  0
ENDSEC
  0
SECTION
  2
CLASSES
  0
CLASS
  1
DICTIONARYVAR
  2
AcDbDictionaryVar
  3
"AutoCAD"
 90
        0
280
     0
281
     0
  0
CLASS
  1
LWPOLYLINE
  2
AcDbPolyline
  3
"AutoCAD"
 90
        0
280
     0
281
     1
  0
CLASS
  1
HATCH
  2
AcDbHatch
  3
"ACAD_SEDONA"
 90
        0
280
     0
281
     1
  0
ENDSEC
  0
SECTION
  2
TABLES
  0
TABLE
  2
VPORT
  5
8
100
AcDbSymbolTable
 70
     2
  0
VPORT
  5
17D0
100
AcDbSymbolTableRecord
100
AcDbViewportTableRecord
  2
*ACTIVE
 70
     0
 10
0.0
 20
0.0
 11
1.0
 21
1.0
 12
426.311618
 22
-310.928691
 13
0.0
 23
0.0
 14
10.0
 24
10.0
 15
10.0
 25
10.0
 16
0.0
 26
0.0
 36
1.0
 17
0.0
 27
0.0
 37
0.0
 40
1230.077935
 41
1.730469
 42
50.0
 43
0.0
 44
0.0
 50
0.0
 51
0.0
 71
     0
 72
   100
 73
     1
 74
     1
 75
     0
 76
     0
 77
     0
 78
     0
  0
ENDTAB
  0
TABLE
  2
LTYPE
  5
5
100
AcDbSymbolTable
 70
     3
  0
LTYPE
  5
14
100
AcDbSymbolTableRecord
100
AcDbLinetypeTableRecord
  2
BYBLOCK
 70
     0
  3

 72
    65
 73
     0
 40
0.0
  0
LTYPE
  5
15
100
AcDbSymbolTableRecord
100
AcDbLinetypeTableRecord
  2
BYLAYER
 70
     0
  3

 72
    65
 73
     0
 40
0.0
  0
LTYPE
  5
16
100
AcDbSymbolTableRecord
100
AcDbLinetypeTableRecord
  2
CONTINUOUS
 70
     0
  3
Solid line
 72
    65
 73
     0
 40
0.0
  0
LTYPE
  5
7F
100
AcDbSymbolTableRecord
100
AcDbLinetypeTableRecord
  2
DASHDOT
 70
     0
  3
Dash dot __ . __ . __ . __ . __ . __ . __ . __
 72
    65
 73
     4
 40
25.4
 49
12.7
 74
     0
 49
-6.35
 74
     0
 49
0.0
 74
     0
 49
-6.35
 74
     0
  0
LTYPE
  5
80
100
AcDbSymbolTableRecord
100
AcDbLinetypeTableRecord
  2
DASHED
 70
     0
  3
Dashed __ __ __ __ __ __ __ __ __ __ __ __ __ _
 72
    65
 73
     2
 40
19.05
 49
12.7
 74
     0
 49
-6.35
 74
     0
  0
ENDTAB
  0
TABLE
  2
LAYER
  5
2
100
AcDbSymbolTable
 70
     6
  0
LAYER
  5
F
100
AcDbSymbolTableRecord
100
AcDbLayerTableRecord
  2
0
 70
     0
 62
     7
  6
CONTINUOUS
  0
LAYER
  5
9E
100
AcDbSymbolTableRecord
100
AcDbLayerTableRecord
  2
DEFPOINTS
 70
     0
 62
     7
  6
CONTINUOUS
  0
LAYER
  5
377
100
AcDbSymbolTableRecord
100
AcDbLayerTableRecord
  2
V0-OBRYS
 70
     0
 62
    90
  6
CONTINUOUS
  0
LAYER
  5
378
100
AcDbSymbolTableRecord
100
AcDbLayerTableRecord
  2
V0-VYPLNE
 70
     0
 62
    63
  6
DASHDOT
  0
LAYER
  5
37A
100
AcDbSymbolTableRecord
100
AcDbLayerTableRecord
  2
V0-NAZVY
 70
     0
 62
   210
  6
CONTINUOUS
  0
LAYER
  5
559
100
AcDbSymbolTableRecord
100
AcDbLayerTableRecord
  2
V0-ZBYTEK
 70
     0
 62
    51
  6
CONTINUOUS
  0
ENDTAB
  0
TABLE
  2
STYLE
  5
3
100
AcDbSymbolTable
 70
     5
  0
STYLE
  5
10
100
AcDbSymbolTableRecord
100
AcDbTextStyleTableRecord
  2
STANDARD
 70
     0
 40
0.0
 41
1.0
 50
0.0
 71
     0
 42
2.5
  3
ISOCP
  4

  0
STYLE
  5
331
100
AcDbSymbolTableRecord
100
AcDbTextStyleTableRecord
  2
ED20
 70
     0
 40
20.0
 41
1.0
 50
0.0
 71
     0
 42
2.5
  3
ISOCP.shx
  4

  0
STYLE
  5
648
100
AcDbSymbolTableRecord
100
AcDbTextStyleTableRecord
  2
ED10
 70
     0
 40
10.0
 41
1.0
 50
0.0
 71
     0
 42
10.0
  3
ISOCP.shx
  4

  0
STYLE
  5
F38
100
AcDbSymbolTableRecord
100
AcDbTextStyleTableRecord
  2
ED30
 70
     0
 40
30.0
 41
1.0
 50
0.0
 71
     0
 42
30.0
  3
ISOCP.shx
  4

  0
STYLE
  5
F39
100
AcDbSymbolTableRecord
100
AcDbTextStyleTableRecord
  2
ED40
 70
     0
 40
40.0
 41
1.0
 50
0.0
 71
     0
 42
40.0
  3
ISOCP.shx
  4

  0
ENDTAB
  0
TABLE
  2
VIEW
  5
6
100
AcDbSymbolTable
 70
     0
  0
ENDTAB
  0
TABLE
  2
UCS
  5
7
100
AcDbSymbolTable
 70
     0
  0
ENDTAB
  0
TABLE
  2
APPID
  5
9
100
AcDbSymbolTable
 70
     1
  0
APPID
  5
11
100
AcDbSymbolTableRecord
100
AcDbRegAppTableRecord
  2
ACAD
 70
     0
  0
ENDTAB
  0
TABLE
  2
DIMSTYLE
  5
A
100
AcDbSymbolTable
 70
     5
  0
DIMSTYLE
105
1D
100
AcDbSymbolTableRecord
100
AcDbDimStyleTableRecord
  2
STANDARD
 70
     0
  3

  4

  5

  6
_OPEN
  7
_OPEN
 40
0.0
 41
15.0
 42
0.625
 43
3.75
 44
1.25
 45
0.0
 46
0.0
 47
0.0
 48
0.0
140
15.0
141
2.5
142
0.0
143
0.0394
144
1.0
145
0.0
146
1.0
147
3.0
 71
     0
 72
     0
 73
     0
 74
     0
 75
     0
 76
     0
 77
     1
 78
     8
170
     0
171
     4
172
     1
173
     1
174
     0
175
     0
176
     0
177
     0
178
     0
270
     2
271
     0
272
     1
273
     8
274
     4
340
331
275
     0
280
     0
281
     0
282
     0
283
     1
284
     8
285
     0
286
     0
287
     3
288
     0
  0
DIMSTYLE
105
397
100
AcDbSymbolTableRecord
100
AcDbDimStyleTableRecord
  2
ED40
 70
     0
  3

  4

  5

  6
_OPEN
  7
_OPEN
 40
1.0
 41
35.0
 42
1.0
 43
3.75
 44
1.25
 45
0.0
 46
0.0
 47
0.0
 48
0.0
140
40.0
141
3.0
142
0.0
143
0.0394
144
1.0
145
0.0
146
1.0
147
4.0
 71
     0
 72
     0
 73
     0
 74
     0
 75
     0
 76
     0
 77
     1
 78
     8
170
     0
171
     4
172
     1
173
     1
174
     0
175
     0
176
     0
177
     0
178
     0
270
     2
271
     0
272
     1
273
     8
274
     4
340
F39
275
     0
280
     0
281
     0
282
     0
283
     1
284
     8
285
     0
286
     0
287
     3
288
     0
  0
DIMSTYLE
105
FEA
100
AcDbSymbolTableRecord
100
AcDbDimStyleTableRecord
  2
ED30
 70
     0
  3

  4

  5

  6
_OPEN
  7
_OPEN
 40
1.0
 41
25.0
 42
1.0
 43
3.75
 44
1.25
 45
0.0
 46
0.0
 47
0.0
 48
0.0
140
30.0
141
3.0
142
0.0
143
0.0394
144
1.0
145
0.0
146
1.0
147
4.0
 71
     0
 72
     0
 73
     0
 74
     0
 75
     0
 76
     0
 77
     1
 78
     8
170
     0
171
     4
172
     1
173
     1
174
     0
175
     0
176
     0
177
     0
178
     0
270
     2
271
     0
272
     1
273
     8
274
     4
340
F38
275
     0
280
     0
281
     0
282
     0
283
     1
284
     8
285
     0
286
     0
287
     3
288
     0
  0
DIMSTYLE
105
1457
100
AcDbSymbolTableRecord
100
AcDbDimStyleTableRecord
  2
ED20
 70
     0
  3

  4

  5

  6
_OPEN
  7
_OPEN
 40
0.0
 41
20.0
 42
1.0
 43
3.75
 44
1.25
 45
0.0
 46
0.0
 47
0.0
 48
0.0
140
20.0
141
3.0
142
0.0
143
0.0394
144
1.0
145
0.0
146
1.0
147
1.5
 71
     0
 72
     0
 73
     0
 74
     0
 75
     0
 76
     0
 77
     1
 78
     8
170
     0
171
     4
172
     1
173
     1
174
     0
175
     0
176
     0
177
     0
178
     0
270
     2
271
     0
272
     1
273
     8
274
     4
340
331
275
     0
280
     0
281
     0
282
     0
283
     1
284
     8
285
     0
286
     0
287
     3
288
     0
  0
DIMSTYLE
105
1458
102
{ACAD_REACTORS
330
1476
330
1483
330
1490
330
14EB
330
150E
330
1589
330
15F7
330
165D
330
1696
102
}
100
AcDbSymbolTableRecord
100
AcDbDimStyleTableRecord
  2
ED10
 70
     0
  3

  4

  5

  6
_OPEN
  7
_OPEN
 40
0.0
 41
15.0
 42
1.0
 43
3.75
 44
1.25
 45
0.0
 46
0.0
 47
0.0
 48
0.0
140
10.0
141
3.0
142
0.0
143
0.0394
144
1.0
145
0.0
146
1.0
147
1.5
 71
     0
 72
     0
 73
     0
 74
     0
 75
     0
 76
     0
 77
     1
 78
     8
170
     0
171
     4
172
     1
173
     1
174
     0
175
     0
176
     0
177
     0
178
     0
270
     2
271
     0
272
     1
273
     8
274
     4
340
331
275
     0
280
     0
281
     0
282
     0
283
     1
284
     8
285
     0
286
     0
287
     3
288
     0
  0
ENDTAB
  0
TABLE
  2
BLOCK_RECORD
  5
1
100
AcDbSymbolTable
 70
    11
  0
BLOCK_RECORD
  5
1A
100
AcDbSymbolTableRecord
100
AcDbBlockTableRecord
  2
*MODEL_SPACE
  0
BLOCK_RECORD
  5
17
100
AcDbSymbolTableRecord
100
AcDbBlockTableRecord
  2
*PAPER_SPACE
  0
BLOCK_RECORD
  5
90
100
AcDbSymbolTableRecord
100
AcDbBlockTableRecord
  2
_OPEN
  0
BLOCK_RECORD
  5
1459
100
AcDbSymbolTableRecord
100
AcDbBlockTableRecord
  2
A10_100
  0
BLOCK_RECORD
  5
146A
100
AcDbSymbolTableRecord
100
AcDbBlockTableRecord
  2
*D2
  0
BLOCK_RECORD
  5
1477
100
AcDbSymbolTableRecord
100
AcDbBlockTableRecord
  2
*D3
  0
BLOCK_RECORD
  5
1484
100
AcDbSymbolTableRecord
100
AcDbBlockTableRecord
  2
*D4
  0
BLOCK_RECORD
  5
14DF
100
AcDbSymbolTableRecord
100
AcDbBlockTableRecord
  2
*D5
  0
BLOCK_RECORD
  5
1502
100
AcDbSymbolTableRecord
100
AcDbBlockTableRecord
  2
*D6
  0
BLOCK_RECORD
  5
157D
100
AcDbSymbolTableRecord
100
AcDbBlockTableRecord
  2
*D7
  0
BLOCK_RECORD
  5
15EB
100
AcDbSymbolTableRecord
100
AcDbBlockTableRecord
  2
*D8
  0
BLOCK_RECORD
  5
164F
100
AcDbSymbolTableRecord
100
AcDbBlockTableRecord
  2
*D9
  0
BLOCK_RECORD
  5
1688
100
AcDbSymbolTableRecord
100
AcDbBlockTableRecord
  2
*D10
  0
ENDTAB
  0
ENDSEC
  0
SECTION
  2
BLOCKS
  0
BLOCK
  5
1B
100
AcDbEntity
  8
0
100
AcDbBlockBegin
  2
*MODEL_SPACE
 70
     0
 10
0.0
 20
0.0
 30
0.0
  3
*MODEL_SPACE
  1

  0
ENDBLK
  5
1C
100
AcDbEntity
  8
0
100
AcDbBlockEnd
  0
BLOCK
  5
18
100
AcDbEntity
 67
     1
  8
0
100
AcDbBlockBegin
  2
*PAPER_SPACE
 70
     0
 10
0.0
 20
0.0
 30
0.0
  3
*PAPER_SPACE
  1

  0
ENDBLK
  5
19
100
AcDbEntity
 67
     1
  8
0
100
AcDbBlockEnd
  0
BLOCK
  5
91
100
AcDbEntity
  8
0
100
AcDbBlockBegin
  2
_OPEN
 70
     0
 10
0.0
 20
0.0
 30
0.0
  3
_OPEN
  1

  0
LINE
  5
92
100
AcDbEntity
  8
0
  6
BYBLOCK
 62
     0
100
AcDbLine
 10
-1.0
 20
0.166667
 30
0.0
 11
0.0
 21
0.0
 31
0.0
  0
LINE
  5
93
100
AcDbEntity
  8
0
  6
BYBLOCK
 62
     0
100
AcDbLine
 10
0.0
 20
0.0
 30
0.0
 11
-1.0
 21
-0.166667
 31
0.0
  0
LINE
  5
94
100
AcDbEntity
  8
0
  6
BYBLOCK
 62
     0
100
AcDbLine
 10
0.0
 20
0.0
 30
0.0
 11
-1.0
 21
0.0
 31
0.0
  0
ENDBLK
  5
95
100
AcDbEntity
  8
0
100
AcDbBlockEnd
  0
BLOCK
  5
145A
100
AcDbEntity
  8
0
 62
    52
100
AcDbBlockBegin
  2
A10_100
 70
     0
 10
0.0
 20
0.0
 30
0.0
  3
A10_100
  1

  0
ENDBLK
  5
145B
100
AcDbEntity
  8
0
 62
    52
100
AcDbBlockEnd
  0
BLOCK
  5
151A
100
AcDbEntity
  8
0
100
AcDbBlockBegin
  2
*D2
 70
     1
 10
0.0
 20
0.0
 30
0.0
  3
*D2
  1

  0
LINE
  5
151B
100
AcDbEntity
  8
0
  6
BYBLOCK
 62
     0
100
AcDbLine
 10
83.641239
 20
-277.166006
 30
0.0
 11
83.641239
 21
-417.298742
 31
0.0
  0
LINE
  5
151C
100
AcDbEntity
  8
0
  6
BYBLOCK
 62
     0
100
AcDbLine
 10
328.641239
 20
-277.166006
 30
0.0
 11
328.641239
 21
-417.298742
 31
0.0
  0
LINE
  5
151D
100
AcDbEntity
  8
0
  6
BYBLOCK
 62
     0
100
AcDbLine
 10
98.641239
 20
-416.048742
 30
0.0
 11
313.641239
 21
-416.048742
 31
0.0
  0
INSERT
  5
151E
100
AcDbEntity
  8
0
  6
BYBLOCK
 62
     0
100
AcDbBlockReference
  2
_OPEN
 10
83.641239
 20
-416.048742
 30
0.0
 41
15.0
 42
15.0
 43
15.0
 50
180.0
  0
INSERT
  5
151F
100
AcDbEntity
  8
0
  6
BYBLOCK
 62
     0
100
AcDbBlockReference
  2
_OPEN
 10
328.641239
 20
-416.048742
 30
0.0
 41
15.0
 42
15.0
 43
15.0
  0
MTEXT
  5
1520
100
AcDbEntity
  8
0
  6
BYBLOCK
 62
     0
100
AcDbMText
 10
206.141239
 20
-404.546774
 30
0.0
 40
20.0
 41
0.0
 71
     5
 72
     1
  1
\A1;245
  7
ED20
  0
POINT
  5
1521
100
AcDbEntity
  8
DEFPOINTS
  6
BYBLOCK
 62
     0
100
AcDbPoint
 10
83.641239
 20
-276.166006
 30
0.0
  0
POINT
  5
1522
100
AcDbEntity
  8
DEFPOINTS
  6
BYBLOCK
 62
     0
100
AcDbPoint
 10
328.641239
 20
-276.166006
 30
0.0
  0
POINT
  5
1523
100
AcDbEntity
  8
DEFPOINTS
  6
BYBLOCK
 62
     0
100
AcDbPoint
 10
328.641239
 20
-416.048742
 30
0.0
  0
ENDBLK
  5
1524
100
AcDbEntity
  8
0
100
AcDbBlockEnd
  0
BLOCK
  5
150F
100
AcDbEntity
  8
0
100
AcDbBlockBegin
  2
*D3
 70
     1
 10
0.0
 20
0.0
 30
0.0
  3
*D3
  1

  0
LINE
  5
1510
100
AcDbEntity
  8
0
  6
BYBLOCK
 62
     0
100
AcDbLine
 10
56.141239
 20
-277.166006
 30
0.0
 11
56.141239
 21
-450.629717
 31
0.0
  0
LINE
  5
1511
100
AcDbEntity
  8
0
  6
BYBLOCK
 62
     0
100
AcDbLine
 10
356.141239
 20
-277.166006
 30
0.0
 11
356.141239
 21
-450.629717
 31
0.0
  0
LINE
  5
1512
100
AcDbEntity
  8
0
  6
BYBLOCK
 62
     0
100
AcDbLine
 10
71.141239
 20
-449.379717
 30
0.0
 11
341.141239
 21
-449.379717
 31
0.0
  0
INSERT
  5
1513
100
AcDbEntity
  8
0
  6
BYBLOCK
 62
     0
100
AcDbBlockReference
  2
_OPEN
 10
56.141239
 20
-449.379717
 30
0.0
 41
15.0
 42
15.0
 43
15.0
 50
180.0
  0
INSERT
  5
1514
100
AcDbEntity
  8
0
  6
BYBLOCK
 62
     0
100
AcDbBlockReference
  2
_OPEN
 10
356.141239
 20
-449.379717
 30
0.0
 41
15.0
 42
15.0
 43
15.0
  0
MTEXT
  5
1515
100
AcDbEntity
  8
0
  6
BYBLOCK
 62
     0
100
AcDbMText
 10
206.141239
 20
-437.879717
 30
0.0
 40
20.0
 41
0.0
 71
     5
 72
     1
  1
\A1;300
  7
ED20
  0
POINT
  5
1516
100
AcDbEntity
  8
DEFPOINTS
  6
BYBLOCK
 62
     0
100
AcDbPoint
 10
56.141239
 20
-276.166006
 30
0.0
  0
POINT
  5
1517
100
AcDbEntity
  8
DEFPOINTS
  6
BYBLOCK
 62
     0
100
AcDbPoint
 10
356.141239
 20
-276.166006
 30
0.0
  0
POINT
  5
1518
100
AcDbEntity
  8
DEFPOINTS
  6
BYBLOCK
 62
     0
100
AcDbPoint
 10
356.141239
 20
-449.379717
 30
0.0
  0
ENDBLK
  5
1519
100
AcDbEntity
  8
0
100
AcDbBlockEnd
  0
BLOCK
  5
1628
100
AcDbEntity
  8
0
100
AcDbBlockBegin
  2
*D4
 70
     1
 10
0.0
 20
0.0
 30
0.0
  3
*D4
  1

  0
LINE
  5
1629
100
AcDbEntity
  8
0
  6
BYBLOCK
 62
     0
100
AcDbLine
 10
357.141239
 20
-276.166006
 30
0.0
 11
486.669512
 21
-276.166006
 31
0.0
  0
LINE
  5
162A
100
AcDbEntity
  8
0
  6
BYBLOCK
 62
     0
100
AcDbLine
 10
207.141239
 20
17.833994
 30
0.0
 11
486.669512
 21
17.833994
 31
0.0
  0
LINE
  5
162B
100
AcDbEntity
  8
0
  6
BYBLOCK
 62
     0
100
AcDbLine
 10
485.419512
 20
-261.166006
 30
0.0
 11
485.419512
 21
2.833994
 31
0.0
  0
INSERT
  5
162C
100
AcDbEntity
  8
0
  6
BYBLOCK
 62
     0
100
AcDbBlockReference
  2
_OPEN
 10
485.419512
 20
-276.166006
 30
0.0
 41
15.0
 42
15.0
 43
15.0
 50
270.0
  0
INSERT
  5
162D
100
AcDbEntity
  8
0
  6
BYBLOCK
 62
     0
100
AcDbBlockReference
  2
_OPEN
 10
485.419512
 20
17.833994
 30
0.0
 41
15.0
 42
15.0
 43
15.0
 50
90.0
  0
MTEXT
  5
162E
100
AcDbEntity
  8
0
  6
BYBLOCK
 62
     0
100
AcDbMText
 10
473.917544
 20
-138.28489
 30
0.0
 40
20.0
 41
0.0
 71
     5
 72
     1
  1
\A1;294
  7
ED20
 11
0.0
 21
1.0
 31
0.0
  0
POINT
  5
162F
100
AcDbEntity
  8
DEFPOINTS
  6
BYBLOCK
 62
     0
100
AcDbPoint
 10
356.141239
 20
-276.166006
 30
0.0
  0
POINT
  5
1630
100
AcDbEntity
  8
DEFPOINTS
  6
BYBLOCK
 62
     0
100
AcDbPoint
 10
206.141239
 20
17.833994
 30
0.0
  0
POINT
  5
1631
100
AcDbEntity
  8
DEFPOINTS
  6
BYBLOCK
 62
     0
100
AcDbPoint
 10
485.419512
 20
17.833994
 30
0.0
  0
ENDBLK
  5
1632
100
AcDbEntity
  8
0
100
AcDbBlockEnd
  0
BLOCK
  5
17BB
100
AcDbEntity
  8
0
100
AcDbBlockBegin
  2
*D5
 70
     1
 10
0.0
 20
0.0
 30
0.0
  3
*D5
  1

  0
LINE
  5
17BC
100
AcDbEntity
  8
0
  6
BYBLOCK
 62
     0
100
AcDbLine
 10
6.185396
 20
-74.664643
 30
0.0
 11
6.185396
 21
60.305046
 31
0.0
  0
LINE
  5
17BD
100
AcDbEntity
  8
0
  6
BYBLOCK
 62
     0
100
AcDbLine
 10
406.097081
 20
-74.664643
 30
0.0
 11
406.097081
 21
60.305046
 31
0.0
  0
LINE
  5
17BE
100
AcDbEntity
  8
0
  6
BYBLOCK
 62
     0
100
AcDbLine
 10
21.185396
 20
59.055046
 30
0.0
 11
391.097081
 21
59.055046
 31
0.0
  0
INSERT
  5
17BF
100
AcDbEntity
  8
0
  6
BYBLOCK
 62
     0
100
AcDbBlockReference
  2
_OPEN
 10
6.185396
 20
59.055046
 30
0.0
 41
15.0
 42
15.0
 43
15.0
 50
180.0
  0
INSERT
  5
17C0
100
AcDbEntity
  8
0
  6
BYBLOCK
 62
     0
100
AcDbBlockReference
  2
_OPEN
 10
406.097081
 20
59.055046
 30
0.0
 41
15.0
 42
15.0
 43
15.0
  0
MTEXT
  5
17C1
100
AcDbEntity
  8
0
  6
BYBLOCK
 62
     0
100
AcDbMText
 10
206.141239
 20
70.555046
 30
0.0
 40
20.0
 41
0.0
 71
     5
 72
     1
  1
\A1;400
  7
ED20
  0
POINT
  5
17C2
100
AcDbEntity
  8
DEFPOINTS
  6
BYBLOCK
 62
     0
100
AcDbPoint
 10
6.185396
 20
-75.664643
 30
0.0
  0
POINT
  5
17C3
100
AcDbEntity
  8
DEFPOINTS
  6
BYBLOCK
 62
     0
100
AcDbPoint
 10
406.097081
 20
-75.664643
 30
0.0
  0
POINT
  5
17C4
100
AcDbEntity
  8
DEFPOINTS
  6
BYBLOCK
 62
     0
100
AcDbPoint
 10
406.097081
 20
59.055046
 30
0.0
  0
ENDBLK
  5
17C5
100
AcDbEntity
  8
0
100
AcDbBlockEnd
  0
BLOCK
  5
160E
100
AcDbEntity
  8
0
100
AcDbBlockBegin
  2
*D6
 70
     1
 10
0.0
 20
0.0
 30
0.0
  3
*D6
  1

  0
LINE
  5
160F
100
AcDbEntity
  8
0
  6
BYBLOCK
 62
     0
100
AcDbLine
 10
131.141239
 20
-329.166006
 30
0.0
 11
131.141239
 21
-386.102663
 31
0.0
  0
LINE
  5
1610
100
AcDbEntity
  8
0
  6
BYBLOCK
 62
     0
100
AcDbLine
 10
281.141239
 20
-329.166006
 30
0.0
 11
281.141239
 21
-386.102663
 31
0.0
  0
LINE
  5
1611
100
AcDbEntity
  8
0
  6
BYBLOCK
 62
     0
100
AcDbLine
 10
146.141239
 20
-384.852663
 30
0.0
 11
266.141239
 21
-384.852663
 31
0.0
  0
INSERT
  5
1612
100
AcDbEntity
  8
0
  6
BYBLOCK
 62
     0
100
AcDbBlockReference
  2
_OPEN
 10
131.141239
 20
-384.852663
 30
0.0
 41
15.0
 42
15.0
 43
15.0
 50
180.0
  0
INSERT
  5
1613
100
AcDbEntity
  8
0
  6
BYBLOCK
 62
     0
100
AcDbBlockReference
  2
_OPEN
 10
281.141239
 20
-384.852663
 30
0.0
 41
15.0
 42
15.0
 43
15.0
  0
MTEXT
  5
1614
100
AcDbEntity
  8
0
  6
BYBLOCK
 62
     0
100
AcDbMText
 10
200.516451
 20
-373.352663
 30
0.0
 40
20.0
 41
0.0
 71
     5
 72
     1
  1
\A1;\U+2205150
  7
ED20
  0
POINT
  5
1615
100
AcDbEntity
  8
DEFPOINTS
  6
BYBLOCK
 62
     0
100
AcDbPoint
 10
131.141239
 20
-328.166006
 30
0.0
  0
POINT
  5
1616
100
AcDbEntity
  8
DEFPOINTS
  6
BYBLOCK
 62
     0
100
AcDbPoint
 10
281.141239
 20
-328.166006
 30
0.0
  0
POINT
  5
1617
100
AcDbEntity
  8
DEFPOINTS
  6
BYBLOCK
 62
     0
100
AcDbPoint
 10
281.141239
 20
-384.852663
 30
0.0
  0
ENDBLK
  5
1618
100
AcDbEntity
  8
0
100
AcDbBlockEnd
  0
BLOCK
  5
158A
100
AcDbEntity
  8
0
100
AcDbBlockBegin
  2
*D7
 70
     1
 10
0.0
 20
0.0
 30
0.0
  3
*D7
  1

  0
LINE
  5
158B
100
AcDbEntity
  8
0
  6
BYBLOCK
 62
     0
100
AcDbLine
 10
357.141239
 20
-261.166006
 30
0.0
 11
448.187224
 21
-261.166006
 31
0.0
  0
LINE
  5
158C
100
AcDbEntity
  8
0
  6
BYBLOCK
 62
     0
100
AcDbLine
 10
207.141239
 20
12.833994
 30
0.0
 11
448.187224
 21
12.833994
 31
0.0
  0
LINE
  5
158D
100
AcDbEntity
  8
0
  6
BYBLOCK
 62
     0
100
AcDbLine
 10
446.937224
 20
-246.166006
 30
0.0
 11
446.937224
 21
-2.166006
 31
0.0
  0
INSERT
  5
158E
100
AcDbEntity
  8
0
  6
BYBLOCK
 62
     0
100
AcDbBlockReference
  2
_OPEN
 10
446.937224
 20
-261.166006
 30
0.0
 41
15.0
 42
15.0
 43
15.0
 50
270.0
  0
INSERT
  5
158F
100
AcDbEntity
  8
0
  6
BYBLOCK
 62
     0
100
AcDbBlockReference
  2
_OPEN
 10
446.937224
 20
12.833994
 30
0.0
 41
15.0
 42
15.0
 43
15.0
 50
90.0
  0
MTEXT
  5
1590
100
AcDbEntity
  8
0
  6
BYBLOCK
 62
     0
100
AcDbMText
 10
435.435256
 20
-124.166006
 30
0.0
 40
20.0
 41
0.0
 71
     5
 72
     1
  1
\A1;274
  7
ED20
 11
0.0
 21
1.0
 31
0.0
  0
POINT
  5
1591
100
AcDbEntity
  8
DEFPOINTS
  6
BYBLOCK
 62
     0
100
AcDbPoint
 10
356.141239
 20
-261.166006
 30
0.0
  0
POINT
  5
1592
100
AcDbEntity
  8
DEFPOINTS
  6
BYBLOCK
 62
     0
100
AcDbPoint
 10
206.141239
 20
12.833994
 30
0.0
  0
POINT
  5
1593
100
AcDbEntity
  8
DEFPOINTS
  6
BYBLOCK
 62
     0
100
AcDbPoint
 10
446.937224
 20
12.833994
 30
0.0
  0
ENDBLK
  5
1594
100
AcDbEntity
  8
0
100
AcDbBlockEnd
  0
BLOCK
  5
161D
100
AcDbEntity
  8
0
100
AcDbBlockBegin
  2
*D8
 70
     1
 10
0.0
 20
0.0
 30
0.0
  3
*D8
  1

  0
LINE
  5
161E
100
AcDbEntity
  8
0
  6
BYBLOCK
 62
     0
100
AcDbLine
 10
208.141239
 20
17.833994
 30
0.0
 11
522.888133
 21
17.833994
 31
0.0
  0
LINE
  5
161F
100
AcDbEntity
  8
0
  6
BYBLOCK
 62
     0
100
AcDbLine
 10
281.557917
 20
-331.166006
 30
0.0
 11
522.888133
 21
-331.166006
 31
0.0
  0
LINE
  5
1620
100
AcDbEntity
  8
0
  6
BYBLOCK
 62
     0
100
AcDbLine
 10
521.638133
 20
2.833994
 30
0.0
 11
521.638133
 21
-316.166006
 31
0.0
  0
INSERT
  5
1621
100
AcDbEntity
  8
0
  6
BYBLOCK
 62
     0
100
AcDbBlockReference
  2
_OPEN
 10
521.638133
 20
17.833994
 30
0.0
 41
15.0
 42
15.0
 43
15.0
 50
90.0
  0
INSERT
  5
1622
100
AcDbEntity
  8
0
  6
BYBLOCK
 62
     0
100
AcDbBlockReference
  2
_OPEN
 10
521.638133
 20
-331.166006
 30
0.0
 41
15.0
 42
15.0
 43
15.0
 50
270.0
  0
MTEXT
  5
1623
100
AcDbEntity
  8
0
  6
BYBLOCK
 62
     0
100
AcDbMText
 10
510.138133
 20
-156.666006
 30
0.0
 40
20.0
 41
0.0
 71
     5
 72
     1
  1
\A1;349
  7
ED20
 11
0.0
 21
1.0
 31
0.0
  0
POINT
  5
1624
100
AcDbEntity
  8
DEFPOINTS
  6
BYBLOCK
 62
     0
100
AcDbPoint
 10
207.141239
 20
17.833994
 30
0.0
  0
POINT
  5
1625
100
AcDbEntity
  8
DEFPOINTS
  6
BYBLOCK
 62
     0
100
AcDbPoint
 10
280.557917
 20
-331.166006
 30
0.0
  0
POINT
  5
1626
100
AcDbEntity
  8
DEFPOINTS
  6
BYBLOCK
 62
     0
100
AcDbPoint
 10
521.638133
 20
-331.166006
 30
0.0
  0
ENDBLK
  5
1627
100
AcDbEntity
  8
0
100
AcDbBlockEnd
  0
BLOCK
  5
167B
100
AcDbEntity
  8
0
100
AcDbBlockBegin
  2
*D9
 70
     1
 10
0.0
 20
0.0
 30
0.0
  3
*D9
  1

  0
LINE
  5
167C
100
AcDbEntity
  8
0
  6
BYBLOCK
 62
     0
100
AcDbLine
 10
55.141239
 20
-256.166006
 30
0.0
 11
1.607237
 21
-256.166006
 31
0.0
  0
LINE
  5
167D
100
AcDbEntity
  8
0
  6
BYBLOCK
 62
     0
100
AcDbLine
 10
55.141239
 20
-276.166006
 30
0.0
 11
1.607237
 21
-276.166006
 31
0.0
  0
LINE
  5
167E
100
AcDbEntity
  8
0
  6
BYBLOCK
 62
     0
100
AcDbLine
 10
2.857237
 20
-241.166006
 30
0.0
 11
2.857237
 21
-226.166006
 31
0.0
  0
LINE
  5
167F
100
AcDbEntity
  8
0
  6
BYBLOCK
 62
     0
100
AcDbLine
 10
2.857237
 20
-291.166006
 30
0.0
 11
2.857237
 21
-306.166006
 31
0.0
  0
LINE
  5
1680
100
AcDbEntity
  8
0
  6
BYBLOCK
 62
     0
100
AcDbLine
 10
2.857237
 20
-256.166006
 30
0.0
 11
2.857237
 21
-276.166006
 31
0.0
  0
INSERT
  5
1681
100
AcDbEntity
  8
0
  6
BYBLOCK
 62
     0
100
AcDbBlockReference
  2
_OPEN
 10
2.857237
 20
-256.166006
 30
0.0
 41
15.0
 42
15.0
 43
15.0
 50
270.0
  0
INSERT
  5
1682
100
AcDbEntity
  8
0
  6
BYBLOCK
 62
     0
100
AcDbBlockReference
  2
_OPEN
 10
2.857237
 20
-276.166006
 30
0.0
 41
15.0
 42
15.0
 43
15.0
 50
90.0
  0
MTEXT
  5
1683
100
AcDbEntity
  8
0
  6
BYBLOCK
 62
     0
100
AcDbMText
 10
-8.644732
 20
-266.166006
 30
0.0
 40
20.0
 41
0.0
 71
     5
 72
     1
  1
\A1;20
  7
ED20
 11
0.0
 21
1.0
 31
0.0
  0
POINT
  5
1684
100
AcDbEntity
  8
DEFPOINTS
  6
BYBLOCK
 62
     0
100
AcDbPoint
 10
56.141239
 20
-256.166006
 30
0.0
  0
POINT
  5
1685
100
AcDbEntity
  8
DEFPOINTS
  6
BYBLOCK
 62
     0
100
AcDbPoint
 10
56.141239
 20
-276.166006
 30
0.0
  0
POINT
  5
1686
100
AcDbEntity
  8
DEFPOINTS
  6
BYBLOCK
 62
     0
100
AcDbPoint
 10
2.857237
 20
-276.166006
 30
0.0
  0
ENDBLK
  5
1687
100
AcDbEntity
  8
0
100
AcDbBlockEnd
  0
BLOCK
  5
1697
100
AcDbEntity
  8
0
100
AcDbBlockBegin
  2
*D10
 70
     1
 10
0.0
 20
0.0
 30
0.0
  3
*D10
  1

  0
LINE
  5
1698
100
AcDbEntity
  8
0
  6
BYBLOCK
 62
     0
100
AcDbLine
 10
125.141239
 20
-298.166006
 30
0.0
 11
26.155329
 21
-298.166006
 31
0.0
  0
LINE
  5
1699
100
AcDbEntity
  8
0
  6
BYBLOCK
 62
     0
100
AcDbLine
 10
130.141239
 20
-331.166006
 30
0.0
 11
26.155329
 21
-331.166006
 31
0.0
  0
LINE
  5
169A
100
AcDbEntity
  8
0
  6
BYBLOCK
 62
     0
100
AcDbLine
 10
27.405329
 20
-313.166006
 30
0.0
 11
27.405329
 21
-316.166006
 31
0.0
  0
INSERT
  5
169B
100
AcDbEntity
  8
0
  6
BYBLOCK
 62
     0
100
AcDbBlockReference
  2
_OPEN
 10
27.405329
 20
-298.166006
 30
0.0
 41
15.0
 42
15.0
 43
15.0
 50
90.0
  0
INSERT
  5
169C
100
AcDbEntity
  8
0
  6
BYBLOCK
 62
     0
100
AcDbBlockReference
  2
_OPEN
 10
27.405329
 20
-331.166006
 30
0.0
 41
15.0
 42
15.0
 43
15.0
 50
270.0
  0
MTEXT
  5
169D
100
AcDbEntity
  8
0
  6
BYBLOCK
 62
     0
100
AcDbMText
 10
15.905329
 20
-314.666006
 30
0.0
 40
20.0
 41
0.0
 71
     5
 72
     1
  1
\A1;33
  7
ED20
 11
0.0
 21
1.0
 31
0.0
  0
POINT
  5
169E
100
AcDbEntity
  8
DEFPOINTS
  6
BYBLOCK
 62
     0
100
AcDbPoint
 10
126.141239
 20
-298.166006
 30
0.0
  0
POINT
  5
169F
100
AcDbEntity
  8
DEFPOINTS
  6
BYBLOCK
 62
     0
100
AcDbPoint
 10
131.141239
 20
-331.166006
 30
0.0
  0
POINT
  5
16A0
100
AcDbEntity
  8
DEFPOINTS
  6
BYBLOCK
 62
     0
100
AcDbPoint
 10
27.405329
 20
-331.166006
 30
0.0
  0
ENDBLK
  5
16A1
100
AcDbEntity
  8
0
100
AcDbBlockEnd
  0
ENDSEC
  0
SECTION
  2
ENTITIES
  0
LINE
  5
1127
100
AcDbEntity
  8
V0-VYPLNE
  6
DASHDOT
 62
    63
100
AcDbLine
 10
204.649539
 20
-493.402343
 30
0.0
 11
204.649539
 21
-580.632456
 31
0.0
  0
CIRCLE
  5
11B0
100
AcDbEntity
  8
V0-VYPLNE
  6
DASHED
 62
    56
100
AcDbCircle
 10
327.149539
 20
-596.327381
 30
0.0
 40
3.5
  0
LINE
  5
11B1
100
AcDbEntity
  8
V0-VYPLNE
 62
    63
100
AcDbLine
 10
327.149539
 20
-611.327381
 30
0.0
 11
327.149539
 21
-581.327381
 31
0.0
  0
LINE
  5
11BB
100
AcDbEntity
  8
V0-VYPLNE
100
AcDbLine
 10
206.141239
 20
17.833994
 30
0.0
 11
206.141239
 21
7.132358
 31
0.0
  0
LINE
  5
11BE
100
AcDbEntity
  8
V0-VYPLNE
100
AcDbLine
 10
83.641239
 20
-286.166006
 30
0.0
 11
83.641239
 21
-231.166006
 31
0.0
  0
LINE
  5
11BF
100
AcDbEntity
  8
V0-VYPLNE
100
AcDbLine
 10
328.641239
 20
-286.166006
 30
0.0
 11
328.641239
 21
-231.166006
 31
0.0
  0
MTEXT
  5
12AB
100
AcDbEntity
  8
V0-NAZVY
  6
CONTINUOUS
100
AcDbMText
 10
638.857504
 20
-545.52461
 30
0.0
 40
40.0
 41
243.1951
 71
     1
 72
     5
  1
TH-500/150
  7
ED40
  0
MTEXT
  5
12AD
100
AcDbEntity
  8
V0-NAZVY
  6
CONTINUOUS
 62
    51
100
AcDbMText
 10
750.321925
 20
-694.919108
 30
0.0
 40
30.0
 41
480.3103
 71
     5
 72
     5
  1
STRESNI VENTILATOR
  7
ED30
  0
MTEXT
  5
12AE
100
AcDbEntity
  8
V0-NAZVY
  6
CONTINUOUS
 62
    51
100
AcDbMText
 10
759.441753
 20
-634.204399
 30
0.0
 40
40.0
 41
1.0
 71
     5
 72
     5
  1
MIXVENT
  7
ED40
  0
POINT
  5
12BD
100
AcDbEntity
  8
V0-VYPLNE
  6
CONTINUOUS
 62
    41
100
AcDbPoint
 10
206.141239
 20
-276.166006
 30
0.0
  0
LINE
  5
13BB
100
AcDbEntity
  8
V0-VYPLNE
  6
DASHDOT
 62
    63
100
AcDbLine
 10
-34.035356
 20
-718.827381
 30
0.0
 11
451.931178
 21
-718.827381
 31
0.0
  0
CIRCLE
  5
13BE
100
AcDbEntity
  8
V0-OBRYS
  6
CONTINUOUS
 62
    90
100
AcDbCircle
 10
204.649539
 20
-718.827381
 30
0.0
 40
200.03
  0
ARC
  5
13C0
100
AcDbEntity
  8
V0-VYPLNE
  6
DASHED
 62
    52
100
AcDbCircle
 10
204.649539
 20
-718.827381
 30
0.0
 40
74.97
100
AcDbArc
 50
91.267736
 51
89.329143
  0
LINE
  5
13C2
100
AcDbEntity
  8
V0-VYPLNE
 62
    63
100
AcDbLine
 10
342.149539
 20
-596.327381
 30
0.0
 11
312.149539
 21
-596.327381
 31
0.0
  0
LINE
  5
13C5
100
AcDbEntity
  8
V0-VYPLNE
 62
    63
100
AcDbLine
 10
97.149539
 20
-596.327381
 30
0.0
 11
67.149539
 21
-596.327381
 31
0.0
  0
LINE
  5
13C6
100
AcDbEntity
  8
V0-VYPLNE
 62
    63
100
AcDbLine
 10
82.149539
 20
-581.327381
 30
0.0
 11
82.149539
 21
-611.327381
 31
0.0
  0
CIRCLE
  5
13C7
100
AcDbEntity
  8
V0-VYPLNE
  6
DASHED
 62
    56
100
AcDbCircle
 10
82.149539
 20
-596.327381
 30
0.0
 40
3.5
  0
LINE
  5
13C8
100
AcDbEntity
  8
V0-VYPLNE
 62
    63
100
AcDbLine
 10
82.149539
 20
-826.327381
 30
0.0
 11
82.149539
 21
-856.327381
 31
0.0
  0
LINE
  5
13C9
100
AcDbEntity
  8
V0-VYPLNE
 62
    63
100
AcDbLine
 10
67.149539
 20
-841.327381
 30
0.0
 11
97.149539
 21
-841.327381
 31
0.0
  0
CIRCLE
  5
13CA
100
AcDbEntity
  8
V0-VYPLNE
  6
DASHED
 62
    56
100
AcDbCircle
 10
82.149539
 20
-841.327381
 30
0.0
 40
3.5
  0
LINE
  5
13CB
100
AcDbEntity
  8
V0-VYPLNE
 62
    63
100
AcDbLine
 10
312.149539
 20
-841.327381
 30
0.0
 11
342.149539
 21
-841.327381
 31
0.0
  0
LINE
  5
13CC
100
AcDbEntity
  8
V0-VYPLNE
 62
    63
100
AcDbLine
 10
327.149539
 20
-856.327381
 30
0.0
 11
327.149539
 21
-826.327381
 31
0.0
  0
CIRCLE
  5
13CD
100
AcDbEntity
  8
V0-VYPLNE
  6
DASHED
 62
    56
100
AcDbCircle
 10
327.149539
 20
-841.327381
 30
0.0
 40
3.5
  0
LINE
  5
13CE
100
AcDbEntity
  8
V0-VYPLNE
  6
DASHED
 62
    52
100
AcDbLine
 10
354.649539
 20
-568.827381
 30
0.0
 11
54.649539
 21
-568.827381
 31
0.0
  0
LINE
  5
13CF
100
AcDbEntity
  8
V0-VYPLNE
  6
DASHED
 62
    52
100
AcDbLine
 10
54.649539
 20
-568.827381
 30
0.0
 11
54.649539
 21
-868.827381
 31
0.0
  0
LINE
  5
13D0
100
AcDbEntity
  8
V0-VYPLNE
  6
DASHED
 62
    52
100
AcDbLine
 10
54.649539
 20
-868.827381
 30
0.0
 11
354.649539
 21
-868.827381
 31
0.0
  0
LINE
  5
13D1
100
AcDbEntity
  8
V0-VYPLNE
  6
DASHED
 62
    52
100
AcDbLine
 10
354.649539
 20
-868.827381
 30
0.0
 11
354.649539
 21
-568.827381
 31
0.0
  0
LINE
  5
13D2
100
AcDbEntity
  8
V0-OBRYS
  6
CONTINUOUS
 62
    90
100
AcDbLine
 10
56.141239
 20
-276.166006
 30
0.0
 11
356.141239
 21
-276.166006
 31
0.0
  0
LINE
  5
13D3
100
AcDbEntity
  8
V0-OBRYS
  6
CONTINUOUS
 62
    90
100
AcDbLine
 10
356.141239
 20
-276.166006
 30
0.0
 11
356.141239
 21
-256.166006
 31
0.0
  0
LINE
  5
13D4
100
AcDbEntity
  8
V0-OBRYS
  6
CONTINUOUS
 62
    90
100
AcDbLine
 10
356.141239
 20
-256.166006
 30
0.0
 11
56.141239
 21
-256.166006
 31
0.0
  0
LINE
  5
13D5
100
AcDbEntity
  8
V0-OBRYS
  6
CONTINUOUS
 62
    90
100
AcDbLine
 10
56.141239
 20
-256.166006
 30
0.0
 11
56.141239
 21
-276.166006
 31
0.0
  0
LINE
  5
13D6
100
AcDbEntity
  8
V0-OBRYS
  6
CONTINUOUS
 62
    90
100
AcDbLine
 10
71.141239
 20
-256.166006
 30
0.0
 11
71.141239
 21
-253.166006
 31
0.0
  0
LINE
  5
13D7
100
AcDbEntity
  8
V0-OBRYS
  6
CONTINUOUS
 62
    90
100
AcDbLine
 10
71.141239
 20
-253.166006
 30
0.0
 11
341.141239
 21
-253.166006
 31
0.0
  0
LINE
  5
13D8
100
AcDbEntity
  8
V0-OBRYS
  6
CONTINUOUS
 62
    90
100
AcDbLine
 10
341.141239
 20
-253.166006
 30
0.0
 11
341.141239
 21
-256.166006
 31
0.0
  0
LINE
  5
13DD
100
AcDbEntity
  8
V0-OBRYS
  6
CONTINUOUS
 62
    90
100
AcDbLine
 10
6.185396
 20
-75.664643
 30
0.0
 11
406.097081
 21
-75.664643
 31
0.0
  0
ARC
  5
13E6
100
AcDbEntity
  8
V0-OBRYS
  6
CONTINUOUS
 62
    90
100
AcDbCircle
 10
205.889732
 20
-282.301813
 30
0.0
 40
300.135913
100
AcDbArc
 50
89.951987
 51
128.441008
  0
LINE
  5
13F0
100
AcDbEntity
  8
V0-OBRYS
  6
CONTINUOUS
 62
    90
100
AcDbLine
 10
131.141239
 20
-328.166006
 30
0.0
 11
131.141239
 21
-298.166006
 31
0.0
  0
LINE
  5
1415
100
AcDbEntity
  8
V0-OBRYS
  6
CONTINUOUS
 62
    90
100
AcDbLine
 10
281.141239
 20
-75.664643
 30
0.0
 11
281.141239
 21
-77.364006
 31
0.0
  0
INSERT
  5
145C
100
AcDbEntity
  8
V0-VYPLNE
  6
CONTINUOUS
 62
    52
100
AcDbBlockReference
  2
A10_100
 10
1091.344077
 20
-456.786598
 30
0.0
  0
DIMENSION
  5
1476
100
AcDbEntity
  8
V0-VYPLNE
  6
CONTINUOUS
 62
    41
100
AcDbDimension
  2
*D2
 10
328.641239
 20
-416.048742
 30
0.0
 11
206.141239
 21
-404.546774
 31
0.0
 70
    32
  3
ED10
100
AcDbAlignedDimension
 13
83.641239
 23
-276.166006
 33
0.0
 14
328.641239
 24
-276.166006
 34
0.0
100
AcDbRotatedDimension
1001
ACAD
1000
DSTYLE
1002
{
1070
    40
1040
1.0
1002
}
  0
DIMENSION
  5
1483
100
AcDbEntity
  8
V0-VYPLNE
  6
CONTINUOUS
 62
    41
100
AcDbDimension
  2
*D3
 10
356.141239
 20
-449.379717
 30
0.0
 11
206.141239
 21
-437.879717
 31
0.0
 70
    32
  3
ED10
100
AcDbAlignedDimension
 13
56.141239
 23
-276.166006
 33
0.0
 14
356.141239
 24
-276.166006
 34
0.0
100
AcDbRotatedDimension
1001
ACAD
1000
DSTYLE
1002
{
1070
    40
1040
1.0
1002
}
  0
DIMENSION
  5
1490
100
AcDbEntity
  8
V0-VYPLNE
  6
CONTINUOUS
 62
    41
100
AcDbDimension
  2
*D4
 10
485.419512
 20
17.833994
 30
0.0
 11
485.419512
 21
-138.28489
 31
0.0
 70
   160
  3
ED10
100
AcDbAlignedDimension
 13
356.141239
 23
-276.166006
 33
0.0
 14
206.141239
 24
17.833994
 34
0.0
 50
90.0
100
AcDbRotatedDimension
1001
ACAD
1000
DSTYLE
1002
{
1070
    40
1040
1.0
1002
}
  0
LEADER
  5
1494
100
AcDbEntity
  8
V0-VYPLNE
  6
CONTINUOUS
 62
    41
100
AcDbLeader
  3
ED10
 73
     0
 75
     1
 40
20.0
 41
176.015748
 76
     3
 10
83.641239
 20
-253.166006
 30
0.0
 10
63.207441
 20
-223.234664
 30
0.0
 10
48.207441
 20
-223.234664
 30
0.0
 77
    41
340
1495
1001
ACAD
1000
DSTYLE
1002
{
1070
    40
1040
1.0
1002
}
  0
MTEXT
  5
1495
102
{ACAD_REACTORS
330
1494
102
}
100
AcDbEntity
  8
V0-VYPLNE
  6
CONTINUOUS
 62
    41
100
AcDbMText
 10
46.707441
 20
-211.734664
 30
0.0
 40
20.0
 41
0.0
 71
     6
 72
     1
  1
\A1;4 OTVORY %%c 10
  7
ED20
  0
MTEXT
  5
1496
100
AcDbEntity
  8
V0-NAZVY
  6
CONTINUOUS
100
AcDbMText
 10
118.282442
 20
-9.111785
 30
0.0
 40
28.0
 41
170.2366
 71
     1
 72
     5
  1
TH-500/150
  7
ED40
  0
LINE
  5
14A6
100
AcDbEntity
  8
V0-VYPLNE
  6
CONTINUOUS
 62
    41
100
AcDbLine
 10
169.128239
 20
-445.668393
 30
0.0
 11
179.589412
 21
-427.019565
 31
0.0
  0
LWPOLYLINE
  5
14A7
100
AcDbEntity
  8
V0-VYPLNE
  6
CONTINUOUS
 62
    41
100
AcDbPolyline
 90
        4
 70
     1
 43
0.0
 10
169.206224
 20
-441.872398
 10
180.331062
 20
-441.872398
 10
180.331062
 20
-430.757805
 10
169.206224
 20
-430.757805
  0
LWPOLYLINE
  5
14A8
100
AcDbEntity
  8
V0-VYPLNE
  6
CONTINUOUS
 62
    41
100
AcDbPolyline
 90
        4
 70
     1
 43
0.0
 10
169.206224
 20
-409.821017
 10
180.331062
 20
-409.821017
 10
180.331062
 20
-398.706424
 10
169.206224
 20
-398.706424
  0
LINE
  5
14A9
100
AcDbEntity
  8
V0-VYPLNE
  6
CONTINUOUS
 62
    41
100
AcDbLine
 10
169.128239
 20
-413.617012
 30
0.0
 11
179.589412
 21
-394.968184
 31
0.0
  0
ARC
  5
14DC
100
AcDbEntity
  8
V0-OBRYS
  6
CONTINUOUS
 62
    90
100
AcDbCircle
 10
55.063539
 20
-80.946328
 30
0.0
 40
49.16268
100
AcDbArc
 50
136.685734
 51
173.832651
  0
ARC
  5
14DD
100
AcDbEntity
  8
V0-OBRYS
  6
CONTINUOUS
 62
    90
100
AcDbCircle
 10
206.392746
 20
-282.301813
 30
0.0
 40
300.135913
100
AcDbArc
 50
51.558992
 51
90.048013
  0
ARC
  5
14DE
100
AcDbEntity
  8
V0-OBRYS
  6
CONTINUOUS
 62
    90
100
AcDbCircle
 10
357.218938
 20
-80.946328
 30
0.0
 40
49.16268
100
AcDbArc
 50
6.167349
 51
43.314266
  0
DIMENSION
  5
14EB
100
AcDbEntity
  8
V0-VYPLNE
  6
CONTINUOUS
 62
    41
100
AcDbDimension
  2
*D5
 10
406.097081
 20
59.055046
 30
0.0
 11
206.141239
 21
59.055046
 31
0.0
 70
   160
  3
ED10
100
AcDbAlignedDimension
 13
6.185396
 23
-75.664643
 33
0.0
 14
406.097081
 24
-75.664643
 34
0.0
100
AcDbRotatedDimension
1001
ACAD
1000
DSTYLE
1002
{
1070
    40
1040
1.0
1002
}
  0
DIMENSION
  5
150E
100
AcDbEntity
  8
V0-VYPLNE
  6
CONTINUOUS
 62
    41
100
AcDbDimension
  2
*D6
 10
281.141239
 20
-384.852663
 30
0.0
 11
200.516451
 21
-384.852663
 31
0.0
 70
   160
  1
%%c<>
  3
ED10
100
AcDbAlignedDimension
 13
131.141239
 23
-328.166006
 33
0.0
 14
281.141239
 24
-328.166006
 34
0.0
100
AcDbRotatedDimension
1001
ACAD
1000
DSTYLE
1002
{
1070
    40
1040
1.0
1002
}
  0
DIMENSION
  5
1589
100
AcDbEntity
  8
V0-VYPLNE
  6
CONTINUOUS
 62
    41
100
AcDbDimension
  2
*D7
 10
446.937224
 20
17.833994
 30
0.0
 11
435.435256
 21
-124.166006
 31
0.0
 12
0.0
 22
5.0
 32
0.0
 70
    32
  3
ED10
100
AcDbAlignedDimension
 13
356.141239
 23
-256.166006
 33
0.0
 14
206.141239
 24
17.833994
 34
0.0
 50
90.0
100
AcDbRotatedDimension
1001
ACAD
1000
DSTYLE
1002
{
1070
    40
1040
1.0
1002
}
  0
LINE
  5
15C1
100
AcDbEntity
  8
V0-OBRYS
  6
CONTINUOUS
 62
    90
100
AcDbLine
 10
131.141239
 20
-331.166006
 30
0.0
 11
280.557917
 21
-331.166006
 31
0.0
  0
LINE
  5
15C2
100
AcDbEntity
  8
V0-OBRYS
  6
CONTINUOUS
 62
    90
100
AcDbLine
 10
131.141239
 20
-96.166006
 30
0.0
 11
71.141239
 21
-96.166006
 31
0.0
  0
LINE
  5
15C3
100
AcDbEntity
  8
V0-OBRYS
  6
CONTINUOUS
 62
    90
100
AcDbLine
 10
71.141239
 20
-96.166006
 30
0.0
 11
71.141239
 21
-176.166006
 31
0.0
  0
LINE
  5
15C4
100
AcDbEntity
  8
V0-OBRYS
  6
CONTINUOUS
 62
    90
100
AcDbLine
 10
71.141239
 20
-176.166006
 30
0.0
 11
131.141239
 21
-176.166006
 31
0.0
  0
LINE
  5
15C5
100
AcDbEntity
  8
V0-OBRYS
  6
CONTINUOUS
 62
    90
100
AcDbLine
 10
87.583114
 20
-96.922577
 30
0.0
 11
87.583114
 21
-176.077746
 31
0.0
  0
LINE
  5
15C6
100
AcDbEntity
  8
V0-OBRYS
  6
CONTINUOUS
 62
    90
100
AcDbLine
 10
128.012114
 20
-84.483908
 30
0.0
 11
206.141239
 21
-84.483908
 31
0.0
  0
LINE
  5
15C7
100
AcDbEntity
  8
V0-OBRYS
  6
CONTINUOUS
 62
    90
100
AcDbLine
 10
128.012114
 20
-89.483908
 30
0.0
 11
206.141239
 21
-89.483908
 31
0.0
  0
ARC
  5
15C9
100
AcDbEntity
  8
V0-OBRYS
  6
CONTINUOUS
 62
    90
100
AcDbCircle
 10
128.012114
 20
-86.983908
 30
0.0
 40
2.5
100
AcDbArc
 50
90.0
 51
270.0
  0
LINE
  5
15CA
100
AcDbEntity
  8
V0-OBRYS
  6
CONTINUOUS
 62
    90
100
AcDbLine
 10
128.012114
 20
-239.40188
 30
0.0
 11
206.141239
 21
-239.40188
 31
0.0
  0
LINE
  5
15CB
100
AcDbEntity
  8
V0-OBRYS
  6
CONTINUOUS
 62
    90
100
AcDbLine
 10
128.012114
 20
-244.40188
 30
0.0
 11
206.141239
 21
-244.40188
 31
0.0
  0
ARC
  5
15CC
100
AcDbEntity
  8
V0-OBRYS
  6
CONTINUOUS
 62
    90
100
AcDbCircle
 10
128.012114
 20
-241.90188
 30
0.0
 40
2.5
100
AcDbArc
 50
90.0
 51
270.0
  0
LINE
  5
15CE
100
AcDbEntity
  8
V0-OBRYS
  6
CONTINUOUS
 62
    90
100
AcDbLine
 10
131.141239
 20
-84.483908
 30
0.0
 11
131.141239
 21
-82.280496
 31
0.0
  0
LINE
  5
15CF
100
AcDbEntity
  8
V0-OBRYS
  6
CONTINUOUS
 62
    90
100
AcDbLine
 10
131.141239
 20
-239.40188
 30
0.0
 11
131.141239
 21
-89.483908
 31
0.0
  0
LINE
  5
15D0
100
AcDbEntity
  8
V0-OBRYS
  6
CONTINUOUS
 62
    90
100
AcDbLine
 10
131.141239
 20
-84.483908
 30
0.0
 11
131.141239
 21
-82.280496
 31
0.0
  0
LINE
  5
15D1
100
AcDbEntity
  8
V0-OBRYS
  6
CONTINUOUS
 62
    90
100
AcDbLine
 10
131.596247
 20
-82.322251
 30
0.0
 11
206.141239
 21
-82.322251
 31
0.0
  0
LINE
  5
15D2
100
AcDbEntity
  8
V0-OBRYS
  6
CONTINUOUS
 62
    90
100
AcDbLine
 10
131.596247
 20
-77.322251
 30
0.0
 11
206.141239
 21
-77.322251
 31
0.0
  0
ARC
  5
15D3
100
AcDbEntity
  8
V0-OBRYS
  6
CONTINUOUS
 62
    90
100
AcDbCircle
 10
131.596247
 20
-79.822251
 30
0.0
 40
2.5
100
AcDbArc
 50
90.0
 51
270.0
  0
LINE
  5
15D4
100
AcDbEntity
  8
V0-OBRYS
  6
CONTINUOUS
 62
    90
100
AcDbLine
 10
131.141239
 20
-77.364006
 30
0.0
 11
131.141239
 21
-75.664643
 31
0.0
  0
LINE
  5
15D5
100
AcDbEntity
  8
V0-OBRYS
  6
CONTINUOUS
 62
    90
100
AcDbLine
 10
131.141239
 20
-77.364006
 30
0.0
 11
131.141239
 21
-75.664643
 31
0.0
  0
LINE
  5
15D6
100
AcDbEntity
  8
V0-OBRYS
  6
CONTINUOUS
 62
    90
100
AcDbLine
 10
281.141239
 20
-239.40188
 30
0.0
 11
281.141239
 21
-89.483908
 31
0.0
  0
LINE
  5
15D7
100
AcDbEntity
  8
V0-OBRYS
  6
CONTINUOUS
 62
    90
100
AcDbLine
 10
281.141239
 20
-239.40188
 30
0.0
 11
281.141239
 21
-89.483908
 31
0.0
  0
LINE
  5
15D8
100
AcDbEntity
  8
V0-OBRYS
  6
CONTINUOUS
 62
    90
100
AcDbLine
 10
284.270363
 20
-239.40188
 30
0.0
 11
206.141239
 21
-239.40188
 31
0.0
  0
LINE
  5
15D9
100
AcDbEntity
  8
V0-OBRYS
  6
CONTINUOUS
 62
    90
100
AcDbLine
 10
284.270363
 20
-244.40188
 30
0.0
 11
206.141239
 21
-244.40188
 31
0.0
  0
ARC
  5
15DA
100
AcDbEntity
  8
V0-OBRYS
  6
CONTINUOUS
 62
    90
100
AcDbCircle
 10
284.270363
 20
-241.90188
 30
0.0
 40
2.5
100
AcDbArc
 50
270.0
 51
90.0
  0
LINE
  5
15DB
100
AcDbEntity
  8
V0-OBRYS
  6
CONTINUOUS
 62
    90
100
AcDbLine
 10
280.68623
 20
-82.322251
 30
0.0
 11
206.141239
 21
-82.322251
 31
0.0
  0
LINE
  5
15DC
100
AcDbEntity
  8
V0-OBRYS
  6
CONTINUOUS
 62
    90
100
AcDbLine
 10
280.68623
 20
-77.322251
 30
0.0
 11
206.141239
 21
-77.322251
 31
0.0
  0
LINE
  5
15DD
100
AcDbEntity
  8
V0-OBRYS
  6
CONTINUOUS
 62
    90
100
AcDbLine
 10
284.270363
 20
-89.483908
 30
0.0
 11
206.141239
 21
-89.483908
 31
0.0
  0
LINE
  5
15DE
100
AcDbEntity
  8
V0-OBRYS
  6
CONTINUOUS
 62
    90
100
AcDbLine
 10
284.270363
 20
-84.483908
 30
0.0
 11
206.141239
 21
-84.483908
 31
0.0
  0
ARC
  5
15DF
100
AcDbEntity
  8
V0-OBRYS
  6
CONTINUOUS
 62
    90
100
AcDbCircle
 10
280.68623
 20
-79.822251
 30
0.0
 40
2.5
100
AcDbArc
 50
270.0
 51
90.0
  0
ARC
  5
15E0
100
AcDbEntity
  8
V0-OBRYS
  6
CONTINUOUS
 62
    90
100
AcDbCircle
 10
284.270363
 20
-86.983908
 30
0.0
 40
2.5
100
AcDbArc
 50
270.0
 51
90.0
  0
LINE
  5
15E1
100
AcDbEntity
  8
V0-OBRYS
  6
CONTINUOUS
 62
    90
100
AcDbLine
 10
281.141239
 20
-77.364006
 30
0.0
 11
281.141239
 21
-75.664643
 31
0.0
  0
LINE
  5
15E2
100
AcDbEntity
  8
V0-OBRYS
  6
CONTINUOUS
 62
    90
100
AcDbLine
 10
281.141239
 20
-84.483908
 30
0.0
 11
281.141239
 21
-82.280496
 31
0.0
  0
LINE
  5
15E3
100
AcDbEntity
  8
V0-OBRYS
  6
CONTINUOUS
 62
    90
100
AcDbLine
 10
281.141239
 20
-77.364006
 30
0.0
 11
281.141239
 21
-75.664643
 31
0.0
  0
LINE
  5
15E4
100
AcDbEntity
  8
V0-OBRYS
  6
CONTINUOUS
 62
    90
100
AcDbLine
 10
281.141239
 20
-84.483908
 30
0.0
 11
281.141239
 21
-82.280496
 31
0.0
  0
LINE
  5
15E6
100
AcDbEntity
  8
V0-OBRYS
  6
CONTINUOUS
 62
    90
100
AcDbLine
 10
281.141239
 20
-77.364006
 30
0.0
 11
281.141239
 21
-75.664643
 31
0.0
  0
LINE
  5
15E7
100
AcDbEntity
  8
V0-OBRYS
  6
CONTINUOUS
 62
    90
100
AcDbLine
 10
281.141239
 20
-82.280496
 30
0.0
 11
281.141239
 21
-84.483908
 31
0.0
  0
LINE
  5
15E8
100
AcDbEntity
  8
V0-OBRYS
  6
CONTINUOUS
 62
    90
100
AcDbLine
 10
281.141239
 20
-84.483908
 30
0.0
 11
281.141239
 21
-82.280496
 31
0.0
  0
LINE
  5
15E9
100
AcDbEntity
  8
V0-OBRYS
  6
CONTINUOUS
 62
    90
100
AcDbLine
 10
281.141239
 20
-239.40188
 30
0.0
 11
281.141239
 21
-89.483908
 31
0.0
  0
LINE
  5
15EA
100
AcDbEntity
  8
V0-OBRYS
  6
CONTINUOUS
 62
    90
100
AcDbLine
 10
281.141239
 20
-244.40188
 30
0.0
 11
281.141239
 21
-253.166006
 31
0.0
  0
DIMENSION
  5
15F7
100
AcDbEntity
  8
V0-VYPLNE
  6
CONTINUOUS
 62
    41
100
AcDbDimension
  2
*D8
 10
521.638133
 20
-331.166006
 30
0.0
 11
510.138133
 21
-156.666006
 31
0.0
 70
    32
  3
ED10
100
AcDbAlignedDimension
 13
207.141239
 23
17.833994
 33
0.0
 14
280.557917
 24
-331.166006
 34
0.0
 50
90.0
100
AcDbRotatedDimension
1001
ACAD
1000
DSTYLE
1002
{
1070
    40
1040
1.0
1002
}
  0
LINE
  5
1619
100
AcDbEntity
  8
V0-OBRYS
  6
CONTINUOUS
 62
    90
100
AcDbLine
 10
131.141239
 20
-253.166006
 30
0.0
 11
131.141239
 21
-244.40188
 31
0.0
  0
LINE
  5
161A
100
AcDbEntity
  8
V0-OBRYS
  6
CONTINUOUS
 62
    90
100
AcDbLine
 10
131.141239
 20
-253.166006
 30
0.0
 11
131.141239
 21
-244.40188
 31
0.0
  0
LINE
  5
161B
100
AcDbEntity
  8
V0-OBRYS
  6
CONTINUOUS
 62
    90
100
AcDbLine
 10
281.141239
 20
-298.166006
 30
0.0
 11
281.141239
 21
-328.166006
 31
0.0
  0
LINE
  5
161C
100
AcDbEntity
  8
V0-OBRYS
  6
CONTINUOUS
 62
    90
100
AcDbLine
 10
281.141239
 20
-253.166006
 30
0.0
 11
281.141239
 21
-244.40188
 31
0.0
  0
DIMENSION
  5
165D
100
AcDbEntity
  8
V0-VYPLNE
  6
CONTINUOUS
 62
    41
100
AcDbDimension
  2
*D9
 10
2.857237
 20
-276.166006
 30
0.0
 11
2.857237
 21
-266.166006
 31
0.0
 70
   160
  3
ED10
100
AcDbAlignedDimension
 13
56.141239
 23
-256.166006
 33
0.0
 14
56.141239
 24
-276.166006
 34
0.0
 50
90.0
100
AcDbRotatedDimension
1001
ACAD
1000
DSTYLE
1002
{
1070
    40
1040
1.0
1002
}
  0
LINE
  5
165E
100
AcDbEntity
  8
V0-OBRYS
  6
CONTINUOUS
 62
    90
100
AcDbLine
 10
126.141239
 20
-298.166006
 30
0.0
 11
285.912403
 21
-298.166006
 31
0.0
  0
LINE
  5
165F
100
AcDbEntity
  8
V0-OBRYS
  6
CONTINUOUS
 62
    90
100
AcDbLine
 10
126.141239
 20
-276.166006
 30
0.0
 11
126.141239
 21
-298.166006
 31
0.0
  0
LINE
  5
1660
100
AcDbEntity
  8
V0-OBRYS
  6
CONTINUOUS
 62
    90
100
AcDbLine
 10
286.13674
 20
-277.014449
 30
0.0
 11
285.912403
 21
-298.166006
 31
0.0
  0
DIMENSION
  5
1696
100
AcDbEntity
  8
V0-VYPLNE
  6
CONTINUOUS
 62
    41
100
AcDbDimension
  2
*D10
 10
27.405329
 20
-331.166006
 30
0.0
 11
27.405329
 21
-314.666006
 31
0.0
 70
   160
  3
ED10
100
AcDbAlignedDimension
 13
126.141239
 23
-298.166006
 33
0.0
 14
131.141239
 24
-331.166006
 34
0.0
 50
90.0
100
AcDbRotatedDimension
1001
ACAD
1000
DSTYLE
1002
{
1070
    40
1040
1.0
1002
}
  0
LINE
  5
16FC
100
AcDbEntity
  8
V0-VYPLNE
  6
DASHED
 62
    52
100
AcDbLine
 10
144.649539
 20
-678.827381
 30
0.0
 11
74.394314
 21
-678.827381
 31
0.0
  0
LINE
  5
16FD
100
AcDbEntity
  8
V0-VYPLNE
  6
DASHED
 62
    52
100
AcDbLine
 10
144.649539
 20
-758.827381
 30
0.0
 11
74.394314
 21
-758.827381
 31
0.0
  0
LINE
  5
16FE
100
AcDbEntity
  8
V0-VYPLNE
  6
DASHED
 62
    52
100
AcDbLine
 10
74.394314
 20
-678.827381
 30
0.0
 11
74.394314
 21
-758.827381
 31
0.0
  0
LINE
  5
16FF
100
AcDbEntity
  8
V0-VYPLNE
  6
DASHED
 62
    52
100
AcDbLine
 10
91.024911
 20
-678.827381
 30
0.0
 11
91.024911
 21
-758.827381
 31
0.0
  0
LINE
  5
1701
100
AcDbEntity
  8
V0-OBRYS
  6
CONTINUOUS
 62
    90
100
AcDbLine
 10
856.9757
 20
-298.166006
 30
0.0
 11
856.9757
 21
-328.166006
 31
0.0
  0
LINE
  5
1702
100
AcDbEntity
  8
V0-OBRYS
  6
CONTINUOUS
 62
    90
100
AcDbLine
 10
706.9757
 20
-328.166006
 30
0.0
 11
706.9757
 21
-298.166006
 31
0.0
  0
LINE
  5
1703
100
AcDbEntity
  8
V0-OBRYS
  6
CONTINUOUS
 62
    90
100
AcDbLine
 10
706.9757
 20
-331.166006
 30
0.0
 11
856.392378
 21
-331.166006
 31
0.0
  0
LINE
  5
1704
100
AcDbEntity
  8
V0-OBRYS
  6
CONTINUOUS
 62
    90
100
AcDbLine
 10
582.019857
 20
-75.664643
 30
0.0
 11
981.931542
 21
-75.664643
 31
0.0
  0
LINE
  5
1705
100
AcDbEntity
  8
V0-OBRYS
  6
CONTINUOUS
 62
    90
100
AcDbLine
 10
931.9757
 20
-256.166006
 30
0.0
 11
631.9757
 21
-256.166006
 31
0.0
  0
LINE
  5
1706
100
AcDbEntity
  8
V0-OBRYS
  6
CONTINUOUS
 62
    90
100
AcDbLine
 10
646.9757
 20
-253.166006
 30
0.0
 11
916.9757
 21
-253.166006
 31
0.0
  0
ARC
  5
1707
100
AcDbEntity
  8
V0-OBRYS
  6
CONTINUOUS
 62
    90
100
AcDbCircle
 10
781.724193
 20
-282.301813
 30
0.0
 40
300.135913
100
AcDbArc
 50
89.951987
 51
128.441008
  0
LINE
  5
1708
100
AcDbEntity
  8
V0-OBRYS
  6
CONTINUOUS
 62
    90
100
AcDbLine
 10
631.9757
 20
-276.166006
 30
0.0
 11
931.9757
 21
-276.166006
 31
0.0
  0
LINE
  5
170A
100
AcDbEntity
  8
V0-OBRYS
  6
CONTINUOUS
 62
    90
100
AcDbLine
 10
631.9757
 20
-256.166006
 30
0.0
 11
631.9757
 21
-276.166006
 31
0.0
  0
LINE
  5
170B
100
AcDbEntity
  8
V0-OBRYS
  6
CONTINUOUS
 62
    90
100
AcDbLine
 10
646.9757
 20
-256.166006
 30
0.0
 11
646.9757
 21
-253.166006
 31
0.0
  0
ARC
  5
170C
100
AcDbEntity
  8
V0-OBRYS
  6
CONTINUOUS
 62
    90
100
AcDbCircle
 10
630.898
 20
-80.946328
 30
0.0
 40
49.16268
100
AcDbArc
 50
136.685734
 51
173.832651
  0
LINE
  5
170D
100
AcDbEntity
  8
V0-OBRYS
  6
CONTINUOUS
 62
    90
100
AcDbLine
 10
701.9757
 20
-298.166006
 30
0.0
 11
861.746864
 21
-298.166006
 31
0.0
  0
MTEXT
  5
170E
100
AcDbEntity
  8
V0-NAZVY
  6
CONTINUOUS
100
AcDbMText
 10
694.116903
 20
-9.111785
 30
0.0
 40
28.0
 41
170.2366
 71
     1
 72
     5
  1
TH-500/150
  7
ED40
  0
LINE
  5
170F
100
AcDbEntity
  8
V0-OBRYS
  6
CONTINUOUS
 62
    90
100
AcDbLine
 10
860.104824
 20
-84.483908
 30
0.0
 11
781.9757
 21
-84.483908
 31
0.0
  0
LINE
  5
1710
100
AcDbEntity
  8
V0-OBRYS
  6
CONTINUOUS
 62
    90
100
AcDbLine
 10
860.104824
 20
-89.483908
 30
0.0
 11
781.9757
 21
-89.483908
 31
0.0
  0
LINE
  5
1711
100
AcDbEntity
  8
V0-OBRYS
  6
CONTINUOUS
 62
    90
100
AcDbLine
 10
856.520691
 20
-77.322251
 30
0.0
 11
781.9757
 21
-77.322251
 31
0.0
  0
LINE
  5
1712
100
AcDbEntity
  8
V0-OBRYS
  6
CONTINUOUS
 62
    90
100
AcDbLine
 10
856.520691
 20
-82.322251
 30
0.0
 11
781.9757
 21
-82.322251
 31
0.0
  0
LINE
  5
1713
100
AcDbEntity
  8
V0-OBRYS
  6
CONTINUOUS
 62
    90
100
AcDbLine
 10
860.104824
 20
-244.40188
 30
0.0
 11
781.9757
 21
-244.40188
 31
0.0
  0
LINE
  5
1714
100
AcDbEntity
  8
V0-OBRYS
  6
CONTINUOUS
 62
    90
100
AcDbLine
 10
860.104824
 20
-239.40188
 30
0.0
 11
781.9757
 21
-239.40188
 31
0.0
  0
ARC
  5
1715
100
AcDbEntity
  8
V0-OBRYS
  6
CONTINUOUS
 62
    90
100
AcDbCircle
 10
782.227206
 20
-282.301813
 30
0.0
 40
300.135913
100
AcDbArc
 50
51.558992
 51
90.048013
  0
LINE
  5
1716
100
AcDbEntity
  8
V0-OBRYS
  6
CONTINUOUS
 62
    90
100
AcDbLine
 10
706.9757
 20
-239.40188
 30
0.0
 11
706.9757
 21
-89.483908
 31
0.0
  0
LINE
  5
1717
100
AcDbEntity
  8
V0-VYPLNE
100
AcDbLine
 10
781.9757
 20
17.833994
 30
0.0
 11
781.9757
 21
2.978544
 31
0.0
  0
LINE
  5
1718
100
AcDbEntity
  8
V0-OBRYS
  6
CONTINUOUS
 62
    90
100
AcDbLine
 10
703.846575
 20
-239.40188
 30
0.0
 11
781.9757
 21
-239.40188
 31
0.0
  0
LINE
  5
1719
100
AcDbEntity
  8
V0-OBRYS
  6
CONTINUOUS
 62
    90
100
AcDbLine
 10
703.846575
 20
-244.40188
 30
0.0
 11
781.9757
 21
-244.40188
 31
0.0
  0
LINE
  5
171A
100
AcDbEntity
  8
V0-VYPLNE
100
AcDbLine
 10
659.4757
 20
-286.166006
 30
0.0
 11
659.4757
 21
-231.166006
 31
0.0
  0
LINE
  5
171B
100
AcDbEntity
  8
V0-OBRYS
  6
CONTINUOUS
 62
    90
100
AcDbLine
 10
701.9757
 20
-276.166006
 30
0.0
 11
701.9757
 21
-298.166006
 31
0.0
  0
ARC
  5
171C
100
AcDbEntity
  8
V0-OBRYS
  6
CONTINUOUS
 62
    90
100
AcDbCircle
 10
703.846575
 20
-241.90188
 30
0.0
 40
2.5
100
AcDbArc
 50
90.0
 51
270.0
  0
LINE
  5
171D
100
AcDbEntity
  8
V0-OBRYS
  6
CONTINUOUS
 62
    90
100
AcDbLine
 10
706.9757
 20
-253.166006
 30
0.0
 11
706.9757
 21
-244.40188
 31
0.0
  0
LINE
  5
171E
100
AcDbEntity
  8
V0-OBRYS
  6
CONTINUOUS
 62
    90
100
AcDbLine
 10
706.9757
 20
-253.166006
 30
0.0
 11
706.9757
 21
-244.40188
 31
0.0
  0
POINT
  5
171F
100
AcDbEntity
  8
V0-VYPLNE
  6
CONTINUOUS
 62
    41
100
AcDbPoint
 10
781.9757
 20
-276.166006
 30
0.0
  0
LINE
  5
1720
100
AcDbEntity
  8
V0-OBRYS
  6
CONTINUOUS
 62
    90
100
AcDbLine
 10
707.430708
 20
-82.322251
 30
0.0
 11
781.9757
 21
-82.322251
 31
0.0
  0
LINE
  5
1721
100
AcDbEntity
  8
V0-OBRYS
  6
CONTINUOUS
 62
    90
100
AcDbLine
 10
707.430708
 20
-77.322251
 30
0.0
 11
781.9757
 21
-77.322251
 31
0.0
  0
LINE
  5
1722
100
AcDbEntity
  8
V0-OBRYS
  6
CONTINUOUS
 62
    90
100
AcDbLine
 10
703.846575
 20
-89.483908
 30
0.0
 11
781.9757
 21
-89.483908
 31
0.0
  0
LINE
  5
1723
100
AcDbEntity
  8
V0-OBRYS
  6
CONTINUOUS
 62
    90
100
AcDbLine
 10
703.846575
 20
-84.483908
 30
0.0
 11
781.9757
 21
-84.483908
 31
0.0
  0
ARC
  5
1724
100
AcDbEntity
  8
V0-OBRYS
  6
CONTINUOUS
 62
    90
100
AcDbCircle
 10
707.430708
 20
-79.822251
 30
0.0
 40
2.5
100
AcDbArc
 50
90.0
 51
270.0
  0
ARC
  5
1725
100
AcDbEntity
  8
V0-OBRYS
  6
CONTINUOUS
 62
    90
100
AcDbCircle
 10
703.846575
 20
-86.983908
 30
0.0
 40
2.5
100
AcDbArc
 50
90.0
 51
270.0
  0
LINE
  5
1726
100
AcDbEntity
  8
V0-OBRYS
  6
CONTINUOUS
 62
    90
100
AcDbLine
 10
706.9757
 20
-77.364006
 30
0.0
 11
706.9757
 21
-75.664643
 31
0.0
  0
LINE
  5
1727
100
AcDbEntity
  8
V0-OBRYS
  6
CONTINUOUS
 62
    90
100
AcDbLine
 10
706.9757
 20
-84.483908
 30
0.0
 11
706.9757
 21
-82.280496
 31
0.0
  0
LINE
  5
1728
100
AcDbEntity
  8
V0-OBRYS
  6
CONTINUOUS
 62
    90
100
AcDbLine
 10
706.9757
 20
-77.364006
 30
0.0
 11
706.9757
 21
-75.664643
 31
0.0
  0
LINE
  5
1729
100
AcDbEntity
  8
V0-OBRYS
  6
CONTINUOUS
 62
    90
100
AcDbLine
 10
706.9757
 20
-84.483908
 30
0.0
 11
706.9757
 21
-82.280496
 31
0.0
  0
LINE
  5
172B
100
AcDbEntity
  8
V0-OBRYS
  6
CONTINUOUS
 62
    90
100
AcDbLine
 10
856.9757
 20
-239.40188
 30
0.0
 11
856.9757
 21
-89.483908
 31
0.0
  0
LINE
  5
172C
100
AcDbEntity
  8
V0-OBRYS
  6
CONTINUOUS
 62
    90
100
AcDbLine
 10
856.9757
 20
-239.40188
 30
0.0
 11
856.9757
 21
-89.483908
 31
0.0
  0
LINE
  5
172D
100
AcDbEntity
  8
V0-OBRYS
  6
CONTINUOUS
 62
    90
100
AcDbLine
 10
856.9757
 20
-239.40188
 30
0.0
 11
856.9757
 21
-89.483908
 31
0.0
  0
LINE
  5
1730
100
AcDbEntity
  8
V0-OBRYS
  6
CONTINUOUS
 62
    90
100
AcDbLine
 10
861.9712
 20
-277.014449
 30
0.0
 11
861.746864
 21
-298.166006
 31
0.0
  0
LINE
  5
1731
100
AcDbEntity
  8
V0-OBRYS
  6
CONTINUOUS
 62
    90
100
AcDbLine
 10
856.9757
 20
-253.166006
 30
0.0
 11
856.9757
 21
-244.40188
 31
0.0
  0
LINE
  5
1732
100
AcDbEntity
  8
V0-OBRYS
  6
CONTINUOUS
 62
    90
100
AcDbLine
 10
856.9757
 20
-244.40188
 30
0.0
 11
856.9757
 21
-253.166006
 31
0.0
  0
ARC
  5
1733
100
AcDbEntity
  8
V0-OBRYS
  6
CONTINUOUS
 62
    90
100
AcDbCircle
 10
860.104824
 20
-241.90188
 30
0.0
 40
2.5
100
AcDbArc
 50
270.0
 51
90.0
  0
LINE
  5
1734
100
AcDbEntity
  8
V0-VYPLNE
100
AcDbLine
 10
904.4757
 20
-286.166006
 30
0.0
 11
904.4757
 21
-231.166006
 31
0.0
  0
LINE
  5
1735
100
AcDbEntity
  8
V0-OBRYS
  6
CONTINUOUS
 62
    90
100
AcDbLine
 10
931.9757
 20
-276.166006
 30
0.0
 11
931.9757
 21
-256.166006
 31
0.0
  0
LINE
  5
1736
100
AcDbEntity
  8
V0-OBRYS
  6
CONTINUOUS
 62
    90
100
AcDbLine
 10
916.9757
 20
-253.166006
 30
0.0
 11
916.9757
 21
-256.166006
 31
0.0
  0
ARC
  5
1738
100
AcDbEntity
  8
V0-OBRYS
  6
CONTINUOUS
 62
    90
100
AcDbCircle
 10
856.520691
 20
-79.822251
 30
0.0
 40
2.5
100
AcDbArc
 50
270.0
 51
90.0
  0
LINE
  5
1739
100
AcDbEntity
  8
V0-OBRYS
  6
CONTINUOUS
 62
    90
100
AcDbLine
 10
856.9757
 20
-84.483908
 30
0.0
 11
856.9757
 21
-82.280496
 31
0.0
  0
LINE
  5
173A
100
AcDbEntity
  8
V0-OBRYS
  6
CONTINUOUS
 62
    90
100
AcDbLine
 10
856.9757
 20
-82.280496
 30
0.0
 11
856.9757
 21
-84.483908
 31
0.0
  0
LINE
  5
173B
100
AcDbEntity
  8
V0-OBRYS
  6
CONTINUOUS
 62
    90
100
AcDbLine
 10
856.9757
 20
-75.664643
 30
0.0
 11
856.9757
 21
-77.364006
 31
0.0
  0
LINE
  5
173C
100
AcDbEntity
  8
V0-OBRYS
  6
CONTINUOUS
 62
    90
100
AcDbLine
 10
856.9757
 20
-77.364006
 30
0.0
 11
856.9757
 21
-75.664643
 31
0.0
  0
LINE
  5
173D
100
AcDbEntity
  8
V0-OBRYS
  6
CONTINUOUS
 62
    90
100
AcDbLine
 10
856.9757
 20
-84.483908
 30
0.0
 11
856.9757
 21
-82.280496
 31
0.0
  0
LINE
  5
173E
100
AcDbEntity
  8
V0-OBRYS
  6
CONTINUOUS
 62
    90
100
AcDbLine
 10
856.9757
 20
-77.364006
 30
0.0
 11
856.9757
 21
-75.664643
 31
0.0
  0
LINE
  5
173F
100
AcDbEntity
  8
V0-OBRYS
  6
CONTINUOUS
 62
    90
100
AcDbLine
 10
856.9757
 20
-84.483908
 30
0.0
 11
856.9757
 21
-82.280496
 31
0.0
  0
LINE
  5
1740
100
AcDbEntity
  8
V0-OBRYS
  6
CONTINUOUS
 62
    90
100
AcDbLine
 10
856.9757
 20
-77.364006
 30
0.0
 11
856.9757
 21
-75.664643
 31
0.0
  0
ARC
  5
1741
100
AcDbEntity
  8
V0-OBRYS
  6
CONTINUOUS
 62
    90
100
AcDbCircle
 10
860.104824
 20
-86.983908
 30
0.0
 40
2.5
100
AcDbArc
 50
270.0
 51
90.0
  0
ARC
  5
1742
100
AcDbEntity
  8
V0-OBRYS
  6
CONTINUOUS
 62
    90
100
AcDbCircle
 10
933.053399
 20
-80.946328
 30
0.0
 40
49.16268
100
AcDbArc
 50
6.167349
 51
43.314266
  0
LINE
  5
175D
100
AcDbEntity
  8
V0-VYPLNE
100
AcDbLine
 10
781.9757
 20
-51.02105
 30
0.0
 11
781.9757
 21
-272.319392
 31
0.0
  0
POINT
  5
175E
100
AcDbEntity
  8
V0-VYPLNE
  6
CONTINUOUS
 62
    52
100
AcDbPoint
 10
204.649539
 20
-718.827381
 30
0.0
  0
LINE
  5
1763
100
AcDbEntity
  8
V0-OBRYS
  6
CONTINUOUS
 62
    90
100
AcDbLine
 10
743.417574
 20
-176.166006
 30
0.0
 11
781.9757
 21
-176.166006
 31
0.0
  0
LINE
  5
1764
100
AcDbEntity
  8
V0-OBRYS
  6
CONTINUOUS
 62
    90
100
AcDbLine
 10
781.9757
 20
-96.166006
 30
0.0
 11
743.417574
 21
-96.166006
 31
0.0
  0
LINE
  5
1766
100
AcDbEntity
  8
V0-OBRYS
  6
CONTINUOUS
 62
    90
100
AcDbLine
 10
738.417574
 20
-101.166006
 30
0.0
 11
738.417574
 21
-171.166006
 31
0.0
  0
LINE
  5
1767
100
AcDbEntity
  8
V0-OBRYS
  6
CONTINUOUS
 62
    90
100
AcDbLine
 10
781.9757
 20
-96.166006
 30
0.0
 11
820.533825
 21
-96.166006
 31
0.0
  0
LINE
  5
1768
100
AcDbEntity
  8
V0-OBRYS
  6
CONTINUOUS
 62
    90
100
AcDbLine
 10
820.533825
 20
-176.166006
 30
0.0
 11
781.9757
 21
-176.166006
 31
0.0
  0
LINE
  5
1769
100
AcDbEntity
  8
V0-OBRYS
  6
CONTINUOUS
 62
    90
100
AcDbLine
 10
825.533825
 20
-101.166006
 30
0.0
 11
825.533825
 21
-171.166006
 31
0.0
  0
ARC
  5
176B
100
AcDbEntity
  8
V0-OBRYS
  6
CONTINUOUS
 62
    90
100
AcDbCircle
 10
743.417574
 20
-101.166006
 30
0.0
 40
5.0
100
AcDbArc
 50
90.0
 51
180.0
  0
ARC
  5
176C
100
AcDbEntity
  8
V0-OBRYS
  6
CONTINUOUS
 62
    90
100
AcDbCircle
 10
820.533825
 20
-101.166006
 30
0.0
 40
5.0
100
AcDbArc
 50
0.0
 51
90.0
  0
ARC
  5
176D
100
AcDbEntity
  8
V0-OBRYS
  6
CONTINUOUS
 62
    90
100
AcDbCircle
 10
820.533825
 20
-171.166006
 30
0.0
 40
5.0
100
AcDbArc
 50
270.0
 51
0.0
  0
ARC
  5
176E
100
AcDbEntity
  8
V0-OBRYS
  6
CONTINUOUS
 62
    90
100
AcDbCircle
 10
743.417574
 20
-171.166006
 30
0.0
 40
5.0
100
AcDbArc
 50
180.0
 51
270.0
  0
CIRCLE
  5
176F
100
AcDbEntity
  8
V0-OBRYS
  6
CONTINUOUS
 62
    90
100
AcDbCircle
 10
743.417574
 20
-101.166006
 30
0.0
 40
2.5
  0
LINE
  5
1773
100
AcDbEntity
  8
V0-VYPLNE
  6
DASHDOT
 62
    63
100
AcDbLine
 10
743.417574
 20
-96.166006
 30
0.0
 11
743.417574
 21
-106.381745
 31
0.0
  0
LINE
  5
1774
100
AcDbEntity
  8
V0-VYPLNE
  6
DASHDOT
 62
    63
100
AcDbLine
 10
738.417574
 20
-101.166006
 30
0.0
 11
748.883705
 21
-101.166006
 31
0.0
  0
LINE
  5
178C
100
AcDbEntity
  8
V0-VYPLNE
  6
DASHDOT
 62
    63
100
AcDbLine
 10
820.533825
 20
-96.166006
 30
0.0
 11
820.533825
 21
-106.381745
 31
0.0
  0
CIRCLE
  5
178D
100
AcDbEntity
  8
V0-OBRYS
  6
CONTINUOUS
 62
    90
100
AcDbCircle
 10
820.533825
 20
-101.166006
 30
0.0
 40
2.5
  0
LINE
  5
178E
100
AcDbEntity
  8
V0-VYPLNE
  6
DASHDOT
 62
    63
100
AcDbLine
 10
825.533825
 20
-101.166006
 30
0.0
 11
815.067694
 21
-101.166006
 31
0.0
  0
LINE
  5
178F
100
AcDbEntity
  8
V0-VYPLNE
  6
DASHDOT
 62
    63
100
AcDbLine
 10
743.417574
 20
-176.166006
 30
0.0
 11
743.417574
 21
-165.950266
 31
0.0
  0
CIRCLE
  5
1790
100
AcDbEntity
  8
V0-OBRYS
  6
CONTINUOUS
 62
    90
100
AcDbCircle
 10
743.417574
 20
-171.166006
 30
0.0
 40
2.5
  0
LINE
  5
1791
100
AcDbEntity
  8
V0-VYPLNE
  6
DASHDOT
 62
    63
100
AcDbLine
 10
738.417574
 20
-171.166006
 30
0.0
 11
748.883705
 21
-171.166006
 31
0.0
  0
LINE
  5
1792
100
AcDbEntity
  8
V0-VYPLNE
  6
DASHDOT
 62
    63
100
AcDbLine
 10
825.533825
 20
-171.166006
 30
0.0
 11
815.067694
 21
-171.166006
 31
0.0
  0
CIRCLE
  5
1793
100
AcDbEntity
  8
V0-OBRYS
  6
CONTINUOUS
 62
    90
100
AcDbCircle
 10
820.533825
 20
-171.166006
 30
0.0
 40
2.5
  0
LINE
  5
1794
100
AcDbEntity
  8
V0-VYPLNE
  6
DASHDOT
 62
    63
100
AcDbLine
 10
820.533825
 20
-176.166006
 30
0.0
 11
820.533825
 21
-165.950266
 31
0.0
  0
ARC
  5
1795
100
AcDbEntity
  8
V0-OBRYS
  6
CONTINUOUS
 62
    90
100
AcDbCircle
 10
820.533825
 20
-171.166006
 30
0.0
 40
5.0
100
AcDbArc
 50
270.0
 51
0.0
  0
MTEXT
  5
17B4
100
AcDbEntity
  8
V0-NAZVY
  6
CONTINUOUS
100
AcDbMText
 10
118.282442
 20
-592.722786
 30
0.0
 40
28.0
 41
170.2366
 71
     1
 72
     5
  1
TH-500/150
  7
ED40
  0
LINE
  5
17B5
100
AcDbEntity
  8
V0-VYPLNE
100
AcDbLine
 10
206.141239
 20
-55.174864
 30
0.0
 11
206.141239
 21
-272.319392
 31
0.0
  0
LINE
  5
17B6
100
AcDbEntity
  8
V0-VYPLNE
  6
DASHDOT
 62
    63
100
AcDbLine
 10
204.649539
 20
-632.555145
 30
0.0
 11
204.649539
 21
-901.724889
 31
0.0
  0
VIEWPORT
  5
22
100
AcDbEntity
 67
     1
  8
0
100
AcDbViewport
 10
261.517699
 20
148.5
 30
0.0
 40
523.035398
 41
297.0
 68
    -1
 69
     1
1001
ACAD
1000
MVIEW
1002
{
1070
    16
1010
0.0
1020
0.0
1030
0.0
1010
0.0
1020
0.0
1030
1.0
1040
0.0
1040
297.0
1040
261.517699
1040
148.5
1040
50.0
1040
0.0
1040
0.0
1070
     0
1070
   100
1070
     1
1070
     1
1070
     0
1070
     0
1070
     0
1070
     0
1040
0.0
1040
0.0
1040
0.0
1040
1.0
1040
1.0
1040
10.0
1040
10.0
1070
     0
1002
{
1002
}
1002
}
  0
ENDSEC
  0
SECTION
  2
OBJECTS
  0
DICTIONARY
  5
C
100
AcDbDictionary
  3
ACAD_GROUP
350
D
  3
ACAD_MLINESTYLE
350
E
  3
ACDBVARIABLEDICTIONARY
350
5D
  0
DICTIONARY
  5
D
102
{ACAD_REACTORS
330
C
102
}
100
AcDbDictionary
  0
DICTIONARY
  5
E
102
{ACAD_REACTORS
330
C
102
}
100
AcDbDictionary
  3
STANDARD
350
13
  0
DICTIONARY
  5
5D
102
{ACAD_REACTORS
330
C
102
}
100
AcDbDictionary
  3
DIMADEC
350
5E
  3
SORTENTS
350
3D8
  0
MLINESTYLE
  5
13
102
{ACAD_REACTORS
330
E
102
}
100
AcDbMlineStyle
  2
STANDARD
 70
     0
  3

 62
     0
 51
90.0
 52
90.0
 71
     2
 49
0.5
 62
   256
  6
BYLAYER
 49
-0.5
 62
   256
  6
BYLAYER
  0
DICTIONARYVAR
  5
5E
102
{ACAD_REACTORS
330
5D
102
}
100
DictionaryVariables
280
     0
  1
0
  0
DICTIONARYVAR
  5
3D8
102
{ACAD_REACTORS
330
5D
102
}
100
DictionaryVariables
280
     0
  1
96
  0
ENDSEC
  0
EOF
