  0
SECTION
  2
HEADER
  9
$ACADVER
  1
AC1014
  9
$ACADMAINTVER
 70
     0
  9
$DWGCODEPAGE
  3
ANSI_1250
  9
$INSBASE
 10
0.0
 20
0.0
 30
0.0
  9
$EXTMIN
 10
-499.943346
 20
-1222.943709
 30
0.0
  9
$EXTMAX
 10
1308.957845
 20
209.388669
 30
0.0
  9
$LIMMIN
 10
0.0
 20
0.0
  9
$LIMMAX
 10
420.0
 20
297.0
  9
$ORTHOMODE
 70
     0
  9
$REGENMODE
 70
     1
  9
$FILLMODE
 70
     1
  9
$QTEXTMODE
 70
     0
  9
$MIRRTEXT
 70
     1
  9
$DRAGMODE
 70
     2
  9
$LTSCALE
 40
1.0
  9
$OSMODE
 70
    45
  9
$ATTMODE
 70
     1
  9
$TEXTSIZE
 40
40.0
  9
$TRACEWID
 40
1.0
  9
$TEXTSTYLE
  7
ED40
  9
$CLAYER
  8
V0-OBRYS
  9
$CELTYPE
  6
DASHDOT
  9
$CECOLOR
 62
    90
  9
$CELTSCALE
 40
1.0
  9
$DELOBJ
 70
     1
  9
$DISPSILH
 70
     0
  9
$DIMSCALE
 40
1.0
  9
$DIMASZ
 40
35.0
  9
$DIMEXO
 40
1.0
  9
$DIMDLI
 40
3.75
  9
$DIMRND
 40
0.0
  9
$DIMDLE
 40
0.0
  9
$DIMEXE
 40
1.25
  9
$DIMTP
 40
0.0
  9
$DIMTM
 40
0.0
  9
$DIMTXT
 40
40.0
  9
$DIMCEN
 40
3.0
  9
$DIMTSZ
 40
0.0
  9
$DIMTOL
 70
     0
  9
$DIMLIM
 70
     0
  9
$DIMTIH
 70
     0
  9
$DIMTOH
 70
     0
  9
$DIMSE1
 70
     0
  9
$DIMSE2
 70
     0
  9
$DIMTAD
 70
     1
  9
$DIMZIN
 70
     8
  9
$DIMBLK
  1

  9
$DIMASO
 70
     1
  9
$DIMSHO
 70
     1
  9
$DIMPOST
  1

  9
$DIMAPOST
  1

  9
$DIMALT
 70
     0
  9
$DIMALTD
 70
     4
  9
$DIMALTF
 40
0.0394
  9
$DIMLFAC
 40
1.0
  9
$DIMTOFL
 70
     1
  9
$DIMTVP
 40
0.0
  9
$DIMTIX
 70
     0
  9
$DIMSOXD
 70
     0
  9
$DIMSAH
 70
     1
  9
$DIMBLK1
  1
_OPEN
  9
$DIMBLK2
  1
_OPEN
  9
$DIMSTYLE
  2
ED40
  9
$DIMCLRD
 70
     0
  9
$DIMCLRE
 70
     0
  9
$DIMCLRT
 70
     0
  9
$DIMTFAC
 40
1.0
  9
$DIMGAP
 40
4.0
  9
$DIMJUST
 70
     0
  9
$DIMSD1
 70
     0
  9
$DIMSD2
 70
     0
  9
$DIMTOLJ
 70
     1
  9
$DIMTZIN
 70
     8
  9
$DIMALTZ
 70
     0
  9
$DIMALTTZ
 70
     0
  9
$DIMFIT
 70
     3
  9
$DIMUPT
 70
     0
  9
$DIMUNIT
 70
     2
  9
$DIMDEC
 70
     0
  9
$DIMTDEC
 70
     1
  9
$DIMALTU
 70
     8
  9
$DIMALTTD
 70
     4
  9
$DIMTXSTY
  7
ED40
  9
$DIMAUNIT
 70
     0
  9
$LUNITS
 70
     2
  9
$LUPREC
 70
     4
  9
$SKETCHINC
 40
1.0
  9
$FILLETRAD
 40
5.0
  9
$AUNITS
 70
     0
  9
$AUPREC
 70
     0
  9
$MENU
  1
.
  9
$ELEVATION
 40
0.0
  9
$PELEVATION
 40
0.0
  9
$THICKNESS
 40
0.0
  9
$LIMCHECK
 70
     0
  9
$BLIPMODE
 70
     0
  9
$CHAMFERA
 40
10.0
  9
$CHAMFERB
 40
10.0
  9
$CHAMFERC
 40
20.0
  9
$CHAMFERD
 40
0.0
  9
$SKPOLY
 70
     1
  9
$TDCREATE
 40
2451196.643769328
  9
$TDUPDATE
 40
2452916.481294791
  9
$TDINDWG
 40
0.6350609954
  9
$TDUSRTIMER
 40
0.6350609954
  9
$USRTIMER
 70
     1
  9
$ANGBASE
 50
0.0
  9
$ANGDIR
 70
     0
  9
$PDMODE
 70
     3
  9
$PDSIZE
 40
20.0
  9
$PLINEWID
 40
0.0
  9
$COORDS
 70
     1
  9
$SPLFRAME
 70
     0
  9
$SPLINETYPE
 70
     6
  9
$SPLINESEGS
 70
     8
  9
$ATTDIA
 70
     0
  9
$ATTREQ
 70
     1
  9
$HANDLING
 70
     1
  9
$HANDSEED
  5
1DB7
  9
$SURFTAB1
 70
     6
  9
$SURFTAB2
 70
     6
  9
$SURFTYPE
 70
     6
  9
$SURFU
 70
     6
  9
$SURFV
 70
     6
  9
$UCSNAME
  2

  9
$UCSORG
 10
204.6495393972816
 20
-891.6260845561929
 30
0.0
  9
$UCSXDIR
 10
1.0
 20
0.0
 30
0.0
  9
$UCSYDIR
 10
0.0
 20
1.0
 30
0.0
  9
$PUCSNAME
  2

  9
$PUCSORG
 10
0.0
 20
0.0
 30
0.0
  9
$PUCSXDIR
 10
1.0
 20
0.0
 30
0.0
  9
$PUCSYDIR
 10
0.0
 20
1.0
 30
0.0
  9
$USERI1
 70
     0
  9
$USERI2
 70
     0
  9
$USERI3
 70
     0
  9
$USERI4
 70
     0
  9
$USERI5
 70
     0
  9
$USERR1
 40
0.0
  9
$USERR2
 40
0.0
  9
$USERR3
 40
0.0
  9
$USERR4
 40
0.0
  9
$USERR5
 40
0.0
  9
$WORLDVIEW
 70
     1
  9
$SHADEDGE
 70
     3
  9
$SHADEDIF
 70
    70
  9
$TILEMODE
 70
     1
  9
$MAXACTVP
 70
    48
  9
$PINSBASE
 10
0.0
 20
0.0
 30
0.0
  9
$PLIMCHECK
 70
     0
  9
$PEXTMIN
 10
1.000000E+20
 20
1.000000E+20
 30
1.000000E+20
  9
$PEXTMAX
 10
-1.000000E+20
 20
-1.000000E+20
 30
-1.000000E+20
  9
$PLIMMIN
 10
0.0
 20
0.0
  9
$PLIMMAX
 10
420.0
 20
297.0
  9
$UNITMODE
 70
     0
  9
$VISRETAIN
 70
     1
  9
$PLINEGEN
 70
     0
  9
$PSLTSCALE
 70
     0
  9
$TREEDEPTH
 70
  3020
  9
$PICKSTYLE
 70
     0
  9
$CMLSTYLE
  2
STANDARD
  9
$CMLJUST
 70
     1
  9
$CMLSCALE
 40
6.0
  9
$PROXYGRAPHICS
 70
     1
  9
$MEASUREMENT
 70
     1
  0
ENDSEC
  0
SECTION
  2
CLASSES
  0
CLASS
  1
DICTIONARYVAR
  2
AcDbDictionaryVar
  3
"AutoCAD"
 90
        0
280
     0
281
     0
  0
CLASS
  1
LWPOLYLINE
  2
AcDbPolyline
  3
"AutoCAD"
 90
        0
280
     0
281
     1
  0
CLASS
  1
HATCH
  2
AcDbHatch
  3
"ACAD_SEDONA"
 90
        0
280
     0
281
     1
  0
ENDSEC
  0
SECTION
  2
TABLES
  0
TABLE
  2
VPORT
  5
8
100
AcDbSymbolTable
 70
     2
  0
VPORT
  5
1DB6
100
AcDbSymbolTableRecord
100
AcDbViewportTableRecord
  2
*ACTIVE
 70
     0
 10
0.0
 20
0.0
 11
1.0
 21
1.0
 12
404.50725
 22
-462.971854
 13
0.0
 23
0.0
 14
10.0
 24
10.0
 15
10.0
 25
10.0
 16
0.0
 26
0.0
 36
1.0
 17
0.0
 27
0.0
 37
0.0
 40
1537.720828
 41
1.730469
 42
50.0
 43
0.0
 44
0.0
 50
0.0
 51
0.0
 71
     0
 72
   100
 73
     1
 74
     1
 75
     0
 76
     0
 77
     0
 78
     0
  0
ENDTAB
  0
TABLE
  2
LTYPE
  5
5
100
AcDbSymbolTable
 70
     3
  0
LTYPE
  5
14
100
AcDbSymbolTableRecord
100
AcDbLinetypeTableRecord
  2
BYBLOCK
 70
     0
  3

 72
    65
 73
     0
 40
0.0
  0
LTYPE
  5
15
100
AcDbSymbolTableRecord
100
AcDbLinetypeTableRecord
  2
BYLAYER
 70
     0
  3

 72
    65
 73
     0
 40
0.0
  0
LTYPE
  5
16
100
AcDbSymbolTableRecord
100
AcDbLinetypeTableRecord
  2
CONTINUOUS
 70
     0
  3
Solid line
 72
    65
 73
     0
 40
0.0
  0
LTYPE
  5
7F
100
AcDbSymbolTableRecord
100
AcDbLinetypeTableRecord
  2
DASHDOT
 70
     0
  3
Dash dot __ . __ . __ . __ . __ . __ . __ . __
 72
    65
 73
     4
 40
25.4
 49
12.7
 74
     0
 49
-6.35
 74
     0
 49
0.0
 74
     0
 49
-6.35
 74
     0
  0
LTYPE
  5
80
100
AcDbSymbolTableRecord
100
AcDbLinetypeTableRecord
  2
DASHED
 70
     0
  3
Dashed __ __ __ __ __ __ __ __ __ __ __ __ __ _
 72
    65
 73
     2
 40
19.05
 49
12.7
 74
     0
 49
-6.35
 74
     0
  0
ENDTAB
  0
TABLE
  2
LAYER
  5
2
100
AcDbSymbolTable
 70
     6
  0
LAYER
  5
F
100
AcDbSymbolTableRecord
100
AcDbLayerTableRecord
  2
0
 70
     0
 62
     7
  6
CONTINUOUS
  0
LAYER
  5
9E
100
AcDbSymbolTableRecord
100
AcDbLayerTableRecord
  2
DEFPOINTS
 70
     0
 62
     7
  6
CONTINUOUS
  0
LAYER
  5
377
100
AcDbSymbolTableRecord
100
AcDbLayerTableRecord
  2
V0-OBRYS
 70
     0
 62
    90
  6
CONTINUOUS
  0
LAYER
  5
378
100
AcDbSymbolTableRecord
100
AcDbLayerTableRecord
  2
V0-VYPLNE
 70
     0
 62
    63
  6
DASHDOT
  0
LAYER
  5
37A
100
AcDbSymbolTableRecord
100
AcDbLayerTableRecord
  2
V0-NAZVY
 70
     0
 62
   210
  6
CONTINUOUS
  0
LAYER
  5
559
100
AcDbSymbolTableRecord
100
AcDbLayerTableRecord
  2
V0-ZBYTEK
 70
     0
 62
    51
  6
CONTINUOUS
  0
ENDTAB
  0
TABLE
  2
STYLE
  5
3
100
AcDbSymbolTable
 70
     6
  0
STYLE
  5
10
100
AcDbSymbolTableRecord
100
AcDbTextStyleTableRecord
  2
STANDARD
 70
     0
 40
0.0
 41
1.0
 50
0.0
 71
     0
 42
2.5
  3
ISOCP
  4

  0
STYLE
  5
331
100
AcDbSymbolTableRecord
100
AcDbTextStyleTableRecord
  2
ED20
 70
     0
 40
20.0
 41
1.0
 50
0.0
 71
     0
 42
2.5
  3
ISOCP.shx
  4

  0
STYLE
  5
648
100
AcDbSymbolTableRecord
100
AcDbTextStyleTableRecord
  2
ED10
 70
     0
 40
10.0
 41
1.0
 50
0.0
 71
     0
 42
10.0
  3
ISOCP.shx
  4

  0
STYLE
  5
F38
100
AcDbSymbolTableRecord
100
AcDbTextStyleTableRecord
  2
ED30
 70
     0
 40
30.0
 41
1.0
 50
0.0
 71
     0
 42
30.0
  3
ISOCP.shx
  4

  0
STYLE
  5
F39
100
AcDbSymbolTableRecord
100
AcDbTextStyleTableRecord
  2
ED40
 70
     0
 40
40.0
 41
1.0
 50
0.0
 71
     0
 42
40.0
  3
ISOCP.shx
  4

  0
STYLE
  5
1C6D
100
AcDbSymbolTableRecord
100
AcDbTextStyleTableRecord
  2
ED50
 70
     0
 40
50.0
 41
1.0
 50
0.0
 71
     0
 42
40.0
  3
ISOCP.shx
  4

  0
ENDTAB
  0
TABLE
  2
VIEW
  5
6
100
AcDbSymbolTable
 70
     0
  0
ENDTAB
  0
TABLE
  2
UCS
  5
7
100
AcDbSymbolTable
 70
     0
  0
ENDTAB
  0
TABLE
  2
APPID
  5
9
100
AcDbSymbolTable
 70
     1
  0
APPID
  5
11
100
AcDbSymbolTableRecord
100
AcDbRegAppTableRecord
  2
ACAD
 70
     0
  0
ENDTAB
  0
TABLE
  2
DIMSTYLE
  5
A
100
AcDbSymbolTable
 70
     6
  0
DIMSTYLE
105
1D
100
AcDbSymbolTableRecord
100
AcDbDimStyleTableRecord
  2
STANDARD
 70
     0
  3

  4

  5

  6
_OPEN
  7
_OPEN
 40
0.0
 41
15.0
 42
0.625
 43
3.75
 44
1.25
 45
0.0
 46
0.0
 47
0.0
 48
0.0
140
15.0
141
2.5
142
0.0
143
0.0394
144
1.0
145
0.0
146
1.0
147
3.0
 71
     0
 72
     0
 73
     0
 74
     0
 75
     0
 76
     0
 77
     1
 78
     8
170
     0
171
     4
172
     1
173
     1
174
     0
175
     0
176
     0
177
     0
178
     0
270
     2
271
     0
272
     1
273
     8
274
     4
340
331
275
     0
280
     0
281
     0
282
     0
283
     1
284
     8
285
     0
286
     0
287
     3
288
     0
  0
DIMSTYLE
105
397
102
{ACAD_REACTORS
330
1476
330
1483
330
1490
330
14EB
330
150E
330
1589
330
15F7
330
165D
330
1696
102
}
100
AcDbSymbolTableRecord
100
AcDbDimStyleTableRecord
  2
ED40
 70
     0
  3

  4

  5

  6
_OPEN
  7
_OPEN
 40
1.0
 41
35.0
 42
1.0
 43
3.75
 44
1.25
 45
0.0
 46
0.0
 47
0.0
 48
0.0
140
40.0
141
3.0
142
0.0
143
0.0394
144
1.0
145
0.0
146
1.0
147
4.0
 71
     0
 72
     0
 73
     0
 74
     0
 75
     0
 76
     0
 77
     1
 78
     8
170
     0
171
     4
172
     1
173
     1
174
     0
175
     0
176
     0
177
     0
178
     0
270
     2
271
     0
272
     1
273
     8
274
     4
340
F39
275
     0
280
     0
281
     0
282
     0
283
     1
284
     8
285
     0
286
     0
287
     3
288
     0
  0
DIMSTYLE
105
FEA
100
AcDbSymbolTableRecord
100
AcDbDimStyleTableRecord
  2
ED30
 70
     0
  3

  4

  5

  6
_OPEN
  7
_OPEN
 40
1.0
 41
25.0
 42
1.0
 43
3.75
 44
1.25
 45
0.0
 46
0.0
 47
0.0
 48
0.0
140
30.0
141
3.0
142
0.0
143
0.0394
144
1.0
145
0.0
146
1.0
147
4.0
 71
     0
 72
     0
 73
     0
 74
     0
 75
     0
 76
     0
 77
     1
 78
     8
170
     0
171
     4
172
     1
173
     1
174
     0
175
     0
176
     0
177
     0
178
     0
270
     2
271
     0
272
     1
273
     8
274
     4
340
F38
275
     0
280
     0
281
     0
282
     0
283
     1
284
     8
285
     0
286
     0
287
     3
288
     0
  0
DIMSTYLE
105
1457
100
AcDbSymbolTableRecord
100
AcDbDimStyleTableRecord
  2
ED20
 70
     0
  3

  4

  5

  6
_OPEN
  7
_OPEN
 40
0.0
 41
20.0
 42
1.0
 43
3.75
 44
1.25
 45
0.0
 46
0.0
 47
0.0
 48
0.0
140
20.0
141
3.0
142
0.0
143
0.0394
144
1.0
145
0.0
146
1.0
147
1.5
 71
     0
 72
     0
 73
     0
 74
     0
 75
     0
 76
     0
 77
     1
 78
     8
170
     0
171
     4
172
     1
173
     1
174
     0
175
     0
176
     0
177
     0
178
     0
270
     2
271
     0
272
     1
273
     8
274
     4
340
331
275
     0
280
     0
281
     0
282
     0
283
     1
284
     8
285
     0
286
     0
287
     3
288
     0
  0
DIMSTYLE
105
1458
102
{ACAD_REACTORS
330
1476
330
1483
330
1490
330
14EB
330
150E
330
1589
330
15F7
330
165D
330
1696
102
}
100
AcDbSymbolTableRecord
100
AcDbDimStyleTableRecord
  2
ED10
 70
     0
  3

  4

  5

  6
_OPEN
  7
_OPEN
 40
0.0
 41
15.0
 42
1.0
 43
3.75
 44
1.25
 45
0.0
 46
0.0
 47
0.0
 48
0.0
140
10.0
141
3.0
142
0.0
143
0.0394
144
1.0
145
0.0
146
1.0
147
1.5
 71
     0
 72
     0
 73
     0
 74
     0
 75
     0
 76
     0
 77
     1
 78
     8
170
     0
171
     4
172
     1
173
     1
174
     0
175
     0
176
     0
177
     0
178
     0
270
     2
271
     0
272
     1
273
     8
274
     4
340
331
275
     0
280
     0
281
     0
282
     0
283
     1
284
     8
285
     0
286
     0
287
     3
288
     0
  0
DIMSTYLE
105
1C6E
100
AcDbSymbolTableRecord
100
AcDbDimStyleTableRecord
  2
ED50
 70
     0
  3

  4

  5

  6
_OPEN
  7
_OPEN
 40
1.0
 41
50.0
 42
1.0
 43
3.75
 44
1.25
 45
0.0
 46
0.0
 47
0.0
 48
0.0
140
50.0
141
3.0
142
0.0
143
0.0394
144
1.0
145
0.0
146
1.0
147
4.0
 71
     0
 72
     0
 73
     0
 74
     0
 75
     0
 76
     0
 77
     1
 78
     8
170
     0
171
     4
172
     1
173
     1
174
     0
175
     0
176
     0
177
     0
178
     0
270
     2
271
     0
272
     1
273
     8
274
     4
340
1C6D
275
     0
280
     0
281
     0
282
     0
283
     1
284
     8
285
     0
286
     0
287
     3
288
     0
  0
ENDTAB
  0
TABLE
  2
BLOCK_RECORD
  5
1
100
AcDbSymbolTable
 70
    11
  0
BLOCK_RECORD
  5
1A
100
AcDbSymbolTableRecord
100
AcDbBlockTableRecord
  2
*MODEL_SPACE
  0
BLOCK_RECORD
  5
17
100
AcDbSymbolTableRecord
100
AcDbBlockTableRecord
  2
*PAPER_SPACE
  0
BLOCK_RECORD
  5
90
100
AcDbSymbolTableRecord
100
AcDbBlockTableRecord
  2
_OPEN
  0
BLOCK_RECORD
  5
1459
100
AcDbSymbolTableRecord
100
AcDbBlockTableRecord
  2
A10_100
  0
BLOCK_RECORD
  5
146A
100
AcDbSymbolTableRecord
100
AcDbBlockTableRecord
  2
*D2
  0
BLOCK_RECORD
  5
1477
100
AcDbSymbolTableRecord
100
AcDbBlockTableRecord
  2
*D3
  0
BLOCK_RECORD
  5
1484
100
AcDbSymbolTableRecord
100
AcDbBlockTableRecord
  2
*D4
  0
BLOCK_RECORD
  5
14DF
100
AcDbSymbolTableRecord
100
AcDbBlockTableRecord
  2
*D5
  0
BLOCK_RECORD
  5
1502
100
AcDbSymbolTableRecord
100
AcDbBlockTableRecord
  2
*D6
  0
BLOCK_RECORD
  5
157D
100
AcDbSymbolTableRecord
100
AcDbBlockTableRecord
  2
*D7
  0
BLOCK_RECORD
  5
15EB
100
AcDbSymbolTableRecord
100
AcDbBlockTableRecord
  2
*D8
  0
BLOCK_RECORD
  5
164F
100
AcDbSymbolTableRecord
100
AcDbBlockTableRecord
  2
*D9
  0
BLOCK_RECORD
  5
1688
100
AcDbSymbolTableRecord
100
AcDbBlockTableRecord
  2
*D10
  0
ENDTAB
  0
ENDSEC
  0
SECTION
  2
BLOCKS
  0
BLOCK
  5
1B
100
AcDbEntity
  8
0
100
AcDbBlockBegin
  2
*MODEL_SPACE
 70
     0
 10
0.0
 20
0.0
 30
0.0
  3
*MODEL_SPACE
  1

  0
ENDBLK
  5
1C
100
AcDbEntity
  8
0
100
AcDbBlockEnd
  0
BLOCK
  5
18
100
AcDbEntity
 67
     1
  8
0
100
AcDbBlockBegin
  2
*PAPER_SPACE
 70
     0
 10
0.0
 20
0.0
 30
0.0
  3
*PAPER_SPACE
  1

  0
ENDBLK
  5
19
100
AcDbEntity
 67
     1
  8
0
100
AcDbBlockEnd
  0
BLOCK
  5
91
100
AcDbEntity
  8
0
100
AcDbBlockBegin
  2
_OPEN
 70
     0
 10
0.0
 20
0.0
 30
0.0
  3
_OPEN
  1

  0
LINE
  5
92
100
AcDbEntity
  8
0
  6
BYBLOCK
 62
     0
100
AcDbLine
 10
-1.0
 20
0.166667
 30
0.0
 11
0.0
 21
0.0
 31
0.0
  0
LINE
  5
93
100
AcDbEntity
  8
0
  6
BYBLOCK
 62
     0
100
AcDbLine
 10
0.0
 20
0.0
 30
0.0
 11
-1.0
 21
-0.166667
 31
0.0
  0
LINE
  5
94
100
AcDbEntity
  8
0
  6
BYBLOCK
 62
     0
100
AcDbLine
 10
0.0
 20
0.0
 30
0.0
 11
-1.0
 21
0.0
 31
0.0
  0
ENDBLK
  5
95
100
AcDbEntity
  8
0
100
AcDbBlockEnd
  0
BLOCK
  5
145A
100
AcDbEntity
  8
0
 62
    52
100
AcDbBlockBegin
  2
A10_100
 70
     0
 10
0.0
 20
0.0
 30
0.0
  3
A10_100
  1

  0
ENDBLK
  5
145B
100
AcDbEntity
  8
0
 62
    52
100
AcDbBlockEnd
  0
BLOCK
  5
1D4F
100
AcDbEntity
  8
0
100
AcDbBlockBegin
  2
*D2
 70
     1
 10
0.0
 20
0.0
 30
0.0
  3
*D2
  1

  0
LINE
  5
1D50
100
AcDbEntity
  8
0
  6
BYBLOCK
 62
     0
100
AcDbLine
 10
41.141239
 20
-277.166006
 30
0.0
 11
41.141239
 21
-495.494267
 31
0.0
  0
LINE
  5
1D51
100
AcDbEntity
  8
0
  6
BYBLOCK
 62
     0
100
AcDbLine
 10
371.141239
 20
-277.166006
 30
0.0
 11
371.141239
 21
-495.494267
 31
0.0
  0
LINE
  5
1D52
100
AcDbEntity
  8
0
  6
BYBLOCK
 62
     0
100
AcDbLine
 10
76.141239
 20
-494.244267
 30
0.0
 11
336.141239
 21
-494.244267
 31
0.0
  0
INSERT
  5
1D53
100
AcDbEntity
  8
0
  6
BYBLOCK
 62
     0
100
AcDbBlockReference
  2
_OPEN
 10
41.141239
 20
-494.244267
 30
0.0
 41
35.0
 42
35.0
 43
35.0
 50
180.0
  0
INSERT
  5
1D54
100
AcDbEntity
  8
0
  6
BYBLOCK
 62
     0
100
AcDbBlockReference
  2
_OPEN
 10
371.141239
 20
-494.244267
 30
0.0
 41
35.0
 42
35.0
 43
35.0
  0
MTEXT
  5
1D55
100
AcDbEntity
  8
0
  6
BYBLOCK
 62
     0
100
AcDbMText
 10
201.984542
 20
-470.244267
 30
0.0
 40
40.0
 41
0.0
 71
     5
 72
     1
  1
\A1;330
  7
ED40
  0
POINT
  5
1D56
100
AcDbEntity
  8
DEFPOINTS
  6
BYBLOCK
 62
     0
100
AcDbPoint
 10
41.141239
 20
-276.166006
 30
0.0
  0
POINT
  5
1D57
100
AcDbEntity
  8
DEFPOINTS
  6
BYBLOCK
 62
     0
100
AcDbPoint
 10
371.141239
 20
-276.166006
 30
0.0
  0
POINT
  5
1D58
100
AcDbEntity
  8
DEFPOINTS
  6
BYBLOCK
 62
     0
100
AcDbPoint
 10
371.141239
 20
-494.244267
 30
0.0
  0
ENDBLK
  5
1D59
100
AcDbEntity
  8
0
100
AcDbBlockEnd
  0
BLOCK
  5
1D39
100
AcDbEntity
  8
0
100
AcDbBlockBegin
  2
*D3
 70
     1
 10
0.0
 20
0.0
 30
0.0
  3
*D3
  1

  0
LINE
  5
1D3A
100
AcDbEntity
  8
0
  6
BYBLOCK
 62
     0
100
AcDbLine
 10
-11.358761
 20
-277.166006
 30
0.0
 11
-11.358761
 21
-560.36024
 31
0.0
  0
LINE
  5
1D3B
100
AcDbEntity
  8
0
  6
BYBLOCK
 62
     0
100
AcDbLine
 10
423.641239
 20
-277.166006
 30
0.0
 11
423.641239
 21
-560.36024
 31
0.0
  0
LINE
  5
1D3C
100
AcDbEntity
  8
0
  6
BYBLOCK
 62
     0
100
AcDbLine
 10
23.641239
 20
-559.11024
 30
0.0
 11
388.641239
 21
-559.11024
 31
0.0
  0
INSERT
  5
1D3D
100
AcDbEntity
  8
0
  6
BYBLOCK
 62
     0
100
AcDbBlockReference
  2
_OPEN
 10
-11.358761
 20
-559.11024
 30
0.0
 41
35.0
 42
35.0
 43
35.0
 50
180.0
  0
INSERT
  5
1D3E
100
AcDbEntity
  8
0
  6
BYBLOCK
 62
     0
100
AcDbBlockReference
  2
_OPEN
 10
423.641239
 20
-559.11024
 30
0.0
 41
35.0
 42
35.0
 43
35.0
  0
MTEXT
  5
1D3F
100
AcDbEntity
  8
0
  6
BYBLOCK
 62
     0
100
AcDbMText
 10
192.245664
 20
-535.11024
 30
0.0
 40
40.0
 41
0.0
 71
     5
 72
     1
  1
\A1;435
  7
ED40
  0
POINT
  5
1D40
100
AcDbEntity
  8
DEFPOINTS
  6
BYBLOCK
 62
     0
100
AcDbPoint
 10
-11.358761
 20
-276.166006
 30
0.0
  0
POINT
  5
1D41
100
AcDbEntity
  8
DEFPOINTS
  6
BYBLOCK
 62
     0
100
AcDbPoint
 10
423.641239
 20
-276.166006
 30
0.0
  0
POINT
  5
1D42
100
AcDbEntity
  8
DEFPOINTS
  6
BYBLOCK
 62
     0
100
AcDbPoint
 10
423.641239
 20
-559.11024
 30
0.0
  0
ENDBLK
  5
1D43
100
AcDbEntity
  8
0
100
AcDbBlockEnd
  0
BLOCK
  5
1D70
100
AcDbEntity
  8
0
100
AcDbBlockBegin
  2
*D4
 70
     1
 10
0.0
 20
0.0
 30
0.0
  3
*D4
  1

  0
LINE
  5
1D71
100
AcDbEntity
  8
0
  6
BYBLOCK
 62
     0
100
AcDbLine
 10
424.641239
 20
-276.166006
 30
0.0
 11
602.528553
 21
-276.166006
 31
0.0
  0
LINE
  5
1D72
100
AcDbEntity
  8
0
  6
BYBLOCK
 62
     0
100
AcDbLine
 10
207.141239
 20
95.833994
 30
0.0
 11
602.528553
 21
95.833994
 31
0.0
  0
LINE
  5
1D73
100
AcDbEntity
  8
0
  6
BYBLOCK
 62
     0
100
AcDbLine
 10
601.278553
 20
-241.166006
 30
0.0
 11
601.278553
 21
60.833994
 31
0.0
  0
INSERT
  5
1D74
100
AcDbEntity
  8
0
  6
BYBLOCK
 62
     0
100
AcDbBlockReference
  2
_OPEN
 10
601.278553
 20
-276.166006
 30
0.0
 41
35.0
 42
35.0
 43
35.0
 50
270.0
  0
INSERT
  5
1D75
100
AcDbEntity
  8
0
  6
BYBLOCK
 62
     0
100
AcDbBlockReference
  2
_OPEN
 10
601.278553
 20
95.833994
 30
0.0
 41
35.0
 42
35.0
 43
35.0
 50
90.0
  0
MTEXT
  5
1D76
100
AcDbEntity
  8
0
  6
BYBLOCK
 62
     0
100
AcDbMText
 10
577.274616
 20
-98.434493
 30
0.0
 40
40.0
 41
0.0
 71
     5
 72
     1
  1
\A1;372
  7
ED40
 11
0.0
 21
1.0
 31
0.0
  0
POINT
  5
1D77
100
AcDbEntity
  8
DEFPOINTS
  6
BYBLOCK
 62
     0
100
AcDbPoint
 10
423.641239
 20
-276.166006
 30
0.0
  0
POINT
  5
1D78
100
AcDbEntity
  8
DEFPOINTS
  6
BYBLOCK
 62
     0
100
AcDbPoint
 10
206.141239
 20
95.833994
 30
0.0
  0
POINT
  5
1D79
100
AcDbEntity
  8
DEFPOINTS
  6
BYBLOCK
 62
     0
100
AcDbPoint
 10
601.278553
 20
95.833994
 30
0.0
  0
ENDBLK
  5
1D7A
100
AcDbEntity
  8
0
100
AcDbBlockEnd
  0
BLOCK
  5
1DA0
100
AcDbEntity
  8
0
100
AcDbBlockBegin
  2
*D5
 70
     1
 10
0.0
 20
0.0
 30
0.0
  3
*D5
  1

  0
LINE
  5
1DA1
100
AcDbEntity
  8
0
  6
BYBLOCK
 62
     0
100
AcDbLine
 10
-66.814604
 20
3.335357
 30
0.0
 11
-66.814604
 21
168.638669
 31
0.0
  0
LINE
  5
1DA2
100
AcDbEntity
  8
0
  6
BYBLOCK
 62
     0
100
AcDbLine
 10
479.097081
 20
3.335357
 30
0.0
 11
479.097081
 21
168.638669
 31
0.0
  0
LINE
  5
1DA3
100
AcDbEntity
  8
0
  6
BYBLOCK
 62
     0
100
AcDbLine
 10
-31.814604
 20
167.388669
 30
0.0
 11
444.097081
 21
167.388669
 31
0.0
  0
INSERT
  5
1DA4
100
AcDbEntity
  8
0
  6
BYBLOCK
 62
     0
100
AcDbBlockReference
  2
_OPEN
 10
-66.814604
 20
167.388669
 30
0.0
 41
35.0
 42
35.0
 43
35.0
 50
180.0
  0
INSERT
  5
1DA5
100
AcDbEntity
  8
0
  6
BYBLOCK
 62
     0
100
AcDbBlockReference
  2
_OPEN
 10
479.097081
 20
167.388669
 30
0.0
 41
35.0
 42
35.0
 43
35.0
  0
MTEXT
  5
1DA6
100
AcDbEntity
  8
0
  6
BYBLOCK
 62
     0
100
AcDbMText
 10
214.969712
 20
191.388669
 30
0.0
 40
40.0
 41
0.0
 71
     5
 72
     1
  1
\A1;\U+2205546
  7
ED40
  0
POINT
  5
1DA7
100
AcDbEntity
  8
DEFPOINTS
  6
BYBLOCK
 62
     0
100
AcDbPoint
 10
-66.814604
 20
2.335357
 30
0.0
  0
POINT
  5
1DA8
100
AcDbEntity
  8
DEFPOINTS
  6
BYBLOCK
 62
     0
100
AcDbPoint
 10
479.097081
 20
2.335357
 30
0.0
  0
POINT
  5
1DA9
100
AcDbEntity
  8
DEFPOINTS
  6
BYBLOCK
 62
     0
100
AcDbPoint
 10
479.097081
 20
167.388669
 30
0.0
  0
ENDBLK
  5
1DAA
100
AcDbEntity
  8
0
100
AcDbBlockEnd
  0
BLOCK
  5
1D44
100
AcDbEntity
  8
0
100
AcDbBlockBegin
  2
*D6
 70
     1
 10
0.0
 20
0.0
 30
0.0
  3
*D6
  1

  0
LINE
  5
1D45
100
AcDbEntity
  8
0
  6
BYBLOCK
 62
     0
100
AcDbLine
 10
82.141239
 20
-359.166006
 30
0.0
 11
82.141239
 21
-424.141694
 31
0.0
  0
LINE
  5
1D46
100
AcDbEntity
  8
0
  6
BYBLOCK
 62
     0
100
AcDbLine
 10
330.141239
 20
-359.166006
 30
0.0
 11
330.141239
 21
-424.141694
 31
0.0
  0
LINE
  5
1D47
100
AcDbEntity
  8
0
  6
BYBLOCK
 62
     0
100
AcDbLine
 10
117.141239
 20
-422.891694
 30
0.0
 11
295.141239
 21
-422.891694
 31
0.0
  0
INSERT
  5
1D48
100
AcDbEntity
  8
0
  6
BYBLOCK
 62
     0
100
AcDbBlockReference
  2
_OPEN
 10
82.141239
 20
-422.891694
 30
0.0
 41
35.0
 42
35.0
 43
35.0
 50
180.0
  0
INSERT
  5
1D49
100
AcDbEntity
  8
0
  6
BYBLOCK
 62
     0
100
AcDbBlockReference
  2
_OPEN
 10
330.141239
 20
-422.891694
 30
0.0
 41
35.0
 42
35.0
 43
35.0
  0
MTEXT
  5
1D4A
100
AcDbEntity
  8
0
  6
BYBLOCK
 62
     0
100
AcDbMText
 10
205.230839
 20
-398.887757
 30
0.0
 40
40.0
 41
0.0
 71
     5
 72
     1
  1
\A1;\U+2205248
  7
ED40
  0
POINT
  5
1D4B
100
AcDbEntity
  8
DEFPOINTS
  6
BYBLOCK
 62
     0
100
AcDbPoint
 10
82.141239
 20
-358.166006
 30
0.0
  0
POINT
  5
1D4C
100
AcDbEntity
  8
DEFPOINTS
  6
BYBLOCK
 62
     0
100
AcDbPoint
 10
330.141239
 20
-358.166006
 30
0.0
  0
POINT
  5
1D4D
100
AcDbEntity
  8
DEFPOINTS
  6
BYBLOCK
 62
     0
100
AcDbPoint
 10
330.141239
 20
-422.891694
 30
0.0
  0
ENDBLK
  5
1D4E
100
AcDbEntity
  8
0
100
AcDbBlockEnd
  0
BLOCK
  5
1D65
100
AcDbEntity
  8
0
100
AcDbBlockBegin
  2
*D7
 70
     1
 10
0.0
 20
0.0
 30
0.0
  3
*D7
  1

  0
LINE
  5
1D66
100
AcDbEntity
  8
0
  6
BYBLOCK
 62
     0
100
AcDbLine
 10
424.641239
 20
-256.166006
 30
0.0
 11
533.222382
 21
-256.166006
 31
0.0
  0
LINE
  5
1D67
100
AcDbEntity
  8
0
  6
BYBLOCK
 62
     0
100
AcDbLine
 10
207.141239
 20
95.833994
 30
0.0
 11
533.222382
 21
95.833994
 31
0.0
  0
LINE
  5
1D68
100
AcDbEntity
  8
0
  6
BYBLOCK
 62
     0
100
AcDbLine
 10
531.972382
 20
-221.166006
 30
0.0
 11
531.972382
 21
60.833994
 31
0.0
  0
INSERT
  5
1D69
100
AcDbEntity
  8
0
  6
BYBLOCK
 62
     0
100
AcDbBlockReference
  2
_OPEN
 10
531.972382
 20
-256.166006
 30
0.0
 41
35.0
 42
35.0
 43
35.0
 50
270.0
  0
INSERT
  5
1D6A
100
AcDbEntity
  8
0
  6
BYBLOCK
 62
     0
100
AcDbBlockReference
  2
_OPEN
 10
531.972382
 20
95.833994
 30
0.0
 41
35.0
 42
35.0
 43
35.0
 50
90.0
  0
MTEXT
  5
1D6B
100
AcDbEntity
  8
0
  6
BYBLOCK
 62
     0
100
AcDbMText
 10
507.968445
 20
-80.166006
 30
0.0
 40
40.0
 41
0.0
 71
     5
 72
     1
  1
\A1;352
  7
ED40
 11
0.0
 21
1.0
 31
0.0
  0
POINT
  5
1D6C
100
AcDbEntity
  8
DEFPOINTS
  6
BYBLOCK
 62
     0
100
AcDbPoint
 10
423.641239
 20
-256.166006
 30
0.0
  0
POINT
  5
1D6D
100
AcDbEntity
  8
DEFPOINTS
  6
BYBLOCK
 62
     0
100
AcDbPoint
 10
206.141239
 20
95.833994
 30
0.0
  0
POINT
  5
1D6E
100
AcDbEntity
  8
DEFPOINTS
  6
BYBLOCK
 62
     0
100
AcDbPoint
 10
531.972382
 20
95.833994
 30
0.0
  0
ENDBLK
  5
1D6F
100
AcDbEntity
  8
0
100
AcDbBlockEnd
  0
BLOCK
  5
1D5A
100
AcDbEntity
  8
0
100
AcDbBlockBegin
  2
*D8
 70
     1
 10
0.0
 20
0.0
 30
0.0
  3
*D8
  1

  0
LINE
  5
1D5B
100
AcDbEntity
  8
0
  6
BYBLOCK
 62
     0
100
AcDbLine
 10
208.141239
 20
95.833994
 30
0.0
 11
667.454405
 21
95.833994
 31
0.0
  0
LINE
  5
1D5C
100
AcDbEntity
  8
0
  6
BYBLOCK
 62
     0
100
AcDbLine
 10
330.557917
 20
-361.166006
 30
0.0
 11
667.454405
 21
-361.166006
 31
0.0
  0
LINE
  5
1D5D
100
AcDbEntity
  8
0
  6
BYBLOCK
 62
     0
100
AcDbLine
 10
666.204405
 20
60.833994
 30
0.0
 11
666.204405
 21
-326.166006
 31
0.0
  0
INSERT
  5
1D5E
100
AcDbEntity
  8
0
  6
BYBLOCK
 62
     0
100
AcDbBlockReference
  2
_OPEN
 10
666.204405
 20
95.833994
 30
0.0
 41
35.0
 42
35.0
 43
35.0
 50
90.0
  0
INSERT
  5
1D5F
100
AcDbEntity
  8
0
  6
BYBLOCK
 62
     0
100
AcDbBlockReference
  2
_OPEN
 10
666.204405
 20
-361.166006
 30
0.0
 41
35.0
 42
35.0
 43
35.0
 50
270.0
  0
MTEXT
  5
1D60
100
AcDbEntity
  8
0
  6
BYBLOCK
 62
     0
100
AcDbMText
 10
642.204405
 20
-132.666006
 30
0.0
 40
40.0
 41
0.0
 71
     5
 72
     1
  1
\A1;457
  7
ED40
 11
0.0
 21
1.0
 31
0.0
  0
POINT
  5
1D61
100
AcDbEntity
  8
DEFPOINTS
  6
BYBLOCK
 62
     0
100
AcDbPoint
 10
207.141239
 20
95.833994
 30
0.0
  0
POINT
  5
1D62
100
AcDbEntity
  8
DEFPOINTS
  6
BYBLOCK
 62
     0
100
AcDbPoint
 10
329.557917
 20
-361.166006
 30
0.0
  0
POINT
  5
1D63
100
AcDbEntity
  8
DEFPOINTS
  6
BYBLOCK
 62
     0
100
AcDbPoint
 10
666.204405
 20
-361.166006
 30
0.0
  0
ENDBLK
  5
1D64
100
AcDbEntity
  8
0
100
AcDbBlockEnd
  0
BLOCK
  5
1D86
100
AcDbEntity
  8
0
100
AcDbBlockBegin
  2
*D9
 70
     1
 10
0.0
 20
0.0
 30
0.0
  3
*D9
  1

  0
LINE
  5
1D87
100
AcDbEntity
  8
0
  6
BYBLOCK
 62
     0
100
AcDbLine
 10
-12.358761
 20
-256.166006
 30
0.0
 11
-156.357658
 21
-256.166006
 31
0.0
  0
LINE
  5
1D88
100
AcDbEntity
  8
0
  6
BYBLOCK
 62
     0
100
AcDbLine
 10
-12.358761
 20
-276.166006
 30
0.0
 11
-156.357658
 21
-276.166006
 31
0.0
  0
LINE
  5
1D89
100
AcDbEntity
  8
0
  6
BYBLOCK
 62
     0
100
AcDbLine
 10
-155.107658
 20
-221.166006
 30
0.0
 11
-155.107658
 21
-186.166006
 31
0.0
  0
LINE
  5
1D8A
100
AcDbEntity
  8
0
  6
BYBLOCK
 62
     0
100
AcDbLine
 10
-155.107658
 20
-311.166006
 30
0.0
 11
-155.107658
 21
-434.844155
 31
0.0
  0
LINE
  5
1D8B
100
AcDbEntity
  8
0
  6
BYBLOCK
 62
     0
100
AcDbLine
 10
-155.107658
 20
-256.166006
 30
0.0
 11
-155.107658
 21
-276.166006
 31
0.0
  0
INSERT
  5
1D8C
100
AcDbEntity
  8
0
  6
BYBLOCK
 62
     0
100
AcDbBlockReference
  2
_OPEN
 10
-155.107658
 20
-256.166006
 30
0.0
 41
35.0
 42
35.0
 43
35.0
 50
270.0
  0
INSERT
  5
1D8D
100
AcDbEntity
  8
0
  6
BYBLOCK
 62
     0
100
AcDbBlockReference
  2
_OPEN
 10
-155.107658
 20
-276.166006
 30
0.0
 41
35.0
 42
35.0
 43
35.0
 50
90.0
  0
MTEXT
  5
1D8E
100
AcDbEntity
  8
0
  6
BYBLOCK
 62
     0
100
AcDbMText
 10
-179.111595
 20
-408.320533
 30
0.0
 40
40.0
 41
0.0
 71
     5
 72
     1
  1
\A1;20
  7
ED40
 11
0.0
 21
1.0
 31
0.0
  0
POINT
  5
1D8F
100
AcDbEntity
  8
DEFPOINTS
  6
BYBLOCK
 62
     0
100
AcDbPoint
 10
-11.358761
 20
-256.166006
 30
0.0
  0
POINT
  5
1D90
100
AcDbEntity
  8
DEFPOINTS
  6
BYBLOCK
 62
     0
100
AcDbPoint
 10
-11.358761
 20
-276.166006
 30
0.0
  0
POINT
  5
1D91
100
AcDbEntity
  8
DEFPOINTS
  6
BYBLOCK
 62
     0
100
AcDbPoint
 10
-155.107658
 20
-276.166006
 30
0.0
  0
ENDBLK
  5
1D92
100
AcDbEntity
  8
0
100
AcDbBlockEnd
  0
BLOCK
  5
1D93
100
AcDbEntity
  8
0
100
AcDbBlockBegin
  2
*D10
 70
     1
 10
0.0
 20
0.0
 30
0.0
  3
*D10
  1

  0
LINE
  5
1D94
100
AcDbEntity
  8
0
  6
BYBLOCK
 62
     0
100
AcDbLine
 10
76.141239
 20
-319.166006
 30
0.0
 11
-81.692927
 21
-319.166006
 31
0.0
  0
LINE
  5
1D95
100
AcDbEntity
  8
0
  6
BYBLOCK
 62
     0
100
AcDbLine
 10
81.141239
 20
-361.166006
 30
0.0
 11
-81.692927
 21
-361.166006
 31
0.0
  0
LINE
  5
1D96
100
AcDbEntity
  8
0
  6
BYBLOCK
 62
     0
100
AcDbLine
 10
-80.442927
 20
-284.166006
 30
0.0
 11
-80.442927
 21
-249.166006
 31
0.0
  0
LINE
  5
1D97
100
AcDbEntity
  8
0
  6
BYBLOCK
 62
     0
100
AcDbLine
 10
-80.442927
 20
-396.166006
 30
0.0
 11
-80.442927
 21
-431.166006
 31
0.0
  0
LINE
  5
1D98
100
AcDbEntity
  8
0
  6
BYBLOCK
 62
     0
100
AcDbLine
 10
-80.442927
 20
-319.166006
 30
0.0
 11
-80.442927
 21
-361.166006
 31
0.0
  0
INSERT
  5
1D99
100
AcDbEntity
  8
0
  6
BYBLOCK
 62
     0
100
AcDbBlockReference
  2
_OPEN
 10
-80.442927
 20
-319.166006
 30
0.0
 41
35.0
 42
35.0
 43
35.0
 50
270.0
  0
INSERT
  5
1D9A
100
AcDbEntity
  8
0
  6
BYBLOCK
 62
     0
100
AcDbBlockReference
  2
_OPEN
 10
-80.442927
 20
-361.166006
 30
0.0
 41
35.0
 42
35.0
 43
35.0
 50
90.0
  0
MTEXT
  5
1D9B
100
AcDbEntity
  8
0
  6
BYBLOCK
 62
     0
100
AcDbMText
 10
-104.446864
 20
-340.166006
 30
0.0
 40
40.0
 41
0.0
 71
     5
 72
     1
  1
\A1;42
  7
ED40
 11
0.0
 21
1.0
 31
0.0
  0
POINT
  5
1D9C
100
AcDbEntity
  8
DEFPOINTS
  6
BYBLOCK
 62
     0
100
AcDbPoint
 10
77.141239
 20
-319.166006
 30
0.0
  0
POINT
  5
1D9D
100
AcDbEntity
  8
DEFPOINTS
  6
BYBLOCK
 62
     0
100
AcDbPoint
 10
82.141239
 20
-361.166006
 30
0.0
  0
POINT
  5
1D9E
100
AcDbEntity
  8
DEFPOINTS
  6
BYBLOCK
 62
     0
100
AcDbPoint
 10
-80.442927
 20
-361.166006
 30
0.0
  0
ENDBLK
  5
1D9F
100
AcDbEntity
  8
0
100
AcDbBlockEnd
  0
ENDSEC
  0
SECTION
  2
ENTITIES
  0
LINE
  5
11BB
100
AcDbEntity
  8
V0-VYPLNE
 48
3.0
100
AcDbLine
 10
206.141239
 20
95.833994
 30
0.0
 11
206.141239
 21
76.799035
 31
0.0
  0
LINE
  5
11BE
100
AcDbEntity
  8
V0-VYPLNE
100
AcDbLine
 10
41.141239
 20
-286.166006
 30
0.0
 11
41.141239
 21
-231.166006
 31
0.0
  0
LINE
  5
11BF
100
AcDbEntity
  8
V0-VYPLNE
100
AcDbLine
 10
371.141239
 20
-286.166006
 30
0.0
 11
371.141239
 21
-231.166006
 31
0.0
  0
MTEXT
  5
12AB
100
AcDbEntity
  8
V0-NAZVY
  6
CONTINUOUS
100
AcDbMText
 10
839.019665
 20
-656.237966
 30
0.0
 40
69.12
 41
420.241133
 71
     1
 72
     5
  1
TH-1300
  7
ED40
  0
MTEXT
  5
12AD
100
AcDbEntity
  8
V0-NAZVY
  6
CONTINUOUS
 62
    51
100
AcDbMText
 10
981.33925
 20
-917.980551
 30
0.0
 40
51.84
 41
829.976198
 71
     5
 72
     5
  1
STRESNI VENTILATOR
  7
ED30
  0
MTEXT
  5
12AE
100
AcDbEntity
  8
V0-NAZVY
  6
CONTINUOUS
 62
    51
100
AcDbMText
 10
997.098312
 20
-813.065535
 30
0.0
 40
69.12
 41
1.728
 71
     5
 72
     5
  1
MIXVENT
  7
ED40
  0
POINT
  5
12BD
100
AcDbEntity
  8
V0-VYPLNE
  6
CONTINUOUS
 62
    41
100
AcDbPoint
 10
206.141239
 20
-276.166006
 30
0.0
  0
LINE
  5
13BB
100
AcDbEntity
  8
V0-VYPLNE
  6
DASHDOT
 62
    63
 48
3.0
100
AcDbLine
 10
-141.44356
 20
-891.626085
 30
0.0
 11
563.207916
 21
-891.626085
 31
0.0
  0
CIRCLE
  5
13BE
100
AcDbEntity
  8
V0-OBRYS
  6
CONTINUOUS
 62
    90
100
AcDbCircle
 10
204.649539
 20
-891.626085
 30
0.0
 40
272.903379
  0
CIRCLE
  5
13C0
100
AcDbEntity
  8
V0-VYPLNE
  6
DASHED
 62
    52
 48
3.0
100
AcDbCircle
 10
204.649539
 20
-891.626085
 30
0.0
 40
123.93137
  0
LINE
  5
13C5
100
AcDbEntity
  8
V0-VYPLNE
 62
    63
100
AcDbLine
 10
61.399539
 20
-726.626085
 30
0.0
 11
17.899539
 21
-726.626085
 31
0.0
  0
CIRCLE
  5
13C7
100
AcDbEntity
  8
V0-VYPLNE
  6
DASHED
 62
    56
100
AcDbCircle
 10
39.649539
 20
-726.626085
 30
0.0
 40
5.075
  0
LINE
  5
13CE
100
AcDbEntity
  8
V0-VYPLNE
  6
DASHED
 62
    52
 48
3.0
100
AcDbLine
 10
422.149539
 20
-674.126085
 30
0.0
 11
-12.850461
 21
-674.126085
 31
0.0
  0
LINE
  5
13CF
100
AcDbEntity
  8
V0-VYPLNE
  6
DASHED
 62
    52
 48
3.0
100
AcDbLine
 10
-12.850461
 20
-674.126085
 30
0.0
 11
-12.850461
 21
-1109.126085
 31
0.0
  0
LINE
  5
13D0
100
AcDbEntity
  8
V0-VYPLNE
  6
DASHED
 62
    52
 48
3.0
100
AcDbLine
 10
-12.850461
 20
-1109.126085
 30
0.0
 11
422.149539
 21
-1109.126085
 31
0.0
  0
LINE
  5
13D1
100
AcDbEntity
  8
V0-VYPLNE
  6
DASHED
 62
    52
 48
3.0
100
AcDbLine
 10
422.149539
 20
-1109.126085
 30
0.0
 11
422.149539
 21
-674.126085
 31
0.0
  0
LINE
  5
13D2
100
AcDbEntity
  8
V0-OBRYS
  6
CONTINUOUS
 62
    90
100
AcDbLine
 10
-11.358761
 20
-276.166006
 30
0.0
 11
423.641239
 21
-276.166006
 31
0.0
  0
LINE
  5
13D3
100
AcDbEntity
  8
V0-OBRYS
  6
CONTINUOUS
 62
    90
100
AcDbLine
 10
423.641239
 20
-276.166006
 30
0.0
 11
423.641239
 21
-256.166006
 31
0.0
  0
LINE
  5
13D4
100
AcDbEntity
  8
V0-OBRYS
  6
CONTINUOUS
 62
    90
100
AcDbLine
 10
423.641239
 20
-256.166006
 30
0.0
 11
-11.358761
 21
-256.166006
 31
0.0
  0
LINE
  5
13D5
100
AcDbEntity
  8
V0-OBRYS
  6
CONTINUOUS
 62
    90
100
AcDbLine
 10
-11.358761
 20
-256.166006
 30
0.0
 11
-11.358761
 21
-276.166006
 31
0.0
  0
LINE
  5
13D6
100
AcDbEntity
  8
V0-OBRYS
  6
CONTINUOUS
 62
    90
100
AcDbLine
 10
28.641239
 20
-256.166006
 30
0.0
 11
28.641239
 21
-253.166006
 31
0.0
  0
LINE
  5
13D7
100
AcDbEntity
  8
V0-OBRYS
  6
CONTINUOUS
 62
    90
100
AcDbLine
 10
28.641239
 20
-253.166006
 30
0.0
 11
383.641239
 21
-253.166006
 31
0.0
  0
LINE
  5
13D8
100
AcDbEntity
  8
V0-OBRYS
  6
CONTINUOUS
 62
    90
100
AcDbLine
 10
383.641239
 20
-253.166006
 30
0.0
 11
383.641239
 21
-256.166006
 31
0.0
  0
LINE
  5
13DD
100
AcDbEntity
  8
V0-OBRYS
  6
CONTINUOUS
 62
    90
100
AcDbLine
 10
-66.814604
 20
2.335357
 30
0.0
 11
479.097081
 21
2.335357
 31
0.0
  0
ARC
  5
13E6
100
AcDbEntity
  8
V0-OBRYS
  6
CONTINUOUS
 62
    90
100
AcDbCircle
 10
204.059889
 20
-447.337161
 30
0.0
 40
543.175143
100
AcDbArc
 50
89.780452
 51
118.330468
  0
LINE
  5
13F0
100
AcDbEntity
  8
V0-OBRYS
  6
CONTINUOUS
 62
    90
100
AcDbLine
 10
82.141239
 20
-358.166006
 30
0.0
 11
82.141239
 21
-319.166006
 31
0.0
  0
LINE
  5
1415
100
AcDbEntity
  8
V0-OBRYS
  6
CONTINUOUS
 62
    90
100
AcDbLine
 10
330.141239
 20
2.335357
 30
0.0
 11
330.141239
 21
0.635994
 31
0.0
  0
INSERT
  5
145C
100
AcDbEntity
  8
V0-VYPLNE
  6
CONTINUOUS
 62
    52
100
AcDbBlockReference
  2
A10_100
 10
1091.344077
 20
-456.786598
 30
0.0
  0
DIMENSION
  5
1476
100
AcDbEntity
  8
V0-VYPLNE
  6
CONTINUOUS
 62
    41
100
AcDbDimension
  2
*D2
 10
371.141239
 20
-494.244267
 30
0.0
 11
201.984542
 21
-494.244267
 31
0.0
 70
   160
  3
ED40
100
AcDbAlignedDimension
 13
41.141239
 23
-276.166006
 33
0.0
 14
371.141239
 24
-276.166006
 34
0.0
100
AcDbRotatedDimension
1001
ACAD
1000
DSTYLE
1002
{
1002
}
  0
DIMENSION
  5
1483
100
AcDbEntity
  8
V0-VYPLNE
  6
CONTINUOUS
 62
    41
100
AcDbDimension
  2
*D3
 10
423.641239
 20
-559.11024
 30
0.0
 11
192.245664
 21
-559.11024
 31
0.0
 70
   160
  3
ED40
100
AcDbAlignedDimension
 13
-11.358761
 23
-276.166006
 33
0.0
 14
423.641239
 24
-276.166006
 34
0.0
100
AcDbRotatedDimension
1001
ACAD
1000
DSTYLE
1002
{
1002
}
  0
DIMENSION
  5
1490
100
AcDbEntity
  8
V0-VYPLNE
  6
CONTINUOUS
 62
    41
100
AcDbDimension
  2
*D4
 10
601.278553
 20
95.833994
 30
0.0
 11
601.278553
 21
-98.434493
 31
0.0
 70
   160
  3
ED40
100
AcDbAlignedDimension
 13
423.641239
 23
-276.166006
 33
0.0
 14
206.141239
 24
95.833994
 34
0.0
 50
90.0
100
AcDbRotatedDimension
1001
ACAD
1000
DSTYLE
1002
{
1002
}
  0
LEADER
  5
1494
100
AcDbEntity
  8
V0-VYPLNE
  6
CONTINUOUS
 62
    41
100
AcDbLeader
  3
ED50
 73
     0
 75
     1
 40
51.010039
 41
451.863012
 76
     3
 10
41.141239
 20
-253.166006
 30
0.0
 10
5.919666
 20
-157.148064
 30
0.0
 10
-44.080334
 20
-157.148064
 30
0.0
 77
    41
340
1495
1001
ACAD
1000
DSTYLE
1002
{
1002
}
  0
MTEXT
  5
1495
102
{ACAD_REACTORS
330
1494
102
}
100
AcDbEntity
  8
V0-VYPLNE
  6
CONTINUOUS
 62
    41
100
AcDbMText
 10
-48.080334
 20
-127.643045
 30
0.0
 40
51.0
 41
0.0
 71
     6
 72
     1
  1
4 OTVORY %%c 12
  7
ED20
  0
MTEXT
  5
1496
100
AcDbEntity
  8
V0-NAZVY
  6
CONTINUOUS
100
AcDbMText
 10
98.309652
 20
-797.545541
 30
0.0
 40
48.72
 41
296.211684
 71
     1
 72
     5
  1
TH-1300
  7
ED40
  0
LINE
  5
14A6
100
AcDbEntity
  8
V0-VYPLNE
  6
CONTINUOUS
 62
    41
100
AcDbLine
 10
116.541048
 20
-555.613415
 30
0.0
 11
139.137182
 21
-515.331947
 31
0.0
  0
LWPOLYLINE
  5
14A7
100
AcDbEntity
  8
V0-VYPLNE
  6
CONTINUOUS
 62
    41
100
AcDbPolyline
 90
        4
 70
     1
 43
0.0
 10
116.709496
 20
-547.414066
 10
140.739147
 20
-547.414066
 10
140.739147
 20
-523.406546
 10
116.709496
 20
-523.406546
  0
LWPOLYLINE
  5
14A8
100
AcDbEntity
  8
V0-VYPLNE
  6
CONTINUOUS
 62
    41
100
AcDbPolyline
 90
        4
 70
     1
 43
0.0
 10
121.678716
 20
-483.067557
 10
141.703425
 20
-483.067557
 10
141.703425
 20
-463.06129
 10
121.678716
 20
-463.06129
  0
LINE
  5
14A9
100
AcDbEntity
  8
V0-VYPLNE
  6
CONTINUOUS
 62
    41
100
AcDbLine
 10
121.538343
 20
-489.900348
 30
0.0
 11
140.368454
 21
-456.332457
 31
0.0
  0
ARC
  5
14DC
100
AcDbEntity
  8
V0-OBRYS
  6
CONTINUOUS
 62
    90
100
AcDbCircle
 10
-17.936461
 20
-2.946328
 30
0.0
 40
49.16268
100
AcDbArc
 50
136.685734
 51
173.832651
  0
ARC
  5
14DD
100
AcDbEntity
  8
V0-OBRYS
  6
CONTINUOUS
 62
    90
100
AcDbCircle
 10
208.222588
 20
-447.337161
 30
0.0
 40
543.175143
100
AcDbArc
 50
61.669532
 51
90.219548
  0
ARC
  5
14DE
100
AcDbEntity
  8
V0-OBRYS
  6
CONTINUOUS
 62
    90
100
AcDbCircle
 10
430.218938
 20
-2.946328
 30
0.0
 40
49.16268
100
AcDbArc
 50
6.167349
 51
43.314266
  0
DIMENSION
  5
14EB
100
AcDbEntity
  8
V0-VYPLNE
  6
CONTINUOUS
 62
    41
100
AcDbDimension
  2
*D5
 10
479.097081
 20
167.388669
 30
0.0
 11
214.969712
 21
167.388669
 31
0.0
 70
   160
  1
%%c<>
  3
ED40
100
AcDbAlignedDimension
 13
-66.814604
 23
2.335357
 33
0.0
 14
479.097081
 24
2.335357
 34
0.0
100
AcDbRotatedDimension
1001
ACAD
1000
DSTYLE
1002
{
1002
}
  0
DIMENSION
  5
150E
100
AcDbEntity
  8
V0-VYPLNE
  6
CONTINUOUS
 62
    41
100
AcDbDimension
  2
*D6
 10
330.141239
 20
-422.891694
 30
0.0
 11
205.230839
 21
-422.891694
 31
0.0
 70
   160
  1
%%c<>
  3
ED40
100
AcDbAlignedDimension
 13
82.141239
 23
-358.166006
 33
0.0
 14
330.141239
 24
-358.166006
 34
0.0
100
AcDbRotatedDimension
1001
ACAD
1000
DSTYLE
1002
{
1002
}
  0
DIMENSION
  5
1589
100
AcDbEntity
  8
V0-VYPLNE
  6
CONTINUOUS
 62
    41
100
AcDbDimension
  2
*D7
 10
531.972382
 20
95.833994
 30
0.0
 11
531.972382
 21
-80.166006
 31
0.0
 70
   160
  3
ED40
100
AcDbAlignedDimension
 13
423.641239
 23
-256.166006
 33
0.0
 14
206.141239
 24
95.833994
 34
0.0
 50
90.0
100
AcDbRotatedDimension
1001
ACAD
1000
DSTYLE
1002
{
1002
}
  0
LINE
  5
15C1
100
AcDbEntity
  8
V0-OBRYS
  6
CONTINUOUS
 62
    90
100
AcDbLine
 10
82.141239
 20
-361.166006
 30
0.0
 11
201.98454
 21
-361.166006
 31
0.0
  0
LINE
  5
15C2
100
AcDbEntity
  8
V0-OBRYS
  6
CONTINUOUS
 62
    90
100
AcDbLine
 10
82.141239
 20
-41.379032
 30
0.0
 11
27.141239
 21
-41.379032
 31
0.0
  0
LINE
  5
15C3
100
AcDbEntity
  8
V0-OBRYS
  6
CONTINUOUS
 62
    90
100
AcDbLine
 10
27.141239
 20
-41.379032
 30
0.0
 11
27.141239
 21
-121.379032
 31
0.0
  0
LINE
  5
15C4
100
AcDbEntity
  8
V0-OBRYS
  6
CONTINUOUS
 62
    90
100
AcDbLine
 10
27.141239
 20
-121.379032
 30
0.0
 11
82.141239
 21
-121.379032
 31
0.0
  0
LINE
  5
15C5
100
AcDbEntity
  8
V0-OBRYS
  6
CONTINUOUS
 62
    90
100
AcDbLine
 10
43.583114
 20
-42.135604
 30
0.0
 11
43.583114
 21
-121.290772
 31
0.0
  0
LINE
  5
15C6
100
AcDbEntity
  8
V0-OBRYS
  6
CONTINUOUS
 62
    90
100
AcDbLine
 10
79.012114
 20
-6.483908
 30
0.0
 11
206.141239
 21
-6.483908
 31
0.0
  0
LINE
  5
15C7
100
AcDbEntity
  8
V0-OBRYS
  6
CONTINUOUS
 62
    90
100
AcDbLine
 10
79.012114
 20
-11.483908
 30
0.0
 11
206.141239
 21
-11.483908
 31
0.0
  0
ARC
  5
15C9
100
AcDbEntity
  8
V0-OBRYS
  6
CONTINUOUS
 62
    90
100
AcDbCircle
 10
79.012114
 20
-8.983908
 30
0.0
 40
2.5
100
AcDbArc
 50
90.0
 51
270.0
  0
LINE
  5
15CA
100
AcDbEntity
  8
V0-OBRYS
  6
CONTINUOUS
 62
    90
100
AcDbLine
 10
79.012114
 20
-239.40188
 30
0.0
 11
206.141239
 21
-239.40188
 31
0.0
  0
LINE
  5
15CB
100
AcDbEntity
  8
V0-OBRYS
  6
CONTINUOUS
 62
    90
100
AcDbLine
 10
79.012114
 20
-244.40188
 30
0.0
 11
206.141239
 21
-244.40188
 31
0.0
  0
ARC
  5
15CC
100
AcDbEntity
  8
V0-OBRYS
  6
CONTINUOUS
 62
    90
100
AcDbCircle
 10
79.012114
 20
-241.90188
 30
0.0
 40
2.5
100
AcDbArc
 50
90.0
 51
270.0
  0
LINE
  5
15CE
100
AcDbEntity
  8
V0-OBRYS
  6
CONTINUOUS
 62
    90
100
AcDbLine
 10
82.141239
 20
-6.483908
 30
0.0
 11
82.141239
 21
-4.280496
 31
0.0
  0
LINE
  5
15CF
100
AcDbEntity
  8
V0-OBRYS
  6
CONTINUOUS
 62
    90
100
AcDbLine
 10
82.141239
 20
-239.40188
 30
0.0
 11
82.141239
 21
-11.483908
 31
0.0
  0
LINE
  5
15D0
100
AcDbEntity
  8
V0-OBRYS
  6
CONTINUOUS
 62
    90
100
AcDbLine
 10
82.141239
 20
-6.483908
 30
0.0
 11
82.141239
 21
-4.280496
 31
0.0
  0
LINE
  5
15D1
100
AcDbEntity
  8
V0-OBRYS
  6
CONTINUOUS
 62
    90
100
AcDbLine
 10
82.596247
 20
-4.322251
 30
0.0
 11
206.141239
 21
-4.322251
 31
0.0
  0
LINE
  5
15D2
100
AcDbEntity
  8
V0-OBRYS
  6
CONTINUOUS
 62
    90
100
AcDbLine
 10
82.596247
 20
0.677749
 30
0.0
 11
206.141239
 21
0.677749
 31
0.0
  0
ARC
  5
15D3
100
AcDbEntity
  8
V0-OBRYS
  6
CONTINUOUS
 62
    90
100
AcDbCircle
 10
82.596247
 20
-1.822251
 30
0.0
 40
2.5
100
AcDbArc
 50
90.0
 51
270.0
  0
LINE
  5
15D4
100
AcDbEntity
  8
V0-OBRYS
  6
CONTINUOUS
 62
    90
100
AcDbLine
 10
82.141239
 20
0.635994
 30
0.0
 11
82.141239
 21
2.335357
 31
0.0
  0
LINE
  5
15D5
100
AcDbEntity
  8
V0-OBRYS
  6
CONTINUOUS
 62
    90
100
AcDbLine
 10
82.141239
 20
0.635994
 30
0.0
 11
82.141239
 21
2.335357
 31
0.0
  0
LINE
  5
15D6
100
AcDbEntity
  8
V0-OBRYS
  6
CONTINUOUS
 62
    90
100
AcDbLine
 10
330.141239
 20
-239.40188
 30
0.0
 11
330.141239
 21
-11.483908
 31
0.0
  0
LINE
  5
15D7
100
AcDbEntity
  8
V0-OBRYS
  6
CONTINUOUS
 62
    90
100
AcDbLine
 10
330.141239
 20
-239.40188
 30
0.0
 11
330.141239
 21
-11.483908
 31
0.0
  0
LINE
  5
15D8
100
AcDbEntity
  8
V0-OBRYS
  6
CONTINUOUS
 62
    90
100
AcDbLine
 10
333.270363
 20
-239.40188
 30
0.0
 11
206.141239
 21
-239.40188
 31
0.0
  0
LINE
  5
15D9
100
AcDbEntity
  8
V0-OBRYS
  6
CONTINUOUS
 62
    90
100
AcDbLine
 10
333.270363
 20
-244.40188
 30
0.0
 11
206.141239
 21
-244.40188
 31
0.0
  0
ARC
  5
15DA
100
AcDbEntity
  8
V0-OBRYS
  6
CONTINUOUS
 62
    90
100
AcDbCircle
 10
333.270363
 20
-241.90188
 30
0.0
 40
2.5
100
AcDbArc
 50
270.0
 51
90.0
  0
LINE
  5
15DB
100
AcDbEntity
  8
V0-OBRYS
  6
CONTINUOUS
 62
    90
100
AcDbLine
 10
329.68623
 20
-4.322251
 30
0.0
 11
206.141239
 21
-4.322251
 31
0.0
  0
LINE
  5
15DC
100
AcDbEntity
  8
V0-OBRYS
  6
CONTINUOUS
 62
    90
100
AcDbLine
 10
329.68623
 20
0.677749
 30
0.0
 11
206.141239
 21
0.677749
 31
0.0
  0
LINE
  5
15DD
100
AcDbEntity
  8
V0-OBRYS
  6
CONTINUOUS
 62
    90
100
AcDbLine
 10
333.270363
 20
-11.483908
 30
0.0
 11
206.141239
 21
-11.483908
 31
0.0
  0
LINE
  5
15DE
100
AcDbEntity
  8
V0-OBRYS
  6
CONTINUOUS
 62
    90
100
AcDbLine
 10
333.270363
 20
-6.483908
 30
0.0
 11
206.141239
 21
-6.483908
 31
0.0
  0
ARC
  5
15DF
100
AcDbEntity
  8
V0-OBRYS
  6
CONTINUOUS
 62
    90
100
AcDbCircle
 10
329.68623
 20
-1.822251
 30
0.0
 40
2.5
100
AcDbArc
 50
270.0
 51
90.0
  0
ARC
  5
15E0
100
AcDbEntity
  8
V0-OBRYS
  6
CONTINUOUS
 62
    90
100
AcDbCircle
 10
333.270363
 20
-8.983908
 30
0.0
 40
2.5
100
AcDbArc
 50
270.0
 51
90.0
  0
LINE
  5
15E1
100
AcDbEntity
  8
V0-OBRYS
  6
CONTINUOUS
 62
    90
100
AcDbLine
 10
330.141239
 20
0.635994
 30
0.0
 11
330.141239
 21
2.335357
 31
0.0
  0
LINE
  5
15E2
100
AcDbEntity
  8
V0-OBRYS
  6
CONTINUOUS
 62
    90
100
AcDbLine
 10
330.141239
 20
-6.483908
 30
0.0
 11
330.141239
 21
-4.280496
 31
0.0
  0
LINE
  5
15E3
100
AcDbEntity
  8
V0-OBRYS
  6
CONTINUOUS
 62
    90
100
AcDbLine
 10
330.141239
 20
0.635994
 30
0.0
 11
330.141239
 21
2.335357
 31
0.0
  0
LINE
  5
15E4
100
AcDbEntity
  8
V0-OBRYS
  6
CONTINUOUS
 62
    90
100
AcDbLine
 10
330.141239
 20
-6.483908
 30
0.0
 11
330.141239
 21
-4.280496
 31
0.0
  0
LINE
  5
15E6
100
AcDbEntity
  8
V0-OBRYS
  6
CONTINUOUS
 62
    90
100
AcDbLine
 10
330.141239
 20
0.635994
 30
0.0
 11
330.141239
 21
2.335357
 31
0.0
  0
LINE
  5
15E7
100
AcDbEntity
  8
V0-OBRYS
  6
CONTINUOUS
 62
    90
100
AcDbLine
 10
330.141239
 20
-4.280496
 30
0.0
 11
330.141239
 21
-6.483908
 31
0.0
  0
LINE
  5
15E8
100
AcDbEntity
  8
V0-OBRYS
  6
CONTINUOUS
 62
    90
100
AcDbLine
 10
330.141239
 20
-6.483908
 30
0.0
 11
330.141239
 21
-4.280496
 31
0.0
  0
LINE
  5
15E9
100
AcDbEntity
  8
V0-OBRYS
  6
CONTINUOUS
 62
    90
100
AcDbLine
 10
330.141239
 20
-239.40188
 30
0.0
 11
330.141239
 21
-11.483908
 31
0.0
  0
LINE
  5
15EA
100
AcDbEntity
  8
V0-OBRYS
  6
CONTINUOUS
 62
    90
100
AcDbLine
 10
330.141239
 20
-244.40188
 30
0.0
 11
330.141239
 21
-253.166006
 31
0.0
  0
DIMENSION
  5
15F7
100
AcDbEntity
  8
V0-VYPLNE
  6
CONTINUOUS
 62
    41
100
AcDbDimension
  2
*D8
 10
666.204405
 20
-361.166006
 30
0.0
 11
666.204405
 21
-132.666006
 31
0.0
 70
   160
  3
ED40
100
AcDbAlignedDimension
 13
207.141239
 23
95.833994
 33
0.0
 14
329.557917
 24
-361.166006
 34
0.0
 50
90.0
100
AcDbRotatedDimension
1001
ACAD
1000
DSTYLE
1002
{
1002
}
  0
LINE
  5
1619
100
AcDbEntity
  8
V0-OBRYS
  6
CONTINUOUS
 62
    90
100
AcDbLine
 10
82.141239
 20
-253.166006
 30
0.0
 11
82.141239
 21
-244.40188
 31
0.0
  0
LINE
  5
161A
100
AcDbEntity
  8
V0-OBRYS
  6
CONTINUOUS
 62
    90
100
AcDbLine
 10
82.141239
 20
-253.166006
 30
0.0
 11
82.141239
 21
-244.40188
 31
0.0
  0
LINE
  5
161B
100
AcDbEntity
  8
V0-OBRYS
  6
CONTINUOUS
 62
    90
100
AcDbLine
 10
330.141239
 20
-319.166006
 30
0.0
 11
330.141239
 21
-358.166006
 31
0.0
  0
LINE
  5
161C
100
AcDbEntity
  8
V0-OBRYS
  6
CONTINUOUS
 62
    90
100
AcDbLine
 10
330.141239
 20
-253.166006
 30
0.0
 11
330.141239
 21
-244.40188
 31
0.0
  0
DIMENSION
  5
165D
100
AcDbEntity
  8
V0-VYPLNE
  6
CONTINUOUS
 62
    41
100
AcDbDimension
  2
*D9
 10
-155.107658
 20
-276.166006
 30
0.0
 11
-155.107658
 21
-408.320533
 31
0.0
 70
   160
  3
ED40
100
AcDbAlignedDimension
 13
-11.358761
 23
-256.166006
 33
0.0
 14
-11.358761
 24
-276.166006
 34
0.0
 50
90.0
100
AcDbRotatedDimension
1001
ACAD
1000
DSTYLE
1002
{
1002
}
  0
LINE
  5
165E
100
AcDbEntity
  8
V0-OBRYS
  6
CONTINUOUS
 62
    90
100
AcDbLine
 10
77.141239
 20
-319.166006
 30
0.0
 11
334.912403
 21
-319.166006
 31
0.0
  0
LINE
  5
165F
100
AcDbEntity
  8
V0-OBRYS
  6
CONTINUOUS
 62
    90
100
AcDbLine
 10
77.141239
 20
-276.166006
 30
0.0
 11
77.141239
 21
-319.166006
 31
0.0
  0
LINE
  5
1660
100
AcDbEntity
  8
V0-OBRYS
  6
CONTINUOUS
 62
    90
100
AcDbLine
 10
335.13674
 20
-277.014449
 30
0.0
 11
334.912403
 21
-319.166006
 31
0.0
  0
DIMENSION
  5
1696
100
AcDbEntity
  8
V0-VYPLNE
  6
CONTINUOUS
 62
    41
100
AcDbDimension
  2
*D10
 10
-80.442927
 20
-361.166006
 30
0.0
 11
-80.442927
 21
-340.166006
 31
0.0
 70
   160
  3
ED40
100
AcDbAlignedDimension
 13
77.141239
 23
-319.166006
 33
0.0
 14
82.141239
 24
-361.166006
 34
0.0
 50
90.0
100
AcDbRotatedDimension
1001
ACAD
1000
DSTYLE
1002
{
1002
}
  0
LINE
  5
16FC
100
AcDbEntity
  8
V0-VYPLNE
  6
DASHED
 62
    52
 48
3.0
100
AcDbLine
 10
85.881658
 20
-851.664085
 30
0.0
 11
21.454162
 21
-851.664085
 31
0.0
  0
LINE
  5
16FD
100
AcDbEntity
  8
V0-VYPLNE
  6
DASHED
 62
    52
 48
3.0
100
AcDbLine
 10
85.881658
 20
-931.588085
 30
0.0
 11
21.454162
 21
-931.588085
 31
0.0
  0
LINE
  5
16FE
100
AcDbEntity
  8
V0-VYPLNE
  6
DASHED
 62
    52
 48
3.0
100
AcDbLine
 10
21.454162
 20
-851.664085
 30
0.0
 11
21.454162
 21
-931.588085
 31
0.0
  0
LINE
  5
16FF
100
AcDbEntity
  8
V0-VYPLNE
  6
DASHED
 62
    52
 48
3.0
100
AcDbLine
 10
38.06896
 20
-851.664085
 30
0.0
 11
38.06896
 21
-931.588085
 31
0.0
  0
POINT
  5
171F
100
AcDbEntity
  8
V0-VYPLNE
  6
CONTINUOUS
 62
    41
100
AcDbPoint
 10
1016.96605
 20
-276.166006
 30
0.0
  0
POINT
  5
175E
100
AcDbEntity
  8
V0-VYPLNE
  6
CONTINUOUS
 62
    52
100
AcDbPoint
 10
204.649539
 20
-891.626085
 30
0.0
  0
LINE
  5
1763
100
AcDbEntity
  8
V0-OBRYS
  6
CONTINUOUS
 62
    90
100
AcDbLine
 10
978.407925
 20
-120.937341
 30
0.0
 11
1016.96605
 21
-120.937341
 31
0.0
  0
LINE
  5
1764
100
AcDbEntity
  8
V0-OBRYS
  6
CONTINUOUS
 62
    90
100
AcDbLine
 10
1016.96605
 20
-40.937341
 30
0.0
 11
978.407925
 21
-40.937341
 31
0.0
  0
LINE
  5
1766
100
AcDbEntity
  8
V0-OBRYS
  6
CONTINUOUS
 62
    90
100
AcDbLine
 10
973.407925
 20
-45.937341
 30
0.0
 11
973.407925
 21
-115.937341
 31
0.0
  0
LINE
  5
1767
100
AcDbEntity
  8
V0-OBRYS
  6
CONTINUOUS
 62
    90
100
AcDbLine
 10
1016.96605
 20
-40.937341
 30
0.0
 11
1055.524175
 21
-40.937341
 31
0.0
  0
LINE
  5
1768
100
AcDbEntity
  8
V0-OBRYS
  6
CONTINUOUS
 62
    90
100
AcDbLine
 10
1055.524175
 20
-120.937341
 30
0.0
 11
1016.96605
 21
-120.937341
 31
0.0
  0
LINE
  5
1769
100
AcDbEntity
  8
V0-OBRYS
  6
CONTINUOUS
 62
    90
100
AcDbLine
 10
1060.524175
 20
-45.937341
 30
0.0
 11
1060.524175
 21
-115.937341
 31
0.0
  0
ARC
  5
176B
100
AcDbEntity
  8
V0-OBRYS
  6
CONTINUOUS
 62
    90
100
AcDbCircle
 10
978.407925
 20
-45.937341
 30
0.0
 40
5.0
100
AcDbArc
 50
90.0
 51
180.0
  0
ARC
  5
176C
100
AcDbEntity
  8
V0-OBRYS
  6
CONTINUOUS
 62
    90
100
AcDbCircle
 10
1055.524175
 20
-45.937341
 30
0.0
 40
5.0
100
AcDbArc
 50
0.0
 51
90.0
  0
ARC
  5
176D
100
AcDbEntity
  8
V0-OBRYS
  6
CONTINUOUS
 62
    90
100
AcDbCircle
 10
1055.524175
 20
-115.937341
 30
0.0
 40
5.0
100
AcDbArc
 50
270.0
 51
0.0
  0
ARC
  5
176E
100
AcDbEntity
  8
V0-OBRYS
  6
CONTINUOUS
 62
    90
100
AcDbCircle
 10
978.407925
 20
-115.937341
 30
0.0
 40
5.0
100
AcDbArc
 50
180.0
 51
270.0
  0
CIRCLE
  5
176F
100
AcDbEntity
  8
V0-OBRYS
  6
CONTINUOUS
 62
    90
100
AcDbCircle
 10
978.407925
 20
-45.937341
 30
0.0
 40
2.5
  0
LINE
  5
1773
100
AcDbEntity
  8
V0-VYPLNE
  6
DASHDOT
 62
    63
100
AcDbLine
 10
978.407925
 20
-40.937341
 30
0.0
 11
978.407925
 21
-51.153081
 31
0.0
  0
LINE
  5
1774
100
AcDbEntity
  8
V0-VYPLNE
  6
DASHDOT
 62
    63
100
AcDbLine
 10
973.407925
 20
-45.937341
 30
0.0
 11
983.874055
 21
-45.937341
 31
0.0
  0
LINE
  5
178C
100
AcDbEntity
  8
V0-VYPLNE
  6
DASHDOT
 62
    63
100
AcDbLine
 10
1055.524175
 20
-40.937341
 30
0.0
 11
1055.524175
 21
-51.153081
 31
0.0
  0
CIRCLE
  5
178D
100
AcDbEntity
  8
V0-OBRYS
  6
CONTINUOUS
 62
    90
100
AcDbCircle
 10
1055.524175
 20
-45.937341
 30
0.0
 40
2.5
  0
LINE
  5
178E
100
AcDbEntity
  8
V0-VYPLNE
  6
DASHDOT
 62
    63
100
AcDbLine
 10
1060.524175
 20
-45.937341
 30
0.0
 11
1050.058045
 21
-45.937341
 31
0.0
  0
LINE
  5
178F
100
AcDbEntity
  8
V0-VYPLNE
  6
DASHDOT
 62
    63
100
AcDbLine
 10
978.407925
 20
-120.937341
 30
0.0
 11
978.407925
 21
-110.721602
 31
0.0
  0
CIRCLE
  5
1790
100
AcDbEntity
  8
V0-OBRYS
  6
CONTINUOUS
 62
    90
100
AcDbCircle
 10
978.407925
 20
-115.937341
 30
0.0
 40
2.5
  0
LINE
  5
1791
100
AcDbEntity
  8
V0-VYPLNE
  6
DASHDOT
 62
    63
100
AcDbLine
 10
973.407925
 20
-115.937341
 30
0.0
 11
983.874055
 21
-115.937341
 31
0.0
  0
LINE
  5
1792
100
AcDbEntity
  8
V0-VYPLNE
  6
DASHDOT
 62
    63
100
AcDbLine
 10
1060.524175
 20
-115.937341
 30
0.0
 11
1050.058045
 21
-115.937341
 31
0.0
  0
CIRCLE
  5
1793
100
AcDbEntity
  8
V0-OBRYS
  6
CONTINUOUS
 62
    90
100
AcDbCircle
 10
1055.524175
 20
-115.937341
 30
0.0
 40
2.5
  0
LINE
  5
1794
100
AcDbEntity
  8
V0-VYPLNE
  6
DASHDOT
 62
    63
100
AcDbLine
 10
1055.524175
 20
-120.937341
 30
0.0
 11
1055.524175
 21
-110.721602
 31
0.0
  0
ARC
  5
1795
100
AcDbEntity
  8
V0-OBRYS
  6
CONTINUOUS
 62
    90
100
AcDbCircle
 10
1055.524175
 20
-115.937341
 30
0.0
 40
5.0
100
AcDbArc
 50
270.0
 51
0.0
  0
MTEXT
  5
17B2
100
AcDbEntity
  8
V0-NAZVY
  6
CONTINUOUS
 48
3.0
100
AcDbMText
 10
124.142759
 20
65.644235
 30
0.0
 40
40.32
 41
245.140704
 71
     1
 72
     5
  1
TH-1300
  7
ED40
  0
LINE
  5
17B3
100
AcDbEntity
  8
V0-VYPLNE
 48
3.0
100
AcDbLine
 10
206.141239
 20
14.491811
 30
0.0
 11
206.141239
 21
-272.319392
 31
0.0
  0
LINE
  5
17B4
100
AcDbEntity
  8
V0-VYPLNE
  6
DASHDOT
 62
    63
 48
3.0
100
AcDbLine
 10
204.977666
 20
-618.722902
 30
0.0
 11
204.977666
 21
-782.897851
 31
0.0
  0
POINT
  5
1B21
100
AcDbEntity
  8
V0-VYPLNE
  6
CONTINUOUS
 62
    41
100
AcDbPoint
 10
1016.96605
 20
-276.166006
 30
0.0
  0
LINE
  5
1B81
100
AcDbEntity
  8
V0-VYPLNE
 62
    63
100
AcDbLine
 10
39.649539
 20
-704.876085
 30
0.0
 11
39.649539
 21
-748.376085
 31
0.0
  0
LINE
  5
1B83
100
AcDbEntity
  8
V0-VYPLNE
 62
    63
100
AcDbLine
 10
39.649539
 20
-748.376085
 30
0.0
 11
39.649539
 21
-704.876085
 31
0.0
  0
LINE
  5
1B84
100
AcDbEntity
  8
V0-VYPLNE
 62
    63
100
AcDbLine
 10
39.649539
 20
-1034.876085
 30
0.0
 11
39.649539
 21
-1078.376085
 31
0.0
  0
LINE
  5
1B85
100
AcDbEntity
  8
V0-VYPLNE
 62
    63
100
AcDbLine
 10
61.399539
 20
-1056.626085
 30
0.0
 11
17.899539
 21
-1056.626085
 31
0.0
  0
LINE
  5
1B86
100
AcDbEntity
  8
V0-VYPLNE
 62
    63
100
AcDbLine
 10
17.899539
 20
-1056.626085
 30
0.0
 11
61.399539
 21
-1056.626085
 31
0.0
  0
CIRCLE
  5
1B87
100
AcDbEntity
  8
V0-VYPLNE
  6
DASHED
 62
    56
100
AcDbCircle
 10
39.649539
 20
-1056.626085
 30
0.0
 40
5.075
  0
LINE
  5
1B88
100
AcDbEntity
  8
V0-VYPLNE
 62
    63
100
AcDbLine
 10
347.899539
 20
-1056.626085
 30
0.0
 11
391.399539
 21
-1056.626085
 31
0.0
  0
LINE
  5
1B89
100
AcDbEntity
  8
V0-VYPLNE
 62
    63
100
AcDbLine
 10
369.649539
 20
-1034.876085
 30
0.0
 11
369.649539
 21
-1078.376085
 31
0.0
  0
LINE
  5
1B8A
100
AcDbEntity
  8
V0-VYPLNE
 62
    63
100
AcDbLine
 10
369.649539
 20
-1078.376085
 30
0.0
 11
369.649539
 21
-1034.876085
 31
0.0
  0
CIRCLE
  5
1B8B
100
AcDbEntity
  8
V0-VYPLNE
  6
DASHED
 62
    56
100
AcDbCircle
 10
369.649539
 20
-1056.626085
 30
0.0
 40
5.075
  0
LINE
  5
1B8C
100
AcDbEntity
  8
V0-VYPLNE
 62
    63
100
AcDbLine
 10
369.649539
 20
-748.376085
 30
0.0
 11
369.649539
 21
-704.876085
 31
0.0
  0
LINE
  5
1B8D
100
AcDbEntity
  8
V0-VYPLNE
 62
    63
100
AcDbLine
 10
347.899539
 20
-726.626085
 30
0.0
 11
391.399539
 21
-726.626085
 31
0.0
  0
LINE
  5
1B8E
100
AcDbEntity
  8
V0-VYPLNE
 62
    63
100
AcDbLine
 10
391.399539
 20
-726.626085
 30
0.0
 11
347.899539
 21
-726.626085
 31
0.0
  0
CIRCLE
  5
1B8F
100
AcDbEntity
  8
V0-VYPLNE
  6
DASHED
 62
    56
100
AcDbCircle
 10
369.649539
 20
-726.626085
 30
0.0
 40
5.075
  0
LINE
  5
1BF6
100
AcDbEntity
  8
V0-OBRYS
  6
DASHDOT
 62
    90
100
AcDbLine
 10
39.816277
 20
-674.126085
 30
0.0
 11
-12.850461
 21
-674.126085
 31
0.0
  0
LINE
  5
1BF7
100
AcDbEntity
  8
V0-OBRYS
  6
DASHDOT
 62
    90
100
AcDbLine
 10
-12.850461
 20
-674.126085
 30
0.0
 11
-12.850461
 21
-726.792822
 31
0.0
  0
LINE
  5
1BF8
100
AcDbEntity
  8
V0-OBRYS
  6
DASHDOT
 62
    90
100
AcDbLine
 10
369.482802
 20
-674.126085
 30
0.0
 11
422.149539
 21
-674.126085
 31
0.0
  0
LINE
  5
1BF9
100
AcDbEntity
  8
V0-OBRYS
  6
DASHDOT
 62
    90
100
AcDbLine
 10
422.149539
 20
-674.126085
 30
0.0
 11
422.149539
 21
-726.792822
 31
0.0
  0
LINE
  5
1BFA
100
AcDbEntity
  8
V0-OBRYS
  6
DASHDOT
 62
    90
100
AcDbLine
 10
-12.850461
 20
-1056.459347
 30
0.0
 11
-12.850461
 21
-1109.126085
 31
0.0
  0
LINE
  5
1BFB
100
AcDbEntity
  8
V0-OBRYS
  6
DASHDOT
 62
    90
100
AcDbLine
 10
-12.850461
 20
-1109.126085
 30
0.0
 11
39.816277
 21
-1109.126085
 31
0.0
  0
LINE
  5
1BFC
100
AcDbEntity
  8
V0-OBRYS
  6
DASHDOT
 62
    90
100
AcDbLine
 10
369.482802
 20
-1109.126085
 30
0.0
 11
422.149539
 21
-1109.126085
 31
0.0
  0
LINE
  5
1BFD
100
AcDbEntity
  8
V0-OBRYS
  6
DASHDOT
 62
    90
100
AcDbLine
 10
422.149539
 20
-1109.126085
 30
0.0
 11
422.149539
 21
-1056.459347
 31
0.0
  0
LINE
  5
1CF0
100
AcDbEntity
  8
V0-OBRYS
  6
CONTINUOUS
 62
    90
100
AcDbLine
 10
1140.96605
 20
-239.40188
 30
0.0
 11
1140.96605
 21
-11.483908
 31
0.0
  0
LINE
  5
1CF1
100
AcDbEntity
  8
V0-OBRYS
  6
CONTINUOUS
 62
    90
100
AcDbLine
 10
1140.96605
 20
-239.40188
 30
0.0
 11
1140.96605
 21
-11.483908
 31
0.0
  0
LINE
  5
1CF2
100
AcDbEntity
  8
V0-OBRYS
  6
CONTINUOUS
 62
    90
100
AcDbLine
 10
1140.96605
 20
-239.40188
 30
0.0
 11
1140.96605
 21
-11.483908
 31
0.0
  0
LINE
  5
1CF3
100
AcDbEntity
  8
V0-OBRYS
  6
CONTINUOUS
 62
    90
100
AcDbLine
 10
892.96605
 20
-239.40188
 30
0.0
 11
892.96605
 21
-11.483908
 31
0.0
  0
LINE
  5
1CF4
100
AcDbEntity
  8
V0-VYPLNE
 48
3.0
100
AcDbLine
 10
1016.96605
 20
14.491811
 30
0.0
 11
1016.96605
 21
-361.166006
 31
0.0
  0
LINE
  5
1CF5
100
AcDbEntity
  8
V0-OBRYS
  6
CONTINUOUS
 62
    90
100
AcDbLine
 10
887.96605
 20
-319.166006
 30
0.0
 11
1145.737214
 21
-319.166006
 31
0.0
  0
LINE
  5
1CF6
100
AcDbEntity
  8
V0-OBRYS
  6
CONTINUOUS
 62
    90
100
AcDbLine
 10
892.96605
 20
-361.166006
 30
0.0
 11
1140.382729
 21
-361.166006
 31
0.0
  0
LINE
  5
1CF7
100
AcDbEntity
  8
V0-OBRYS
  6
CONTINUOUS
 62
    90
100
AcDbLine
 10
889.836925
 20
-239.40188
 30
0.0
 11
1016.96605
 21
-239.40188
 31
0.0
  0
LINE
  5
1CF8
100
AcDbEntity
  8
V0-OBRYS
  6
CONTINUOUS
 62
    90
100
AcDbLine
 10
889.836925
 20
-244.40188
 30
0.0
 11
1016.96605
 21
-244.40188
 31
0.0
  0
LINE
  5
1CF9
100
AcDbEntity
  8
V0-OBRYS
  6
CONTINUOUS
 62
    90
100
AcDbLine
 10
839.46605
 20
-253.166006
 30
0.0
 11
1194.46605
 21
-253.166006
 31
0.0
  0
LINE
  5
1CFA
100
AcDbEntity
  8
V0-OBRYS
  6
CONTINUOUS
 62
    90
100
AcDbLine
 10
1234.46605
 20
-256.166006
 30
0.0
 11
799.46605
 21
-256.166006
 31
0.0
  0
LINE
  5
1CFB
100
AcDbEntity
  8
V0-OBRYS
  6
CONTINUOUS
 62
    90
100
AcDbLine
 10
799.46605
 20
-276.166006
 30
0.0
 11
1234.46605
 21
-276.166006
 31
0.0
  0
LINE
  5
1CFC
100
AcDbEntity
  8
V0-OBRYS
  6
CONTINUOUS
 62
    90
100
AcDbLine
 10
799.46605
 20
-256.166006
 30
0.0
 11
799.46605
 21
-276.166006
 31
0.0
  0
LINE
  5
1CFD
100
AcDbEntity
  8
V0-OBRYS
  6
CONTINUOUS
 62
    90
100
AcDbLine
 10
839.46605
 20
-256.166006
 30
0.0
 11
839.46605
 21
-253.166006
 31
0.0
  0
LINE
  5
1CFE
100
AcDbEntity
  8
V0-OBRYS
  6
CONTINUOUS
 62
    90
100
AcDbLine
 10
892.96605
 20
-358.166006
 30
0.0
 11
892.96605
 21
-319.166006
 31
0.0
  0
LINE
  5
1CFF
100
AcDbEntity
  8
V0-VYPLNE
100
AcDbLine
 10
851.96605
 20
-286.166006
 30
0.0
 11
851.96605
 21
-231.166006
 31
0.0
  0
LINE
  5
1D00
100
AcDbEntity
  8
V0-OBRYS
  6
CONTINUOUS
 62
    90
100
AcDbLine
 10
887.96605
 20
-276.166006
 30
0.0
 11
887.96605
 21
-319.166006
 31
0.0
  0
ARC
  5
1D01
100
AcDbEntity
  8
V0-OBRYS
  6
CONTINUOUS
 62
    90
100
AcDbCircle
 10
889.836925
 20
-241.90188
 30
0.0
 40
2.5
100
AcDbArc
 50
90.0
 51
270.0
  0
LINE
  5
1D02
100
AcDbEntity
  8
V0-OBRYS
  6
CONTINUOUS
 62
    90
100
AcDbLine
 10
892.96605
 20
-253.166006
 30
0.0
 11
892.96605
 21
-244.40188
 31
0.0
  0
LINE
  5
1D03
100
AcDbEntity
  8
V0-OBRYS
  6
CONTINUOUS
 62
    90
100
AcDbLine
 10
892.96605
 20
-253.166006
 30
0.0
 11
892.96605
 21
-244.40188
 31
0.0
  0
LINE
  5
1D04
100
AcDbEntity
  8
V0-OBRYS
  6
CONTINUOUS
 62
    90
100
AcDbLine
 10
1144.095174
 20
-239.40188
 30
0.0
 11
1016.96605
 21
-239.40188
 31
0.0
  0
LINE
  5
1D05
100
AcDbEntity
  8
V0-OBRYS
  6
CONTINUOUS
 62
    90
100
AcDbLine
 10
1144.095174
 20
-244.40188
 30
0.0
 11
1016.96605
 21
-244.40188
 31
0.0
  0
POINT
  5
1D06
100
AcDbEntity
  8
V0-VYPLNE
  6
CONTINUOUS
 62
    41
100
AcDbPoint
 10
1016.96605
 20
-276.166006
 30
0.0
  0
LINE
  5
1D07
100
AcDbEntity
  8
V0-OBRYS
  6
CONTINUOUS
 62
    90
100
AcDbLine
 10
1140.96605
 20
-319.166006
 30
0.0
 11
1140.96605
 21
-358.166006
 31
0.0
  0
LINE
  5
1D08
100
AcDbEntity
  8
V0-OBRYS
  6
CONTINUOUS
 62
    90
100
AcDbLine
 10
1145.961551
 20
-277.014449
 30
0.0
 11
1145.737214
 21
-319.166006
 31
0.0
  0
ARC
  5
1D09
100
AcDbEntity
  8
V0-OBRYS
  6
CONTINUOUS
 62
    90
100
AcDbCircle
 10
1144.095174
 20
-241.90188
 30
0.0
 40
2.5
100
AcDbArc
 50
270.0
 51
90.0
  0
LINE
  5
1D0A
100
AcDbEntity
  8
V0-OBRYS
  6
CONTINUOUS
 62
    90
100
AcDbLine
 10
1140.96605
 20
-244.40188
 30
0.0
 11
1140.96605
 21
-253.166006
 31
0.0
  0
LINE
  5
1D0B
100
AcDbEntity
  8
V0-OBRYS
  6
CONTINUOUS
 62
    90
100
AcDbLine
 10
1140.96605
 20
-253.166006
 30
0.0
 11
1140.96605
 21
-244.40188
 31
0.0
  0
LINE
  5
1D0C
100
AcDbEntity
  8
V0-VYPLNE
100
AcDbLine
 10
1181.96605
 20
-286.166006
 30
0.0
 11
1181.96605
 21
-231.166006
 31
0.0
  0
LINE
  5
1D0D
100
AcDbEntity
  8
V0-OBRYS
  6
CONTINUOUS
 62
    90
100
AcDbLine
 10
1234.46605
 20
-276.166006
 30
0.0
 11
1234.46605
 21
-256.166006
 31
0.0
  0
LINE
  5
1D0E
100
AcDbEntity
  8
V0-OBRYS
  6
CONTINUOUS
 62
    90
100
AcDbLine
 10
1194.46605
 20
-253.166006
 30
0.0
 11
1194.46605
 21
-256.166006
 31
0.0
  0
LINE
  5
1D0F
100
AcDbEntity
  8
V0-OBRYS
  6
CONTINUOUS
 62
    90
100
AcDbLine
 10
893.421058
 20
0.677749
 30
0.0
 11
1016.96605
 21
0.677749
 31
0.0
  0
LINE
  5
1D10
100
AcDbEntity
  8
V0-OBRYS
  6
CONTINUOUS
 62
    90
100
AcDbLine
 10
893.421058
 20
-4.322251
 30
0.0
 11
1016.96605
 21
-4.322251
 31
0.0
  0
LINE
  5
1D11
100
AcDbEntity
  8
V0-OBRYS
  6
CONTINUOUS
 62
    90
100
AcDbLine
 10
889.836925
 20
-11.483908
 30
0.0
 11
1016.96605
 21
-11.483908
 31
0.0
  0
LINE
  5
1D12
100
AcDbEntity
  8
V0-OBRYS
  6
CONTINUOUS
 62
    90
100
AcDbLine
 10
889.836925
 20
-6.483908
 30
0.0
 11
1016.96605
 21
-6.483908
 31
0.0
  0
MTEXT
  5
1D13
100
AcDbEntity
  8
V0-NAZVY
  6
CONTINUOUS
 48
3.0
100
AcDbMText
 10
934.168636
 20
65.644235
 30
0.0
 40
40.32
 41
245.140704
 71
     1
 72
     5
  1
TH-1300
  7
ED40
  0
ARC
  5
1D14
100
AcDbEntity
  8
V0-OBRYS
  6
CONTINUOUS
 62
    90
100
AcDbCircle
 10
1014.8847
 20
-447.337161
 30
0.0
 40
543.175143
100
AcDbArc
 50
89.780452
 51
118.330468
  0
LINE
  5
1D15
100
AcDbEntity
  8
V0-OBRYS
  6
CONTINUOUS
 62
    90
100
AcDbLine
 10
744.010207
 20
2.335357
 30
0.0
 11
1289.921892
 21
2.335357
 31
0.0
  0
ARC
  5
1D16
100
AcDbEntity
  8
V0-OBRYS
  6
CONTINUOUS
 62
    90
100
AcDbCircle
 10
792.88835
 20
-2.946328
 30
0.0
 40
49.16268
100
AcDbArc
 50
136.685734
 51
173.832651
  0
LINE
  5
1D1B
100
AcDbEntity
  8
V0-OBRYS
  6
CONTINUOUS
 62
    90
100
AcDbLine
 10
892.96605
 20
0.635994
 30
0.0
 11
892.96605
 21
2.335357
 31
0.0
  0
LINE
  5
1D1C
100
AcDbEntity
  8
V0-OBRYS
  6
CONTINUOUS
 62
    90
100
AcDbLine
 10
892.96605
 20
0.635994
 30
0.0
 11
892.96605
 21
2.335357
 31
0.0
  0
ARC
  5
1D1D
100
AcDbEntity
  8
V0-OBRYS
  6
CONTINUOUS
 62
    90
100
AcDbCircle
 10
889.836925
 20
-8.983908
 30
0.0
 40
2.5
100
AcDbArc
 50
90.0
 51
270.0
  0
LINE
  5
1D1E
100
AcDbEntity
  8
V0-OBRYS
  6
CONTINUOUS
 62
    90
100
AcDbLine
 10
892.96605
 20
-6.483908
 30
0.0
 11
892.96605
 21
-4.280496
 31
0.0
  0
LINE
  5
1D1F
100
AcDbEntity
  8
V0-OBRYS
  6
CONTINUOUS
 62
    90
100
AcDbLine
 10
892.96605
 20
-6.483908
 30
0.0
 11
892.96605
 21
-4.280496
 31
0.0
  0
ARC
  5
1D20
100
AcDbEntity
  8
V0-OBRYS
  6
CONTINUOUS
 62
    90
100
AcDbCircle
 10
893.421058
 20
-1.822251
 30
0.0
 40
2.5
100
AcDbArc
 50
90.0
 51
270.0
  0
ARC
  5
1D21
100
AcDbEntity
  8
V0-OBRYS
  6
CONTINUOUS
 62
    90
 48
3.0
100
AcDbCircle
 10
1019.0474
 20
-447.337161
 30
0.0
 40
543.175143
100
AcDbArc
 50
61.669532
 51
90.219548
  0
LINE
  5
1D22
100
AcDbEntity
  8
V0-OBRYS
  6
CONTINUOUS
 62
    90
100
AcDbLine
 10
1144.095174
 20
-6.483908
 30
0.0
 11
1016.96605
 21
-6.483908
 31
0.0
  0
LINE
  5
1D23
100
AcDbEntity
  8
V0-OBRYS
  6
CONTINUOUS
 62
    90
100
AcDbLine
 10
1144.095174
 20
-11.483908
 30
0.0
 11
1016.96605
 21
-11.483908
 31
0.0
  0
LINE
  5
1D24
100
AcDbEntity
  8
V0-OBRYS
  6
CONTINUOUS
 62
    90
100
AcDbLine
 10
1140.511042
 20
0.677749
 30
0.0
 11
1016.96605
 21
0.677749
 31
0.0
  0
LINE
  5
1D25
100
AcDbEntity
  8
V0-OBRYS
  6
CONTINUOUS
 62
    90
100
AcDbLine
 10
1140.511042
 20
-4.322251
 30
0.0
 11
1016.96605
 21
-4.322251
 31
0.0
  0
LINE
  5
1D26
100
AcDbEntity
  8
V0-OBRYS
  6
CONTINUOUS
 62
    90
100
AcDbLine
 10
1140.96605
 20
0.635994
 30
0.0
 11
1140.96605
 21
2.335357
 31
0.0
  0
LINE
  5
1D27
100
AcDbEntity
  8
V0-OBRYS
  6
CONTINUOUS
 62
    90
100
AcDbLine
 10
1140.96605
 20
0.635994
 30
0.0
 11
1140.96605
 21
2.335357
 31
0.0
  0
LINE
  5
1D28
100
AcDbEntity
  8
V0-OBRYS
  6
CONTINUOUS
 62
    90
100
AcDbLine
 10
1140.96605
 20
0.635994
 30
0.0
 11
1140.96605
 21
2.335357
 31
0.0
  0
LINE
  5
1D29
100
AcDbEntity
  8
V0-OBRYS
  6
CONTINUOUS
 62
    90
100
AcDbLine
 10
1140.96605
 20
2.335357
 30
0.0
 11
1140.96605
 21
0.635994
 31
0.0
  0
LINE
  5
1D2A
100
AcDbEntity
  8
V0-OBRYS
  6
CONTINUOUS
 62
    90
100
AcDbLine
 10
1140.96605
 20
-6.483908
 30
0.0
 11
1140.96605
 21
-4.280496
 31
0.0
  0
LINE
  5
1D2B
100
AcDbEntity
  8
V0-OBRYS
  6
CONTINUOUS
 62
    90
100
AcDbLine
 10
1140.96605
 20
-4.280496
 30
0.0
 11
1140.96605
 21
-6.483908
 31
0.0
  0
LINE
  5
1D2C
100
AcDbEntity
  8
V0-OBRYS
  6
CONTINUOUS
 62
    90
100
AcDbLine
 10
1140.96605
 20
-6.483908
 30
0.0
 11
1140.96605
 21
-4.280496
 31
0.0
  0
LINE
  5
1D2D
100
AcDbEntity
  8
V0-OBRYS
  6
CONTINUOUS
 62
    90
100
AcDbLine
 10
1140.96605
 20
-6.483908
 30
0.0
 11
1140.96605
 21
-4.280496
 31
0.0
  0
ARC
  5
1D2E
100
AcDbEntity
  8
V0-OBRYS
  6
CONTINUOUS
 62
    90
100
AcDbCircle
 10
1144.095174
 20
-8.983908
 30
0.0
 40
2.5
100
AcDbArc
 50
270.0
 51
90.0
  0
ARC
  5
1D2F
100
AcDbEntity
  8
V0-OBRYS
  6
CONTINUOUS
 62
    90
100
AcDbCircle
 10
1140.511042
 20
-1.822251
 30
0.0
 40
2.5
100
AcDbArc
 50
270.0
 51
90.0
  0
LINE
  5
1D30
100
AcDbEntity
  8
V0-VYPLNE
 48
3.0
100
AcDbLine
 10
1016.96605
 20
95.833994
 30
0.0
 11
1016.96605
 21
76.799035
 31
0.0
  0
ARC
  5
1D31
100
AcDbEntity
  8
V0-OBRYS
  6
CONTINUOUS
 62
    90
100
AcDbCircle
 10
1241.043749
 20
-2.946328
 30
0.0
 40
49.16268
100
AcDbArc
 50
6.167349
 51
43.314266
  0
LINE
  5
1D36
100
AcDbEntity
  8
V0-VYPLNE
  6
DASHDOT
 62
    63
 48
3.0
100
AcDbLine
 10
204.977666
 20
-867.223618
 30
0.0
 11
204.977666
 21
-1222.943709
 31
0.0
  0
LINE
  5
1D37
100
AcDbEntity
  8
V0-OBRYS
  6
CONTINUOUS
 62
    90
100
AcDbLine
 10
208.477129
 20
-361.166006
 30
0.0
 11
329.557917
 21
-361.166006
 31
0.0
  0
VIEWPORT
  5
22
100
AcDbEntity
 67
     1
  8
0
100
AcDbViewport
 10
261.517699
 20
148.5
 30
0.0
 40
523.035398
 41
297.0
 68
    -1
 69
     1
1001
ACAD
1000
MVIEW
1002
{
1070
    16
1010
0.0
1020
0.0
1030
0.0
1010
0.0
1020
0.0
1030
1.0
1040
0.0
1040
297.0
1040
261.517699
1040
148.5
1040
50.0
1040
0.0
1040
0.0
1070
     0
1070
   100
1070
     1
1070
     1
1070
     0
1070
     0
1070
     0
1070
     0
1040
0.0
1040
0.0
1040
0.0
1040
1.0
1040
1.0
1040
10.0
1040
10.0
1070
     0
1002
{
1002
}
1002
}
  0
ENDSEC
  0
SECTION
  2
OBJECTS
  0
DICTIONARY
  5
C
100
AcDbDictionary
  3
ACAD_GROUP
350
D
  3
ACAD_MLINESTYLE
350
E
  3
ACDBVARIABLEDICTIONARY
350
5D
  0
DICTIONARY
  5
D
102
{ACAD_REACTORS
330
C
102
}
100
AcDbDictionary
  0
DICTIONARY
  5
E
102
{ACAD_REACTORS
330
C
102
}
100
AcDbDictionary
  3
STANDARD
350
13
  0
DICTIONARY
  5
5D
102
{ACAD_REACTORS
330
C
102
}
100
AcDbDictionary
  3
DIMADEC
350
5E
  3
SORTENTS
350
3D8
  0
MLINESTYLE
  5
13
102
{ACAD_REACTORS
330
E
102
}
100
AcDbMlineStyle
  2
STANDARD
 70
     0
  3

 62
     0
 51
90.0
 52
90.0
 71
     2
 49
0.5
 62
   256
  6
BYLAYER
 49
-0.5
 62
   256
  6
BYLAYER
  0
DICTIONARYVAR
  5
5E
102
{ACAD_REACTORS
330
5D
102
}
100
DictionaryVariables
280
     0
  1
0
  0
DICTIONARYVAR
  5
3D8
102
{ACAD_REACTORS
330
5D
102
}
100
DictionaryVariables
280
     0
  1
96
  0
ENDSEC
  0
EOF
