  0
SECTION
  2
HEADER
  9
$ACADVER
  1
AC1015
  9
$ACADMAINTVER
 70
     6
  9
$DWGCODEPAGE
  3
ANSI_1250
  9
$INSBASE
 10
0.0
 20
0.0
 30
0.0
  9
$EXTMIN
 10
-106.9264256923078
 20
-259.577305
 30
0.0
  9
$EXTMAX
 10
304.4670605494505
 20
92.284092
 30
0.0
  9
$LIMMIN
 10
0.0
 20
0.0
  9
$LIMMAX
 10
0.0
 20
0.0
  9
$ORTHOMODE
 70
     1
  9
$REGENMODE
 70
     1
  9
$FILLMODE
 70
     1
  9
$QTEXTMODE
 70
     0
  9
$MIRRTEXT
 70
     1
  9
$LTSCALE
 40
1.0
  9
$ATTMODE
 70
     1
  9
$TEXTSIZE
 40
0.2
  9
$TRACEWID
 40
0.05
  9
$TEXTSTYLE
  7
ED40
  9
$CLAYER
  8
V0-VYPLNE
  9
$CELTYPE
  6
Continuous
  9
$CECOLOR
 62
    41
  9
$CELTSCALE
 40
1.0
  9
$DISPSILH
 70
     0
  9
$DIMSCALE
 40
1.0
  9
$DIMASZ
 40
15.0
  9
$DIMEXO
 40
1.0
  9
$DIMDLI
 40
0.38
  9
$DIMRND
 40
0.0
  9
$DIMDLE
 40
0.0
  9
$DIMEXE
 40
1.25
  9
$DIMTP
 40
0.0
  9
$DIMTM
 40
0.0
  9
$DIMTXT
 40
10.0
  9
$DIMCEN
 40
0.09
  9
$DIMTSZ
 40
0.0
  9
$DIMTOL
 70
     0
  9
$DIMLIM
 70
     0
  9
$DIMTIH
 70
     0
  9
$DIMTOH
 70
     0
  9
$DIMSE1
 70
     0
  9
$DIMSE2
 70
     0
  9
$DIMTAD
 70
     1
  9
$DIMZIN
 70
     0
  9
$DIMBLK
  1
OPEN
  9
$DIMASO
 70
     1
  9
$DIMSHO
 70
     1
  9
$DIMPOST
  1

  9
$DIMAPOST
  1

  9
$DIMALT
 70
     0
  9
$DIMALTD
 70
     2
  9
$DIMALTF
 40
25.4
  9
$DIMLFAC
 40
1.0
  9
$DIMTOFL
 70
     1
  9
$DIMTVP
 40
0.0
  9
$DIMTIX
 70
     1
  9
$DIMSOXD
 70
     0
  9
$DIMSAH
 70
     0
  9
$DIMBLK1
  1

  9
$DIMBLK2
  1

  9
$DIMSTYLE
  2
ED10
  9
$DIMCLRD
 70
     0
  9
$DIMCLRE
 70
     0
  9
$DIMCLRT
 70
     0
  9
$DIMTFAC
 40
1.0
  9
$DIMGAP
 40
1.5
  9
$DIMJUST
 70
     0
  9
$DIMSD1
 70
     0
  9
$DIMSD2
 70
     0
  9
$DIMTOLJ
 70
     1
  9
$DIMTZIN
 70
     0
  9
$DIMALTZ
 70
     0
  9
$DIMALTTZ
 70
     0
  9
$DIMUPT
 70
     1
  9
$DIMDEC
 70
     0
  9
$DIMTDEC
 70
     4
  9
$DIMALTU
 70
     2
  9
$DIMALTTD
 70
     2
  9
$DIMTXSTY
  7
ED10
  9
$DIMAUNIT
 70
     0
  9
$DIMADEC
 70
     0
  9
$DIMALTRND
 40
0.0
  9
$DIMAZIN
 70
     0
  9
$DIMDSEP
 70
    46
  9
$DIMATFIT
 70
     3
  9
$DIMFRAC
 70
     0
  9
$DIMLDRBLK
  1

  9
$DIMLUNIT
 70
     2
  9
$DIMLWD
 70
    -2
  9
$DIMLWE
 70
    -2
  9
$DIMTMOVE
 70
     0
  9
$LUNITS
 70
     2
  9
$LUPREC
 70
     4
  9
$SKETCHINC
 40
0.1
  9
$FILLETRAD
 40
0.5
  9
$AUNITS
 70
     0
  9
$AUPREC
 70
     0
  9
$MENU
  1
.
  9
$ELEVATION
 40
0.0
  9
$PELEVATION
 40
0.0
  9
$THICKNESS
 40
0.0
  9
$LIMCHECK
 70
     0
  9
$CHAMFERA
 40
0.5
  9
$CHAMFERB
 40
0.5
  9
$CHAMFERC
 40
1.0
  9
$CHAMFERD
 40
0.0
  9
$SKPOLY
 70
     0
  9
$TDCREATE
 40
2455593.67216941
  9
$TDUCREATE
 40
2455593.630502743
  9
$TDUPDATE
 40
2455593.672169421
  9
$TDUUPDATE
 40
2455593.630502755
  9
$TDINDWG
 40
0.0000000116
  9
$TDUSRTIMER
 40
0.0000000116
  9
$USRTIMER
 70
     1
  9
$ANGBASE
 50
0.0
  9
$ANGDIR
 70
     0
  9
$PDMODE
 70
     3
  9
$PDSIZE
 40
15.0
  9
$PLINEWID
 40
0.0
  9
$SPLFRAME
 70
     0
  9
$SPLINETYPE
 70
     6
  9
$SPLINESEGS
 70
     8
  9
$HANDSEED
  5
16B9
  9
$SURFTAB1
 70
     6
  9
$SURFTAB2
 70
     6
  9
$SURFTYPE
 70
     6
  9
$SURFU
 70
     6
  9
$SURFV
 70
     6
  9
$UCSBASE
  2

  9
$UCSNAME
  2

  9
$UCSORG
 10
0.0
 20
0.0
 30
0.0
  9
$UCSXDIR
 10
1.0
 20
0.0
 30
0.0
  9
$UCSYDIR
 10
0.0
 20
1.0
 30
0.0
  9
$UCSORTHOREF
  2

  9
$UCSORTHOVIEW
 70
     0
  9
$UCSORGTOP
 10
0.0
 20
0.0
 30
0.0
  9
$UCSORGBOTTOM
 10
0.0
 20
0.0
 30
0.0
  9
$UCSORGLEFT
 10
0.0
 20
0.0
 30
0.0
  9
$UCSORGRIGHT
 10
0.0
 20
0.0
 30
0.0
  9
$UCSORGFRONT
 10
0.0
 20
0.0
 30
0.0
  9
$UCSORGBACK
 10
0.0
 20
0.0
 30
0.0
  9
$PUCSBASE
  2

  9
$PUCSNAME
  2

  9
$PUCSORG
 10
0.0
 20
0.0
 30
0.0
  9
$PUCSXDIR
 10
1.0
 20
0.0
 30
0.0
  9
$PUCSYDIR
 10
0.0
 20
1.0
 30
0.0
  9
$PUCSORTHOREF
  2

  9
$PUCSORTHOVIEW
 70
     0
  9
$PUCSORGTOP
 10
0.0
 20
0.0
 30
0.0
  9
$PUCSORGBOTTOM
 10
0.0
 20
0.0
 30
0.0
  9
$PUCSORGLEFT
 10
0.0
 20
0.0
 30
0.0
  9
$PUCSORGRIGHT
 10
0.0
 20
0.0
 30
0.0
  9
$PUCSORGFRONT
 10
0.0
 20
0.0
 30
0.0
  9
$PUCSORGBACK
 10
0.0
 20
0.0
 30
0.0
  9
$USERI1
 70
     0
  9
$USERI2
 70
     0
  9
$USERI3
 70
     0
  9
$USERI4
 70
     0
  9
$USERI5
 70
     0
  9
$USERR1
 40
0.0
  9
$USERR2
 40
0.0
  9
$USERR3
 40
0.0
  9
$USERR4
 40
0.0
  9
$USERR5
 40
0.0
  9
$WORLDVIEW
 70
     1
  9
$SHADEDGE
 70
     3
  9
$SHADEDIF
 70
    70
  9
$TILEMODE
 70
     1
  9
$MAXACTVP
 70
    64
  9
$PINSBASE
 10
0.0
 20
0.0
 30
0.0
  9
$PLIMCHECK
 70
     0
  9
$PEXTMIN
 10
1.000000000000000E+20
 20
1.000000000000000E+20
 30
1.000000000000000E+20
  9
$PEXTMAX
 10
-1.000000000000000E+20
 20
-1.000000000000000E+20
 30
-1.000000000000000E+20
  9
$PLIMMIN
 10
0.0
 20
0.0
  9
$PLIMMAX
 10
0.0
 20
0.0
  9
$UNITMODE
 70
     0
  9
$VISRETAIN
 70
     1
  9
$PLINEGEN
 70
     0
  9
$PSLTSCALE
 70
     1
  9
$TREEDEPTH
 70
  3020
  9
$CMLSTYLE
  2
Standard
  9
$CMLJUST
 70
     0
  9
$CMLSCALE
 40
1.0
  9
$PROXYGRAPHICS
 70
     1
  9
$MEASUREMENT
 70
     0
  9
$CELWEIGHT
370
    -1
  9
$ENDCAPS
280
     0
  9
$JOINSTYLE
280
     0
  9
$LWDISPLAY
290
     0
  9
$INSUNITS
 70
     1
  9
$HYPERLINKBASE
  1

  9
$STYLESHEET
  1

  9
$XEDIT
290
     1
  9
$CEPSNTYPE
380
     0
  9
$PSTYLEMODE
290
     0
  9
$FINGERPRINTGUID
  2
{FAEB1C30-E019-11D5-929B-00C0DF256EC4}
  9
$VERSIONGUID
  2
{FAEB1C32-E019-11D5-929B-00C0DF256EC4}
  9
$EXTNAMES
290
     1
  9
$PSVPSCALE
 40
0.0
  9
$OLESTARTUP
290
     0
  0
ENDSEC
  0
SECTION
  2
CLASSES
  0
CLASS
  1
ACDBDICTIONARYWDFLT
  2
AcDbDictionaryWithDefault
  3
ObjectDBX Classes
 90
        0
280
     0
281
     0
  0
CLASS
  1
ACDBPLACEHOLDER
  2
AcDbPlaceHolder
  3
ObjectDBX Classes
 90
        0
280
     0
281
     0
  0
CLASS
  1
LAYOUT
  2
AcDbLayout
  3
ObjectDBX Classes
 90
        0
280
     0
281
     0
  0
ENDSEC
  0
SECTION
  2
TABLES
  0
TABLE
  2
VPORT
  5
159A
330
0
100
AcDbSymbolTable
 70
     2
  0
VPORT
  5
15BB
330
159A
100
AcDbSymbolTableRecord
100
AcDbViewportTableRecord
  2
*Active
 70
     0
 10
0.0
 20
0.0
 11
1.0
 21
1.0
 12
129.229317
 22
-70.2937
 13
0.0
 23
0.0
 14
10.0
 24
10.0
 15
10.0
 25
10.0
 16
0.0
 26
0.0
 36
1.0
 17
0.0
 27
0.0
 37
0.0
 40
395.45945
 41
0.0449015866371456
 42
50.0
 43
0.0
 44
0.0
 50
0.0
 51
0.0000000000007958
 71
     0
 72
   100
 73
     1
 74
     3
 75
     0
 76
     0
 77
     0
 78
     0
281
     0
 65
     1
110
0.0
120
0.0
130
0.0
111
1.0
121
0.0
131
0.0
112
0.0
122
1.0
132
0.0
 79
     0
146
0.0
  0
ENDTAB
  0
TABLE
  2
LTYPE
  5
1597
330
0
100
AcDbSymbolTable
 70
    25
  0
LTYPE
  5
15A6
330
1597
100
AcDbSymbolTableRecord
100
AcDbLinetypeTableRecord
  2
ByBlock
 70
     0
  3

 72
    65
 73
     0
 40
0.0
  0
LTYPE
  5
15A7
330
1597
100
AcDbSymbolTableRecord
100
AcDbLinetypeTableRecord
  2
ByLayer
 70
     0
  3

 72
    65
 73
     0
 40
0.0
  0
LTYPE
  5
15A8
330
1597
100
AcDbSymbolTableRecord
100
AcDbLinetypeTableRecord
  2
Continuous
 70
     0
  3
Solid line
 72
    65
 73
     0
 40
0.0
  0
LTYPE
  5
15C3
330
1597
100
AcDbSymbolTableRecord
100
AcDbLinetypeTableRecord
  2
CENTER
 70
     0
  3
Center ____ _ ____ _ ____ _ ____ _ ____ _ ____
 72
    65
 73
     4
 40
2.0
 49
1.25
 74
     0
 49
-0.25
 74
     0
 49
0.25
 74
     0
 49
-0.25
 74
     0
  0
LTYPE
  5
15C4
330
1597
100
AcDbSymbolTableRecord
100
AcDbLinetypeTableRecord
  2
DASHDOT
 70
     0
  3
Dashdot __ . __ . __ . __ . __ . __ . __ . __
 72
    65
 73
     4
 40
1.0
 49
0.5
 74
     0
 49
-0.25
 74
     0
 49
0.0
 74
     0
 49
-0.25
 74
     0
  0
LTYPE
  5
15C5
330
1597
100
AcDbSymbolTableRecord
100
AcDbLinetypeTableRecord
  2
DASHED
 70
     0
  3
Dashed __ __ __ __ __ __ __ __ __ __ __ __ __ _
 72
    65
 73
     2
 40
0.75
 49
0.5
 74
     0
 49
-0.25
 74
     0
  0
LTYPE
  5
15C6
330
1597
100
AcDbSymbolTableRecord
100
AcDbLinetypeTableRecord
  2
HIDDEN
 70
     0
  3
Hidden __ __ __ __ __ __ __ __ __ __ __ __ __ __
 72
    65
 73
     2
 40
0.375
 49
0.25
 74
     0
 49
-0.125
 74
     0
  0
LTYPE
  5
15C7
330
1597
100
AcDbSymbolTableRecord
100
AcDbLinetypeTableRecord
  2
HIDDEN2
 70
     0
  3
Hidden2 _ _ _ _ _ _ _ _ _ _ _ _ _ _ _ _ _ 
 72
    65
 73
     2
 40
0.1875
 49
0.125
 74
     0
 49
-0.0625
 74
     0
  0
LTYPE
  5
15C8
330
1597
100
AcDbSymbolTableRecord
100
AcDbLinetypeTableRecord
  2
BORDER
 70
     0
  3
Border __ __ . __ __ . __ __ . __ __ . __ __ .
 72
    65
 73
     6
 40
1.75
 49
0.5
 74
     0
 49
-0.25
 74
     0
 49
0.5
 74
     0
 49
-0.25
 74
     0
 49
0.0
 74
     0
 49
-0.25
 74
     0
  0
LTYPE
  5
15C9
330
1597
100
AcDbSymbolTableRecord
100
AcDbLinetypeTableRecord
  2
BORDER2
 70
     0
  3
Border2 __.__.__.__.__.__.__.__.__.__.__.
 72
    65
 73
     6
 40
0.875
 49
0.25
 74
     0
 49
-0.125
 74
     0
 49
0.25
 74
     0
 49
-0.125
 74
     0
 49
0.0
 74
     0
 49
-0.125
 74
     0
  0
LTYPE
  5
15CA
330
1597
100
AcDbSymbolTableRecord
100
AcDbLinetypeTableRecord
  2
BORDERX2
 70
     0
  3
Borderx2  ____  ____  .  ____  ____  .  ___
 72
    65
 73
     6
 40
3.5
 49
1.0
 74
     0
 49
-0.5
 74
     0
 49
1.0
 74
     0
 49
-0.5
 74
     0
 49
0.0
 74
     0
 49
-0.5
 74
     0
  0
LTYPE
  5
15CB
330
1597
100
AcDbSymbolTableRecord
100
AcDbLinetypeTableRecord
  2
CENTER2
 70
     0
  3
Center2  ___ _ ___ _ ___ _ ___ _ ___ _ ___
 72
    65
 73
     4
 40
1.125
 49
0.75
 74
     0
 49
-0.125
 74
     0
 49
0.125
 74
     0
 49
-0.125
 74
     0
  0
LTYPE
  5
15CC
330
1597
100
AcDbSymbolTableRecord
100
AcDbLinetypeTableRecord
  2
CENTERX2
 70
     0
  3
Centerx2  ________  __  ________  __  _____
 72
    65
 73
     4
 40
4.0
 49
2.5
 74
     0
 49
-0.5
 74
     0
 49
0.5
 74
     0
 49
-0.5
 74
     0
  0
LTYPE
  5
15CD
330
1597
100
AcDbSymbolTableRecord
100
AcDbLinetypeTableRecord
  2
DASHDOT2
 70
     0
  3
Dashdot2  _._._._._._._._._._._._._._._.
 72
    65
 73
     4
 40
0.5
 49
0.25
 74
     0
 49
-0.125
 74
     0
 49
0.0
 74
     0
 49
-0.125
 74
     0
  0
LTYPE
  5
15CE
330
1597
100
AcDbSymbolTableRecord
100
AcDbLinetypeTableRecord
  2
DASHDOTX2
 70
     0
  3
Dashdotx2 ____  .  ____  .  ____  .  ___
 72
    65
 73
     4
 40
2.0
 49
1.0
 74
     0
 49
-0.5
 74
     0
 49
0.0
 74
     0
 49
-0.5
 74
     0
  0
LTYPE
  5
15CF
330
1597
100
AcDbSymbolTableRecord
100
AcDbLinetypeTableRecord
  2
DASHED2
 70
     0
  3
Dashed2 _ _ _ _ _ _ _ _ _ _ _ _ _ _ _ _ _ 
 72
    65
 73
     2
 40
0.375
 49
0.25
 74
     0
 49
-0.125
 74
     0
  0
LTYPE
  5
15D0
330
1597
100
AcDbSymbolTableRecord
100
AcDbLinetypeTableRecord
  2
DASHEDX2
 70
     0
  3
Dashedx2 ____  ____  ____  ____  ____  ___
 72
    65
 73
     2
 40
1.5
 49
1.0
 74
     0
 49
-0.5
 74
     0
  0
LTYPE
  5
15D1
330
1597
100
AcDbSymbolTableRecord
100
AcDbLinetypeTableRecord
  2
DIVIDE
 70
     0
  3
Divide ____ . . ____ . . ____ . . ____ . . ____
 72
    65
 73
     6
 40
1.25
 49
0.5
 74
     0
 49
-0.25
 74
     0
 49
0.0
 74
     0
 49
-0.25
 74
     0
 49
0.0
 74
     0
 49
-0.25
 74
     0
  0
LTYPE
  5
15D2
330
1597
100
AcDbSymbolTableRecord
100
AcDbLinetypeTableRecord
  2
DIVIDE2
 70
     0
  3
Divide2 __..__..__..__..__..__..__..__.._
 72
    65
 73
     6
 40
0.625
 49
0.25
 74
     0
 49
-0.125
 74
     0
 49
0.0
 74
     0
 49
-0.125
 74
     0
 49
0.0
 74
     0
 49
-0.125
 74
     0
  0
LTYPE
  5
15D3
330
1597
100
AcDbSymbolTableRecord
100
AcDbLinetypeTableRecord
  2
DIVIDEX2
 70
     0
  3
Dividex2 ________  .  .  ________  .  .  _
 72
    65
 73
     6
 40
2.5
 49
1.0
 74
     0
 49
-0.5
 74
     0
 49
0.0
 74
     0
 49
-0.5
 74
     0
 49
0.0
 74
     0
 49
-0.5
 74
     0
  0
LTYPE
  5
15D4
330
1597
100
AcDbSymbolTableRecord
100
AcDbLinetypeTableRecord
  2
DOT
 70
     0
  3
Dot . . . . . . . . . . . . . . . . . . . . . . . .
 72
    65
 73
     2
 40
0.25
 49
0.0
 74
     0
 49
-0.25
 74
     0
  0
LTYPE
  5
15D5
330
1597
100
AcDbSymbolTableRecord
100
AcDbLinetypeTableRecord
  2
DOT2
 70
     0
  3
Dot2 ........................................
 72
    65
 73
     2
 40
0.125
 49
0.0
 74
     0
 49
-0.125
 74
     0
  0
LTYPE
  5
15D6
330
1597
100
AcDbSymbolTableRecord
100
AcDbLinetypeTableRecord
  2
DOTX2
 70
     0
  3
Dotx2 .  .  .  .  .  .  .  .  .  .  .  .  .  .
 72
    65
 73
     2
 40
0.5
 49
0.0
 74
     0
 49
-0.5
 74
     0
  0
LTYPE
  5
15D7
330
1597
100
AcDbSymbolTableRecord
100
AcDbLinetypeTableRecord
  2
HIDDENX2
 70
     0
  3
Hiddenx2 ____ ____ ____ ____ ____ ____ ____ 
 72
    65
 73
     2
 40
0.75
 49
0.5
 74
     0
 49
-0.25
 74
     0
  0
LTYPE
  5
15D8
330
1597
100
AcDbSymbolTableRecord
100
AcDbLinetypeTableRecord
  2
PHANTOM
 70
     0
  3
Phantom ______  __  __  ______  __  __  ______ 
 72
    65
 73
     6
 40
2.5
 49
1.25
 74
     0
 49
-0.25
 74
     0
 49
0.25
 74
     0
 49
-0.25
 74
     0
 49
0.25
 74
     0
 49
-0.25
 74
     0
  0
LTYPE
  5
15D9
330
1597
100
AcDbSymbolTableRecord
100
AcDbLinetypeTableRecord
  2
PHANTOM2
 70
     0
  3
Phantom2 ___ _ _ ___ _ _ ___ _ _ ___ _ _
 72
    65
 73
     6
 40
1.25
 49
0.625
 74
     0
 49
-0.125
 74
     0
 49
0.125
 74
     0
 49
-0.125
 74
     0
 49
0.125
 74
     0
 49
-0.125
 74
     0
  0
LTYPE
  5
15DA
330
1597
100
AcDbSymbolTableRecord
100
AcDbLinetypeTableRecord
  2
PHANTOMX2
 70
     0
  3
Phantomx2 ____________    ____    ____   _
 72
    65
 73
     6
 40
5.0
 49
2.5
 74
     0
 49
-0.5
 74
     0
 49
0.5
 74
     0
 49
-0.5
 74
     0
 49
0.5
 74
     0
 49
-0.5
 74
     0
  0
ENDTAB
  0
TABLE
  2
LAYER
  5
1594
330
0
100
AcDbSymbolTable
 70
     6
  0
LAYER
  5
15A2
330
1594
100
AcDbSymbolTableRecord
100
AcDbLayerTableRecord
  2
0
 70
     0
 62
     7
  6
Continuous
370
     0
390
15A1
  0
LAYER
  5
9E
330
1594
100
AcDbSymbolTableRecord
100
AcDbLayerTableRecord
  2
DEFPOINTS
 70
     0
 62
     7
  6
Continuous
290
     0
370
     0
390
15A1
  0
LAYER
  5
377
330
1594
100
AcDbSymbolTableRecord
100
AcDbLayerTableRecord
  2
V0-OBRYS
 70
     0
 62
    90
  6
Continuous
370
     0
390
15A1
  0
LAYER
  5
378
330
1594
100
AcDbSymbolTableRecord
100
AcDbLayerTableRecord
  2
V0-VYPLNE
 70
     0
 62
    63
  6
DASHDOT
370
     0
390
15A1
  0
LAYER
  5
37A
330
1594
100
AcDbSymbolTableRecord
100
AcDbLayerTableRecord
  2
V0-NAZVY
 70
     0
 62
   210
  6
Continuous
370
     0
390
15A1
  0
LAYER
  5
559
330
1594
100
AcDbSymbolTableRecord
100
AcDbLayerTableRecord
  2
V0-ZBYTEK
 70
     0
 62
    51
  6
Continuous
370
     0
390
15A1
  0
ENDTAB
  0
TABLE
  2
STYLE
  5
1595
330
0
100
AcDbSymbolTable
 70
     5
  0
STYLE
  5
15A3
330
1595
100
AcDbSymbolTableRecord
100
AcDbTextStyleTableRecord
  2
STANDARD
 70
     0
 40
0.0
 41
1.0
 50
0.0
 71
     0
 42
0.2
  3
ISOCP.shx
  4

1001
ACAD
1000
ISOCP.shx
1071
        0
  0
STYLE
  5
331
330
1595
100
AcDbSymbolTableRecord
100
AcDbTextStyleTableRecord
  2
ED20
 70
     0
 40
20.0
 41
1.0
 50
0.0
 71
     0
 42
0.2
  3
ISOCP.shx
  4

1001
ACAD
1000
ISOCP.shx
1071
        0
  0
STYLE
  5
648
330
1595
100
AcDbSymbolTableRecord
100
AcDbTextStyleTableRecord
  2
ED10
 70
     0
 40
10.0
 41
1.0
 50
0.0
 71
     0
 42
0.2
  3
ISOCP.shx
  4

1001
ACAD
1000
ISOCP.shx
1071
        0
  0
STYLE
  5
F38
330
1595
100
AcDbSymbolTableRecord
100
AcDbTextStyleTableRecord
  2
ED30
 70
     0
 40
30.0
 41
1.0
 50
0.0
 71
     0
 42
0.2
  3
ISOCP.shx
  4

1001
ACAD
1000
ISOCP.shx
1071
        0
  0
STYLE
  5
F39
330
1595
100
AcDbSymbolTableRecord
100
AcDbTextStyleTableRecord
  2
ED40
 70
     0
 40
40.0
 41
1.0
 50
0.0
 71
     0
 42
0.2
  3
ISOCP.shx
  4

1001
ACAD
1000
ISOCP.shx
1071
        0
  0
ENDTAB
  0
TABLE
  2
VIEW
  5
1598
330
0
100
AcDbSymbolTable
 70
     0
  0
ENDTAB
  0
TABLE
  2
UCS
  5
1599
330
0
100
AcDbSymbolTable
 70
     0
  0
ENDTAB
  0
TABLE
  2
APPID
  5
159B
330
0
100
AcDbSymbolTable
 70
     6
  0
APPID
  5
15A4
330
159B
100
AcDbSymbolTableRecord
100
AcDbRegAppTableRecord
  2
ACAD
 70
     0
  0
APPID
  5
15BC
330
159B
100
AcDbSymbolTableRecord
100
AcDbRegAppTableRecord
  2
VD_INVISIBLE_NOT_FOR_READ
 70
     0
  0
APPID
  5
15BD
330
159B
100
AcDbSymbolTableRecord
100
AcDbRegAppTableRecord
  2
VD_TEMPHATCH
 70
     0
  0
APPID
  5
15BE
330
159B
100
AcDbSymbolTableRecord
100
AcDbRegAppTableRecord
  2
VDEXTRAPARAM
 70
     0
  0
APPID
  5
15BF
330
159B
100
AcDbSymbolTableRecord
100
AcDbRegAppTableRecord
  2
PE_URL
 70
     0
  0
APPID
  5
15C0
330
159B
100
AcDbSymbolTableRecord
100
AcDbRegAppTableRecord
  2
VD_UNKNOWN
 70
     0
  0
ENDTAB
  0
TABLE
  2
DIMSTYLE
  5
159C
330
0
100
AcDbSymbolTable
 70
     5
100
AcDbDimStyleTable
  0
DIMSTYLE
105
15B9
330
159C
100
AcDbSymbolTableRecord
100
AcDbDimStyleTableRecord
  2
STANDARD
 70
     0
 41
15.0
 42
0.625
 44
1.25
 73
     0
 74
     0
 77
     1
140
15.0
147
3.0
172
     1
174
     1
271
     0
288
     1
340
331
342
90
  0
DIMSTYLE
105
397
102
{ACAD_REACTORS
330
788
330
789
330
78A
330
78B
330
799
330
79A
330
7A1
330
7A2
330
7E2
330
7E3
330
7E4
330
7E5
102
}
330
159C
100
AcDbSymbolTableRecord
100
AcDbDimStyleTableRecord
  2
ED40
 70
     0
 41
35.0
 42
1.0
 44
1.25
 73
     0
 74
     0
 77
     1
140
40.0
147
4.0
172
     1
174
     1
271
     0
288
     1
340
F39
342
90
  0
DIMSTYLE
105
649
102
{ACAD_REACTORS
330
13BE
330
14F8
102
}
330
159C
100
AcDbSymbolTableRecord
100
AcDbDimStyleTableRecord
  2
ED10
 70
     0
 41
15.0
 42
1.0
 44
1.25
 73
     0
 74
     0
 77
     1
140
10.0
147
1.5
172
     1
174
     1
271
     0
288
     1
340
648
342
90
  0
DIMSTYLE
105
FE9
330
159C
100
AcDbSymbolTableRecord
100
AcDbDimStyleTableRecord
  2
ED20
 70
     0
 41
20.0
 42
1.0
 44
1.25
 73
     0
 74
     0
 77
     1
140
20.0
147
2.0
172
     1
174
     1
177
    41
178
    41
271
     0
288
     1
340
331
342
90
  0
DIMSTYLE
105
FEA
330
159C
100
AcDbSymbolTableRecord
100
AcDbDimStyleTableRecord
  2
ED30
 70
     0
 41
25.0
 42
1.0
 44
1.25
 73
     0
 74
     0
 77
     1
140
30.0
147
4.0
172
     1
174
     1
271
     0
288
     1
340
F38
342
90
  0
ENDTAB
  0
TABLE
  2
BLOCK_RECORD
  5
1593
330
0
100
AcDbSymbolTable
 70
    36
  0
BLOCK_RECORD
  5
15B1
330
1593
100
AcDbSymbolTableRecord
100
AcDbBlockTableRecord
  2
*Model_Space
340
15B4
  0
BLOCK_RECORD
  5
15AD
330
1593
100
AcDbSymbolTableRecord
100
AcDbBlockTableRecord
  2
*Paper_Space
340
15B0
  0
BLOCK_RECORD
  5
15B5
330
1593
100
AcDbSymbolTableRecord
100
AcDbBlockTableRecord
  2
*Paper_Space0
340
15B8
  0
BLOCK_RECORD
  5
90
330
1593
100
AcDbSymbolTableRecord
100
AcDbBlockTableRecord
  2
_OPEN
340
0
102
{BLKREFS
331
6C0
331
6C1
331
6CC
331
6CD
331
6D8
331
6D9
331
6E4
331
6E5
331
6F0
331
6F1
331
6FC
331
6FD
331
708
331
709
331
714
331
715
331
720
331
721
331
72C
331
72D
331
738
331
739
331
746
331
747
331
160B
331
160A
331
1618
331
1617
331
1625
331
1624
331
1632
331
1631
331
163E
331
163D
331
164A
331
1649
331
1656
331
1655
331
1662
331
1661
331
166E
331
166D
331
167C
331
167B
331
1688
331
1687
331
1696
331
1695
331
16A4
331
16A3
331
16B0
331
16AF
102
}
  0
BLOCK_RECORD
  5
6BC
330
1593
100
AcDbSymbolTableRecord
100
AcDbBlockTableRecord
  2
VD_ANONYM_6BC
340
0
  0
BLOCK_RECORD
  5
6C8
330
1593
100
AcDbSymbolTableRecord
100
AcDbBlockTableRecord
  2
VD_ANONYM_6C8
340
0
  0
BLOCK_RECORD
  5
6D4
330
1593
100
AcDbSymbolTableRecord
100
AcDbBlockTableRecord
  2
VD_ANONYM_6D4
340
0
  0
BLOCK_RECORD
  5
6E0
330
1593
100
AcDbSymbolTableRecord
100
AcDbBlockTableRecord
  2
VD_ANONYM_6E0
340
0
  0
BLOCK_RECORD
  5
6EC
330
1593
100
AcDbSymbolTableRecord
100
AcDbBlockTableRecord
  2
VD_ANONYM_6EC
340
0
  0
BLOCK_RECORD
  5
6F8
330
1593
100
AcDbSymbolTableRecord
100
AcDbBlockTableRecord
  2
VD_ANONYM_6F8
340
0
  0
BLOCK_RECORD
  5
704
330
1593
100
AcDbSymbolTableRecord
100
AcDbBlockTableRecord
  2
VD_ANONYM_704
340
0
  0
BLOCK_RECORD
  5
710
330
1593
100
AcDbSymbolTableRecord
100
AcDbBlockTableRecord
  2
VD_ANONYM_710
340
0
  0
BLOCK_RECORD
  5
71C
330
1593
100
AcDbSymbolTableRecord
100
AcDbBlockTableRecord
  2
VD_ANONYM_71C
340
0
  0
BLOCK_RECORD
  5
728
330
1593
100
AcDbSymbolTableRecord
100
AcDbBlockTableRecord
  2
VD_ANONYM_728
340
0
  0
BLOCK_RECORD
  5
734
330
1593
100
AcDbSymbolTableRecord
100
AcDbBlockTableRecord
  2
VD_ANONYM_734
340
0
  0
BLOCK_RECORD
  5
740
330
1593
100
AcDbSymbolTableRecord
100
AcDbBlockTableRecord
  2
VD_ANONYM_740
340
0
  0
BLOCK_RECORD
  5
74E
330
1593
100
AcDbSymbolTableRecord
100
AcDbBlockTableRecord
  2
IBW-200
340
0
  0
BLOCK_RECORD
  5
9D9
330
1593
100
AcDbSymbolTableRecord
100
AcDbBlockTableRecord
  2
LAM
340
0
  0
BLOCK_RECORD
  5
9E6
330
1593
100
AcDbSymbolTableRecord
100
AcDbBlockTableRecord
  2
TAH
340
0
  0
BLOCK_RECORD
  5
1429
330
1593
100
AcDbSymbolTableRecord
100
AcDbBlockTableRecord
  2
N
340
0
  0
BLOCK_RECORD
  5
1444
330
1593
100
AcDbSymbolTableRecord
100
AcDbBlockTableRecord
  2
P
340
0
  0
BLOCK_RECORD
  5
145E
330
1593
100
AcDbSymbolTableRecord
100
AcDbBlockTableRecord
  2
B
340
0
  0
BLOCK_RECORD
  5
158F
330
1593
100
AcDbSymbolTableRecord
100
AcDbBlockTableRecord
  2
VDDIM_DEFAULT
340
0
  0
BLOCK_RECORD
  5
1591
330
1593
100
AcDbSymbolTableRecord
100
AcDbBlockTableRecord
  2
VDDIM_NONE
340
0
  0
BLOCK_RECORD
  5
1605
330
1593
100
AcDbSymbolTableRecord
100
AcDbBlockTableRecord
  2
*D22
340
0
  0
BLOCK_RECORD
  5
1612
330
1593
100
AcDbSymbolTableRecord
100
AcDbBlockTableRecord
  2
*D23
340
0
  0
BLOCK_RECORD
  5
161F
330
1593
100
AcDbSymbolTableRecord
100
AcDbBlockTableRecord
  2
*D24
340
0
  0
BLOCK_RECORD
  5
162C
330
1593
100
AcDbSymbolTableRecord
100
AcDbBlockTableRecord
  2
*D25
340
0
  0
BLOCK_RECORD
  5
1639
330
1593
100
AcDbSymbolTableRecord
100
AcDbBlockTableRecord
  2
*D26
340
0
  0
BLOCK_RECORD
  5
1645
330
1593
100
AcDbSymbolTableRecord
100
AcDbBlockTableRecord
  2
*D27
340
0
  0
BLOCK_RECORD
  5
1651
330
1593
100
AcDbSymbolTableRecord
100
AcDbBlockTableRecord
  2
*D28
340
0
  0
BLOCK_RECORD
  5
165D
330
1593
100
AcDbSymbolTableRecord
100
AcDbBlockTableRecord
  2
*D29
340
0
  0
BLOCK_RECORD
  5
1669
330
1593
100
AcDbSymbolTableRecord
100
AcDbBlockTableRecord
  2
*D30
340
0
  0
BLOCK_RECORD
  5
1675
330
1593
100
AcDbSymbolTableRecord
100
AcDbBlockTableRecord
  2
*D31
340
0
  0
BLOCK_RECORD
  5
1683
330
1593
100
AcDbSymbolTableRecord
100
AcDbBlockTableRecord
  2
*D32
340
0
  0
BLOCK_RECORD
  5
168F
330
1593
100
AcDbSymbolTableRecord
100
AcDbBlockTableRecord
  2
*D33
340
0
  0
BLOCK_RECORD
  5
169E
330
1593
100
AcDbSymbolTableRecord
100
AcDbBlockTableRecord
  2
*D34
340
0
  0
BLOCK_RECORD
  5
16AB
330
1593
100
AcDbSymbolTableRecord
100
AcDbBlockTableRecord
  2
*D35
340
0
  0
ENDTAB
  0
ENDSEC
  0
SECTION
  2
BLOCKS
  0
BLOCK
  5
15B2
330
15B1
100
AcDbEntity
  8
0
100
AcDbBlockBegin
  2
*Model_Space
 70
     0
 71
     0
 10
0.0
 20
0.0
 30
0.0
  3
*Model_Space
  1

  0
ENDBLK
  5
15B3
330
15B1
100
AcDbEntity
  8
0
100
AcDbBlockEnd
  0
BLOCK
  5
15AE
330
15AD
100
AcDbEntity
 67
     1
  8
0
100
AcDbBlockBegin
  2
*Paper_Space
 70
     0
 71
     0
 10
0.0
 20
0.0
 30
0.0
  3
*Paper_Space
  1

  0
ENDBLK
  5
15AF
330
15AD
100
AcDbEntity
 67
     1
  8
0
100
AcDbBlockEnd
  0
BLOCK
  5
15B6
330
15B5
100
AcDbEntity
  8
0
100
AcDbBlockBegin
  2
*Paper_Space0
 70
     0
 71
     0
 10
0.0
 20
0.0
 30
0.0
  3
*Paper_Space0
  1

  0
ENDBLK
  5
15B7
330
15B5
100
AcDbEntity
  8
0
100
AcDbBlockEnd
  0
BLOCK
  5
15DB
330
90
100
AcDbEntity
  8
0
100
AcDbBlockBegin
  2
_OPEN
 70
     0
 71
     0
 10
0.0
 20
0.0
 30
0.0
  3
_OPEN
  1

  0
LINE
  5
92
330
90
100
AcDbEntity
  8
0
  6
ByBlock
 62
     0
100
AcDbLine
 10
-1.0
 20
0.166667
 30
0.0
 11
0.0
 21
0.0
 31
0.0
  0
LINE
  5
93
330
90
100
AcDbEntity
  8
0
  6
ByBlock
 62
     0
100
AcDbLine
 10
0.0
 20
0.0
 30
0.0
 11
-1.0
 21
-0.166667
 31
0.0
  0
LINE
  5
94
330
90
100
AcDbEntity
  8
0
  6
ByBlock
 62
     0
100
AcDbLine
 10
0.0
 20
0.0
 30
0.0
 11
-1.0
 21
0.0
 31
0.0
  0
ENDBLK
  5
15DC
330
90
100
AcDbEntity
  8
0
100
AcDbBlockEnd
  0
BLOCK
  5
15DD
330
6BC
100
AcDbEntity
  8
0
100
AcDbBlockBegin
  2
VD_ANONYM_6BC
 70
     0
 71
     0
 10
0.0
 20
0.0
 30
0.0
  3
VD_ANONYM_6BC
  1

  0
LINE
  5
6BD
330
6BC
100
AcDbEntity
  8
0
  6
ByBlock
 62
     0
100
AcDbLine
 10
362.865649
 20
10.282794
 30
0.0
 11
362.865649
 21
-54.955702
 31
0.0
  0
LINE
  5
6BE
330
6BC
100
AcDbEntity
  8
0
  6
ByBlock
 62
     0
100
AcDbLine
 10
782.865649
 20
18.565
 30
0.0
 11
782.865649
 21
-54.955702
 31
0.0
  0
LINE
  5
6BF
330
6BC
100
AcDbEntity
  8
0
  6
ByBlock
 62
     0
100
AcDbLine
 10
377.865649
 20
-53.705702
 30
0.0
 11
767.865649
 21
-53.705702
 31
0.0
  0
INSERT
  5
6C0
330
6BC
100
AcDbEntity
  8
0
  6
ByBlock
 62
     0
100
AcDbBlockReference
  2
_OPEN
 10
362.865649
 20
-53.705702
 30
0.0
 41
15.0
 42
15.0
 43
15.0
 50
180.0
  0
INSERT
  5
6C1
330
6BC
100
AcDbEntity
  8
0
  6
ByBlock
 62
     0
100
AcDbBlockReference
  2
_OPEN
 10
782.865649
 20
-53.705702
 30
0.0
 41
15.0
 42
15.0
 43
15.0
  0
POINT
  5
6C3
330
6BC
100
AcDbEntity
  8
DEFPOINTS
  6
ByBlock
 62
     0
100
AcDbPoint
 10
362.865649
 20
11.282794
 30
0.0
  0
POINT
  5
6C4
330
6BC
100
AcDbEntity
  8
DEFPOINTS
  6
ByBlock
 62
     0
100
AcDbPoint
 10
782.865649
 20
19.565
 30
0.0
  0
POINT
  5
6C5
330
6BC
100
AcDbEntity
  8
DEFPOINTS
  6
ByBlock
 62
     0
100
AcDbPoint
 10
782.865649
 20
-53.705702
 30
0.0
  0
TEXT
  5
1567
330
6BC
100
AcDbEntity
  8
0
  6
ByBlock
 62
     0
100
AcDbText
 10
550.7280054285715
 20
-51.703734
 30
0.0
 40
20.0
  1
420
  7
ED40
100
AcDbText
  0
ENDBLK
  5
15DE
330
6BC
100
AcDbEntity
  8
0
100
AcDbBlockEnd
  0
BLOCK
  5
15DF
330
6C8
100
AcDbEntity
  8
0
100
AcDbBlockBegin
  2
VD_ANONYM_6C8
 70
     0
 71
     0
 10
0.0
 20
0.0
 30
0.0
  3
VD_ANONYM_6C8
  1

  0
LINE
  5
6C9
330
6C8
100
AcDbEntity
  8
0
  6
ByBlock
 62
     0
100
AcDbLine
 10
352.865649
 20
18.611111
 30
0.0
 11
352.865649
 21
-85.62053900000001
 31
0.0
  0
LINE
  5
6CA
330
6C8
100
AcDbEntity
  8
0
  6
ByBlock
 62
     0
100
AcDbLine
 10
792.865649
 20
18.611111
 30
0.0
 11
792.865649
 21
-85.62053900000001
 31
0.0
  0
LINE
  5
6CB
330
6C8
100
AcDbEntity
  8
0
  6
ByBlock
 62
     0
100
AcDbLine
 10
367.865649
 20
-84.37053899999999
 30
0.0
 11
777.865649
 21
-84.37053899999999
 31
0.0
  0
INSERT
  5
6CC
330
6C8
100
AcDbEntity
  8
0
  6
ByBlock
 62
     0
100
AcDbBlockReference
  2
_OPEN
 10
352.865649
 20
-84.37053899999999
 30
0.0
 41
15.0
 42
15.0
 43
15.0
 50
180.0
  0
INSERT
  5
6CD
330
6C8
100
AcDbEntity
  8
0
  6
ByBlock
 62
     0
100
AcDbBlockReference
  2
_OPEN
 10
792.865649
 20
-84.37053899999999
 30
0.0
 41
15.0
 42
15.0
 43
15.0
  0
POINT
  5
6CF
330
6C8
100
AcDbEntity
  8
DEFPOINTS
  6
ByBlock
 62
     0
100
AcDbPoint
 10
352.865649
 20
19.611111
 30
0.0
  0
POINT
  5
6D0
330
6C8
100
AcDbEntity
  8
DEFPOINTS
  6
ByBlock
 62
     0
100
AcDbPoint
 10
792.865649
 20
19.611111
 30
0.0
  0
POINT
  5
6D1
330
6C8
100
AcDbEntity
  8
DEFPOINTS
  6
ByBlock
 62
     0
100
AcDbPoint
 10
792.865649
 20
-84.37053899999999
 30
0.0
  0
TEXT
  5
1568
330
6C8
100
AcDbEntity
  8
0
  6
ByBlock
 62
     0
100
AcDbText
 10
547.7471524285714
 20
-82.37053899999999
 30
0.0
 40
20.0
  1
440
  7
ED40
100
AcDbText
  0
ENDBLK
  5
15E0
330
6C8
100
AcDbEntity
  8
0
100
AcDbBlockEnd
  0
BLOCK
  5
15E1
330
6D4
100
AcDbEntity
  8
0
100
AcDbBlockBegin
  2
VD_ANONYM_6D4
 70
     0
 71
     0
 10
0.0
 20
0.0
 30
0.0
  3
VD_ANONYM_6D4
  1

  0
LINE
  5
6D5
330
6D4
100
AcDbEntity
  8
0
  6
ByBlock
 62
     0
100
AcDbLine
 10
783.865649
 20
239.565
 30
0.0
 11
865.192473
 21
239.565
 31
0.0
  0
LINE
  5
6D6
330
6D4
100
AcDbEntity
  8
0
  6
ByBlock
 62
     0
100
AcDbLine
 10
783.950252
 20
19.611111
 30
0.0
 11
865.192473
 21
19.611111
 31
0.0
  0
LINE
  5
6D7
330
6D4
100
AcDbEntity
  8
0
  6
ByBlock
 62
     0
100
AcDbLine
 10
863.942473
 20
224.565
 30
0.0
 11
863.942473
 21
34.61111099999999
 31
0.0
  0
INSERT
  5
6D8
330
6D4
100
AcDbEntity
  8
0
  6
ByBlock
 62
     0
100
AcDbBlockReference
  2
_OPEN
 10
863.942473
 20
239.565
 30
0.0
 41
15.0
 42
15.0
 43
15.0
 50
90.0
  0
INSERT
  5
6D9
330
6D4
100
AcDbEntity
  8
0
  6
ByBlock
 62
     0
100
AcDbBlockReference
  2
_OPEN
 10
863.942473
 20
19.611111
 30
0.0
 41
15.0
 42
15.0
 43
15.0
 50
270.0
  0
POINT
  5
6DB
330
6D4
100
AcDbEntity
  8
DEFPOINTS
  6
ByBlock
 62
     0
100
AcDbPoint
 10
782.865649
 20
239.565
 30
0.0
  0
POINT
  5
6DC
330
6D4
100
AcDbEntity
  8
DEFPOINTS
  6
ByBlock
 62
     0
100
AcDbPoint
 10
782.950252
 20
19.611111
 30
0.0
  0
POINT
  5
6DD
330
6D4
100
AcDbEntity
  8
DEFPOINTS
  6
ByBlock
 62
     0
100
AcDbPoint
 10
863.942473
 20
19.611111
 30
0.0
  0
TEXT
  5
1569
330
6D4
100
AcDbEntity
  8
0
  6
ByBlock
 62
     0
100
AcDbText
 10
861.940505
 20
101.9445464285715
 30
0.0
 40
20.0
  1
220
 50
90.0
  7
ED40
100
AcDbText
  0
ENDBLK
  5
15E2
330
6D4
100
AcDbEntity
  8
0
100
AcDbBlockEnd
  0
BLOCK
  5
15E3
330
6E0
100
AcDbEntity
  8
0
100
AcDbBlockBegin
  2
VD_ANONYM_6E0
 70
     0
 71
     0
 10
0.0
 20
0.0
 30
0.0
  3
VD_ANONYM_6E0
  1

  0
LINE
  5
6E1
330
6E0
100
AcDbEntity
  8
0
  6
ByBlock
 62
     0
100
AcDbLine
 10
783.865649
 20
249.611111
 30
0.0
 11
892.810079
 21
249.611111
 31
0.0
  0
LINE
  5
6E2
330
6E0
100
AcDbEntity
  8
0
  6
ByBlock
 62
     0
100
AcDbLine
 10
783.865649
 20
9.611110999999999
 30
0.0
 11
892.810079
 21
9.611110999999999
 31
0.0
  0
LINE
  5
6E3
330
6E0
100
AcDbEntity
  8
0
  6
ByBlock
 62
     0
100
AcDbLine
 10
891.560079
 20
234.611111
 30
0.0
 11
891.560079
 21
24.61111099999999
 31
0.0
  0
INSERT
  5
6E4
330
6E0
100
AcDbEntity
  8
0
  6
ByBlock
 62
     0
100
AcDbBlockReference
  2
_OPEN
 10
891.560079
 20
249.611111
 30
0.0
 41
15.0
 42
15.0
 43
15.0
 50
90.0
  0
INSERT
  5
6E5
330
6E0
100
AcDbEntity
  8
0
  6
ByBlock
 62
     0
100
AcDbBlockReference
  2
_OPEN
 10
891.560079
 20
9.611110999999999
 30
0.0
 41
15.0
 42
15.0
 43
15.0
 50
270.0
  0
POINT
  5
6E7
330
6E0
100
AcDbEntity
  8
DEFPOINTS
  6
ByBlock
 62
     0
100
AcDbPoint
 10
782.865649
 20
249.611111
 30
0.0
  0
POINT
  5
6E8
330
6E0
100
AcDbEntity
  8
DEFPOINTS
  6
ByBlock
 62
     0
100
AcDbPoint
 10
782.865649
 20
9.611110999999999
 30
0.0
  0
POINT
  5
6E9
330
6E0
100
AcDbEntity
  8
DEFPOINTS
  6
ByBlock
 62
     0
100
AcDbPoint
 10
891.560079
 20
9.611110999999999
 30
0.0
  0
TEXT
  5
156A
330
6E0
100
AcDbEntity
  8
0
  6
ByBlock
 62
     0
100
AcDbText
 10
889.5581110000001
 20
98.96577042857143
 30
0.0
 40
20.0
  1
240
 50
90.0
  7
ED40
100
AcDbText
  0
ENDBLK
  5
15E4
330
6E0
100
AcDbEntity
  8
0
100
AcDbBlockEnd
  0
BLOCK
  5
15E5
330
6EC
100
AcDbEntity
  8
0
100
AcDbBlockBegin
  2
VD_ANONYM_6EC
 70
     0
 71
     0
 10
0.0
 20
0.0
 30
0.0
  3
VD_ANONYM_6EC
  1

  0
LINE
  5
6ED
330
6EC
100
AcDbEntity
  8
0
  6
ByBlock
 62
     0
100
AcDbLine
 10
267.865649
 20
15.187501
 30
0.0
 11
267.865649
 21
-59.646975
 31
0.0
  0
LINE
  5
6EE
330
6EC
100
AcDbEntity
  8
0
  6
ByBlock
 62
     0
100
AcDbLine
 10
352.865649
 20
17.611111
 30
0.0
 11
352.865649
 21
-59.64697499999999
 31
0.0
  0
LINE
  5
6EF
330
6EC
100
AcDbEntity
  8
0
  6
ByBlock
 62
     0
100
AcDbLine
 10
282.865649
 20
-58.396975
 30
0.0
 11
337.865649
 21
-58.396975
 31
0.0
  0
INSERT
  5
6F0
330
6EC
100
AcDbEntity
  8
0
  6
ByBlock
 62
     0
100
AcDbBlockReference
  2
_OPEN
 10
267.865649
 20
-58.396975
 30
0.0
 41
15.0
 42
15.0
 43
15.0
 50
180.0
  0
INSERT
  5
6F1
330
6EC
100
AcDbEntity
  8
0
  6
ByBlock
 62
     0
100
AcDbBlockReference
  2
_OPEN
 10
352.865649
 20
-58.396975
 30
0.0
 41
15.0
 42
15.0
 43
15.0
  0
POINT
  5
6F3
330
6EC
100
AcDbEntity
  8
DEFPOINTS
  6
ByBlock
 62
     0
100
AcDbPoint
 10
267.865649
 20
16.187501
 30
0.0
  0
POINT
  5
6F4
330
6EC
100
AcDbEntity
  8
DEFPOINTS
  6
ByBlock
 62
     0
100
AcDbPoint
 10
352.865649
 20
18.611111
 30
0.0
  0
POINT
  5
6F5
330
6EC
100
AcDbEntity
  8
DEFPOINTS
  6
ByBlock
 62
     0
100
AcDbPoint
 10
352.865649
 20
-58.396975
 30
0.0
  0
TEXT
  5
156B
330
6EC
100
AcDbEntity
  8
0
  6
ByBlock
 62
     0
100
AcDbText
 10
291.318029952381
 20
-56.396975
 30
0.0
 40
20.0
  1
85
  7
ED40
100
AcDbText
  0
ENDBLK
  5
15E6
330
6EC
100
AcDbEntity
  8
0
100
AcDbBlockEnd
  0
BLOCK
  5
15E7
330
6F8
100
AcDbEntity
  8
0
100
AcDbBlockBegin
  2
VD_ANONYM_6F8
 70
     0
 71
     0
 10
0.0
 20
0.0
 30
0.0
  3
VD_ANONYM_6F8
  1

  0
LINE
  5
6F9
330
6F8
100
AcDbEntity
  8
0
  6
ByBlock
 62
     0
100
AcDbLine
 10
936.112316
 20
8.611110999999999
 30
0.0
 11
936.112316
 21
-42.013703
 31
0.0
  0
LINE
  5
6FA
330
6F8
100
AcDbEntity
  8
0
  6
ByBlock
 62
     0
100
AcDbLine
 10
1126.112316
 20
8.611110999999999
 30
0.0
 11
1126.112316
 21
-42.013703
 31
0.0
  0
LINE
  5
6FB
330
6F8
100
AcDbEntity
  8
0
  6
ByBlock
 62
     0
100
AcDbLine
 10
951.112316
 20
-40.763703
 30
0.0
 11
1111.112316
 21
-40.763703
 31
0.0
  0
INSERT
  5
6FC
330
6F8
100
AcDbEntity
  8
0
  6
ByBlock
 62
     0
100
AcDbBlockReference
  2
_OPEN
 10
936.112316
 20
-40.763703
 30
0.0
 41
15.0
 42
15.0
 43
15.0
 50
180.0
  0
INSERT
  5
6FD
330
6F8
100
AcDbEntity
  8
0
  6
ByBlock
 62
     0
100
AcDbBlockReference
  2
_OPEN
 10
1126.112316
 20
-40.763703
 30
0.0
 41
15.0
 42
15.0
 43
15.0
  0
POINT
  5
6FF
330
6F8
100
AcDbEntity
  8
DEFPOINTS
  6
ByBlock
 62
     0
100
AcDbPoint
 10
936.112316
 20
9.611110999999999
 30
0.0
  0
POINT
  5
700
330
6F8
100
AcDbEntity
  8
DEFPOINTS
  6
ByBlock
 62
     0
100
AcDbPoint
 10
1126.112316
 20
9.611110999999999
 30
0.0
  0
POINT
  5
701
330
6F8
100
AcDbEntity
  8
DEFPOINTS
  6
ByBlock
 62
     0
100
AcDbPoint
 10
1126.112316
 20
-40.763703
 30
0.0
  0
TEXT
  5
156C
330
6F8
100
AcDbEntity
  8
0
  6
ByBlock
 62
     0
100
AcDbText
 10
1001.112316
 20
-38.763703
 30
0.0
 40
20.0
  1
190
  7
ED40
100
AcDbText
  0
ENDBLK
  5
15E8
330
6F8
100
AcDbEntity
  8
0
100
AcDbBlockEnd
  0
BLOCK
  5
15E9
330
704
100
AcDbEntity
  8
0
100
AcDbBlockBegin
  2
VD_ANONYM_704
 70
     0
 71
     0
 10
0.0
 20
0.0
 30
0.0
  3
VD_ANONYM_704
  1

  0
LINE
  5
705
330
704
100
AcDbEntity
  8
0
  6
ByBlock
 62
     0
100
AcDbLine
 10
773.865649
 20
229.611111
 30
0.0
 11
833.739087
 21
229.611111
 31
0.0
  0
LINE
  5
706
330
704
100
AcDbEntity
  8
0
  6
ByBlock
 62
     0
100
AcDbLine
 10
773.865649
 20
29.611111
 30
0.0
 11
833.739087
 21
29.611111
 31
0.0
  0
LINE
  5
707
330
704
100
AcDbEntity
  8
0
  6
ByBlock
 62
     0
100
AcDbLine
 10
832.489087
 20
214.611111
 30
0.0
 11
832.489087
 21
44.61111099999999
 31
0.0
  0
INSERT
  5
708
330
704
100
AcDbEntity
  8
0
  6
ByBlock
 62
     0
100
AcDbBlockReference
  2
_OPEN
 10
832.489087
 20
229.611111
 30
0.0
 41
15.0
 42
15.0
 43
15.0
 50
90.0
  0
INSERT
  5
709
330
704
100
AcDbEntity
  8
0
  6
ByBlock
 62
     0
100
AcDbBlockReference
  2
_OPEN
 10
832.489087
 20
29.611111
 30
0.0
 41
15.0
 42
15.0
 43
15.0
 50
270.0
  0
POINT
  5
70B
330
704
100
AcDbEntity
  8
DEFPOINTS
  6
ByBlock
 62
     0
100
AcDbPoint
 10
772.865649
 20
229.611111
 30
0.0
  0
POINT
  5
70C
330
704
100
AcDbEntity
  8
DEFPOINTS
  6
ByBlock
 62
     0
100
AcDbPoint
 10
772.865649
 20
29.611111
 30
0.0
  0
POINT
  5
70D
330
704
100
AcDbEntity
  8
DEFPOINTS
  6
ByBlock
 62
     0
100
AcDbPoint
 10
832.489087
 20
29.611111
 30
0.0
  0
TEXT
  5
156D
330
704
100
AcDbEntity
  8
0
  6
ByBlock
 62
     0
100
AcDbText
 10
830.4871190000001
 20
101.0396824285715
 30
0.0
 40
20.0
  1
200
 50
90.0
  7
ED40
100
AcDbText
  0
ENDBLK
  5
15EA
330
704
100
AcDbEntity
  8
0
100
AcDbBlockEnd
  0
BLOCK
  5
15EB
330
710
100
AcDbEntity
  8
0
100
AcDbBlockBegin
  2
VD_ANONYM_710
 70
     0
 71
     0
 10
0.0
 20
0.0
 30
0.0
  3
VD_ANONYM_710
  1

  0
LINE
  5
711
330
710
100
AcDbEntity
  8
0
  6
ByBlock
 62
     0
100
AcDbLine
 10
372.865649
 20
28.611111
 30
0.0
 11
372.865649
 21
-25.824108
 31
0.0
  0
LINE
  5
712
330
710
100
AcDbEntity
  8
0
  6
ByBlock
 62
     0
100
AcDbLine
 10
772.865649
 20
28.611111
 30
0.0
 11
772.865649
 21
-25.824108
 31
0.0
  0
LINE
  5
713
330
710
100
AcDbEntity
  8
0
  6
ByBlock
 62
     0
100
AcDbLine
 10
387.865649
 20
-24.574108
 30
0.0
 11
757.865649
 21
-24.574108
 31
0.0
  0
INSERT
  5
714
330
710
100
AcDbEntity
  8
0
  6
ByBlock
 62
     0
100
AcDbBlockReference
  2
_OPEN
 10
372.865649
 20
-24.574108
 30
0.0
 41
15.0
 42
15.0
 43
15.0
 50
180.0
  0
INSERT
  5
715
330
710
100
AcDbEntity
  8
0
  6
ByBlock
 62
     0
100
AcDbBlockReference
  2
_OPEN
 10
772.865649
 20
-24.574108
 30
0.0
 41
15.0
 42
15.0
 43
15.0
  0
POINT
  5
717
330
710
100
AcDbEntity
  8
DEFPOINTS
  6
ByBlock
 62
     0
100
AcDbPoint
 10
372.865649
 20
29.611111
 30
0.0
  0
POINT
  5
718
330
710
100
AcDbEntity
  8
DEFPOINTS
  6
ByBlock
 62
     0
100
AcDbPoint
 10
772.865649
 20
29.611111
 30
0.0
  0
POINT
  5
719
330
710
100
AcDbEntity
  8
DEFPOINTS
  6
ByBlock
 62
     0
100
AcDbPoint
 10
772.865649
 20
-24.574108
 30
0.0
  0
TEXT
  5
156E
330
710
100
AcDbEntity
  8
0
  6
ByBlock
 62
     0
100
AcDbText
 10
544.2942204285714
 20
-22.574108
 30
0.0
 40
20.0
  1
400
  7
ED40
100
AcDbText
  0
ENDBLK
  5
15EC
330
710
100
AcDbEntity
  8
0
100
AcDbBlockEnd
  0
BLOCK
  5
15ED
330
71C
100
AcDbEntity
  8
0
100
AcDbBlockBegin
  2
VD_ANONYM_71C
 70
     0
 71
     0
 10
0.0
 20
0.0
 30
0.0
  3
VD_ANONYM_71C
  1

  0
LINE
  5
71D
330
71C
100
AcDbEntity
  8
0
  6
ByBlock
 62
     0
100
AcDbLine
 10
936.112316
 20
7.611111
 30
0.0
 11
936.112316
 21
-8.941939999999999
 31
0.0
  0
LINE
  5
71E
330
71C
100
AcDbEntity
  8
0
  6
ByBlock
 62
     0
100
AcDbLine
 10
1020.112316
 20
23.241044
 30
0.0
 11
1020.112316
 21
-8.941939999999999
 31
0.0
  0
LINE
  5
71F
330
71C
100
AcDbEntity
  8
0
  6
ByBlock
 62
     0
100
AcDbLine
 10
951.112316
 20
-7.69194
 30
0.0
 11
1005.112316
 21
-7.69194
 31
0.0
  0
INSERT
  5
720
330
71C
100
AcDbEntity
  8
0
  6
ByBlock
 62
     0
100
AcDbBlockReference
  2
_OPEN
 10
936.112316
 20
-7.69194
 30
0.0
 41
15.0
 42
15.0
 43
15.0
 50
180.0
  0
INSERT
  5
721
330
71C
100
AcDbEntity
  8
0
  6
ByBlock
 62
     0
100
AcDbBlockReference
  2
_OPEN
 10
1020.112316
 20
-7.69194
 30
0.0
 41
15.0
 42
15.0
 43
15.0
  0
POINT
  5
723
330
71C
100
AcDbEntity
  8
DEFPOINTS
  6
ByBlock
 62
     0
100
AcDbPoint
 10
936.112316
 20
8.611110999999999
 30
0.0
  0
POINT
  5
724
330
71C
100
AcDbEntity
  8
DEFPOINTS
  6
ByBlock
 62
     0
100
AcDbPoint
 10
1020.112316
 20
24.241044
 30
0.0
  0
POINT
  5
725
330
71C
100
AcDbEntity
  8
DEFPOINTS
  6
ByBlock
 62
     0
100
AcDbPoint
 10
1020.112316
 20
-7.69194
 30
0.0
  0
TEXT
  5
156F
330
71C
100
AcDbEntity
  8
0
  6
ByBlock
 62
     0
100
AcDbText
 10
958.5885064761905
 20
-5.691939999999999
 30
0.0
 40
20.0
  1
84
  7
ED40
100
AcDbText
  0
ENDBLK
  5
15EE
330
71C
100
AcDbEntity
  8
0
100
AcDbBlockEnd
  0
BLOCK
  5
15EF
330
728
100
AcDbEntity
  8
0
100
AcDbBlockBegin
  2
VD_ANONYM_728
 70
     0
 71
     0
 10
0.0
 20
0.0
 30
0.0
  3
VD_ANONYM_728
  1

  0
LINE
  5
729
330
728
100
AcDbEntity
  8
0
  6
ByBlock
 62
     0
100
AcDbLine
 10
1020.112316
 20
23.241044
 30
0.0
 11
1020.112316
 21
-8.941939999999999
 31
0.0
  0
LINE
  5
72A
330
728
100
AcDbEntity
  8
0
  6
ByBlock
 62
     0
100
AcDbLine
 10
1063.112316
 20
178.683223
 30
0.0
 11
1063.112316
 21
-8.941939999999988
 31
0.0
  0
LINE
  5
72B
330
728
100
AcDbEntity
  8
0
  6
ByBlock
 62
     0
100
AcDbLine
 10
1035.112316
 20
-7.69194
 30
0.0
 11
1048.112316
 21
-7.69194
 31
0.0
  0
INSERT
  5
72C
330
728
100
AcDbEntity
  8
0
  6
ByBlock
 62
     0
100
AcDbBlockReference
  2
_OPEN
 10
1020.112316
 20
-7.69194
 30
0.0
 41
15.0
 42
15.0
 43
15.0
 50
180.0
  0
INSERT
  5
72D
330
728
100
AcDbEntity
  8
0
  6
ByBlock
 62
     0
100
AcDbBlockReference
  2
_OPEN
 10
1063.112316
 20
-7.69194
 30
0.0
 41
15.0
 42
15.0
 43
15.0
  0
POINT
  5
72F
330
728
100
AcDbEntity
  8
DEFPOINTS
  6
ByBlock
 62
     0
100
AcDbPoint
 10
1020.112316
 20
24.241044
 30
0.0
  0
POINT
  5
730
330
728
100
AcDbEntity
  8
DEFPOINTS
  6
ByBlock
 62
     0
100
AcDbPoint
 10
1063.112316
 20
179.683223
 30
0.0
  0
POINT
  5
731
330
728
100
AcDbEntity
  8
DEFPOINTS
  6
ByBlock
 62
     0
100
AcDbPoint
 10
1063.112316
 20
-7.69194
 30
0.0
  0
TEXT
  5
1570
330
728
100
AcDbEntity
  8
0
  6
ByBlock
 62
     0
100
AcDbText
 10
1022.564696952381
 20
-5.691939999999999
 30
0.0
 40
20.0
  1
43
  7
ED40
100
AcDbText
  0
ENDBLK
  5
15F0
330
728
100
AcDbEntity
  8
0
100
AcDbBlockEnd
  0
BLOCK
  5
15F1
330
734
100
AcDbEntity
  8
0
100
AcDbBlockBegin
  2
VD_ANONYM_734
 70
     0
 71
     0
 10
0.0
 20
0.0
 30
0.0
  3
VD_ANONYM_734
  1

  0
LINE
  5
735
330
734
100
AcDbEntity
  8
0
  6
ByBlock
 62
     0
100
AcDbLine
 10
238.509206
 20
202.111111
 30
0.0
 11
199.57652
 21
202.111111
 31
0.0
  0
LINE
  5
736
330
734
100
AcDbEntity
  8
0
  6
ByBlock
 62
     0
100
AcDbLine
 10
238.509206
 20
52.111111
 30
0.0
 11
199.57652
 21
52.111111
 31
0.0
  0
LINE
  5
737
330
734
100
AcDbEntity
  8
0
  6
ByBlock
 62
     0
100
AcDbLine
 10
200.82652
 20
187.111111
 30
0.0
 11
200.82652
 21
67.11111099999999
 31
0.0
  0
INSERT
  5
738
330
734
100
AcDbEntity
  8
0
  6
ByBlock
 62
     0
100
AcDbBlockReference
  2
_OPEN
 10
200.82652
 20
202.111111
 30
0.0
 41
15.0
 42
15.0
 43
15.0
 50
90.0
  0
INSERT
  5
739
330
734
100
AcDbEntity
  8
0
  6
ByBlock
 62
     0
100
AcDbBlockReference
  2
_OPEN
 10
200.82652
 20
52.111111
 30
0.0
 41
15.0
 42
15.0
 43
15.0
 50
270.0
  0
POINT
  5
73B
330
734
100
AcDbEntity
  8
DEFPOINTS
  6
ByBlock
 62
     0
100
AcDbPoint
 10
239.509206
 20
202.111111
 30
0.0
  0
POINT
  5
73C
330
734
100
AcDbEntity
  8
DEFPOINTS
  6
ByBlock
 62
     0
100
AcDbPoint
 10
239.509206
 20
52.111111
 30
0.0
  0
POINT
  5
73D
330
734
100
AcDbEntity
  8
DEFPOINTS
  6
ByBlock
 62
     0
100
AcDbPoint
 10
200.82652
 20
52.111111
 30
0.0
  0
TEXT
  5
1571
330
734
100
AcDbEntity
  8
0
  6
ByBlock
 62
     0
100
AcDbText
 10
198.82652
 20
97.11111099999999
 30
0.0
 40
20.0
  1
150
 50
90.0
  7
ED40
100
AcDbText
  0
ENDBLK
  5
15F2
330
734
100
AcDbEntity
  8
0
100
AcDbBlockEnd
  0
BLOCK
  5
15F3
330
740
100
AcDbEntity
  8
0
100
AcDbBlockBegin
  2
VD_ANONYM_740
 70
     0
 71
     0
 10
0.0
 20
0.0
 30
0.0
  3
VD_ANONYM_740
  1

  0
LINE
  5
741
330
740
100
AcDbEntity
  8
0
  6
ByBlock
 62
     0
100
AcDbLine
 10
239.509206
 20
40.111111
 30
0.0
 11
239.509206
 21
-59.64697499999999
 31
0.0
  0
LINE
  5
742
330
740
100
AcDbEntity
  8
0
  6
ByBlock
 62
     0
100
AcDbLine
 10
267.865649
 20
14.187501
 30
0.0
 11
267.865649
 21
-59.646975
 31
0.0
  0
LINE
  5
743
330
740
100
AcDbEntity
  8
0
  6
ByBlock
 62
     0
100
AcDbLine
 10
224.509206
 20
-58.396975
 30
0.0
 11
209.509206
 21
-58.396975
 31
0.0
  0
LINE
  5
744
330
740
100
AcDbEntity
  8
0
  6
ByBlock
 62
     0
100
AcDbLine
 10
282.865649
 20
-58.396975
 30
0.0
 11
297.865649
 21
-58.396975
 31
0.0
  0
LINE
  5
745
330
740
100
AcDbEntity
  8
0
  6
ByBlock
 62
     0
100
AcDbLine
 10
239.509206
 20
-58.396975
 30
0.0
 11
267.865649
 21
-58.396975
 31
0.0
  0
INSERT
  5
746
330
740
100
AcDbEntity
  8
0
  6
ByBlock
 62
     0
100
AcDbBlockReference
  2
_OPEN
 10
239.509206
 20
-58.396975
 30
0.0
 41
15.0
 42
15.0
 43
15.0
  0
INSERT
  5
747
330
740
100
AcDbEntity
  8
0
  6
ByBlock
 62
     0
100
AcDbBlockReference
  2
_OPEN
 10
267.865649
 20
-58.396975
 30
0.0
 41
15.0
 42
15.0
 43
15.0
 50
180.0
  0
POINT
  5
749
330
740
100
AcDbEntity
  8
DEFPOINTS
  6
ByBlock
 62
     0
100
AcDbPoint
 10
239.509206
 20
41.111111
 30
0.0
  0
POINT
  5
74A
330
740
100
AcDbEntity
  8
DEFPOINTS
  6
ByBlock
 62
     0
100
AcDbPoint
 10
267.865649
 20
15.187501
 30
0.0
  0
POINT
  5
74B
330
740
100
AcDbEntity
  8
DEFPOINTS
  6
ByBlock
 62
     0
100
AcDbPoint
 10
267.865649
 20
-58.396975
 30
0.0
  0
TEXT
  5
1572
330
740
100
AcDbEntity
  8
0
  6
ByBlock
 62
     0
100
AcDbText
 10
234.639807952381
 20
-56.395007
 30
0.0
 40
20.0
  1
28
  7
ED40
100
AcDbText
  0
ENDBLK
  5
15F4
330
740
100
AcDbEntity
  8
0
100
AcDbBlockEnd
  0
BLOCK
  5
15F5
330
74E
100
AcDbEntity
  8
0
100
AcDbBlockBegin
  2
IBW-200
 70
     0
 71
     0
 10
0.0
 20
0.0
 30
0.0
  3
IBW-200
  1

  0
LINE
  5
74F
330
74E
100
AcDbEntity
  8
V0-OBRYS
100
AcDbLine
 10
362.865649
 20
9.611110999999999
 30
0.0
 11
782.865649
 21
9.611110999999999
 31
0.0
  0
LINE
  5
750
330
74E
100
AcDbEntity
  8
V0-OBRYS
100
AcDbLine
 10
792.865649
 20
19.611111
 30
0.0
 11
792.865649
 21
239.611111
 31
0.0
  0
LINE
  5
751
330
74E
100
AcDbEntity
  8
V0-OBRYS
100
AcDbLine
 10
782.865649
 20
249.611111
 30
0.0
 11
362.865649
 21
249.611111
 31
0.0
  0
LINE
  5
752
330
74E
100
AcDbEntity
  8
V0-OBRYS
100
AcDbLine
 10
352.865649
 20
239.611111
 30
0.0
 11
352.865649
 21
19.61111099999999
 31
0.0
  0
LINE
  5
753
330
74E
100
AcDbEntity
  8
V0-OBRYS
100
AcDbLine
 10
372.865649
 20
229.611111
 30
0.0
 11
372.865649
 21
29.61111099999999
 31
0.0
  0
LINE
  5
754
330
74E
100
AcDbEntity
  8
V0-OBRYS
100
AcDbLine
 10
772.865649
 20
229.611111
 30
0.0
 11
372.865649
 21
229.611111
 31
0.0
  0
LINE
  5
755
330
74E
100
AcDbEntity
  8
V0-OBRYS
100
AcDbLine
 10
772.865649
 20
29.611111
 30
0.0
 11
772.865649
 21
229.611111
 31
0.0
  0
LINE
  5
756
330
74E
100
AcDbEntity
  8
V0-OBRYS
100
AcDbLine
 10
267.865649
 20
29.611111
 30
0.0
 11
352.865649
 21
29.611111
 31
0.0
  0
ARC
  5
757
330
74E
100
AcDbEntity
  8
V0-OBRYS
100
AcDbCircle
 10
362.865649
 20
19.611111
 30
0.0
 40
10.0
100
AcDbArc
 50
180.0
 51
270.0
  0
ARC
  5
758
330
74E
100
AcDbEntity
  8
V0-OBRYS
100
AcDbCircle
 10
362.865649
 20
239.611111
 30
0.0
 40
10.0
100
AcDbArc
 50
90.0
 51
180.0
  0
ARC
  5
759
330
74E
100
AcDbEntity
  8
V0-OBRYS
100
AcDbCircle
 10
782.865649
 20
239.611111
 30
0.0
 40
10.0
100
AcDbArc
 50
0.0
 51
90.0
  0
ARC
  5
75A
330
74E
100
AcDbEntity
  8
V0-OBRYS
100
AcDbCircle
 10
782.865649
 20
19.611111
 30
0.0
 40
10.0
100
AcDbArc
 50
270.0
 51
0.0
  0
CIRCLE
  5
75B
330
74E
100
AcDbEntity
  8
V0-OBRYS
100
AcDbCircle
 10
362.865649
 20
19.611111
 30
0.0
 40
4.5
  0
CIRCLE
  5
75C
330
74E
100
AcDbEntity
  8
V0-OBRYS
100
AcDbCircle
 10
362.865649
 20
239.611111
 30
0.0
 40
4.5
  0
CIRCLE
  5
75D
330
74E
100
AcDbEntity
  8
V0-OBRYS
100
AcDbCircle
 10
782.865649
 20
239.611111
 30
0.0
 40
4.5
  0
CIRCLE
  5
75E
330
74E
100
AcDbEntity
  8
V0-OBRYS
100
AcDbCircle
 10
782.865649
 20
19.611111
 30
0.0
 40
4.5
  0
LINE
  5
75F
330
74E
100
AcDbEntity
  8
V0-VYPLNE
  6
DASHDOT
 62
    63
100
AcDbLine
 10
354.389635
 20
239.611111
 30
0.0
 11
371.510869
 21
239.611111
 31
0.0
  0
LINE
  5
760
330
74E
100
AcDbEntity
  8
V0-VYPLNE
  6
DASHDOT
 62
    63
100
AcDbLine
 10
362.865649
 20
231.282794
 30
0.0
 11
362.865649
 21
247.847206
 31
0.0
  0
LINE
  5
761
330
74E
100
AcDbEntity
  8
V0-VYPLNE
  6
DASHDOT
 62
    63
100
AcDbLine
 10
354.389635
 20
19.611111
 30
0.0
 11
371.510869
 21
19.611111
 31
0.0
  0
LINE
  5
762
330
74E
100
AcDbEntity
  8
V0-VYPLNE
  6
DASHDOT
 62
    63
100
AcDbLine
 10
362.865649
 20
11.282794
 30
0.0
 11
362.865649
 21
27.847206
 31
0.0
  0
LINE
  5
763
330
74E
100
AcDbEntity
  8
V0-VYPLNE
  6
DASHDOT
 62
    63
100
AcDbLine
 10
774.389635
 20
239.611111
 30
0.0
 11
791.510869
 21
239.611111
 31
0.0
  0
LINE
  5
764
330
74E
100
AcDbEntity
  8
V0-VYPLNE
  6
DASHDOT
 62
    63
100
AcDbLine
 10
782.865649
 20
231.282794
 30
0.0
 11
782.865649
 21
247.847206
 31
0.0
  0
CIRCLE
  5
765
330
74E
100
AcDbEntity
  8
V0-OBRYS
100
AcDbCircle
 10
782.865649
 20
19.611111
 30
0.0
 40
4.5
  0
LINE
  5
766
330
74E
100
AcDbEntity
  8
V0-VYPLNE
  6
DASHDOT
 62
    63
100
AcDbLine
 10
782.865649
 20
11.282794
 30
0.0
 11
782.865649
 21
27.847206
 31
0.0
  0
LINE
  5
767
330
74E
100
AcDbEntity
  8
V0-VYPLNE
  6
DASHDOT
 62
    63
100
AcDbLine
 10
774.389635
 20
19.611111
 30
0.0
 11
791.510869
 21
19.611111
 31
0.0
  0
LINE
  5
768
330
74E
100
AcDbEntity
  8
V0-OBRYS
100
AcDbLine
 10
936.112316
 20
9.611110999999999
 30
0.0
 11
936.112316
 21
249.611111
 31
0.0
  0
LINE
  5
769
330
74E
100
AcDbEntity
  8
V0-OBRYS
100
AcDbLine
 10
1126.112316
 20
9.611110999999999
 30
0.0
 11
1126.112316
 21
249.611111
 31
0.0
  0
LINE
  5
76A
330
74E
100
AcDbEntity
  8
V0-OBRYS
100
AcDbLine
 10
941.112316
 20
9.611110999999999
 30
0.0
 11
941.112316
 21
249.611111
 31
0.0
  0
LINE
  5
76B
330
74E
100
AcDbEntity
  8
V0-OBRYS
100
AcDbLine
 10
1121.112316
 20
9.611110999999999
 30
0.0
 11
1121.112316
 21
249.611111
 31
0.0
  0
LINE
  5
76C
330
74E
100
AcDbEntity
  8
V0-OBRYS
100
AcDbLine
 10
941.112316
 20
9.611110999999999
 30
0.0
 11
936.112316
 21
9.611110999999999
 31
0.0
  0
LINE
  5
76D
330
74E
100
AcDbEntity
  8
V0-OBRYS
100
AcDbLine
 10
1121.112316
 20
9.611110999999999
 30
0.0
 11
1126.112316
 21
9.611110999999999
 31
0.0
  0
LINE
  5
76E
330
74E
100
AcDbEntity
  8
V0-OBRYS
100
AcDbLine
 10
971.112316
 20
29.611111
 30
0.0
 11
971.112316
 21
229.611111
 31
0.0
  0
LINE
  5
76F
330
74E
100
AcDbEntity
  8
V0-OBRYS
100
AcDbLine
 10
1091.112316
 20
29.611111
 30
0.0
 11
1091.112316
 21
229.611111
 31
0.0
  0
LINE
  5
770
330
74E
100
AcDbEntity
  8
V0-OBRYS
100
AcDbLine
 10
941.112316
 20
229.611111
 30
0.0
 11
1121.112316
 21
229.611111
 31
0.0
  0
LINE
  5
771
330
74E
100
AcDbEntity
  8
V0-OBRYS
100
AcDbLine
 10
941.112316
 20
249.611111
 30
0.0
 11
936.112316
 21
249.611111
 31
0.0
  0
LINE
  5
772
330
74E
100
AcDbEntity
  8
V0-OBRYS
100
AcDbLine
 10
1121.112316
 20
249.611111
 30
0.0
 11
1126.112316
 21
249.611111
 31
0.0
  0
LINE
  5
773
330
74E
100
AcDbEntity
  8
V0-OBRYS
100
AcDbLine
 10
941.112316
 20
29.611111
 30
0.0
 11
1121.112316
 21
29.611111
 31
0.0
  0
LINE
  5
774
330
74E
100
AcDbEntity
  8
V0-VYPLNE
  6
DASHDOT
 62
    63
100
AcDbLine
 10
931.112316
 20
19.611111
 30
0.0
 11
946.964491
 21
19.611111
 31
0.0
  0
LINE
  5
775
330
74E
100
AcDbEntity
  8
V0-VYPLNE
  6
DASHDOT
 62
    63
100
AcDbLine
 10
1115.011478
 20
19.611111
 30
0.0
 11
1131.112316
 21
19.611111
 31
0.0
  0
LINE
  5
776
330
74E
100
AcDbEntity
  8
V0-VYPLNE
  6
DASHDOT
 62
    63
100
AcDbLine
 10
931.112316
 20
239.611111
 30
0.0
 11
946.964491
 21
239.611111
 31
0.0
  0
LINE
  5
777
330
74E
100
AcDbEntity
  8
V0-VYPLNE
  6
DASHDOT
 62
    63
100
AcDbLine
 10
1115.011478
 20
239.611111
 30
0.0
 11
1131.112316
 21
239.611111
 31
0.0
  0
LINE
  5
778
330
74E
100
AcDbEntity
  8
V0-OBRYS
100
AcDbLine
 10
936.112316
 20
-65.043324
 30
0.0
 11
936.112316
 21
-505.043324
 31
0.0
  0
LINE
  5
779
330
74E
100
AcDbEntity
  8
V0-OBRYS
100
AcDbLine
 10
1126.112316
 20
-65.043324
 30
0.0
 11
1126.112316
 21
-505.043324
 31
0.0
  0
LINE
  5
77A
330
74E
100
AcDbEntity
  8
V0-OBRYS
100
AcDbLine
 10
941.112316
 20
-65.043324
 30
0.0
 11
941.112316
 21
-505.043324
 31
0.0
  0
LINE
  5
77B
330
74E
100
AcDbEntity
  8
V0-OBRYS
100
AcDbLine
 10
1121.112316
 20
-65.043324
 30
0.0
 11
1121.112316
 21
-505.043324
 31
0.0
  0
LINE
  5
77C
330
74E
100
AcDbEntity
  8
V0-OBRYS
100
AcDbLine
 10
971.112316
 20
-85.043324
 30
0.0
 11
971.112316
 21
-590.043324
 31
0.0
  0
LINE
  5
77D
330
74E
100
AcDbEntity
  8
V0-OBRYS
100
AcDbLine
 10
1091.112316
 20
-85.043324
 30
0.0
 11
1091.112316
 21
-590.043324
 31
0.0
  0
LINE
  5
77E
330
74E
100
AcDbEntity
  8
V0-OBRYS
100
AcDbLine
 10
941.112316
 20
-85.043324
 30
0.0
 11
1121.112316
 21
-85.043324
 31
0.0
  0
LINE
  5
77F
330
74E
100
AcDbEntity
  8
V0-OBRYS
100
AcDbLine
 10
941.112316
 20
-65.043324
 30
0.0
 11
936.112316
 21
-65.043324
 31
0.0
  0
LINE
  5
780
330
74E
100
AcDbEntity
  8
V0-VYPLNE
  6
DASHDOT
 62
    63
100
AcDbLine
 10
931.112316
 20
-75.043324
 30
0.0
 11
946.964491
 21
-75.043324
 31
0.0
  0
LINE
  5
781
330
74E
100
AcDbEntity
  8
V0-VYPLNE
  6
DASHDOT
 62
    63
100
AcDbLine
 10
1115.011478
 20
-75.043324
 30
0.0
 11
1131.112316
 21
-75.043324
 31
0.0
  0
LINE
  5
782
330
74E
100
AcDbEntity
  8
V0-OBRYS
100
AcDbLine
 10
1121.112316
 20
-65.043324
 30
0.0
 11
1126.112316
 21
-65.043324
 31
0.0
  0
LINE
  5
783
330
74E
100
AcDbEntity
  8
V0-OBRYS
100
AcDbLine
 10
941.112316
 20
-485.043324
 30
0.0
 11
1121.112316
 21
-485.043324
 31
0.0
  0
LINE
  5
784
330
74E
100
AcDbEntity
  8
V0-OBRYS
100
AcDbLine
 10
941.112316
 20
-505.043324
 30
0.0
 11
936.112316
 21
-505.043324
 31
0.0
  0
LINE
  5
785
330
74E
100
AcDbEntity
  8
V0-VYPLNE
  6
DASHDOT
 62
    63
100
AcDbLine
 10
931.112316
 20
-495.043324
 30
0.0
 11
946.964491
 21
-495.043324
 31
0.0
  0
LINE
  5
786
330
74E
100
AcDbEntity
  8
V0-VYPLNE
  6
DASHDOT
 62
    63
100
AcDbLine
 10
1115.011478
 20
-495.043324
 30
0.0
 11
1131.112316
 21
-495.043324
 31
0.0
  0
LINE
  5
787
330
74E
100
AcDbEntity
  8
V0-OBRYS
100
AcDbLine
 10
1121.112316
 20
-505.043324
 30
0.0
 11
1126.112316
 21
-505.043324
 31
0.0
  0
DIMENSION
  5
788
330
74E
100
AcDbEntity
  8
V0-VYPLNE
  6
Continuous
 62
    41
100
AcDbDimension
  2
*D22
 10
782.865649
 20
-53.70570199999929
 30
0.0
 11
579.299434
 21
-53.705702
 31
0.0
 70
   160
 71
     0
 42
419.9999999999999
  3
ED40
100
AcDbAlignedDimension
 13
362.865649
 23
11.282794
 33
0.0
 14
782.865649
 24
19.565
 34
0.0
100
AcDbRotatedDimension
  0
DIMENSION
  5
789
330
74E
100
AcDbEntity
  8
V0-VYPLNE
  6
Continuous
 62
    41
100
AcDbDimension
  2
*D23
 10
792.865649
 20
-84.37053899999592
 30
0.0
 11
576.318581
 21
-84.37053899999999
 31
0.0
 70
   160
 71
     0
 42
439.9999999999999
  3
ED40
100
AcDbAlignedDimension
 13
352.865649
 23
19.611111
 33
0.0
 14
792.865649
 24
19.611111
 34
0.0
100
AcDbRotatedDimension
  0
DIMENSION
  5
78A
330
74E
100
AcDbEntity
  8
V0-VYPLNE
  6
Continuous
 62
    41
100
AcDbDimension
  2
*D24
 10
863.9424729999992
 20
19.611111
 30
0.0
 11
863.942473
 21
130.515975
 31
0.0
 70
   160
 71
     0
 42
219.953889
  3
ED40
100
AcDbAlignedDimension
 13
782.865649
 23
239.565
 33
0.0
 14
782.950252
 24
19.611111
 34
0.0
 50
90.0
100
AcDbRotatedDimension
  0
DIMENSION
  5
78B
330
74E
100
AcDbEntity
  8
V0-VYPLNE
  6
Continuous
 62
    41
100
AcDbDimension
  2
*D25
 10
891.560078999999
 20
9.611110999999992
 30
0.0
 11
891.560079
 21
127.537199
 31
0.0
 70
   160
 71
     0
 42
240.0
  3
ED40
100
AcDbAlignedDimension
 13
782.865649
 23
249.611111
 33
0.0
 14
782.865649
 24
9.611110999999999
 34
0.0
 50
90.0
100
AcDbRotatedDimension
  0
LINE
  5
78F
330
74E
100
AcDbEntity
  8
V0-OBRYS
  6
Continuous
 62
    90
100
AcDbLine
 10
267.865649
 20
16.187501
 30
0.0
 11
267.865649
 21
243.034722
 31
0.0
  0
LINE
  5
790
330
74E
100
AcDbEntity
  8
V0-OBRYS
  6
Continuous
 62
    90
100
AcDbLine
 10
270.865649
 20
16.187501
 30
0.0
 11
270.865649
 21
243.034722
 31
0.0
  0
LINE
  5
791
330
74E
100
AcDbEntity
  8
V0-OBRYS
100
AcDbLine
 10
352.865649
 20
229.611111
 30
0.0
 11
267.865649
 21
229.611111
 31
0.0
  0
LINE
  5
792
330
74E
100
AcDbEntity
  8
V0-OBRYS
100
AcDbLine
 10
372.865649
 20
29.611111
 30
0.0
 11
772.865649
 21
29.611111
 31
0.0
  0
LINE
  5
793
330
74E
100
AcDbEntity
  8
V0-OBRYS
100
AcDbLine
 10
956.3832180000001
 20
-590.043324
 30
0.0
 11
1105.841414
 21
-590.043324
 31
0.0
  0
LINE
  5
794
330
74E
100
AcDbEntity
  8
V0-OBRYS
100
AcDbLine
 10
956.3832180000001
 20
-587.043324
 30
0.0
 11
1105.841414
 21
-587.043324
 31
0.0
  0
LINE
  5
795
330
74E
100
AcDbEntity
  8
V0-OBRYS
  6
Continuous
 62
    90
100
AcDbLine
 10
956.3832180000001
 20
-590.043324
 30
0.0
 11
956.3832180000001
 21
-587.043324
 31
0.0
  0
LINE
  5
796
330
74E
100
AcDbEntity
  8
V0-OBRYS
  6
Continuous
 62
    90
100
AcDbLine
 10
1105.841414
 20
-590.043324
 30
0.0
 11
1105.841414
 21
-587.043324
 31
0.0
  0
LINE
  5
797
330
74E
100
AcDbEntity
  8
V0-OBRYS
  6
Continuous
 62
    90
100
AcDbLine
 10
267.865649
 20
243.034722
 30
0.0
 11
270.865649
 21
243.034722
 31
0.0
  0
LINE
  5
798
330
74E
100
AcDbEntity
  8
V0-OBRYS
  6
Continuous
 62
    90
100
AcDbLine
 10
267.865649
 20
16.187501
 30
0.0
 11
270.865649
 21
16.187501
 31
0.0
  0
DIMENSION
  5
799
330
74E
100
AcDbEntity
  8
V0-VYPLNE
  6
Continuous
 62
    41
100
AcDbDimension
  2
*D26
 10
352.865649
 20
-58.39697499999966
 30
0.0
 11
310.365649
 21
-34.39697499999966
 31
0.0
 70
    32
 71
     0
 42
85.0
  3
ED40
100
AcDbAlignedDimension
 13
267.865649
 23
16.187501
 33
0.0
 14
352.865649
 24
18.611111
 34
0.0
100
AcDbRotatedDimension
  0
DIMENSION
  5
79A
330
74E
100
AcDbEntity
  8
V0-VYPLNE
  6
Continuous
 62
    41
100
AcDbDimension
  2
*D27
 10
1126.112316
 20
-40.76370300000417
 30
0.0
 11
1031.112316
 21
-16.76370300000417
 31
0.0
 70
    32
 71
     0
 42
190.0
  3
ED40
100
AcDbAlignedDimension
 13
936.112316
 23
9.611110999999999
 33
0.0
 14
1126.112316
 24
9.611110999999999
 34
0.0
100
AcDbRotatedDimension
  0
LINE
  5
79B
330
74E
100
AcDbEntity
  8
V0-VYPLNE
  6
Continuous
 62
    41
100
AcDbLine
 10
980.909015
 20
97.99571899999999
 30
0.0
 11
1076.877651
 21
97.99571899999999
 31
0.0
  0
LINE
  5
79C
330
74E
100
AcDbEntity
  8
V0-VYPLNE
  6
Continuous
 62
    41
100
AcDbLine
 10
1076.877651
 20
97.99571899999999
 30
0.0
 11
1031.956163
 21
108.198031
 31
0.0
  0
LINE
  5
79D
330
74E
100
AcDbEntity
  8
V0-VYPLNE
  6
Continuous
 62
    41
100
AcDbLine
 10
1076.877651
 20
97.99571899999999
 30
0.0
 11
1031.956163
 21
87.793408
 31
0.0
  0
LINE
  5
79E
330
74E
100
AcDbEntity
  8
V0-VYPLNE
  6
Continuous
 62
    41
100
AcDbLine
 10
1078.559506
 20
-297.929349
 30
0.0
 11
1033.638018
 21
-287.727037
 31
0.0
  0
LINE
  5
79F
330
74E
100
AcDbEntity
  8
V0-VYPLNE
  6
Continuous
 62
    41
100
AcDbLine
 10
1078.559506
 20
-297.929349
 30
0.0
 11
1033.638018
 21
-308.13166
 31
0.0
  0
LINE
  5
7A0
330
74E
100
AcDbEntity
  8
V0-VYPLNE
  6
Continuous
 62
    41
100
AcDbLine
 10
982.59087
 20
-297.929349
 30
0.0
 11
1078.559506
 21
-297.929349
 31
0.0
  0
DIMENSION
  5
7A1
330
74E
100
AcDbEntity
  8
V0-VYPLNE
  6
Continuous
 62
    41
100
AcDbDimension
  2
*D28
 10
832.4890870000018
 20
29.611111
 30
0.0
 11
808.4890870000018
 21
129.611111
 31
0.0
 70
    32
 71
     0
 42
200.0
  3
ED40
100
AcDbAlignedDimension
 13
772.865649
 23
229.611111
 33
0.0
 14
772.865649
 24
29.611111
 34
0.0
 50
90.0
100
AcDbRotatedDimension
  0
DIMENSION
  5
7A2
330
74E
100
AcDbEntity
  8
V0-VYPLNE
  6
Continuous
 62
    41
100
AcDbDimension
  2
*D29
 10
772.865649
 20
-24.57410800000071
 30
0.0
 11
572.8656490000001
 21
-0.5741080000007059
 31
0.0
 70
    32
 71
     0
 42
399.9999999999999
  3
ED40
100
AcDbAlignedDimension
 13
372.865649
 23
29.611111
 33
0.0
 14
772.865649
 24
29.611111
 34
0.0
100
AcDbRotatedDimension
  0
LINE
  5
7A5
330
74E
100
AcDbEntity
  8
V0-VYPLNE
  6
Continuous
 62
    52
100
AcDbLine
 10
372.865649
 20
132.111111
 30
0.0
 11
772.650936
 21
132.111111
 31
0.0
  0
LINE
  5
7A6
330
74E
100
AcDbEntity
  8
V0-VYPLNE
  6
Continuous
 62
    52
100
AcDbLine
 10
372.865649
 20
127.111111
 30
0.0
 11
772.650936
 21
127.111111
 31
0.0
  0
LINE
  5
7A7
330
74E
100
AcDbEntity
  8
V0-VYPLNE
  6
Continuous
 62
    41
100
AcDbLine
 10
572.865649
 20
229.611111
 30
0.0
 11
572.865649
 21
29.61111099999999
 31
0.0
  0
LINE
  5
7A8
330
74E
100
AcDbEntity
  8
V0-VYPLNE
  6
Continuous
 62
    52
100
AcDbLine
 10
372.865649
 20
152.111111
 30
0.0
 11
772.650936
 21
152.111111
 31
0.0
  0
LINE
  5
7A9
330
74E
100
AcDbEntity
  8
V0-VYPLNE
  6
Continuous
 62
    52
100
AcDbLine
 10
372.865649
 20
147.111111
 30
0.0
 11
772.650936
 21
147.111111
 31
0.0
  0
LINE
  5
7AA
330
74E
100
AcDbEntity
  8
V0-VYPLNE
  6
Continuous
 62
    52
100
AcDbLine
 10
372.973005
 20
169.611111
 30
0.0
 11
772.758293
 21
169.611111
 31
0.0
  0
LINE
  5
7AB
330
74E
100
AcDbEntity
  8
V0-VYPLNE
  6
Continuous
 62
    52
100
AcDbLine
 10
372.973005
 20
164.611111
 30
0.0
 11
772.758293
 21
164.611111
 31
0.0
  0
LINE
  5
7AC
330
74E
100
AcDbEntity
  8
V0-VYPLNE
  6
Continuous
 62
    52
100
AcDbLine
 10
372.973005
 20
169.611111
 30
0.0
 11
772.758293
 21
169.611111
 31
0.0
  0
LINE
  5
7AD
330
74E
100
AcDbEntity
  8
V0-VYPLNE
  6
Continuous
 62
    52
100
AcDbLine
 10
372.973005
 20
164.611111
 30
0.0
 11
772.758293
 21
164.611111
 31
0.0
  0
LINE
  5
7AE
330
74E
100
AcDbEntity
  8
V0-VYPLNE
  6
Continuous
 62
    52
100
AcDbLine
 10
372.973005
 20
189.611111
 30
0.0
 11
772.758293
 21
189.611111
 31
0.0
  0
LINE
  5
7AF
330
74E
100
AcDbEntity
  8
V0-VYPLNE
  6
Continuous
 62
    52
100
AcDbLine
 10
372.973005
 20
184.611111
 30
0.0
 11
772.758293
 21
184.611111
 31
0.0
  0
LINE
  5
7B0
330
74E
100
AcDbEntity
  8
V0-VYPLNE
  6
Continuous
 62
    52
100
AcDbLine
 10
372.973005
 20
89.61111099999999
 30
0.0
 11
772.758293
 21
89.61111099999999
 31
0.0
  0
LINE
  5
7B1
330
74E
100
AcDbEntity
  8
V0-VYPLNE
  6
Continuous
 62
    52
100
AcDbLine
 10
372.973005
 20
84.61111099999999
 30
0.0
 11
772.758293
 21
84.61111099999999
 31
0.0
  0
LINE
  5
7B2
330
74E
100
AcDbEntity
  8
V0-VYPLNE
  6
Continuous
 62
    52
100
AcDbLine
 10
372.973005
 20
49.611111
 30
0.0
 11
772.758293
 21
49.611111
 31
0.0
  0
LINE
  5
7B3
330
74E
100
AcDbEntity
  8
V0-VYPLNE
  6
Continuous
 62
    52
100
AcDbLine
 10
372.973005
 20
44.611111
 30
0.0
 11
772.758293
 21
44.611111
 31
0.0
  0
LINE
  5
7B4
330
74E
100
AcDbEntity
  8
V0-VYPLNE
  6
Continuous
 62
    52
100
AcDbLine
 10
372.973005
 20
69.61111099999999
 30
0.0
 11
772.758293
 21
69.61111099999999
 31
0.0
  0
LINE
  5
7B5
330
74E
100
AcDbEntity
  8
V0-VYPLNE
  6
Continuous
 62
    52
100
AcDbLine
 10
372.973005
 20
64.61111099999999
 30
0.0
 11
772.758293
 21
64.61111099999999
 31
0.0
  0
LINE
  5
7B6
330
74E
100
AcDbEntity
  8
V0-VYPLNE
  6
Continuous
 62
    52
100
AcDbLine
 10
372.973005
 20
109.611111
 30
0.0
 11
772.758293
 21
109.611111
 31
0.0
  0
LINE
  5
7B7
330
74E
100
AcDbEntity
  8
V0-VYPLNE
  6
Continuous
 62
    52
100
AcDbLine
 10
372.973005
 20
104.611111
 30
0.0
 11
772.758293
 21
104.611111
 31
0.0
  0
LINE
  5
7B8
330
74E
100
AcDbEntity
  8
V0-VYPLNE
  6
Continuous
 62
    52
100
AcDbLine
 10
372.973005
 20
204.611111
 30
0.0
 11
772.758293
 21
204.611111
 31
0.0
  0
LINE
  5
7B9
330
74E
100
AcDbEntity
  8
V0-VYPLNE
  6
Continuous
 62
    52
100
AcDbLine
 10
372.973005
 20
209.611111
 30
0.0
 11
772.758293
 21
209.611111
 31
0.0
  0
LINE
  5
7BA
330
74E
100
AcDbEntity
  8
V0-VYPLNE
  6
Continuous
 62
    41
100
AcDbLine
 10
392.96227
 20
223.811062
 30
0.0
 11
392.96227
 21
34.45570100000001
 31
0.0
  0
LINE
  5
7BB
330
74E
100
AcDbEntity
  8
V0-VYPLNE
  6
Continuous
 62
    41
100
AcDbLine
 10
412.951534
 20
223.811062
 30
0.0
 11
412.951534
 21
34.45570100000001
 31
0.0
  0
LINE
  5
7BC
330
74E
100
AcDbEntity
  8
V0-VYPLNE
  6
Continuous
 62
    41
100
AcDbLine
 10
432.940798
 20
223.811062
 30
0.0
 11
432.940798
 21
34.45570100000001
 31
0.0
  0
LINE
  5
7BD
330
74E
100
AcDbEntity
  8
V0-VYPLNE
  6
Continuous
 62
    41
100
AcDbLine
 10
452.930063
 20
223.811062
 30
0.0
 11
452.930063
 21
34.45570100000001
 31
0.0
  0
LINE
  5
7BE
330
74E
100
AcDbEntity
  8
V0-VYPLNE
  6
Continuous
 62
    41
100
AcDbLine
 10
472.919327
 20
223.811062
 30
0.0
 11
472.919327
 21
34.45570100000001
 31
0.0
  0
LINE
  5
7BF
330
74E
100
AcDbEntity
  8
V0-VYPLNE
  6
Continuous
 62
    41
100
AcDbLine
 10
492.908591
 20
223.811062
 30
0.0
 11
492.908591
 21
34.45570100000001
 31
0.0
  0
LINE
  5
7C0
330
74E
100
AcDbEntity
  8
V0-VYPLNE
  6
Continuous
 62
    41
100
AcDbLine
 10
512.8978560000001
 20
223.811062
 30
0.0
 11
512.8978560000001
 21
34.45570100000001
 31
0.0
  0
LINE
  5
7C1
330
74E
100
AcDbEntity
  8
V0-VYPLNE
  6
Continuous
 62
    41
100
AcDbLine
 10
532.88712
 20
223.811062
 30
0.0
 11
532.88712
 21
34.45570100000001
 31
0.0
  0
LINE
  5
7C2
330
74E
100
AcDbEntity
  8
V0-VYPLNE
  6
Continuous
 62
    41
100
AcDbLine
 10
552.876384
 20
223.811062
 30
0.0
 11
552.876384
 21
34.45570100000001
 31
0.0
  0
LINE
  5
7C3
330
74E
100
AcDbEntity
  8
V0-VYPLNE
  6
Continuous
 62
    41
100
AcDbLine
 10
592.854913
 20
223.811062
 30
0.0
 11
592.854913
 21
34.45570100000001
 31
0.0
  0
LINE
  5
7C4
330
74E
100
AcDbEntity
  8
V0-VYPLNE
  6
Continuous
 62
    41
100
AcDbLine
 10
612.8441780000001
 20
223.811062
 30
0.0
 11
612.8441780000001
 21
34.45570100000001
 31
0.0
  0
LINE
  5
7C5
330
74E
100
AcDbEntity
  8
V0-VYPLNE
  6
Continuous
 62
    41
100
AcDbLine
 10
632.833442
 20
223.811062
 30
0.0
 11
632.833442
 21
34.45570100000001
 31
0.0
  0
LINE
  5
7C6
330
74E
100
AcDbEntity
  8
V0-VYPLNE
  6
Continuous
 62
    41
100
AcDbLine
 10
652.822706
 20
223.811062
 30
0.0
 11
652.822706
 21
34.45570100000001
 31
0.0
  0
LINE
  5
7C7
330
74E
100
AcDbEntity
  8
V0-VYPLNE
  6
Continuous
 62
    41
100
AcDbLine
 10
672.811971
 20
223.811062
 30
0.0
 11
672.811971
 21
34.45570100000001
 31
0.0
  0
LINE
  5
7C8
330
74E
100
AcDbEntity
  8
V0-VYPLNE
  6
Continuous
 62
    41
100
AcDbLine
 10
692.801235
 20
223.811062
 30
0.0
 11
692.801235
 21
34.45570100000001
 31
0.0
  0
LINE
  5
7C9
330
74E
100
AcDbEntity
  8
V0-VYPLNE
  6
Continuous
 62
    41
100
AcDbLine
 10
712.790499
 20
223.811062
 30
0.0
 11
712.790499
 21
34.45570100000001
 31
0.0
  0
LINE
  5
7CA
330
74E
100
AcDbEntity
  8
V0-VYPLNE
  6
Continuous
 62
    41
100
AcDbLine
 10
732.779764
 20
223.811062
 30
0.0
 11
732.779764
 21
34.45570100000001
 31
0.0
  0
LINE
  5
7CB
330
74E
100
AcDbEntity
  8
V0-VYPLNE
  6
Continuous
 62
    41
100
AcDbLine
 10
752.7690280000001
 20
223.811062
 30
0.0
 11
752.7690280000001
 21
34.45570100000001
 31
0.0
  0
LINE
  5
7CC
330
74E
100
AcDbEntity
  8
V0-VYPLNE
  6
DASHDOT
 62
    63
100
AcDbLine
 10
1020.112316
 20
-614.418602
 30
0.0
 11
1020.112316
 21
-577.44357
 31
0.0
  0
LINE
  5
7CD
330
74E
100
AcDbEntity
  8
V0-VYPLNE
  6
DASHDOT
 62
    63
100
AcDbLine
 10
1063.112316
 20
-614.418602
 30
0.0
 11
1063.112316
 21
-577.44357
 31
0.0
  0
LINE
  5
7CE
330
74E
100
AcDbEntity
  8
V0-VYPLNE
  6
DASHDOT
 62
    63
100
AcDbLine
 10
239.509206
 20
52.111111
 30
0.0
 11
281.555605
 21
52.111111
 31
0.0
  0
LINE
  5
7CF
330
74E
100
AcDbEntity
  8
V0-VYPLNE
  6
DASHDOT
 62
    63
100
AcDbLine
 10
239.509206
 20
202.111111
 30
0.0
 11
286.60117
 21
202.111111
 31
0.0
  0
CIRCLE
  5
7D0
330
74E
100
AcDbEntity
  8
V0-OBRYS
  6
Continuous
 62
    90
100
AcDbCircle
 10
1063.112316
 20
202.111111
 30
0.0
 40
11.0
  0
CIRCLE
  5
7D1
330
74E
100
AcDbEntity
  8
V0-OBRYS
  6
Continuous
 62
    90
100
AcDbCircle
 10
1020.112316
 20
52.111111
 30
0.0
 40
11.0
  0
LINE
  5
7D2
330
74E
100
AcDbEntity
  8
V0-OBRYS
  6
Continuous
 62
    90
100
AcDbLine
 10
1009.112316
 20
-614.418602
 30
0.0
 11
1031.112316
 21
-614.418602
 31
0.0
  0
LINE
  5
7D3
330
74E
100
AcDbEntity
  8
V0-VYPLNE
  6
DASHDOT
 62
    63
100
AcDbLine
 10
1020.112316
 20
24.241044
 30
0.0
 11
1020.112316
 21
75.342276
 31
0.0
  0
LINE
  5
7D4
330
74E
100
AcDbEntity
  8
V0-VYPLNE
  6
DASHDOT
 62
    63
100
AcDbLine
 10
1063.112316
 20
179.683223
 30
0.0
 11
1063.112316
 21
218.566695
 31
0.0
  0
LINE
  5
7D5
330
74E
100
AcDbEntity
  8
V0-OBRYS
100
AcDbLine
 10
1031.112316
 20
-590.043324
 30
0.0
 11
1031.112316
 21
-614.418602
 31
0.0
  0
LINE
  5
7D6
330
74E
100
AcDbEntity
  8
V0-OBRYS
100
AcDbLine
 10
1009.112316
 20
-590.043324
 30
0.0
 11
1009.112316
 21
-614.418602
 31
0.0
  0
LINE
  5
7D7
330
74E
100
AcDbEntity
  8
V0-OBRYS
100
AcDbLine
 10
1074.112316
 20
-590.043324
 30
0.0
 11
1074.112316
 21
-614.418602
 31
0.0
  0
LINE
  5
7D8
330
74E
100
AcDbEntity
  8
V0-OBRYS
100
AcDbLine
 10
1052.112316
 20
-590.043324
 30
0.0
 11
1052.112316
 21
-614.418602
 31
0.0
  0
LINE
  5
7D9
330
74E
100
AcDbEntity
  8
V0-OBRYS
  6
Continuous
 62
    90
100
AcDbLine
 10
1052.112316
 20
-614.418602
 30
0.0
 11
1074.112316
 21
-614.418602
 31
0.0
  0
LINE
  5
7DA
330
74E
100
AcDbEntity
  8
V0-OBRYS
  6
Continuous
 62
    90
100
AcDbLine
 10
239.509206
 20
213.111111
 30
0.0
 11
239.509206
 21
191.111111
 31
0.0
  0
LINE
  5
7DB
330
74E
100
AcDbEntity
  8
V0-VYPLNE
  6
DASHDOT
 62
    63
100
AcDbLine
 10
1046.800037
 20
202.111111
 30
0.0
 11
1087.903342
 21
202.111111
 31
0.0
  0
LINE
  5
7DC
330
74E
100
AcDbEntity
  8
V0-VYPLNE
  6
DASHDOT
 62
    63
100
AcDbLine
 10
999.708072
 20
52.111111
 30
0.0
 11
1048.607641
 21
52.111111
 31
0.0
  0
LINE
  5
7DD
330
74E
100
AcDbEntity
  8
V0-OBRYS
100
AcDbLine
 10
239.509206
 20
63.111111
 30
0.0
 11
267.865649
 21
63.111111
 31
0.0
  0
LINE
  5
7DE
330
74E
100
AcDbEntity
  8
V0-OBRYS
100
AcDbLine
 10
239.509206
 20
41.111111
 30
0.0
 11
267.865649
 21
41.111111
 31
0.0
  0
LINE
  5
7DF
330
74E
100
AcDbEntity
  8
V0-OBRYS
100
AcDbLine
 10
267.865649
 20
191.111111
 30
0.0
 11
239.509206
 21
191.111111
 31
0.0
  0
LINE
  5
7E0
330
74E
100
AcDbEntity
  8
V0-OBRYS
100
AcDbLine
 10
267.865649
 20
213.111111
 30
0.0
 11
239.509206
 21
213.111111
 31
0.0
  0
LINE
  5
7E1
330
74E
100
AcDbEntity
  8
V0-OBRYS
  6
Continuous
 62
    90
100
AcDbLine
 10
239.509206
 20
63.111111
 30
0.0
 11
239.509206
 21
41.111111
 31
0.0
  0
DIMENSION
  5
7E2
330
74E
100
AcDbEntity
  8
V0-VYPLNE
  6
Continuous
 62
    41
100
AcDbDimension
  2
*D30
 10
1020.112316
 20
-7.691940000001079
 30
0.0
 11
978.112316
 21
16.30805999999892
 31
0.0
 70
    32
 71
     0
 42
84.0
  3
ED40
100
AcDbAlignedDimension
 13
936.112316
 23
8.611110999999999
 33
0.0
 14
1020.112316
 24
24.241044
 34
0.0
100
AcDbRotatedDimension
  0
DIMENSION
  5
7E3
330
74E
100
AcDbEntity
  8
V0-VYPLNE
  6
Continuous
 62
    41
100
AcDbDimension
  2
*D31
 10
1063.112316
 20
-7.691940000049101
 30
0.0
 11
1169.493268380952
 21
16.30805999995089
 31
0.0
 70
    32
 71
     0
 42
43.0
  3
ED40
100
AcDbAlignedDimension
 13
1020.112316
 23
24.241044
 33
0.0
 14
1063.112316
 24
179.683223
 34
0.0
100
AcDbRotatedDimension
  0
DIMENSION
  5
7E4
330
74E
100
AcDbEntity
  8
V0-VYPLNE
  6
Continuous
 62
    41
100
AcDbDimension
  2
*D32
 10
200.8265199999987
 20
52.111111
 30
0.0
 11
176.8265199999987
 21
127.111111
 31
0.0
 70
    32
 71
     0
 42
150.0
  3
ED40
100
AcDbAlignedDimension
 13
239.509206
 23
202.111111
 33
0.0
 14
239.509206
 24
52.111111
 34
0.0
 50
90.0
100
AcDbRotatedDimension
  0
DIMENSION
  5
7E5
330
74E
100
AcDbEntity
  8
V0-VYPLNE
  6
Continuous
 62
    41
100
AcDbDimension
  2
*D33
 10
267.865649
 20
-58.39697499999983
 30
0.0
 11
374.2466013809524
 21
-34.39697499999983
 31
0.0
 70
    32
 71
     0
 42
28.35644300000001
  3
ED40
100
AcDbAlignedDimension
 13
239.509206
 23
41.111111
 33
0.0
 14
267.865649
 24
15.187501
 34
0.0
100
AcDbRotatedDimension
  0
TEXT
  5
1573
330
74E
100
AcDbEntity
  8
V0-ZBYTEK
 62
   130
100
AcDbText
 10
421.589717
 20
-313.630762
 30
0.0
 40
31.5
  1
VODNI OHRIVAC
  7
ED40
100
AcDbText
  0
TEXT
  5
1574
330
74E
100
AcDbEntity
  8
V0-ZBYTEK
100
AcDbText
 10
442.2176987142858
 20
-358.565618
 30
0.0
 40
22.5
  1
PRO CTYRHRANNE
  7
ED40
100
AcDbText
  0
TEXT
  5
1575
330
74E
100
AcDbEntity
  8
V0-ZBYTEK
100
AcDbText
 10
526.3248415714286
 20
-396.065618
 30
0.0
 40
22.5
  1
POTRUBI
  7
ED40
100
AcDbText
  0
TEXT
  5
1576
330
74E
100
AcDbEntity
  8
V0-NAZVY
100
AcDbText
 10
398.1533580000001
 20
-243.553352
 30
0.0
 40
56.25
  1
IBW-200
  7
ED40
100
AcDbText
  0
LWPOLYLINE
  5
1577
330
74E
100
AcDbEntity
  8
V0-VYPLNE
  6
Continuous
 62
    41
100
AcDbPolyline
 90
        3
 70
     0
 43
0.0
 10
785.692584
 20
16.0568
 10
803.6263330000001
 20
-49.906526
 10
870.0582030000001
 20
-49.906526
  0
TEXT
  5
157C
330
74E
100
AcDbEntity
  8
V0-VYPLNE
  6
Continuous
 62
    41
100
AcDbText
 10
837.7691901428572
 20
-47.906526
 30
0.0
 40
20.0
  1
%%c9
  7
ED40
100
AcDbText
  0
LWPOLYLINE
  5
157D
330
74E
100
AcDbEntity
  8
V0-VYPLNE
  6
Continuous
 62
    41
100
AcDbPolyline
 90
        3
 70
     0
 43
0.0
 10
1056.891173
 20
209.116205
 10
1056.572197
 20
244.492685
 10
976.3710159999999
 20
244.492685
  0
TEXT
  5
1582
330
74E
100
AcDbEntity
  8
V0-VYPLNE
  6
Continuous
 62
    41
100
AcDbText
 10
966.2388636666666
 20
246.494654
 30
0.0
 40
20.0
  1
%%c22
  7
ED40
100
AcDbText
  0
TEXT
  5
1583
330
74E
100
AcDbEntity
  8
V0-NAZVY
100
AcDbText
 10
940.5950849999999
 20
-227.621261
 30
0.0
 40
26.25
  1
IBW-200
  7
ED40
100
AcDbText
  0
TEXT
  5
1584
330
74E
100
AcDbEntity
  8
V0-NAZVY
100
AcDbText
 10
940.5950849999999
 20
145.490427
 30
0.0
 40
26.25
  1
IBW-200
  7
ED40
100
AcDbText
  0
TEXT
  5
1585
330
74E
100
AcDbEntity
  8
V0-NAZVY
100
AcDbText
 10
483.130283
 20
261.457573
 30
0.0
 40
26.25
  1
IBW-200
  7
ED40
100
AcDbText
  0
ENDBLK
  5
15F6
330
74E
100
AcDbEntity
  8
0
100
AcDbBlockEnd
  0
BLOCK
  5
15F7
330
9D9
100
AcDbEntity
  8
0
100
AcDbBlockBegin
  2
LAM
 70
     0
 71
     0
 10
0.0
 20
0.0
 30
0.0
  3
LAM
  1

  0
LINE
  5
9DB
330
9D9
100
AcDbEntity
  8
V0-OBRYS
100
AcDbLine
 10
-195.066091
 20
99.623835
 30
0.0
 11
-195.066091
 21
-99.63950900000002
 31
0.0
  0
LINE
  5
9DC
330
9D9
100
AcDbEntity
  8
V0-OBRYS
100
AcDbLine
 10
-195.066091
 20
34.5
 30
0.0
 11
195.066091
 21
34.5
 31
0.0
  0
LINE
  5
9DD
330
9D9
100
AcDbEntity
  8
V0-OBRYS
100
AcDbLine
 10
-195.066091
 20
31.5
 30
0.0
 11
195.066091
 21
31.5
 31
0.0
  0
LINE
  5
9DE
330
9D9
100
AcDbEntity
  8
V0-OBRYS
100
AcDbLine
 10
-195.066091
 20
-31.5
 30
0.0
 11
195.066091
 21
-31.5
 31
0.0
  0
LINE
  5
9DF
330
9D9
100
AcDbEntity
  8
V0-OBRYS
100
AcDbLine
 10
-195.066091
 20
-34.5
 30
0.0
 11
195.066091
 21
-34.5
 31
0.0
  0
LINE
  5
9E0
330
9D9
100
AcDbEntity
  8
V0-OBRYS
100
AcDbLine
 10
-195.066091
 20
-97.5
 30
0.0
 11
195.066091
 21
-97.5
 31
0.0
  0
LINE
  5
9E1
330
9D9
100
AcDbEntity
  8
V0-OBRYS
100
AcDbLine
 10
-195.066091
 20
97.5
 30
0.0
 11
195.066091
 21
97.5
 31
0.0
  0
POINT
  5
9E2
330
9D9
100
AcDbEntity
  8
V0-VYPLNE
  6
Continuous
 62
    41
100
AcDbPoint
 10
0.0
 20
0.0
 30
0.0
  0
LINE
  5
9E3
330
9D9
100
AcDbEntity
  8
V0-OBRYS
100
AcDbLine
 10
195.066091
 20
99.623835
 30
0.0
 11
195.066091
 21
-99.63950900000002
 31
0.0
  0
LINE
  5
1586
330
9D9
100
AcDbEntity
  8
V0-OBRYS
100
AcDbLine
 10
220.0
 20
1.5
 30
0.0
 11
255.5408283201877
 21
1.5
 31
0.0
  0
LINE
  5
1587
330
9D9
100
AcDbEntity
  8
V0-OBRYS
100
AcDbLine
 10
220.0
 20
-1.5
 30
0.0
 11
255.5408283201877
 21
-1.5
 31
0.0
  0
ENDBLK
  5
15F8
330
9D9
100
AcDbEntity
  8
0
100
AcDbBlockEnd
  0
BLOCK
  5
15F9
330
9E6
100
AcDbEntity
  8
0
100
AcDbBlockBegin
  2
TAH
 70
     0
 71
     0
 10
0.0
 20
0.0
 30
0.0
  3
TAH
  1

  0
LINE
  5
9E8
330
9E6
100
AcDbEntity
  8
V0-OBRYS
100
AcDbLine
 10
-33.035294
 20
108.610965
 30
0.0
 11
-33.035294
 21
-52.19610500000002
 31
0.0
  0
ARC
  5
9E9
330
9E6
100
AcDbEntity
  8
V0-OBRYS
  6
Continuous
 62
    90
100
AcDbCircle
 10
-30.035294
 20
-51.690061
 30
0.0
 40
3.042381
100
AcDbArc
 50
189.574585
 51
350.425415
  0
LINE
  5
9EA
330
9E6
100
AcDbEntity
  8
V0-OBRYS
100
AcDbLine
 10
-27.035294
 20
-25.248121
 30
0.0
 11
-27.035294
 21
-52.196105
 31
0.0
  0
LINE
  5
9EB
330
9E6
100
AcDbEntity
  8
V0-OBRYS
  6
DASHDOT
 62
    63
100
AcDbLine
 10
-29.765191
 20
-17.222336
 30
0.0
 11
-29.765191
 21
-30.858666
 31
0.0
  0
LINE
  5
9EC
330
9E6
100
AcDbEntity
  8
V0-VYPLNE
  6
DASHDOT
 62
    63
100
AcDbLine
 10
-39.022287
 20
-23.389035
 30
0.0
 11
-19.528226
 21
-23.389035
 31
0.0
  0
ARC
  5
9ED
330
9E6
100
AcDbEntity
  8
V0-OBRYS
  6
Continuous
 62
    90
100
AcDbCircle
 10
-30.035294
 20
-23.389035
 30
0.0
 40
3.022397
100
AcDbArc
 50
123.528646
 51
301.006432
  0
CIRCLE
  5
9EE
330
9E6
100
AcDbEntity
  8
V0-OBRYS
  6
Continuous
 62
    90
100
AcDbCircle
 10
-30.035294
 20
-23.389035
 30
0.0
 40
1.657882
  0
LINE
  5
9F0
330
9E6
100
AcDbEntity
  8
V0-OBRYS
100
AcDbLine
 10
-27.035294
 20
40.920362
 30
0.0
 11
-27.035294
 21
-18.429957
 31
0.0
  0
LINE
  5
9F1
330
9E6
100
AcDbEntity
  8
V0-OBRYS
  6
DASHDOT
 62
    63
100
AcDbLine
 10
0.0
 20
7.163384
 30
0.0
 11
0.0
 21
-10.191943
 31
0.0
  0
LINE
  5
9F2
330
9E6
100
AcDbEntity
  8
V0-VYPLNE
  6
DASHED
 62
    52
100
AcDbLine
 10
-2.611721
 20
29.884731
 30
0.0
 11
6.264288
 21
-35.160631
 31
0.0
  0
LINE
  5
9F3
330
9E6
100
AcDbEntity
  8
V0-VYPLNE
  6
DASHDOT
 62
    63
100
AcDbLine
 10
-9.315534
 20
0.0
 30
0.0
 11
10.178527
 21
0.0
 31
0.0
  0
ARC
  5
9F4
330
9E6
100
AcDbEntity
  8
V0-OBRYS
  6
Continuous
 62
    90
100
AcDbCircle
 10
-0.328541
 20
0.0
 30
0.0
 40
3.022397
100
AcDbArc
 50
292.091705
 51
109.569491
  0
CIRCLE
  5
9F5
330
9E6
100
AcDbEntity
  8
V0-OBRYS
  6
Continuous
 62
    90
100
AcDbCircle
 10
-0.328541
 20
0.0
 30
0.0
 40
1.415509
  0
LINE
  5
9F7
330
9E6
100
AcDbEntity
  8
V0-VYPLNE
  6
DASHDOT
 62
    63
100
AcDbLine
 10
-39.022287
 20
42.610965
 30
0.0
 11
-19.528226
 21
42.610965
 31
0.0
  0
CIRCLE
  5
9F8
330
9E6
100
AcDbEntity
  8
V0-OBRYS
  6
Continuous
 62
    90
100
AcDbCircle
 10
-30.035294
 20
42.610965
 30
0.0
 40
1.657882
  0
ARC
  5
9F9
330
9E6
100
AcDbEntity
  8
V0-OBRYS
  6
Continuous
 62
    90
100
AcDbCircle
 10
-30.035294
 20
42.610965
 30
0.0
 40
3.022397
100
AcDbArc
 50
123.528646
 51
301.006432
  0
LINE
  5
9FA
330
9E6
100
AcDbEntity
  8
V0-OBRYS
  6
DASHDOT
 62
    63
100
AcDbLine
 10
-30.525229
 20
48.777664
 30
0.0
 11
-30.525229
 21
35.141334
 31
0.0
  0
LINE
  5
9FB
330
9E6
100
AcDbEntity
  8
V0-OBRYS
  6
DASHDOT
 62
    63
100
AcDbLine
 10
0.0
 20
75.345028
 30
0.0
 11
0.0
 21
49.312037
 31
0.0
  0
ARC
  5
9FC
330
9E6
100
AcDbEntity
  8
V0-OBRYS
  6
Continuous
 62
    90
100
AcDbCircle
 10
-0.328541
 20
66.0
 30
0.0
 40
3.022397
100
AcDbArc
 50
292.091705
 51
109.569491
  0
CIRCLE
  5
9FD
330
9E6
100
AcDbEntity
  8
V0-OBRYS
  6
Continuous
 62
    90
100
AcDbCircle
 10
-0.328541
 20
66.0
 30
0.0
 40
1.415509
  0
LINE
  5
9FE
330
9E6
100
AcDbEntity
  8
V0-VYPLNE
  6
DASHDOT
 62
    63
100
AcDbLine
 10
-9.315534
 20
66.0
 30
0.0
 11
10.178527
 21
66.0
 31
0.0
  0
LINE
  5
9FF
330
9E6
100
AcDbEntity
  8
V0-VYPLNE
  6
DASHED
 62
    52
100
AcDbLine
 10
-2.611721
 20
95.884731
 30
0.0
 11
6.264288
 21
30.83936900000001
 31
0.0
  0
LINE
  5
A00
330
9E6
100
AcDbEntity
  8
V0-VYPLNE
  6
DASHDOT
 62
    63
100
AcDbLine
 10
-9.315534
 20
132.0
 30
0.0
 11
10.178527
 21
132.0
 31
0.0
  0
LINE
  5
A02
330
9E6
100
AcDbEntity
  8
V0-VYPLNE
  6
DASHDOT
 62
    63
100
AcDbLine
 10
-39.022287
 20
108.610965
 30
0.0
 11
-19.528226
 21
108.610965
 31
0.0
  0
CIRCLE
  5
A03
330
9E6
100
AcDbEntity
  8
V0-OBRYS
  6
Continuous
 62
    90
100
AcDbCircle
 10
-30.035294
 20
108.610965
 30
0.0
 40
1.657882
  0
ARC
  5
A04
330
9E6
100
AcDbEntity
  8
V0-OBRYS
  6
Continuous
 62
    90
100
AcDbCircle
 10
-30.035294
 20
108.610965
 30
0.0
 40
3.022397
100
AcDbArc
 50
123.528646
 51
301.006432
  0
LINE
  5
A05
330
9E6
100
AcDbEntity
  8
V0-OBRYS
  6
DASHDOT
 62
    63
100
AcDbLine
 10
-30.525229
 20
116.089131
 30
0.0
 11
-30.525229
 21
102.02428
 31
0.0
  0
LINE
  5
A06
330
9E6
100
AcDbEntity
  8
V0-OBRYS
  6
DASHDOT
 62
    63
100
AcDbLine
 10
0.0
 20
142.277182
 30
0.0
 11
0.0
 21
116.254014
 31
0.0
  0
CIRCLE
  5
A07
330
9E6
100
AcDbEntity
  8
V0-OBRYS
  6
Continuous
 62
    90
100
AcDbCircle
 10
-0.328541
 20
132.0
 30
0.0
 40
1.415509
  0
ARC
  5
A08
330
9E6
100
AcDbEntity
  8
V0-OBRYS
  6
Continuous
 62
    90
100
AcDbCircle
 10
-0.328541
 20
132.0
 30
0.0
 40
3.022397
100
AcDbArc
 50
292.091705
 51
109.569491
  0
LINE
  5
A09
330
9E6
100
AcDbEntity
  8
V0-OBRYS
100
AcDbLine
 10
-27.035294
 20
106.756285
 30
0.0
 11
-27.035294
 21
47.237838
 31
0.0
  0
LINE
  5
A0A
330
9E6
100
AcDbEntity
  8
V0-VYPLNE
  6
DASHED
 62
    52
100
AcDbLine
 10
-2.611721
 20
161.884731
 30
0.0
 11
6.264288
 21
96.83936900000001
 31
0.0
  0
LINE
  5
1588
330
9E6
100
AcDbEntity
  8
V0-OBRYS
  6
DASHDOT
 62
    63
100
AcDbLine
 10
1.84671939973447
 20
-2.200083559141642
 30
0.0
 11
-28.5171146880005
 21
-25.91742955934672
 31
0.0
  0
LINE
  5
1589
330
9E6
100
AcDbEntity
  8
V0-OBRYS
  6
DASHDOT
 62
    63
100
AcDbLine
 10
-1.84671939973447
 20
2.528395037043121
 30
0.0
 11
-32.21055348746944
 21
-21.18895096316196
 31
0.0
  0
LINE
  5
158A
330
9E6
100
AcDbEntity
  8
V0-OBRYS
  6
DASHDOT
 62
    63
100
AcDbLine
 10
1.84671939973447
 20
63.79991644085836
 30
0.0
 11
-28.5171146880005
 21
40.08257044065327
 31
0.0
  0
LINE
  5
158B
330
9E6
100
AcDbEntity
  8
V0-OBRYS
  6
DASHDOT
 62
    63
100
AcDbLine
 10
-1.84671939973447
 20
68.52839503704313
 30
0.0
 11
-32.21055348746944
 21
44.81104903683803
 31
0.0
  0
LINE
  5
158C
330
9E6
100
AcDbEntity
  8
V0-OBRYS
  6
DASHDOT
 62
    63
100
AcDbLine
 10
1.84671939973447
 20
129.7999164408583
 30
0.0
 11
-28.5171146880005
 21
106.0825704406532
 31
0.0
  0
LINE
  5
158D
330
9E6
100
AcDbEntity
  8
V0-OBRYS
  6
DASHDOT
 62
    63
100
AcDbLine
 10
-1.84671939973447
 20
134.5283950370431
 30
0.0
 11
-32.21055348746944
 21
110.811049036838
 31
0.0
  0
ENDBLK
  5
15FA
330
9E6
100
AcDbEntity
  8
0
100
AcDbBlockEnd
  0
BLOCK
  5
15FB
330
1429
100
AcDbEntity
  8
0
100
AcDbBlockBegin
  2
N
 70
     0
 71
     0
 10
0.0
 20
0.0
 30
0.0
  3
N
  1

  0
LINE
  5
142B
330
1429
100
AcDbEntity
  8
V0-VYPLNE
  6
Continuous
 62
    41
100
AcDbLine
 10
-19.36603
 20
0.0
 30
0.0
 11
-33.770429
 21
5.928176
 31
0.0
  0
LINE
  5
142C
330
1429
100
AcDbEntity
  8
V0-OBRYS
100
AcDbLine
 10
0.0
 20
49.5
 30
0.0
 11
0.0
 21
-49.5
 31
0.0
  0
LINE
  5
142D
330
1429
100
AcDbEntity
  8
V0-OBRYS
100
AcDbLine
 10
-67.5
 20
-49.5
 30
0.0
 11
-67.5
 21
49.5
 31
0.0
  0
LINE
  5
142E
330
1429
100
AcDbEntity
  8
V0-OBRYS
100
AcDbLine
 10
-89.5
 20
-25.0
 30
0.0
 11
-89.5
 21
25.0
 31
0.0
  0
LINE
  5
142F
330
1429
100
AcDbEntity
  8
V0-OBRYS
100
AcDbLine
 10
-94.5
 20
-25.0
 30
0.0
 11
-94.5
 21
25.0
 31
0.0
  0
POINT
  5
1430
330
1429
100
AcDbEntity
  8
V0-VYPLNE
 62
    41
100
AcDbPoint
 10
0.0
 20
0.0
 30
0.0
  0
LINE
  5
1431
330
1429
100
AcDbEntity
  8
V0-VYPLNE
100
AcDbLine
 10
17.898154
 20
0.0
 30
0.0
 11
-113.1928
 21
0.0
 31
0.0
  0
LINE
  5
1432
330
1429
100
AcDbEntity
  8
V0-OBRYS
100
AcDbLine
 10
0.0
 20
-49.5
 30
0.0
 11
-67.5
 21
-49.5
 31
0.0
  0
LINE
  5
1433
330
1429
100
AcDbEntity
  8
V0-OBRYS
100
AcDbLine
 10
-67.5
 20
-25.0
 30
0.0
 11
-94.5
 21
-25.0
 31
0.0
  0
LINE
  5
1434
330
1429
100
AcDbEntity
  8
V0-VYPLNE
  6
Continuous
 62
    41
100
AcDbLine
 10
-19.36603
 20
0.0
 30
0.0
 11
-49.022147
 21
0.0
 31
0.0
  0
LINE
  5
1435
330
1429
100
AcDbEntity
  8
V0-VYPLNE
  6
Continuous
 62
    41
100
AcDbLine
 10
-19.36603
 20
0.0
 30
0.0
 11
-33.770429
 21
-5.928176
 31
0.0
  0
LINE
  5
1436
330
1429
100
AcDbEntity
  8
V0-VYPLNE
  6
Continuous
 62
    41
100
AcDbLine
 10
-19.36603
 20
0.0
 30
0.0
 11
-19.36603
 21
0.0
 31
0.0
  0
TEXT
  5
1437
330
1429
100
AcDbEntity
  8
V0-VYPLNE
 62
     6
100
AcDbText
 10
-74.45828299999999
 20
66.298225
 30
0.0
 40
10.0
  1
TDM-100
  7
ED10
100
AcDbText
  0
LINE
  5
1438
330
1429
100
AcDbEntity
  8
V0-OBRYS
100
AcDbLine
 10
0.0
 20
49.5
 30
0.0
 11
-67.5
 21
49.5
 31
0.0
  0
LINE
  5
1439
330
1429
100
AcDbEntity
  8
V0-OBRYS
100
AcDbLine
 10
-67.5
 20
25.0
 30
0.0
 11
-94.5
 21
25.0
 31
0.0
  0
LINE
  5
143A
330
1429
100
AcDbEntity
  8
V0-OBRYS
100
AcDbLine
 10
-79.50537300000001
 20
29.650138
 30
0.0
 11
-83.72137100000001
 21
29.650138
 31
0.0
  0
LINE
  5
143B
330
1429
100
AcDbEntity
  8
V0-OBRYS
100
AcDbLine
 10
-79.50537300000001
 20
27.910056
 30
0.0
 11
-85.89758999999999
 21
27.910056
 31
0.0
  0
LINE
  5
143C
330
1429
100
AcDbEntity
  8
V0-OBRYS
100
AcDbLine
 10
-85.89758999999999
 20
27.910056
 30
0.0
 11
-85.89758999999999
 21
25.0
 31
0.0
  0
LINE
  5
143D
330
1429
100
AcDbEntity
  8
V0-OBRYS
100
AcDbLine
 10
-83.72137100000001
 20
29.650138
 30
0.0
 11
-83.72137100000001
 21
27.910056
 31
0.0
  0
LINE
  5
143E
330
1429
100
AcDbEntity
  8
V0-OBRYS
100
AcDbLine
 10
-79.50537300000001
 20
29.650138
 30
0.0
 11
-75.289376
 21
29.650138
 31
0.0
  0
LINE
  5
143F
330
1429
100
AcDbEntity
  8
V0-OBRYS
100
AcDbLine
 10
-79.50537300000001
 20
27.910056
 30
0.0
 11
-73.113157
 21
27.910056
 31
0.0
  0
LINE
  5
1440
330
1429
100
AcDbEntity
  8
V0-OBRYS
100
AcDbLine
 10
-75.289376
 20
27.910056
 30
0.0
 11
-79.50537300000001
 21
27.910056
 31
0.0
  0
LINE
  5
1441
330
1429
100
AcDbEntity
  8
V0-OBRYS
100
AcDbLine
 10
-73.113157
 20
27.910056
 30
0.0
 11
-73.113157
 21
25.0
 31
0.0
  0
LINE
  5
1442
330
1429
100
AcDbEntity
  8
V0-OBRYS
100
AcDbLine
 10
-75.289376
 20
29.650138
 30
0.0
 11
-75.289376
 21
27.910056
 31
0.0
  0
ENDBLK
  5
15FC
330
1429
100
AcDbEntity
  8
0
100
AcDbBlockEnd
  0
BLOCK
  5
15FD
330
1444
100
AcDbEntity
  8
0
100
AcDbBlockBegin
  2
P
 70
     0
 71
     0
 10
0.0
 20
0.0
 30
0.0
  3
P
  1

  0
TEXT
  5
1446
330
1444
100
AcDbEntity
  8
V0-VYPLNE
 62
     6
100
AcDbText
 10
-73.610967
 20
72.312927
 30
0.0
 40
10.0
  1
TDM-100
  7
ED10
100
AcDbText
  0
LINE
  5
1447
330
1444
100
AcDbEntity
  8
V0-VYPLNE
  6
Continuous
 62
    41
100
AcDbLine
 10
-44.043639
 20
0.0
 30
0.0
 11
-58.448038
 21
5.928176
 31
0.0
  0
LINE
  5
1448
330
1444
100
AcDbEntity
  8
V0-VYPLNE
  6
Continuous
 62
    41
100
AcDbLine
 10
-44.043639
 20
0.0
 30
0.0
 11
-58.448038
 21
-5.928176
 31
0.0
  0
LINE
  5
1449
330
1444
100
AcDbEntity
  8
V0-VYPLNE
  6
Continuous
 62
    41
100
AcDbLine
 10
-44.043639
 20
0.0
 30
0.0
 11
-73.69975599999999
 21
0.0
 31
0.0
  0
LINE
  5
144A
330
1444
100
AcDbEntity
  8
V0-VYPLNE
100
AcDbLine
 10
17.271038
 20
0.0
 30
0.0
 11
-103.440173
 21
0.0
 31
0.0
  0
LINE
  5
144B
330
1444
100
AcDbEntity
  8
V0-OBRYS
100
AcDbLine
 10
0.0
 20
49.5
 30
0.0
 11
-67.5
 21
49.5
 31
0.0
  0
LINE
  5
144C
330
1444
100
AcDbEntity
  8
V0-OBRYS
100
AcDbLine
 10
0.0
 20
-49.5
 30
0.0
 11
-67.5
 21
-49.5
 31
0.0
  0
LINE
  5
144D
330
1444
100
AcDbEntity
  8
V0-OBRYS
100
AcDbLine
 10
-67.5
 20
49.5
 30
0.0
 11
-67.5
 21
-49.5
 31
0.0
  0
LINE
  5
144E
330
1444
100
AcDbEntity
  8
V0-OBRYS
100
AcDbLine
 10
-67.5
 20
-25.0
 30
0.0
 11
-94.5
 21
-25.0
 31
0.0
  0
LINE
  5
144F
330
1444
100
AcDbEntity
  8
V0-OBRYS
100
AcDbLine
 10
-67.5
 20
25.0
 30
0.0
 11
-94.5
 21
25.0
 31
0.0
  0
LINE
  5
1450
330
1444
100
AcDbEntity
  8
V0-OBRYS
100
AcDbLine
 10
-94.5
 20
25.0
 30
0.0
 11
-94.5
 21
-25.0
 31
0.0
  0
LINE
  5
1451
330
1444
100
AcDbEntity
  8
V0-OBRYS
100
AcDbLine
 10
-89.5
 20
25.0
 30
0.0
 11
-89.5
 21
-25.0
 31
0.0
  0
LINE
  5
1452
330
1444
100
AcDbEntity
  8
V0-OBRYS
100
AcDbLine
 10
-75.289376
 20
-4.215997
 30
0.0
 11
-83.72137100000001
 21
-4.215997
 31
0.0
  0
LINE
  5
1453
330
1444
100
AcDbEntity
  8
V0-OBRYS
100
AcDbLine
 10
-75.289376
 20
4.215997
 30
0.0
 11
-83.72137100000001
 21
4.215997
 31
0.0
  0
LINE
  5
1454
330
1444
100
AcDbEntity
  8
V0-OBRYS
100
AcDbLine
 10
-73.113157
 20
-6.392216
 30
0.0
 11
-85.89758999999999
 21
-6.392216
 31
0.0
  0
LINE
  5
1455
330
1444
100
AcDbEntity
  8
V0-OBRYS
100
AcDbLine
 10
-73.113157
 20
6.392216
 30
0.0
 11
-85.89758999999999
 21
6.392216
 31
0.0
  0
LINE
  5
1456
330
1444
100
AcDbEntity
  8
V0-OBRYS
100
AcDbLine
 10
-83.72137100000001
 20
-4.215997
 30
0.0
 11
-83.72137100000001
 21
4.215997
 31
0.0
  0
LINE
  5
1457
330
1444
100
AcDbEntity
  8
V0-OBRYS
100
AcDbLine
 10
-85.89758999999999
 20
-6.392216
 30
0.0
 11
-85.89758999999999
 21
6.392216
 31
0.0
  0
LINE
  5
1458
330
1444
100
AcDbEntity
  8
V0-OBRYS
100
AcDbLine
 10
-75.289376
 20
-4.215997
 30
0.0
 11
-75.289376
 21
4.215997
 31
0.0
  0
LINE
  5
1459
330
1444
100
AcDbEntity
  8
V0-OBRYS
100
AcDbLine
 10
-73.113157
 20
-6.392216
 30
0.0
 11
-73.113157
 21
6.392216
 31
0.0
  0
LINE
  5
145A
330
1444
100
AcDbEntity
  8
V0-OBRYS
100
AcDbLine
 10
0.0
 20
-49.5
 30
0.0
 11
0.0
 21
49.5
 31
0.0
  0
POINT
  5
145B
330
1444
100
AcDbEntity
  8
V0-VYPLNE
 62
    41
100
AcDbPoint
 10
0.0
 20
0.0
 30
0.0
  0
LINE
  5
145C
330
1444
100
AcDbEntity
  8
V0-VYPLNE
  6
Continuous
 62
    41
100
AcDbLine
 10
-44.043639
 20
0.0
 30
0.0
 11
-44.043639
 21
0.0
 31
0.0
  0
ENDBLK
  5
15FE
330
1444
100
AcDbEntity
  8
0
100
AcDbBlockEnd
  0
BLOCK
  5
15FF
330
145E
100
AcDbEntity
  8
0
100
AcDbBlockBegin
  2
B
 70
     0
 71
     0
 10
0.0
 20
0.0
 30
0.0
  3
B
  1

  0
TEXT
  5
1460
330
145E
100
AcDbEntity
  8
V0-VYPLNE
 62
     6
100
AcDbText
 10
-27.22235
 20
66.298225
 30
0.0
 40
10.0
  1
TDM-100
  7
ED10
100
AcDbText
  0
POINT
  5
1461
330
145E
100
AcDbEntity
  8
V0-VYPLNE
 62
    41
100
AcDbPoint
 10
0.0
 20
0.0
 30
0.0
  0
ARC
  5
1462
330
145E
100
AcDbEntity
  8
V0-OBRYS
100
AcDbCircle
 10
0.0
 20
0.0
 30
0.0
 40
48.0
100
AcDbArc
 50
47.388015
 51
132.611985
  0
ARC
  5
1463
330
145E
100
AcDbEntity
  8
V0-OBRYS
100
AcDbCircle
 10
0.0
 20
0.0
 30
0.0
 40
48.0
100
AcDbArc
 50
227.388015
 51
312.611985
  0
LINE
  5
1464
330
145E
100
AcDbEntity
  8
V0-OBRYS
100
AcDbLine
 10
0.0
 20
27.910056
 30
0.0
 11
-6.392216
 21
27.910056
 31
0.0
  0
ARC
  5
1465
330
145E
100
AcDbEntity
  8
V0-OBRYS
100
AcDbCircle
 10
-0.793262
 20
-7.425171
 30
0.0
 40
38.553234
100
AcDbArc
 50
261.53388
 51
304.488224
  0
LINE
  5
1466
330
145E
100
AcDbEntity
  8
V0-OBRYS
100
AcDbLine
 10
-4.341204
 20
-24.620194
 30
0.0
 11
-7.72562
 21
-43.814168
 31
0.0
  0
ARC
  5
1467
330
145E
100
AcDbEntity
  8
V0-OBRYS
100
AcDbCircle
 10
0.793262
 20
7.425171
 30
0.0
 40
38.553234
100
AcDbArc
 50
81.53388
 51
124.488224
  0
CIRCLE
  5
1468
330
145E
100
AcDbEntity
  8
V0-OBRYS
100
AcDbCircle
 10
0.0
 20
0.0
 30
0.0
 40
22.0
  0
CIRCLE
  5
1469
330
145E
100
AcDbEntity
  8
V0-OBRYS
100
AcDbCircle
 10
0.0
 20
0.0
 30
0.0
 40
25.0
  0
CIRCLE
  5
146A
330
145E
100
AcDbEntity
  8
V0-OBRYS
100
AcDbCircle
 10
0.0
 20
0.0
 30
0.0
 40
49.5
  0
LINE
  5
146B
330
145E
100
AcDbEntity
  8
V0-VYPLNE
100
AcDbLine
 10
-65.66540999999999
 20
0.0
 30
0.0
 11
66.16455000000001
 21
0.0
 31
0.0
  0
CIRCLE
  5
146C
330
145E
100
AcDbEntity
  8
V0-OBRYS
100
AcDbCircle
 10
-13.0
 20
0.0
 30
0.0
 40
3.0
  0
ARC
  5
146D
330
145E
100
AcDbEntity
  8
V0-OBRYS
100
AcDbCircle
 10
-7.425171
 20
0.793262
 30
0.0
 40
38.553234
100
AcDbArc
 50
171.53388
 51
214.488224
  0
ARC
  5
146E
330
145E
100
AcDbEntity
  8
V0-OBRYS
100
AcDbCircle
 10
0.0
 20
0.0
 30
0.0
 40
48.0
100
AcDbArc
 50
137.388015
 51
222.611985
  0
ARC
  5
146F
330
145E
100
AcDbEntity
  8
V0-OBRYS
100
AcDbCircle
 10
-5.81131
 20
-4.689468
 30
0.0
 40
38.553234
100
AcDbArc
 50
229.154839
 51
259.488224
  0
LINE
  5
1470
330
145E
100
AcDbEntity
  8
V0-OBRYS
100
AcDbLine
 10
-11.122325
 20
-41.509082
 30
0.0
 11
-6.470476
 21
-24.148146
 31
0.0
  0
ARC
  5
1471
330
145E
100
AcDbEntity
  8
V0-OBRYS
100
AcDbCircle
 10
-12.571214
 20
-41.120854
 30
0.0
 40
1.5
100
AcDbArc
 50
259.488224
 51
345.0
  0
ARC
  5
1472
330
145E
100
AcDbEntity
  8
V0-OBRYS
100
AcDbCircle
 10
-6.248408
 20
-44.07464
 30
0.0
 40
1.5
100
AcDbArc
 50
170.0
 51
261.53388
  0
LINE
  5
1473
330
145E
100
AcDbEntity
  8
V0-OBRYS
100
AcDbLine
 10
-16.206797
 20
-19.035224
 30
0.0
 11
-32.497436
 21
-35.325863
 31
0.0
  0
LINE
  5
1474
330
145E
100
AcDbEntity
  8
V0-OBRYS
100
AcDbLine
 10
-19.035224
 20
-16.206797
 30
0.0
 11
-35.325863
 21
-32.497436
 31
0.0
  0
LINE
  5
1475
330
145E
100
AcDbEntity
  8
V0-OBRYS
100
AcDbLine
 10
-20.478801
 20
-14.339411
 30
0.0
 11
-36.444133
 21
-25.518457
 31
0.0
  0
LINE
  5
1476
330
145E
100
AcDbEntity
  8
V0-OBRYS
100
AcDbLine
 10
-37.216025
 20
-21.486682
 30
0.0
 11
-21.650635
 21
-12.5
 31
0.0
  0
ARC
  5
1477
330
145E
100
AcDbEntity
  8
V0-OBRYS
100
AcDbCircle
 10
-37.966025
 20
-20.187644
 30
0.0
 40
1.5
100
AcDbArc
 50
214.488224
 51
300.0
  0
ARC
  5
1478
330
145E
100
AcDbEntity
  8
V0-OBRYS
100
AcDbCircle
 10
-5.81131
 20
-4.689468
 30
0.0
 40
38.553234
100
AcDbArc
 50
216.53388
 51
223.206317
  0
ARC
  5
1479
330
145E
100
AcDbEntity
  8
V0-OBRYS
100
AcDbCircle
 10
-35.583769
 20
-26.747185
 30
0.0
 40
1.5
100
AcDbArc
 50
125.0
 51
216.53388
  0
LINE
  5
147A
330
145E
100
AcDbEntity
  8
V0-OBRYS
100
AcDbLine
 10
-19.035224
 20
16.206797
 30
0.0
 11
-35.325863
 21
32.497436
 31
0.0
  0
LINE
  5
147B
330
145E
100
AcDbEntity
  8
V0-OBRYS
100
AcDbLine
 10
-16.206797
 20
19.035224
 30
0.0
 11
-32.497436
 21
35.325863
 31
0.0
  0
LINE
  5
147C
330
145E
100
AcDbEntity
  8
V0-OBRYS
100
AcDbLine
 10
-24.620194
 20
4.341204
 30
0.0
 11
-43.814168
 21
7.72562
 31
0.0
  0
ARC
  5
147D
330
145E
100
AcDbEntity
  8
V0-OBRYS
100
AcDbCircle
 10
-26.747185
 20
35.583769
 30
0.0
 40
1.5
100
AcDbArc
 50
35.0
 51
126.53388
  0
LINE
  5
147E
330
145E
100
AcDbEntity
  8
V0-OBRYS
100
AcDbLine
 10
-41.509082
 20
11.122325
 30
0.0
 11
-24.148146
 21
6.470476
 31
0.0
  0
ARC
  5
147F
330
145E
100
AcDbEntity
  8
V0-OBRYS
100
AcDbCircle
 10
-4.689468
 20
5.81131
 30
0.0
 40
38.553234
100
AcDbArc
 50
139.154839
 51
169.488224
  0
ARC
  5
1480
330
145E
100
AcDbEntity
  8
V0-OBRYS
100
AcDbCircle
 10
-41.120854
 20
12.571214
 30
0.0
 40
1.5
100
AcDbArc
 50
169.488224
 51
255.0
  0
ARC
  5
1481
330
145E
100
AcDbEntity
  8
V0-OBRYS
100
AcDbCircle
 10
-44.07464
 20
6.248408
 30
0.0
 40
1.5
100
AcDbArc
 50
80.0
 51
171.53388
  0
ARC
  5
1482
330
145E
100
AcDbEntity
  8
V0-OBRYS
100
AcDbCircle
 10
-4.689468
 20
5.81131
 30
0.0
 40
38.553234
100
AcDbArc
 50
126.53388
 51
133.206317
  0
LINE
  5
1483
330
145E
100
AcDbEntity
  8
V0-OBRYS
100
AcDbLine
 10
-6.392216
 20
27.910056
 30
0.0
 11
-6.392216
 21
24.16898
 31
0.0
  0
LINE
  5
1484
330
145E
100
AcDbEntity
  8
V0-OBRYS
100
AcDbLine
 10
-14.339411
 20
20.478801
 30
0.0
 11
-25.518457
 21
36.444133
 31
0.0
  0
LINE
  5
1485
330
145E
100
AcDbEntity
  8
V0-OBRYS
100
AcDbLine
 10
-21.486682
 20
37.216025
 30
0.0
 11
-12.5
 21
21.650635
 31
0.0
  0
ARC
  5
1486
330
145E
100
AcDbEntity
  8
V0-OBRYS
100
AcDbCircle
 10
-20.187644
 20
37.966025
 30
0.0
 40
1.5
100
AcDbArc
 50
124.488224
 51
210.0
  0
ARC
  5
1487
330
145E
100
AcDbEntity
  8
V0-OBRYS
100
AcDbCircle
 10
0.0
 20
0.0
 30
0.0
 40
48.0
100
AcDbArc
 50
317.388015
 51
42.611985
  0
CIRCLE
  5
1488
330
145E
100
AcDbEntity
  8
V0-OBRYS
100
AcDbCircle
 10
13.0
 20
0.0
 30
0.0
 40
3.0
  0
ARC
  5
1489
330
145E
100
AcDbEntity
  8
V0-OBRYS
100
AcDbCircle
 10
7.425171
 20
-0.793262
 30
0.0
 40
38.553234
100
AcDbArc
 50
351.5338800000001
 51
34.488224
  0
LINE
  5
148A
330
145E
100
AcDbEntity
  8
V0-VYPLNE
100
AcDbLine
 10
0.0
 20
0.0
 30
0.0
 11
0.0
 21
61.061939
 31
0.0
  0
ARC
  5
148B
330
145E
100
AcDbEntity
  8
V0-OBRYS
100
AcDbCircle
 10
4.689468
 20
-5.81131
 30
0.0
 40
38.553234
100
AcDbArc
 50
319.154839
 51
349.488224
  0
LINE
  5
148C
330
145E
100
AcDbEntity
  8
V0-OBRYS
100
AcDbLine
 10
19.035224
 20
-16.206797
 30
0.0
 11
35.325863
 21
-32.497436
 31
0.0
  0
LINE
  5
148D
330
145E
100
AcDbEntity
  8
V0-OBRYS
100
AcDbLine
 10
24.620194
 20
-4.341204
 30
0.0
 11
43.814168
 21
-7.72562
 31
0.0
  0
LINE
  5
148E
330
145E
100
AcDbEntity
  8
V0-OBRYS
100
AcDbLine
 10
41.509082
 20
-11.122325
 30
0.0
 11
24.148146
 21
-6.470476
 31
0.0
  0
LINE
  5
148F
330
145E
100
AcDbEntity
  8
V0-VYPLNE
  6
DASHDOT
100
AcDbLine
 10
0.0
 20
0.0
 30
0.0
 11
0.0
 21
-63.049588
 31
0.0
  0
LINE
  5
1490
330
145E
100
AcDbEntity
  8
V0-OBRYS
100
AcDbLine
 10
14.339411
 20
-20.478801
 30
0.0
 11
25.518457
 21
-36.444133
 31
0.0
  0
LINE
  5
1491
330
145E
100
AcDbEntity
  8
V0-OBRYS
100
AcDbLine
 10
21.486682
 20
-37.216025
 30
0.0
 11
12.5
 21
-21.650635
 31
0.0
  0
LINE
  5
1492
330
145E
100
AcDbEntity
  8
V0-OBRYS
100
AcDbLine
 10
16.206797
 20
-19.035224
 30
0.0
 11
32.497436
 21
-35.325863
 31
0.0
  0
ARC
  5
1493
330
145E
100
AcDbEntity
  8
V0-OBRYS
100
AcDbCircle
 10
20.187644
 20
-37.966025
 30
0.0
 40
1.5
100
AcDbArc
 50
304.488224
 51
30.0
  0
ARC
  5
1494
330
145E
100
AcDbEntity
  8
V0-OBRYS
100
AcDbCircle
 10
4.689468
 20
-5.81131
 30
0.0
 40
38.553234
100
AcDbArc
 50
306.5338800000001
 51
313.206317
  0
ARC
  5
1495
330
145E
100
AcDbEntity
  8
V0-OBRYS
100
AcDbCircle
 10
26.747185
 20
-35.583769
 30
0.0
 40
1.5
100
AcDbArc
 50
215.0
 51
306.5338800000001
  0
ARC
  5
1496
330
145E
100
AcDbEntity
  8
V0-OBRYS
100
AcDbCircle
 10
44.07464
 20
-6.248408
 30
0.0
 40
1.5
100
AcDbArc
 50
260.0
 51
351.5338800000001
  0
ARC
  5
1497
330
145E
100
AcDbEntity
  8
V0-OBRYS
100
AcDbCircle
 10
41.120854
 20
-12.571214
 30
0.0
 40
1.5
100
AcDbArc
 50
349.488224
 51
75.0
  0
LINE
  5
1498
330
145E
100
AcDbEntity
  8
V0-OBRYS
100
AcDbLine
 10
19.035224
 20
16.206797
 30
0.0
 11
35.325863
 21
32.497436
 31
0.0
  0
ARC
  5
1499
330
145E
100
AcDbEntity
  8
V0-OBRYS
100
AcDbCircle
 10
5.81131
 20
4.689468
 30
0.0
 40
38.553234
100
AcDbArc
 50
36.53388
 51
43.206317
  0
LINE
  5
149A
330
145E
100
AcDbEntity
  8
V0-OBRYS
100
AcDbLine
 10
20.478801
 20
14.339411
 30
0.0
 11
36.444133
 21
25.518457
 31
0.0
  0
LINE
  5
149B
330
145E
100
AcDbEntity
  8
V0-OBRYS
100
AcDbLine
 10
37.216025
 20
21.486682
 30
0.0
 11
21.650635
 21
12.5
 31
0.0
  0
ARC
  5
149C
330
145E
100
AcDbEntity
  8
V0-OBRYS
100
AcDbCircle
 10
6.248408
 20
44.07464
 30
0.0
 40
1.5
100
AcDbArc
 50
350.0
 51
81.53388
  0
ARC
  5
149D
330
145E
100
AcDbEntity
  8
V0-OBRYS
100
AcDbCircle
 10
5.81131
 20
4.689468
 30
0.0
 40
38.553234
100
AcDbArc
 50
49.154839
 51
79.488224
  0
LINE
  5
149E
330
145E
100
AcDbEntity
  8
V0-OBRYS
100
AcDbLine
 10
6.392216
 20
27.910056
 30
0.0
 11
6.392216
 21
24.16898
 31
0.0
  0
LINE
  5
149F
330
145E
100
AcDbEntity
  8
V0-OBRYS
100
AcDbLine
 10
11.122325
 20
41.509082
 30
0.0
 11
6.470476
 21
24.148146
 31
0.0
  0
LINE
  5
14A0
330
145E
100
AcDbEntity
  8
V0-OBRYS
100
AcDbLine
 10
0.0
 20
27.910056
 30
0.0
 11
6.392216
 21
27.910056
 31
0.0
  0
LINE
  5
14A1
330
145E
100
AcDbEntity
  8
V0-OBRYS
100
AcDbLine
 10
0.0
 20
29.650138
 30
0.0
 11
4.215997
 21
29.650138
 31
0.0
  0
LINE
  5
14A2
330
145E
100
AcDbEntity
  8
V0-OBRYS
100
AcDbLine
 10
-4.215997
 20
27.910056
 30
0.0
 11
0.0
 21
27.910056
 31
0.0
  0
LINE
  5
14A3
330
145E
100
AcDbEntity
  8
V0-OBRYS
100
AcDbLine
 10
0.0
 20
29.650138
 30
0.0
 11
-4.215997
 21
29.650138
 31
0.0
  0
LINE
  5
14A4
330
145E
100
AcDbEntity
  8
V0-OBRYS
100
AcDbLine
 10
-4.215997
 20
29.650138
 30
0.0
 11
-4.215997
 21
27.910056
 31
0.0
  0
LINE
  5
14A5
330
145E
100
AcDbEntity
  8
V0-OBRYS
100
AcDbLine
 10
4.921296
 20
27.910056
 30
0.0
 11
7.72562
 21
43.814168
 31
0.0
  0
LINE
  5
14A6
330
145E
100
AcDbEntity
  8
V0-OBRYS
100
AcDbLine
 10
4.215997
 20
29.650138
 30
0.0
 11
4.215997
 21
27.910056
 31
0.0
  0
ARC
  5
14A7
330
145E
100
AcDbEntity
  8
V0-OBRYS
100
AcDbCircle
 10
12.571214
 20
41.120854
 30
0.0
 40
1.5
100
AcDbArc
 50
79.488224
 51
165.0
  0
LINE
  5
14A8
330
145E
100
AcDbEntity
  8
V0-OBRYS
100
AcDbLine
 10
16.206797
 20
19.035224
 30
0.0
 11
32.497436
 21
35.325863
 31
0.0
  0
ARC
  5
14A9
330
145E
100
AcDbEntity
  8
V0-OBRYS
100
AcDbCircle
 10
37.966025
 20
20.187644
 30
0.0
 40
1.5
100
AcDbArc
 50
34.488224
 51
120.0
  0
ARC
  5
14AA
330
145E
100
AcDbEntity
  8
V0-OBRYS
100
AcDbCircle
 10
35.583769
 20
26.747185
 30
0.0
 40
1.5
100
AcDbArc
 50
305.0
 51
36.53388
  0
ENDBLK
  5
1600
330
145E
100
AcDbEntity
  8
0
100
AcDbBlockEnd
  0
BLOCK
  5
1601
330
158F
100
AcDbEntity
  8
0
100
AcDbBlockBegin
  2
VDDIM_DEFAULT
 70
     0
 71
     0
 10
0.0
 20
0.0
 30
0.0
  3
VDDIM_DEFAULT
  1

  0
LWPOLYLINE
  5
1590
330
158F
100
AcDbEntity
  8
0
  6
Continuous
 62
     0
100
AcDbPolyline
 90
        4
 70
     0
 43
0.0
 10
0.0
 20
0.0
 10
-1.0
 20
-0.1665
 10
-1.0
 20
0.1665
 10
0.0
 20
0.0
1001
VDEXTRAPARAM
1071
        1
1071
        0
1071
        0
1040
1.0
1000

1000

1040
0.0
1040
0.0
  0
HATCH
  5
169D
330
158F
100
AcDbEntity
  8
0
  6
Continuous
 62
     0
100
AcDbHatch
 10
0.0
 20
0.0
 30
0.0
210
0.0
220
0.0
230
1.0
  2
SOLID
 70
     1
 71
     0
 91
        1
 92
        2
 72
     0
 73
     1
 93
        3
 10
0.0
 20
0.0
 10
-1.0
 20
-0.1665
 10
-1.0
 20
0.1665
 97
        0
 75
     0
 76
     1
 98
        1
 10
0.0
 20
0.0
1001
VDEXTRAPARAM
1071
        1
1071
        0
1071
        0
1040
1.0
1000

1000

1040
0.0
1040
0.0
1001
VD_TEMPHATCH
1000
VD_TEMPHATCH
  0
ENDBLK
  5
1602
330
158F
100
AcDbEntity
  8
0
100
AcDbBlockEnd
  0
BLOCK
  5
1603
330
1591
100
AcDbEntity
  8
0
100
AcDbBlockBegin
  2
VDDIM_NONE
 70
     0
 71
     0
 10
0.0
 20
0.0
 30
0.0
  3
VDDIM_NONE
  1

  0
ENDBLK
  5
1604
330
1591
100
AcDbEntity
  8
0
100
AcDbBlockEnd
  0
BLOCK
  5
1610
330
1605
100
AcDbEntity
  8
0
100
AcDbBlockBegin
  2
*D22
 70
     1
 71
     0
 10
0.0
 20
0.0
 30
0.0
  3
*D22
  1

  0
LINE
  5
1606
330
1605
100
AcDbEntity
  8
V0-VYPLNE
 62
     0
370
    -2
100
AcDbLine
 10
362.865649
 20
10.282794
 30
0.0
 11
362.865649
 21
-54.95570199999926
 31
0.0
  0
LINE
  5
1607
330
1605
100
AcDbEntity
  8
V0-VYPLNE
 62
     0
370
    -2
100
AcDbLine
 10
782.865649
 20
18.565
 30
0.0
 11
782.865649
 21
-54.95570199999929
 31
0.0
  0
LINE
  5
1608
330
1605
100
AcDbEntity
  8
V0-VYPLNE
 62
     0
370
    -2
100
AcDbLine
 10
397.865649
 20
-53.70570199999926
 30
0.0
 11
523.8708625714286
 21
-53.70570199999927
 31
0.0
  0
LINE
  5
1609
330
1605
100
AcDbEntity
  8
V0-VYPLNE
 62
     0
370
    -2
100
AcDbLine
 10
747.865649
 20
-53.70570199999929
 30
0.0
 11
634.7280054285715
 21
-53.70570199999929
 31
0.0
  0
INSERT
  5
160A
330
1605
100
AcDbEntity
  8
V0-VYPLNE
 62
     0
370
    -2
100
AcDbBlockReference
  2
_OPEN
 10
362.865649
 20
-53.70570199999926
 30
0.0
 41
35.0
 42
35.0
 43
35.0
 50
180.0
  0
INSERT
  5
160B
330
1605
100
AcDbEntity
  8
V0-VYPLNE
 62
     0
370
    -2
100
AcDbBlockReference
  2
_OPEN
 10
782.865649
 20
-53.70570199999929
 30
0.0
 41
35.0
 42
35.0
 43
35.0
 50
360.0
  0
MTEXT
  5
160C
330
1605
100
AcDbEntity
  8
V0-VYPLNE
 62
     0
100
AcDbMText
 10
579.299434
 20
-53.705702
 30
0.0
 40
40.0
 41
0.0
 71
     5
 72
     1
  1
\A1;420
  7
ED40
 73
     1
 44
1.0
  0
POINT
  5
160D
330
1605
100
AcDbEntity
  8
DEFPOINTS
 62
     0
100
AcDbPoint
 10
362.865649
 20
11.282794
 30
0.0
  0
POINT
  5
160E
330
1605
100
AcDbEntity
  8
DEFPOINTS
 62
     0
100
AcDbPoint
 10
782.865649
 20
19.565
 30
0.0
  0
POINT
  5
160F
330
1605
100
AcDbEntity
  8
DEFPOINTS
 62
     0
100
AcDbPoint
 10
782.865649
 20
-53.70570199999929
 30
0.0
  0
ENDBLK
  5
1611
330
1605
100
AcDbEntity
  8
0
100
AcDbBlockEnd
  0
BLOCK
  5
161D
330
1612
100
AcDbEntity
  8
0
100
AcDbBlockBegin
  2
*D23
 70
     1
 71
     0
 10
0.0
 20
0.0
 30
0.0
  3
*D23
  1

  0
LINE
  5
1613
330
1612
100
AcDbEntity
  8
V0-VYPLNE
 62
     0
370
    -2
100
AcDbLine
 10
352.865649
 20
18.611111
 30
0.0
 11
352.865649
 21
-85.62053899999589
 31
0.0
  0
LINE
  5
1614
330
1612
100
AcDbEntity
  8
V0-VYPLNE
 62
     0
370
    -2
100
AcDbLine
 10
792.865649
 20
18.611111
 30
0.0
 11
792.865649
 21
-85.62053899999592
 31
0.0
  0
LINE
  5
1615
330
1612
100
AcDbEntity
  8
V0-VYPLNE
 62
     0
370
    -2
100
AcDbLine
 10
387.865649
 20
-84.37053899999589
 30
0.0
 11
520.8900095714286
 21
-84.3705389999959
 31
0.0
  0
LINE
  5
1616
330
1612
100
AcDbEntity
  8
V0-VYPLNE
 62
     0
370
    -2
100
AcDbLine
 10
757.865649
 20
-84.37053899999592
 30
0.0
 11
631.7471524285714
 21
-84.3705389999959
 31
0.0
  0
INSERT
  5
1617
330
1612
100
AcDbEntity
  8
V0-VYPLNE
 62
     0
370
    -2
100
AcDbBlockReference
  2
_OPEN
 10
352.865649
 20
-84.37053899999589
 30
0.0
 41
35.0
 42
35.0
 43
35.0
 50
180.0
  0
INSERT
  5
1618
330
1612
100
AcDbEntity
  8
V0-VYPLNE
 62
     0
370
    -2
100
AcDbBlockReference
  2
_OPEN
 10
792.865649
 20
-84.37053899999592
 30
0.0
 41
35.0
 42
35.0
 43
35.0
 50
360.0
  0
MTEXT
  5
1619
330
1612
100
AcDbEntity
  8
V0-VYPLNE
 62
     0
100
AcDbMText
 10
576.318581
 20
-84.37053899999999
 30
0.0
 40
40.0
 41
0.0
 71
     5
 72
     1
  1
\A1;440
  7
ED40
 73
     1
 44
1.0
  0
POINT
  5
161A
330
1612
100
AcDbEntity
  8
DEFPOINTS
 62
     0
100
AcDbPoint
 10
352.865649
 20
19.611111
 30
0.0
  0
POINT
  5
161B
330
1612
100
AcDbEntity
  8
DEFPOINTS
 62
     0
100
AcDbPoint
 10
792.865649
 20
19.611111
 30
0.0
  0
POINT
  5
161C
330
1612
100
AcDbEntity
  8
DEFPOINTS
 62
     0
100
AcDbPoint
 10
792.865649
 20
-84.37053899999592
 30
0.0
  0
ENDBLK
  5
161E
330
1612
100
AcDbEntity
  8
0
100
AcDbBlockEnd
  0
BLOCK
  5
162A
330
161F
100
AcDbEntity
  8
0
100
AcDbBlockBegin
  2
*D24
 70
     1
 71
     0
 10
0.0
 20
0.0
 30
0.0
  3
*D24
  1

  0
LINE
  5
1620
330
161F
100
AcDbEntity
  8
V0-VYPLNE
 62
     0
370
    -2
100
AcDbLine
 10
783.865649
 20
239.565
 30
0.0
 11
865.1924729999992
 21
239.565
 31
0.0
  0
LINE
  5
1621
330
161F
100
AcDbEntity
  8
V0-VYPLNE
 62
     0
370
    -2
100
AcDbLine
 10
783.950252
 20
19.611111
 30
0.0
 11
865.1924729999992
 21
19.611111
 31
0.0
  0
LINE
  5
1622
330
161F
100
AcDbEntity
  8
V0-VYPLNE
 62
     0
370
    -2
100
AcDbLine
 10
863.9424729999992
 20
204.5649999999999
 30
0.0
 11
863.9424729999992
 21
185.9445464285714
 31
0.0
  0
LINE
  5
1623
330
161F
100
AcDbEntity
  8
V0-VYPLNE
 62
     0
370
    -2
100
AcDbLine
 10
863.9424729999992
 20
54.61111099999994
 30
0.0
 11
863.9424729999992
 21
75.08740357142855
 31
0.0
  0
INSERT
  5
1624
330
161F
100
AcDbEntity
  8
V0-VYPLNE
 62
     0
370
    -2
100
AcDbBlockReference
  2
_OPEN
 10
863.9424729999992
 20
239.5649999999999
 30
0.0
 41
35.0
 42
35.0
 43
35.0
 50
90.0
  0
INSERT
  5
1625
330
161F
100
AcDbEntity
  8
V0-VYPLNE
 62
     0
370
    -2
100
AcDbBlockReference
  2
_OPEN
 10
863.9424729999992
 20
19.61111099999994
 30
0.0
 41
35.0
 42
35.0
 43
35.0
 50
270.0
  0
MTEXT
  5
1626
330
161F
100
AcDbEntity
  8
V0-VYPLNE
 62
     0
100
AcDbMText
 10
863.942473
 20
130.515975
 30
0.0
 40
40.0
 41
0.0
 71
     5
 72
     1
  1
\A1;220
  7
ED40
 11
0.0
 21
1.0
 31
0.0
 73
     1
 44
1.0
  0
POINT
  5
1627
330
161F
100
AcDbEntity
  8
DEFPOINTS
 62
     0
100
AcDbPoint
 10
782.865649
 20
239.565
 30
0.0
  0
POINT
  5
1628
330
161F
100
AcDbEntity
  8
DEFPOINTS
 62
     0
100
AcDbPoint
 10
782.950252
 20
19.611111
 30
0.0
  0
POINT
  5
1629
330
161F
100
AcDbEntity
  8
DEFPOINTS
 62
     0
100
AcDbPoint
 10
863.9424729999992
 20
19.611111
 30
0.0
  0
ENDBLK
  5
162B
330
161F
100
AcDbEntity
  8
0
100
AcDbBlockEnd
  0
BLOCK
  5
1637
330
162C
100
AcDbEntity
  8
0
100
AcDbBlockBegin
  2
*D25
 70
     1
 71
     0
 10
0.0
 20
0.0
 30
0.0
  3
*D25
  1

  0
LINE
  5
162D
330
162C
100
AcDbEntity
  8
V0-VYPLNE
 62
     0
370
    -2
100
AcDbLine
 10
783.865649
 20
249.611111
 30
0.0
 11
892.810078999999
 21
249.611111
 31
0.0
  0
LINE
  5
162E
330
162C
100
AcDbEntity
  8
V0-VYPLNE
 62
     0
370
    -2
100
AcDbLine
 10
783.865649
 20
9.611110999999999
 30
0.0
 11
892.810078999999
 21
9.611110999999992
 31
0.0
  0
LINE
  5
162F
330
162C
100
AcDbEntity
  8
V0-VYPLNE
 62
     0
370
    -2
100
AcDbLine
 10
891.560078999999
 20
214.6111109999999
 30
0.0
 11
891.560078999999
 21
182.9657704285714
 31
0.0
  0
LINE
  5
1630
330
162C
100
AcDbEntity
  8
V0-VYPLNE
 62
     0
370
    -2
100
AcDbLine
 10
891.560078999999
 20
44.61111099999994
 30
0.0
 11
891.560078999999
 21
72.10862757142856
 31
0.0
  0
INSERT
  5
1631
330
162C
100
AcDbEntity
  8
V0-VYPLNE
 62
     0
370
    -2
100
AcDbBlockReference
  2
_OPEN
 10
891.560078999999
 20
249.6111109999999
 30
0.0
 41
35.0
 42
35.0
 43
35.0
 50
90.0
  0
INSERT
  5
1632
330
162C
100
AcDbEntity
  8
V0-VYPLNE
 62
     0
370
    -2
100
AcDbBlockReference
  2
_OPEN
 10
891.560078999999
 20
9.611110999999937
 30
0.0
 41
35.0
 42
35.0
 43
35.0
 50
270.0
  0
MTEXT
  5
1633
330
162C
100
AcDbEntity
  8
V0-VYPLNE
 62
     0
100
AcDbMText
 10
891.560079
 20
127.537199
 30
0.0
 40
40.0
 41
0.0
 71
     5
 72
     1
  1
\A1;240
  7
ED40
 11
0.0
 21
1.0
 31
0.0
 73
     1
 44
1.0
  0
POINT
  5
1634
330
162C
100
AcDbEntity
  8
DEFPOINTS
 62
     0
100
AcDbPoint
 10
782.865649
 20
249.611111
 30
0.0
  0
POINT
  5
1635
330
162C
100
AcDbEntity
  8
DEFPOINTS
 62
     0
100
AcDbPoint
 10
782.865649
 20
9.611110999999999
 30
0.0
  0
POINT
  5
1636
330
162C
100
AcDbEntity
  8
DEFPOINTS
 62
     0
100
AcDbPoint
 10
891.560078999999
 20
9.611110999999992
 30
0.0
  0
ENDBLK
  5
1638
330
162C
100
AcDbEntity
  8
0
100
AcDbBlockEnd
  0
BLOCK
  5
1643
330
1639
100
AcDbEntity
  8
0
100
AcDbBlockBegin
  2
*D26
 70
     1
 71
     0
 10
0.0
 20
0.0
 30
0.0
  3
*D26
  1

  0
LINE
  5
163A
330
1639
100
AcDbEntity
  8
V0-VYPLNE
 62
     0
370
    -2
100
AcDbLine
 10
267.865649
 20
15.187501
 30
0.0
 11
267.865649
 21
-59.64697499999966
 31
0.0
  0
LINE
  5
163B
330
1639
100
AcDbEntity
  8
V0-VYPLNE
 62
     0
370
    -2
100
AcDbLine
 10
352.865649
 20
17.611111
 30
0.0
 11
352.865649
 21
-59.64697499999966
 31
0.0
  0
LINE
  5
163C
330
1639
100
AcDbEntity
  8
V0-VYPLNE
 62
     0
370
    -2
100
AcDbLine
 10
302.865649
 20
-58.39697499999966
 30
0.0
 11
317.865649
 21
-58.39697499999966
 31
0.0
  0
INSERT
  5
163D
330
1639
100
AcDbEntity
  8
V0-VYPLNE
 62
     0
370
    -2
100
AcDbBlockReference
  2
_OPEN
 10
267.865649
 20
-58.39697499999966
 30
0.0
 41
35.0
 42
35.0
 43
35.0
 50
180.0
  0
INSERT
  5
163E
330
1639
100
AcDbEntity
  8
V0-VYPLNE
 62
     0
370
    -2
100
AcDbBlockReference
  2
_OPEN
 10
352.865649
 20
-58.39697499999966
 30
0.0
 41
35.0
 42
35.0
 43
35.0
 50
360.0
  0
MTEXT
  5
163F
330
1639
100
AcDbEntity
  8
V0-VYPLNE
 62
     0
100
AcDbMText
 10
310.365649
 20
-34.39697499999966
 30
0.0
 40
40.0
 41
0.0
 71
     5
 72
     1
  1
\A1;85
  7
ED40
 73
     1
 44
1.0
  0
POINT
  5
1640
330
1639
100
AcDbEntity
  8
DEFPOINTS
 62
     0
100
AcDbPoint
 10
267.865649
 20
16.187501
 30
0.0
  0
POINT
  5
1641
330
1639
100
AcDbEntity
  8
DEFPOINTS
 62
     0
100
AcDbPoint
 10
352.865649
 20
18.611111
 30
0.0
  0
POINT
  5
1642
330
1639
100
AcDbEntity
  8
DEFPOINTS
 62
     0
100
AcDbPoint
 10
352.865649
 20
-58.39697499999966
 30
0.0
  0
ENDBLK
  5
1644
330
1639
100
AcDbEntity
  8
0
100
AcDbBlockEnd
  0
BLOCK
  5
164F
330
1645
100
AcDbEntity
  8
0
100
AcDbBlockBegin
  2
*D27
 70
     1
 71
     0
 10
0.0
 20
0.0
 30
0.0
  3
*D27
  1

  0
LINE
  5
1646
330
1645
100
AcDbEntity
  8
V0-VYPLNE
 62
     0
370
    -2
100
AcDbLine
 10
936.112316
 20
8.611110999999999
 30
0.0
 11
936.112316
 21
-42.01370300000416
 31
0.0
  0
LINE
  5
1647
330
1645
100
AcDbEntity
  8
V0-VYPLNE
 62
     0
370
    -2
100
AcDbLine
 10
1126.112316
 20
8.611110999999999
 30
0.0
 11
1126.112316
 21
-42.01370300000417
 31
0.0
  0
LINE
  5
1648
330
1645
100
AcDbEntity
  8
V0-VYPLNE
 62
     0
370
    -2
100
AcDbLine
 10
971.112316
 20
-40.76370300000416
 30
0.0
 11
1091.112316
 21
-40.76370300000417
 31
0.0
  0
INSERT
  5
1649
330
1645
100
AcDbEntity
  8
V0-VYPLNE
 62
     0
370
    -2
100
AcDbBlockReference
  2
_OPEN
 10
936.112316
 20
-40.76370300000416
 30
0.0
 41
35.0
 42
35.0
 43
35.0
 50
180.0
  0
INSERT
  5
164A
330
1645
100
AcDbEntity
  8
V0-VYPLNE
 62
     0
370
    -2
100
AcDbBlockReference
  2
_OPEN
 10
1126.112316
 20
-40.76370300000417
 30
0.0
 41
35.0
 42
35.0
 43
35.0
 50
360.0
  0
MTEXT
  5
164B
330
1645
100
AcDbEntity
  8
V0-VYPLNE
 62
     0
100
AcDbMText
 10
1031.112316
 20
-16.76370300000417
 30
0.0
 40
40.0
 41
0.0
 71
     5
 72
     1
  1
\A1;190
  7
ED40
 73
     1
 44
1.0
  0
POINT
  5
164C
330
1645
100
AcDbEntity
  8
DEFPOINTS
 62
     0
100
AcDbPoint
 10
936.112316
 20
9.611110999999999
 30
0.0
  0
POINT
  5
164D
330
1645
100
AcDbEntity
  8
DEFPOINTS
 62
     0
100
AcDbPoint
 10
1126.112316
 20
9.611110999999999
 30
0.0
  0
POINT
  5
164E
330
1645
100
AcDbEntity
  8
DEFPOINTS
 62
     0
100
AcDbPoint
 10
1126.112316
 20
-40.76370300000417
 30
0.0
  0
ENDBLK
  5
1650
330
1645
100
AcDbEntity
  8
0
100
AcDbBlockEnd
  0
BLOCK
  5
165B
330
1651
100
AcDbEntity
  8
0
100
AcDbBlockBegin
  2
*D28
 70
     1
 71
     0
 10
0.0
 20
0.0
 30
0.0
  3
*D28
  1

  0
LINE
  5
1652
330
1651
100
AcDbEntity
  8
V0-VYPLNE
 62
     0
370
    -2
100
AcDbLine
 10
773.865649
 20
229.611111
 30
0.0
 11
833.7390870000018
 21
229.611111
 31
0.0
  0
LINE
  5
1653
330
1651
100
AcDbEntity
  8
V0-VYPLNE
 62
     0
370
    -2
100
AcDbLine
 10
773.865649
 20
29.611111
 30
0.0
 11
833.7390870000018
 21
29.611111
 31
0.0
  0
LINE
  5
1654
330
1651
100
AcDbEntity
  8
V0-VYPLNE
 62
     0
370
    -2
100
AcDbLine
 10
832.4890870000018
 20
194.6111109999999
 30
0.0
 11
832.4890870000018
 21
64.61111099999994
 31
0.0
  0
INSERT
  5
1655
330
1651
100
AcDbEntity
  8
V0-VYPLNE
 62
     0
370
    -2
100
AcDbBlockReference
  2
_OPEN
 10
832.4890870000018
 20
229.6111109999999
 30
0.0
 41
35.0
 42
35.0
 43
35.0
 50
90.0
  0
INSERT
  5
1656
330
1651
100
AcDbEntity
  8
V0-VYPLNE
 62
     0
370
    -2
100
AcDbBlockReference
  2
_OPEN
 10
832.4890870000018
 20
29.61111099999994
 30
0.0
 41
35.0
 42
35.0
 43
35.0
 50
270.0
  0
MTEXT
  5
1657
330
1651
100
AcDbEntity
  8
V0-VYPLNE
 62
     0
100
AcDbMText
 10
808.4890870000018
 20
129.611111
 30
0.0
 40
40.0
 41
0.0
 71
     5
 72
     1
  1
\A1;200
  7
ED40
 11
0.0
 21
1.0
 31
0.0
 73
     1
 44
1.0
  0
POINT
  5
1658
330
1651
100
AcDbEntity
  8
DEFPOINTS
 62
     0
100
AcDbPoint
 10
772.865649
 20
229.611111
 30
0.0
  0
POINT
  5
1659
330
1651
100
AcDbEntity
  8
DEFPOINTS
 62
     0
100
AcDbPoint
 10
772.865649
 20
29.611111
 30
0.0
  0
POINT
  5
165A
330
1651
100
AcDbEntity
  8
DEFPOINTS
 62
     0
100
AcDbPoint
 10
832.4890870000018
 20
29.611111
 30
0.0
  0
ENDBLK
  5
165C
330
1651
100
AcDbEntity
  8
0
100
AcDbBlockEnd
  0
BLOCK
  5
1667
330
165D
100
AcDbEntity
  8
0
100
AcDbBlockBegin
  2
*D29
 70
     1
 71
     0
 10
0.0
 20
0.0
 30
0.0
  3
*D29
  1

  0
LINE
  5
165E
330
165D
100
AcDbEntity
  8
V0-VYPLNE
 62
     0
370
    -2
100
AcDbLine
 10
372.865649
 20
28.611111
 30
0.0
 11
372.865649
 21
-25.82410800000069
 31
0.0
  0
LINE
  5
165F
330
165D
100
AcDbEntity
  8
V0-VYPLNE
 62
     0
370
    -2
100
AcDbLine
 10
772.865649
 20
28.611111
 30
0.0
 11
772.865649
 21
-25.82410800000071
 31
0.0
  0
LINE
  5
1660
330
165D
100
AcDbEntity
  8
V0-VYPLNE
 62
     0
370
    -2
100
AcDbLine
 10
407.865649
 20
-24.57410800000069
 30
0.0
 11
737.865649
 21
-24.5741080000007
 31
0.0
  0
INSERT
  5
1661
330
165D
100
AcDbEntity
  8
V0-VYPLNE
 62
     0
370
    -2
100
AcDbBlockReference
  2
_OPEN
 10
372.865649
 20
-24.57410800000068
 30
0.0
 41
35.0
 42
35.0
 43
35.0
 50
180.0
  0
INSERT
  5
1662
330
165D
100
AcDbEntity
  8
V0-VYPLNE
 62
     0
370
    -2
100
AcDbBlockReference
  2
_OPEN
 10
772.865649
 20
-24.57410800000071
 30
0.0
 41
35.0
 42
35.0
 43
35.0
 50
360.0
  0
MTEXT
  5
1663
330
165D
100
AcDbEntity
  8
V0-VYPLNE
 62
     0
100
AcDbMText
 10
572.8656490000001
 20
-0.5741080000007059
 30
0.0
 40
40.0
 41
0.0
 71
     5
 72
     1
  1
\A1;400
  7
ED40
 73
     1
 44
1.0
  0
POINT
  5
1664
330
165D
100
AcDbEntity
  8
DEFPOINTS
 62
     0
100
AcDbPoint
 10
372.865649
 20
29.611111
 30
0.0
  0
POINT
  5
1665
330
165D
100
AcDbEntity
  8
DEFPOINTS
 62
     0
100
AcDbPoint
 10
772.865649
 20
29.611111
 30
0.0
  0
POINT
  5
1666
330
165D
100
AcDbEntity
  8
DEFPOINTS
 62
     0
100
AcDbPoint
 10
772.865649
 20
-24.57410800000071
 30
0.0
  0
ENDBLK
  5
1668
330
165D
100
AcDbEntity
  8
0
100
AcDbBlockEnd
  0
BLOCK
  5
1673
330
1669
100
AcDbEntity
  8
0
100
AcDbBlockBegin
  2
*D30
 70
     1
 71
     0
 10
0.0
 20
0.0
 30
0.0
  3
*D30
  1

  0
LINE
  5
166A
330
1669
100
AcDbEntity
  8
V0-VYPLNE
 62
     0
370
    -2
100
AcDbLine
 10
936.112316
 20
7.611110999999999
 30
0.0
 11
936.112316
 21
-8.941940000001074
 31
0.0
  0
LINE
  5
166B
330
1669
100
AcDbEntity
  8
V0-VYPLNE
 62
     0
370
    -2
100
AcDbLine
 10
1020.112316
 20
23.241044
 30
0.0
 11
1020.112316
 21
-8.941940000001079
 31
0.0
  0
LINE
  5
166C
330
1669
100
AcDbEntity
  8
V0-VYPLNE
 62
     0
370
    -2
100
AcDbLine
 10
971.112316
 20
-7.691940000001075
 30
0.0
 11
985.112316
 21
-7.691940000001077
 31
0.0
  0
INSERT
  5
166D
330
1669
100
AcDbEntity
  8
V0-VYPLNE
 62
     0
370
    -2
100
AcDbBlockReference
  2
_OPEN
 10
936.112316
 20
-7.691940000001074
 30
0.0
 41
35.0
 42
35.0
 43
35.0
 50
180.0
  0
INSERT
  5
166E
330
1669
100
AcDbEntity
  8
V0-VYPLNE
 62
     0
370
    -2
100
AcDbBlockReference
  2
_OPEN
 10
1020.112316
 20
-7.691940000001079
 30
0.0
 41
35.0
 42
35.0
 43
35.0
 50
360.0
  0
MTEXT
  5
166F
330
1669
100
AcDbEntity
  8
V0-VYPLNE
 62
     0
100
AcDbMText
 10
978.112316
 20
16.30805999999892
 30
0.0
 40
40.0
 41
0.0
 71
     5
 72
     1
  1
\A1;84
  7
ED40
 73
     1
 44
1.0
  0
POINT
  5
1670
330
1669
100
AcDbEntity
  8
DEFPOINTS
 62
     0
100
AcDbPoint
 10
936.112316
 20
8.611110999999999
 30
0.0
  0
POINT
  5
1671
330
1669
100
AcDbEntity
  8
DEFPOINTS
 62
     0
100
AcDbPoint
 10
1020.112316
 20
24.241044
 30
0.0
  0
POINT
  5
1672
330
1669
100
AcDbEntity
  8
DEFPOINTS
 62
     0
100
AcDbPoint
 10
1020.112316
 20
-7.691940000001079
 30
0.0
  0
ENDBLK
  5
1674
330
1669
100
AcDbEntity
  8
0
100
AcDbBlockEnd
  0
BLOCK
  5
1681
330
1675
100
AcDbEntity
  8
0
100
AcDbBlockBegin
  2
*D31
 70
     1
 71
     0
 10
0.0
 20
0.0
 30
0.0
  3
*D31
  1

  0
LINE
  5
1676
330
1675
100
AcDbEntity
  8
V0-VYPLNE
 62
     0
370
    -2
100
AcDbLine
 10
1020.112316
 20
23.241044
 30
0.0
 11
1020.112316
 21
-8.941940000049097
 31
0.0
  0
LINE
  5
1677
330
1675
100
AcDbEntity
  8
V0-VYPLNE
 62
     0
370
    -2
100
AcDbLine
 10
1063.112316
 20
178.683223
 30
0.0
 11
1063.112316
 21
-8.941940000049101
 31
0.0
  0
LINE
  5
1678
330
1675
100
AcDbEntity
  8
V0-VYPLNE
 62
     0
370
    -2
100
AcDbLine
 10
985.112316
 20
-7.691940000049096
 30
0.0
 11
950.112316
 21
-7.691940000049094
 31
0.0
  0
LINE
  5
1679
330
1675
100
AcDbEntity
  8
V0-VYPLNE
 62
     0
370
    -2
100
AcDbLine
 10
1098.112316
 20
-7.691940000049103
 30
0.0
 11
1205.874220761905
 21
-7.691940000049111
 31
0.0
  0
LINE
  5
167A
330
1675
100
AcDbEntity
  8
V0-VYPLNE
 62
     0
370
    -2
100
AcDbLine
 10
1020.112316
 20
-7.691940000049098
 30
0.0
 11
1063.112316
 21
-7.691940000049101
 31
0.0
  0
INSERT
  5
167B
330
1675
100
AcDbEntity
  8
V0-VYPLNE
 62
     0
370
    -2
100
AcDbBlockReference
  2
_OPEN
 10
1020.112316
 20
-7.691940000049098
 30
0.0
 41
35.0
 42
35.0
 43
35.0
 50
360.0
  0
INSERT
  5
167C
330
1675
100
AcDbEntity
  8
V0-VYPLNE
 62
     0
370
    -2
100
AcDbBlockReference
  2
_OPEN
 10
1063.112316
 20
-7.691940000049101
 30
0.0
 41
35.0
 42
35.0
 43
35.0
 50
180.0
  0
MTEXT
  5
167D
330
1675
100
AcDbEntity
  8
V0-VYPLNE
 62
     0
100
AcDbMText
 10
1169.493268380952
 20
16.30805999995089
 30
0.0
 40
40.0
 41
0.0
 71
     5
 72
     1
  1
\A1;43
  7
ED40
 73
     1
 44
1.0
  0
POINT
  5
167E
330
1675
100
AcDbEntity
  8
DEFPOINTS
 62
     0
100
AcDbPoint
 10
1020.112316
 20
24.241044
 30
0.0
  0
POINT
  5
167F
330
1675
100
AcDbEntity
  8
DEFPOINTS
 62
     0
100
AcDbPoint
 10
1063.112316
 20
179.683223
 30
0.0
  0
POINT
  5
1680
330
1675
100
AcDbEntity
  8
DEFPOINTS
 62
     0
100
AcDbPoint
 10
1063.112316
 20
-7.691940000049101
 30
0.0
  0
ENDBLK
  5
1682
330
1675
100
AcDbEntity
  8
0
100
AcDbBlockEnd
  0
BLOCK
  5
168D
330
1683
100
AcDbEntity
  8
0
100
AcDbBlockBegin
  2
*D32
 70
     1
 71
     0
 10
0.0
 20
0.0
 30
0.0
  3
*D32
  1

  0
LINE
  5
1684
330
1683
100
AcDbEntity
  8
V0-VYPLNE
 62
     0
370
    -2
100
AcDbLine
 10
238.509206
 20
202.111111
 30
0.0
 11
199.5765199999987
 21
202.111111
 31
0.0
  0
LINE
  5
1685
330
1683
100
AcDbEntity
  8
V0-VYPLNE
 62
     0
370
    -2
100
AcDbLine
 10
238.509206
 20
52.111111
 30
0.0
 11
199.5765199999987
 21
52.111111
 31
0.0
  0
LINE
  5
1686
330
1683
100
AcDbEntity
  8
V0-VYPLNE
 62
     0
370
    -2
100
AcDbLine
 10
200.8265199999987
 20
167.111111
 30
0.0
 11
200.8265199999987
 21
87.11111099999999
 31
0.0
  0
INSERT
  5
1687
330
1683
100
AcDbEntity
  8
V0-VYPLNE
 62
     0
370
    -2
100
AcDbBlockReference
  2
_OPEN
 10
200.8265199999987
 20
202.111111
 30
0.0
 41
35.0
 42
35.0
 43
35.0
 50
90.0
  0
INSERT
  5
1688
330
1683
100
AcDbEntity
  8
V0-VYPLNE
 62
     0
370
    -2
100
AcDbBlockReference
  2
_OPEN
 10
200.8265199999987
 20
52.11111099999999
 30
0.0
 41
35.0
 42
35.0
 43
35.0
 50
270.0
  0
MTEXT
  5
1689
330
1683
100
AcDbEntity
  8
V0-VYPLNE
 62
     0
100
AcDbMText
 10
176.8265199999987
 20
127.111111
 30
0.0
 40
40.0
 41
0.0
 71
     5
 72
     1
  1
\A1;150
  7
ED40
 11
0.0
 21
1.0
 31
0.0
 73
     1
 44
1.0
  0
POINT
  5
168A
330
1683
100
AcDbEntity
  8
DEFPOINTS
 62
     0
100
AcDbPoint
 10
239.509206
 20
202.111111
 30
0.0
  0
POINT
  5
168B
330
1683
100
AcDbEntity
  8
DEFPOINTS
 62
     0
100
AcDbPoint
 10
239.509206
 20
52.111111
 30
0.0
  0
POINT
  5
168C
330
1683
100
AcDbEntity
  8
DEFPOINTS
 62
     0
100
AcDbPoint
 10
200.8265199999987
 20
52.111111
 30
0.0
  0
ENDBLK
  5
168E
330
1683
100
AcDbEntity
  8
0
100
AcDbBlockEnd
  0
BLOCK
  5
169B
330
168F
100
AcDbEntity
  8
0
100
AcDbBlockBegin
  2
*D33
 70
     1
 71
     0
 10
0.0
 20
0.0
 30
0.0
  3
*D33
  1

  0
LINE
  5
1690
330
168F
100
AcDbEntity
  8
V0-VYPLNE
 62
     0
370
    -2
100
AcDbLine
 10
239.509206
 20
40.111111
 30
0.0
 11
239.509206
 21
-59.64697499999982
 31
0.0
  0
LINE
  5
1691
330
168F
100
AcDbEntity
  8
V0-VYPLNE
 62
     0
370
    -2
100
AcDbLine
 10
267.865649
 20
14.187501
 30
0.0
 11
267.865649
 21
-59.64697499999983
 31
0.0
  0
LINE
  5
1692
330
168F
100
AcDbEntity
  8
V0-VYPLNE
 62
     0
370
    -2
100
AcDbLine
 10
204.509206
 20
-58.39697499999983
 30
0.0
 11
169.509206
 21
-58.39697499999983
 31
0.0
  0
LINE
  5
1693
330
168F
100
AcDbEntity
  8
V0-VYPLNE
 62
     0
370
    -2
100
AcDbLine
 10
302.865649
 20
-58.39697499999983
 30
0.0
 11
410.6275537619048
 21
-58.39697499999983
 31
0.0
  0
LINE
  5
1694
330
168F
100
AcDbEntity
  8
V0-VYPLNE
 62
     0
370
    -2
100
AcDbLine
 10
239.509206
 20
-58.39697499999983
 30
0.0
 11
267.865649
 21
-58.39697499999983
 31
0.0
  0
INSERT
  5
1695
330
168F
100
AcDbEntity
  8
V0-VYPLNE
 62
     0
370
    -2
100
AcDbBlockReference
  2
_OPEN
 10
239.509206
 20
-58.39697499999983
 30
0.0
 41
35.0
 42
35.0
 43
35.0
  0
INSERT
  5
1696
330
168F
100
AcDbEntity
  8
V0-VYPLNE
 62
     0
370
    -2
100
AcDbBlockReference
  2
_OPEN
 10
267.865649
 20
-58.39697499999983
 30
0.0
 41
35.0
 42
35.0
 43
35.0
 50
180.0
  0
MTEXT
  5
1697
330
168F
100
AcDbEntity
  8
V0-VYPLNE
 62
     0
100
AcDbMText
 10
374.2466013809524
 20
-34.39697499999983
 30
0.0
 40
40.0
 41
0.0
 71
     5
 72
     1
  1
\A1;28
  7
ED40
 73
     1
 44
1.0
  0
POINT
  5
1698
330
168F
100
AcDbEntity
  8
DEFPOINTS
 62
     0
100
AcDbPoint
 10
239.509206
 20
41.111111
 30
0.0
  0
POINT
  5
1699
330
168F
100
AcDbEntity
  8
DEFPOINTS
 62
     0
100
AcDbPoint
 10
267.865649
 20
15.187501
 30
0.0
  0
POINT
  5
169A
330
168F
100
AcDbEntity
  8
DEFPOINTS
 62
     0
100
AcDbPoint
 10
267.865649
 20
-58.39697499999983
 30
0.0
  0
ENDBLK
  5
169C
330
168F
100
AcDbEntity
  8
0
100
AcDbBlockEnd
  0
BLOCK
  5
16A9
330
169E
100
AcDbEntity
  8
0
100
AcDbBlockBegin
  2
*D34
 70
     1
 71
     0
 10
0.0
 20
0.0
 30
0.0
  3
*D34
  1

  0
LINE
  5
169F
330
169E
100
AcDbEntity
  8
V0-VYPLNE
 62
     0
370
    -2
100
AcDbLine
 10
-62.993614
 20
79.545529
 30
0.0
 11
-101.7341180000003
 21
79.54552900000002
 31
0.0
  0
LINE
  5
16A0
330
169E
100
AcDbEntity
  8
V0-VYPLNE
 62
     0
370
    -2
100
AcDbLine
 10
-62.993614
 20
-38.454471
 30
0.0
 11
-101.7341180000003
 21
-38.45447099999999
 31
0.0
  0
LINE
  5
16A1
330
169E
100
AcDbEntity
  8
V0-VYPLNE
 62
     0
370
    -2
100
AcDbLine
 10
-100.4841180000003
 20
64.54552900000002
 30
0.0
 11
-100.4841180000003
 21
39.59702866666667
 31
0.0
  0
LINE
  5
16A2
330
169E
100
AcDbEntity
  8
V0-VYPLNE
 62
     0
370
    -2
100
AcDbLine
 10
-100.4841180000003
 20
-23.45447099999998
 30
0.0
 11
-100.4841180000003
 21
3.263695333333327
 31
0.0
  0
INSERT
  5
16A3
330
169E
100
AcDbEntity
  8
V0-VYPLNE
 62
     0
370
    -2
100
AcDbBlockReference
  2
_OPEN
 10
-100.4841180000003
 20
79.54552900000002
 30
0.0
 41
15.0
 42
15.0
 43
15.0
 50
90.0
  0
INSERT
  5
16A4
330
169E
100
AcDbEntity
  8
V0-VYPLNE
 62
     0
370
    -2
100
AcDbBlockReference
  2
_OPEN
 10
-100.4841180000003
 20
-38.45447099999998
 30
0.0
 41
15.0
 42
15.0
 43
15.0
 50
270.0
  0
MTEXT
  5
16A5
330
169E
100
AcDbEntity
  8
V0-VYPLNE
 62
     0
100
AcDbMText
 10
-100.484118
 20
21.430362
 30
0.0
 40
10.0
 41
0.0
 71
     5
 72
     1
  1
%%c\A1;118
  7
ED10
 11
2.408619443254577E-16
 21
1.0
 31
0.0
 73
     1
 44
1.0
  0
POINT
  5
16A6
330
169E
100
AcDbEntity
  8
DEFPOINTS
 62
     0
100
AcDbPoint
 10
-61.993614
 20
79.545529
 30
0.0
  0
POINT
  5
16A7
330
169E
100
AcDbEntity
  8
DEFPOINTS
 62
     0
100
AcDbPoint
 10
-61.993614
 20
-38.454471
 30
0.0
  0
POINT
  5
16A8
330
169E
100
AcDbEntity
  8
DEFPOINTS
 62
     0
100
AcDbPoint
 10
-100.4841180000003
 20
-38.45447099999999
 30
0.0
  0
ENDBLK
  5
16AA
330
169E
100
AcDbEntity
  8
0
100
AcDbBlockEnd
  0
BLOCK
  5
16B5
330
16AB
100
AcDbEntity
  8
0
100
AcDbBlockBegin
  2
*D35
 70
     1
 71
     0
 10
0.0
 20
0.0
 30
0.0
  3
*D35
  1

  0
LINE
  5
16AC
330
16AB
100
AcDbEntity
  8
V0-VYPLNE
 62
     0
370
    -2
100
AcDbLine
 10
-61.993614
 20
-40.454471
 30
0.0
 11
-61.99361400000002
 21
-81.81158199999982
 31
0.0
  0
LINE
  5
16AD
330
16AB
100
AcDbEntity
  8
V0-VYPLNE
 62
     0
370
    -2
100
AcDbLine
 10
48.006386
 20
-39.454471
 30
0.0
 11
48.006386
 21
-81.81158199999982
 31
0.0
  0
LINE
  5
16AE
330
16AB
100
AcDbEntity
  8
V0-VYPLNE
 62
     0
370
    -2
100
AcDbLine
 10
-46.99361400000002
 20
-80.56158199999982
 30
0.0
 11
33.006386
 21
-80.56158199999982
 31
0.0
  0
INSERT
  5
16AF
330
16AB
100
AcDbEntity
  8
V0-VYPLNE
 62
     0
370
    -2
100
AcDbBlockReference
  2
_OPEN
 10
-61.99361400000002
 20
-80.56158199999982
 30
0.0
 41
15.0
 42
15.0
 43
15.0
 50
180.0
  0
INSERT
  5
16B0
330
16AB
100
AcDbEntity
  8
V0-VYPLNE
 62
     0
370
    -2
100
AcDbBlockReference
  2
_OPEN
 10
48.006386
 20
-80.56158199999982
 30
0.0
 41
15.0
 42
15.0
 43
15.0
  0
MTEXT
  5
16B1
330
16AB
100
AcDbEntity
  8
V0-VYPLNE
 62
     0
100
AcDbMText
 10
-6.993614000000008
 20
-74.06158199999982
 30
0.0
 40
10.0
 41
0.0
 71
     5
 72
     1
  1
\A1;110
  7
ED10
 73
     1
 44
1.0
  0
POINT
  5
16B2
330
16AB
100
AcDbEntity
  8
DEFPOINTS
 62
     0
100
AcDbPoint
 10
-61.993614
 20
-39.454471
 30
0.0
  0
POINT
  5
16B3
330
16AB
100
AcDbEntity
  8
DEFPOINTS
 62
     0
100
AcDbPoint
 10
48.006386
 20
-38.454471
 30
0.0
  0
POINT
  5
16B4
330
16AB
100
AcDbEntity
  8
DEFPOINTS
 62
     0
100
AcDbPoint
 10
48.006386
 20
-80.56158199999982
 30
0.0
  0
ENDBLK
  5
16B6
330
16AB
100
AcDbEntity
  8
0
100
AcDbBlockEnd
  0
ENDSEC
  0
SECTION
  2
ENTITIES
  0
LINE
  5
1129
330
15B1
100
AcDbEntity
  8
V0-VYPLNE
  6
DASHDOT
100
AcDbLine
 10
179.36898
 20
19.009765
 30
0.0
 11
179.36898
 21
-56.64973999999999
 31
0.0
  0
LINE
  5
1187
330
15B1
100
AcDbEntity
  8
V0-VYPLNE
100
AcDbLine
 10
179.36898
 20
19.009765
 30
0.0
 11
179.36898
 21
92.284092
 31
0.0
  0
LINE
  5
12BF
330
15B1
100
AcDbEntity
  8
V0-VYPLNE
100
AcDbLine
 10
100.570487
 20
19.009765
 30
0.0
 11
258.76644
 21
19.009765
 31
0.0
  0
CIRCLE
  5
12C0
330
15B1
100
AcDbEntity
  8
V0-OBRYS
100
AcDbCircle
 10
179.36898
 20
19.009765
 30
0.0
 40
59.4
  0
CIRCLE
  5
12C2
330
15B1
100
AcDbEntity
  8
V0-OBRYS
100
AcDbCircle
 10
179.36898
 20
19.009765
 30
0.0
 40
30.0
  0
CIRCLE
  5
12C5
330
15B1
100
AcDbEntity
  8
V0-OBRYS
100
AcDbCircle
 10
179.36898
 20
19.009765
 30
0.0
 40
26.4
  0
ARC
  5
12C8
330
15B1
100
AcDbEntity
  8
V0-OBRYS
100
AcDbCircle
 10
179.36898
 20
19.009765
 30
0.0
 40
57.6
100
AcDbArc
 50
137.388015
 51
222.611985
  0
LINE
  5
12C9
330
15B1
100
AcDbEntity
  8
V0-OBRYS
100
AcDbLine
 10
153.584961
 20
63.668995
 30
0.0
 11
164.36898
 21
44.990527
 31
0.0
  0
LINE
  5
12CA
330
15B1
100
AcDbEntity
  8
V0-OBRYS
100
AcDbLine
 10
185.274535
 20
52.501831
 30
0.0
 11
188.639724
 21
71.586766
 31
0.0
  0
ARC
  5
12CC
330
15B1
100
AcDbEntity
  8
V0-OBRYS
100
AcDbCircle
 10
180.320894
 20
27.91997
 30
0.0
 40
46.263881
100
AcDbArc
 50
81.53388
 51
124.488224
  0
ARC
  5
12CE
330
15B1
100
AcDbEntity
  8
V0-OBRYS
100
AcDbCircle
 10
186.86707
 20
71.899333
 30
0.0
 40
1.8
100
AcDbArc
 50
350.0
 51
81.53388
  0
ARC
  5
12CF
330
15B1
100
AcDbEntity
  8
V0-OBRYS
100
AcDbCircle
 10
155.143807
 20
64.568995
 30
0.0
 40
1.8
100
AcDbArc
 50
124.488224
 51
210.0
  0
LINE
  5
12D0
330
15B1
100
AcDbEntity
  8
V0-OBRYS
100
AcDbLine
 10
162.161687
 20
43.584326
 30
0.0
 11
148.746831
 21
62.742725
 31
0.0
  0
ARC
  5
12D1
330
15B1
100
AcDbEntity
  8
V0-OBRYS
100
AcDbCircle
 10
173.741618
 20
25.983337
 30
0.0
 40
46.263881
100
AcDbArc
 50
126.53388
 51
133.206317
  0
LINE
  5
12D2
330
15B1
100
AcDbEntity
  8
V0-OBRYS
100
AcDbLine
 10
129.558081
 20
32.356555
 30
0.0
 11
150.391205
 21
26.774336
 31
0.0
  0
ARC
  5
12D3
330
15B1
100
AcDbEntity
  8
V0-OBRYS
100
AcDbCircle
 10
147.272358
 20
61.710287
 30
0.0
 40
1.8
100
AcDbArc
 50
35.0
 51
126.53388
  0
ARC
  5
12D4
330
15B1
100
AcDbEntity
  8
V0-OBRYS
100
AcDbCircle
 10
130.023955
 20
34.095221
 30
0.0
 40
1.8
100
AcDbArc
 50
169.488224
 51
255.0
  0
LINE
  5
12D5
330
15B1
100
AcDbEntity
  8
V0-OBRYS
100
AcDbLine
 10
149.824747
 20
24.21921
 30
0.0
 11
126.791978
 21
28.280509
 31
0.0
  0
ARC
  5
12D6
330
15B1
100
AcDbEntity
  8
V0-OBRYS
100
AcDbCircle
 10
170.458774
 20
19.961679
 30
0.0
 40
46.263881
100
AcDbArc
 50
171.53388
 51
214.488224
  0
LINE
  5
12D7
330
15B1
100
AcDbEntity
  8
V0-OBRYS
100
AcDbLine
 10
134.70975
 20
-6.774254
 30
0.0
 11
153.388218
 21
4.009765000000001
 31
0.0
  0
ARC
  5
12D8
330
15B1
100
AcDbEntity
  8
V0-OBRYS
100
AcDbCircle
 10
126.479412
 20
26.507855
 30
0.0
 40
1.8
100
AcDbArc
 50
80.0
 51
171.53388
  0
ARC
  5
12D9
330
15B1
100
AcDbEntity
  8
V0-OBRYS
100
AcDbCircle
 10
133.80975
 20
-5.215408
 30
0.0
 40
1.8
100
AcDbArc
 50
214.488224
 51
300.0
  0
LINE
  5
12DA
330
15B1
100
AcDbEntity
  8
V0-OBRYS
100
AcDbLine
 10
154.794418
 20
1.802472
 30
0.0
 11
135.63602
 21
-11.612384
 31
0.0
  0
ARC
  5
12DB
330
15B1
100
AcDbEntity
  8
V0-OBRYS
100
AcDbCircle
 10
172.395408
 20
13.382403
 30
0.0
 40
46.263881
100
AcDbArc
 50
216.53388
 51
223.206317
  0
LINE
  5
12DC
330
15B1
100
AcDbEntity
  8
V0-OBRYS
100
AcDbLine
 10
166.02219
 20
-30.801134
 30
0.0
 11
171.604408
 21
-9.96801
 31
0.0
  0
ARC
  5
12DD
330
15B1
100
AcDbEntity
  8
V0-OBRYS
100
AcDbCircle
 10
136.668457
 20
-13.086857
 30
0.0
 40
1.8
100
AcDbArc
 50
125.0
 51
216.53388
  0
ARC
  5
12DE
330
15B1
100
AcDbEntity
  8
V0-OBRYS
100
AcDbCircle
 10
164.283523
 20
-30.33526
 30
0.0
 40
1.8
100
AcDbArc
 50
259.488224
 51
345.0
  0
LINE
  5
12DF
330
15B1
100
AcDbEntity
  8
V0-OBRYS
100
AcDbLine
 10
174.159534
 20
-10.534468
 30
0.0
 11
170.098236
 21
-33.567237
 31
0.0
  0
ARC
  5
12E0
330
15B1
100
AcDbEntity
  8
V0-OBRYS
100
AcDbCircle
 10
178.417065
 20
10.099559
 30
0.0
 40
46.263881
100
AcDbArc
 50
261.53388
 51
304.488224
  0
LINE
  5
12E1
330
15B1
100
AcDbEntity
  8
V0-OBRYS
100
AcDbLine
 10
205.152998
 20
-25.649465
 30
0.0
 11
194.36898
 21
-6.970997000000001
 31
0.0
  0
ARC
  5
12E2
330
15B1
100
AcDbEntity
  8
V0-OBRYS
100
AcDbCircle
 10
171.87089
 20
-33.879803
 30
0.0
 40
1.8
100
AcDbArc
 50
170.0
 51
261.53388
  0
ARC
  5
12E3
330
15B1
100
AcDbEntity
  8
V0-OBRYS
100
AcDbCircle
 10
203.594152
 20
-26.549465
 30
0.0
 40
1.8
100
AcDbArc
 50
304.488224
 51
30.0
  0
LINE
  5
12E4
330
15B1
100
AcDbEntity
  8
V0-OBRYS
100
AcDbLine
 10
196.576273
 20
-5.564797
 30
0.0
 11
209.991128
 21
-24.723195
 31
0.0
  0
ARC
  5
12E5
330
15B1
100
AcDbEntity
  8
V0-OBRYS
100
AcDbCircle
 10
184.996341
 20
12.036193
 30
0.0
 40
46.263881
100
AcDbArc
 50
306.5338800000001
 51
313.206317
  0
LINE
  5
12E6
330
15B1
100
AcDbEntity
  8
V0-OBRYS
100
AcDbLine
 10
229.179878
 20
5.662975
 30
0.0
 11
208.346754
 21
11.245193
 31
0.0
  0
ARC
  5
12E7
330
15B1
100
AcDbEntity
  8
V0-OBRYS
100
AcDbCircle
 10
211.465602
 20
-23.690758
 30
0.0
 40
1.8
100
AcDbArc
 50
215.0
 51
306.5338800000001
  0
ARC
  5
12E8
330
15B1
100
AcDbEntity
  8
V0-OBRYS
100
AcDbCircle
 10
228.714004
 20
3.924308
 30
0.0
 40
1.8
100
AcDbArc
 50
349.488224
 51
75.0
  0
LINE
  5
12E9
330
15B1
100
AcDbEntity
  8
V0-OBRYS
100
AcDbLine
 10
208.913212
 20
13.800319
 30
0.0
 11
231.945981
 21
9.739020999999999
 31
0.0
  0
ARC
  5
12EA
330
15B1
100
AcDbEntity
  8
V0-OBRYS
100
AcDbCircle
 10
188.279185
 20
18.05785
 30
0.0
 40
46.263881
100
AcDbArc
 50
351.5338800000001
 51
34.488224
  0
LINE
  5
12EB
330
15B1
100
AcDbEntity
  8
V0-OBRYS
100
AcDbLine
 10
224.02821
 20
44.793783
 30
0.0
 11
205.349742
 21
34.009765
 31
0.0
  0
ARC
  5
12EC
330
15B1
100
AcDbEntity
  8
V0-OBRYS
100
AcDbCircle
 10
232.258548
 20
11.511675
 30
0.0
 40
1.8
100
AcDbArc
 50
260.0
 51
351.5338800000001
  0
ARC
  5
12ED
330
15B1
100
AcDbEntity
  8
V0-OBRYS
100
AcDbCircle
 10
224.92821
 20
43.234937
 30
0.0
 40
1.8
100
AcDbArc
 50
34.488224
 51
120.0
  0
LINE
  5
12EE
330
15B1
100
AcDbEntity
  8
V0-OBRYS
100
AcDbLine
 10
203.943541
 20
36.217058
 30
0.0
 11
223.10194
 21
49.631913
 31
0.0
  0
ARC
  5
12EF
330
15B1
100
AcDbEntity
  8
V0-OBRYS
100
AcDbCircle
 10
186.342552
 20
24.637126
 30
0.0
 40
46.263881
100
AcDbArc
 50
36.53388
 51
43.206317
  0
LINE
  5
12F0
330
15B1
100
AcDbEntity
  8
V0-OBRYS
100
AcDbLine
 10
192.71577
 20
68.820663
 30
0.0
 11
187.133551
 21
47.987539
 31
0.0
  0
ARC
  5
12F1
330
15B1
100
AcDbEntity
  8
V0-OBRYS
100
AcDbCircle
 10
222.069502
 20
51.106387
 30
0.0
 40
1.8
100
AcDbArc
 50
305.0
 51
36.53388
  0
ARC
  5
12F2
330
15B1
100
AcDbEntity
  8
V0-OBRYS
100
AcDbCircle
 10
194.454436
 20
68.354789
 30
0.0
 40
1.8
100
AcDbArc
 50
79.488224
 51
165.0
  0
CIRCLE
  5
12F3
330
15B1
100
AcDbEntity
  8
V0-OBRYS
100
AcDbCircle
 10
163.76898
 20
19.009765
 30
0.0
 40
3.6
  0
CIRCLE
  5
12F4
330
15B1
100
AcDbEntity
  8
V0-OBRYS
100
AcDbCircle
 10
194.96898
 20
19.009765
 30
0.0
 40
3.6
  0
LINE
  5
12F5
330
15B1
100
AcDbEntity
  8
V0-OBRYS
100
AcDbLine
 10
179.36898
 20
54.58993
 30
0.0
 11
174.309783
 21
54.58993
 31
0.0
  0
LINE
  5
12F6
330
15B1
100
AcDbEntity
  8
V0-OBRYS
100
AcDbLine
 10
174.309783
 20
54.58993
 30
0.0
 11
174.309783
 21
52.501831
 31
0.0
  0
LINE
  5
12F7
330
15B1
100
AcDbEntity
  8
V0-OBRYS
100
AcDbLine
 10
174.309783
 20
52.501831
 30
0.0
 11
179.36898
 21
52.501831
 31
0.0
  0
LINE
  5
12F8
330
15B1
100
AcDbEntity
  8
V0-OBRYS
100
AcDbLine
 10
179.36898
 20
52.501831
 30
0.0
 11
171.69832
 21
52.501831
 31
0.0
  0
LINE
  5
12FA
330
15B1
100
AcDbEntity
  8
V0-OBRYS
100
AcDbLine
 10
171.69832
 20
52.501831
 30
0.0
 11
171.69832
 21
48.01254
 31
0.0
  0
LINE
  5
12FB
330
15B1
100
AcDbEntity
  8
V0-OBRYS
100
AcDbLine
 10
179.36898
 20
54.58993
 30
0.0
 11
184.428176
 21
54.58993
 31
0.0
  0
LINE
  5
12FC
330
15B1
100
AcDbEntity
  8
V0-OBRYS
100
AcDbLine
 10
179.36898
 20
52.501831
 30
0.0
 11
187.039639
 21
52.501831
 31
0.0
  0
LINE
  5
12FD
330
15B1
100
AcDbEntity
  8
V0-OBRYS
100
AcDbLine
 10
184.428176
 20
54.58993
 30
0.0
 11
184.428176
 21
52.501831
 31
0.0
  0
LINE
  5
12FE
330
15B1
100
AcDbEntity
  8
V0-OBRYS
100
AcDbLine
 10
187.039639
 20
52.501831
 30
0.0
 11
187.039639
 21
48.01254
 31
0.0
  0
LINE
  5
1303
330
15B1
100
AcDbEntity
  8
V0-OBRYS
100
AcDbLine
 10
159.920824
 20
41.852033
 30
0.0
 11
140.372056
 21
61.400801
 31
0.0
  0
LINE
  5
1304
330
15B1
100
AcDbEntity
  8
V0-OBRYS
100
AcDbLine
 10
156.526711
 20
38.457921
 30
0.0
 11
136.977943
 21
58.006688
 31
0.0
  0
ARC
  5
1305
330
15B1
100
AcDbEntity
  8
V0-OBRYS
100
AcDbCircle
 10
173.741618
 20
25.983337
 30
0.0
 40
46.263881
100
AcDbArc
 50
139.154839
 51
169.488224
  0
LINE
  5
1306
330
15B1
100
AcDbEntity
  8
V0-OBRYS
100
AcDbLine
 10
156.526711
 20
-0.438391
 30
0.0
 11
136.977943
 21
-19.987159
 31
0.0
  0
LINE
  5
1307
330
15B1
100
AcDbEntity
  8
V0-OBRYS
100
AcDbLine
 10
159.920824
 20
-3.832504
 30
0.0
 11
140.372056
 21
-23.381272
 31
0.0
  0
LINE
  5
1308
330
15B1
100
AcDbEntity
  8
V0-OBRYS
100
AcDbLine
 10
198.817136
 20
-3.832504
 30
0.0
 11
218.365903
 21
-23.381272
 31
0.0
  0
LINE
  5
1309
330
15B1
100
AcDbEntity
  8
V0-OBRYS
100
AcDbLine
 10
202.211248
 20
-0.438391
 30
0.0
 11
221.760016
 21
-19.987159
 31
0.0
  0
LINE
  5
130A
330
15B1
100
AcDbEntity
  8
V0-OBRYS
100
AcDbLine
 10
202.211248
 20
38.457921
 30
0.0
 11
221.760016
 21
58.006688
 31
0.0
  0
LINE
  5
130B
330
15B1
100
AcDbEntity
  8
V0-OBRYS
100
AcDbLine
 10
198.817136
 20
41.852033
 30
0.0
 11
218.365903
 21
61.400801
 31
0.0
  0
ARC
  5
130C
330
15B1
100
AcDbEntity
  8
V0-OBRYS
100
AcDbCircle
 10
172.395408
 20
13.382403
 30
0.0
 40
46.263881
100
AcDbArc
 50
229.154839
 51
259.488224
  0
ARC
  5
130D
330
15B1
100
AcDbEntity
  8
V0-OBRYS
100
AcDbCircle
 10
179.36898
 20
19.009765
 30
0.0
 40
57.6
100
AcDbArc
 50
227.388015
 51
312.611985
  0
ARC
  5
130E
330
15B1
100
AcDbEntity
  8
V0-OBRYS
100
AcDbCircle
 10
184.996341
 20
12.036193
 30
0.0
 40
46.263881
100
AcDbArc
 50
319.154839
 51
349.488224
  0
ARC
  5
130F
330
15B1
100
AcDbEntity
  8
V0-OBRYS
100
AcDbCircle
 10
179.36898
 20
19.009765
 30
0.0
 40
57.6
100
AcDbArc
 50
317.388015
 51
42.611985
  0
ARC
  5
1310
330
15B1
100
AcDbEntity
  8
V0-OBRYS
100
AcDbCircle
 10
179.36898
 20
19.009765
 30
0.0
 40
57.6
100
AcDbArc
 50
47.388015
 51
132.611985
  0
ARC
  5
1311
330
15B1
100
AcDbEntity
  8
V0-OBRYS
100
AcDbCircle
 10
186.342552
 20
24.637126
 30
0.0
 40
46.263881
100
AcDbArc
 50
49.154839
 51
79.488224
  0
LINE
  5
1328
330
15B1
100
AcDbEntity
  8
V0-OBRYS
100
AcDbLine
 10
48.006386
 20
-259.577305
 30
0.0
 11
-61.993614
 21
-259.577305
 31
0.0
  0
LINE
  5
1329
330
15B1
100
AcDbEntity
  8
V0-OBRYS
100
AcDbLine
 10
48.006386
 20
-141.577305
 30
0.0
 11
-61.993614
 21
-141.577305
 31
0.0
  0
LINE
  5
132A
330
15B1
100
AcDbEntity
  8
V0-OBRYS
100
AcDbLine
 10
48.006386
 20
-259.577305
 30
0.0
 11
48.006386
 21
-141.577305
 31
0.0
  0
LINE
  5
132B
330
15B1
100
AcDbEntity
  8
V0-OBRYS
100
AcDbLine
 10
-61.993614
 20
-141.577305
 30
0.0
 11
-61.993614
 21
-259.577305
 31
0.0
  0
LINE
  5
1335
330
15B1
100
AcDbEntity
  8
V0-VYPLNE
100
AcDbLine
 10
65.277424
 20
-200.577305
 30
0.0
 11
-65.933787
 21
-200.577305
 31
0.0
  0
POINT
  5
1344
330
15B1
100
AcDbEntity
  8
V0-VYPLNE
 62
    41
100
AcDbPoint
 10
179.36898
 20
19.009765
 30
0.0
  0
POINT
  5
1346
330
15B1
100
AcDbEntity
  8
V0-VYPLNE
 62
    41
100
AcDbPoint
 10
48.006386
 20
-200.577305
 30
0.0
  0
TEXT
  5
1347
330
15B1
100
AcDbEntity
  8
V0-VYPLNE
 62
     6
100
AcDbText
 10
143.673448
 20
-152.665967
 30
0.0
 40
20.0
  1
TDM-300
  7
ED20
100
AcDbText
  0
TEXT
  5
1348
330
15B1
100
AcDbEntity
  8
V0-VYPLNE
 62
     4
100
AcDbText
 10
101.41761
 20
-181.611669
 30
0.0
 40
10.0
  1
AXIALNI VENTILATOR VSUVNY
  7
ED10
100
AcDbText
  0
TEXT
  5
1349
330
15B1
100
AcDbEntity
  8
V0-VYPLNE
 62
    51
100
AcDbText
 10
121.538791
 20
-208.222449
 30
0.0
 40
10.0
  1
PRO KRUHOVE POTRUBI
  7
ED10
100
AcDbText
  0
LINE
  5
13B3
330
15B1
100
AcDbEntity
  8
V0-VYPLNE
  6
Continuous
 62
    41
100
AcDbLine
 10
-6.537252
 20
-200.577305
 30
0.0
 11
-6.537252
 21
-200.577305
 31
0.0
  0
DIMENSION
  5
13BE
330
15B1
100
AcDbEntity
  8
V0-VYPLNE
  6
Continuous
 62
    41
100
AcDbDimension
  2
*D34
 10
-100.4841180000003
 20
-38.45447099999999
 30
0.0
 11
-100.484118
 21
21.430362
 31
0.0
 70
   160
  1
%%c<>
 71
     0
 42
118.0
  3
ED10
100
AcDbAlignedDimension
 13
-61.993614
 23
79.545529
 33
0.0
 14
-61.993614
 24
-38.454471
 34
0.0
 50
270.0
100
AcDbRotatedDimension
  0
LINE
  5
13BF
330
15B1
100
AcDbEntity
  8
V0-VYPLNE
  6
Continuous
 62
    41
100
AcDbLine
 10
18.140357
 20
20.545529
 30
0.0
 11
3.735956999999999
 21
14.617354
 31
0.0
  0
POINT
  5
13C0
330
15B1
100
AcDbEntity
  8
V0-VYPLNE
 62
    41
100
AcDbPoint
 10
48.006386
 20
20.545529
 30
0.0
  0
LINE
  5
13C3
330
15B1
100
AcDbEntity
  8
V0-OBRYS
100
AcDbLine
 10
-61.993614
 20
-38.454471
 30
0.0
 11
-61.993614
 21
79.545529
 31
0.0
  0
LINE
  5
13C4
330
15B1
100
AcDbEntity
  8
V0-OBRYS
100
AcDbLine
 10
48.006386
 20
79.545529
 30
0.0
 11
48.006386
 21
-38.454471
 31
0.0
  0
LINE
  5
13C7
330
15B1
100
AcDbEntity
  8
V0-OBRYS
100
AcDbLine
 10
48.006386
 20
-38.454471
 30
0.0
 11
-61.993614
 21
-38.454471
 31
0.0
  0
LINE
  5
13C9
330
15B1
100
AcDbEntity
  8
V0-VYPLNE
  6
Continuous
 62
    41
100
AcDbLine
 10
18.140357
 20
20.545529
 30
0.0
 11
-11.515761
 21
20.545529
 31
0.0
  0
LINE
  5
13CB
330
15B1
100
AcDbEntity
  8
V0-VYPLNE
100
AcDbLine
 10
65.90454
 20
20.545529
 30
0.0
 11
-75.68641400000001
 21
20.545529
 31
0.0
  0
LINE
  5
13CC
330
15B1
100
AcDbEntity
  8
V0-OBRYS
100
AcDbLine
 10
48.006386
 20
79.545529
 30
0.0
 11
-61.993614
 21
79.545529
 31
0.0
  0
LINE
  5
13CD
330
15B1
100
AcDbEntity
  8
V0-VYPLNE
  6
Continuous
 62
    41
100
AcDbLine
 10
18.140357
 20
20.545529
 30
0.0
 11
3.735956999999999
 21
26.473705
 31
0.0
  0
LINE
  5
13CE
330
15B1
100
AcDbEntity
  8
V0-VYPLNE
  6
Continuous
 62
    41
100
AcDbLine
 10
18.140357
 20
20.545529
 30
0.0
 11
18.140357
 21
20.545529
 31
0.0
  0
DIMENSION
  5
14F8
330
15B1
100
AcDbEntity
  8
V0-VYPLNE
  6
Continuous
 62
    41
100
AcDbDimension
  2
*D35
 10
48.006386
 20
-80.56158199999982
 30
0.0
 11
-6.993614000000008
 21
-74.06158199999982
 31
0.0
 70
    32
 71
     0
 42
110.0
  3
ED10
100
AcDbAlignedDimension
 13
-61.993614
 23
-39.454471
 33
0.0
 14
48.006386
 24
-38.454471
 34
0.0
100
AcDbRotatedDimension
  0
LINE
  5
1559
330
15B1
100
AcDbEntity
  8
V0-VYPLNE
  6
Continuous
 62
    41
100
AcDbLine
 10
18.140357
 20
-200.60461
 30
0.0
 11
3.735956999999999
 21
-194.676435
 31
0.0
  0
LINE
  5
155A
330
15B1
100
AcDbEntity
  8
V0-VYPLNE
  6
Continuous
 62
    41
100
AcDbLine
 10
18.140357
 20
-200.60461
 30
0.0
 11
-11.515761
 21
-200.60461
 31
0.0
  0
LINE
  5
155B
330
15B1
100
AcDbEntity
  8
V0-VYPLNE
  6
Continuous
 62
    41
100
AcDbLine
 10
18.140357
 20
-200.60461
 30
0.0
 11
3.735956999999999
 21
-206.532786
 31
0.0
  0
LINE
  5
155C
330
15B1
100
AcDbEntity
  8
V0-VYPLNE
  6
Continuous
 62
    41
100
AcDbLine
 10
18.140357
 20
-200.60461
 30
0.0
 11
18.140357
 21
-200.60461
 31
0.0
  0
VIEWPORT
  5
16B7
330
15AD
100
AcDbEntity
 67
     1
  8
0
 60
     1
100
AcDbViewport
 10
261.517699
 20
148.5
 30
0.0
 40
297.0
 41
297.0
 69
     1
 12
261.517699
 22
148.5
 13
0.0
 23
0.0
 14
1.0
 24
1.0
 15
0.0
 25
0.0
 16
0.0
 26
0.0
 36
1.0
 17
0.0
 27
0.0
 37
0.0
 42
0.0
 43
0.0
 44
0.0
 45
297.0
 50
0.0
 51
0.0000000000007958
 72
   100
 90
   163872
  1

281
     0
 71
     0
 74
     0
110
0.0
120
0.0
130
0.0
111
1.0
121
0.0
131
0.0
112
0.0
122
1.0
132
0.0
 79
     0
146
0.0
1001
VD_INVISIBLE_NOT_FOR_READ
1000
VD_INVISIBLE_NOT_FOR_READ
  0
VIEWPORT
  5
16B8
330
15AD
100
AcDbEntity
 67
     1
  8
0
 60
     1
100
AcDbViewport
 10
261.517699
 20
148.5
 30
0.0
 40
297.0
 41
297.0
 69
     2
 12
261.517699
 22
148.5
 13
0.0
 23
0.0
 14
1.0
 24
1.0
 15
0.0
 25
0.0
 16
0.0
 26
0.0
 36
1.0
 17
0.0
 27
0.0
 37
0.0
 42
0.0
 43
0.0
 44
0.0
 45
297.0
 50
0.0
 51
0.0000000000007958
 72
   100
 90
   163872
  1

281
     0
 71
     0
 74
     0
110
0.0
120
0.0
130
0.0
111
1.0
121
0.0
131
0.0
112
0.0
122
1.0
132
0.0
 79
     0
146
0.0
1001
VD_INVISIBLE_NOT_FOR_READ
1000
VD_INVISIBLE_NOT_FOR_READ
  0
ENDSEC
  0
SECTION
  2
OBJECTS
  0
DICTIONARY
  5
159E
330
0
100
AcDbDictionary
281
     1
  3
ACAD_GROUP
350
159F
  3
ACAD_LAYOUT
350
15AC
  3
ACAD_MLINESTYLE
350
15A9
  3
ACAD_PLOTSETTINGS
350
15AB
  3
ACAD_PLOTSTYLENAME
350
15A0
  3
VECTORDRAW_OBJECTS
350
15C1
  0
DICTIONARY
  5
159F
102
{ACAD_REACTORS
330
159E
102
}
330
159E
100
AcDbDictionary
281
     1
  0
DICTIONARY
  5
15AC
102
{ACAD_REACTORS
330
159E
102
}
330
159E
100
AcDbDictionary
281
     1
  3
Layout1
350
15B0
  3
Layout2
350
15B8
  3
Model
350
15B4
  0
DICTIONARY
  5
15A9
102
{ACAD_REACTORS
330
159E
102
}
330
159E
100
AcDbDictionary
281
     1
  3
Standard
350
15AA
  0
DICTIONARY
  5
15AB
102
{ACAD_REACTORS
330
159E
102
}
330
159E
100
AcDbDictionary
281
     1
  0
ACDBDICTIONARYWDFLT
  5
15A0
102
{ACAD_REACTORS
330
159E
102
}
330
159E
100
AcDbDictionary
281
     1
  3
Normal
350
15A1
100
AcDbDictionaryWithDefault
340
15A1
  0
DICTIONARY
  5
15C1
102
{ACAD_REACTORS
330
159E
102
}
330
159E
100
AcDbDictionary
281
     1
  3
SERIALNO
350
15C2
  0
LAYOUT
  5
15B0
102
{ACAD_REACTORS
330
15AC
102
}
330
15AC
100
AcDbPlotSettings
  1
VectorDraw Printer Drawing
  2

  4

  6

 40
0.0
 41
0.0
 42
0.0
 43
0.0
 44
0.0
 45
0.0
 46
0.0
 47
0.0
 48
0.0
 49
0.0
140
0.0
141
0.0
142
1.0
143
1.0
 70
   688
 72
     0
 73
     0
 74
     5
  7

 75
    16
147
1.0
148
0.0
149
0.0
100
AcDbLayout
  1
Layout1
 70
     1
 71
     1
 10
0.0
 20
0.0
 11
12.0
 21
9.0
 12
0.0
 22
0.0
 32
0.0
 14
1.000000000000000E+20
 24
1.000000000000000E+20
 34
1.000000000000000E+20
 15
-1.000000000000000E+20
 25
-1.000000000000000E+20
 35
-1.000000000000000E+20
146
0.0
 13
0.0
 23
0.0
 33
0.0
 16
1.0
 26
0.0
 36
0.0
 17
0.0
 27
1.0
 37
0.0
 76
     0
330
15AD
331
16B7
  0
LAYOUT
  5
15B8
102
{ACAD_REACTORS
330
15AC
102
}
330
15AC
100
AcDbPlotSettings
  1

  2

  4

  6

 40
0.0
 41
0.0
 42
0.0
 43
0.0
 44
0.0
 45
0.0
 46
0.0
 47
0.0
 48
0.0
 49
0.0
140
0.0
141
0.0
142
1.0
143
1.0
 70
   688
 72
     0
 73
     0
 74
     5
  7

 75
    16
147
1.0
148
0.0
149
0.0
100
AcDbLayout
  1
Layout2
 70
     1
 71
     2
 10
0.0
 20
0.0
 11
0.0
 21
0.0
 12
0.0
 22
0.0
 32
0.0
 14
0.0
 24
0.0
 34
0.0
 15
0.0
 25
0.0
 35
0.0
146
0.0
 13
0.0
 23
0.0
 33
0.0
 16
1.0
 26
0.0
 36
0.0
 17
0.0
 27
1.0
 37
0.0
 76
     0
330
15B5
  0
LAYOUT
  5
15B4
102
{ACAD_REACTORS
330
15AC
102
}
330
15AC
100
AcDbPlotSettings
  1
VectorDraw Printer Drawing
  2

  4

  6

 40
0.0
 41
0.0
 42
0.0
 43
0.0
 44
0.0
 45
0.0
 46
0.0
 47
0.0
 48
0.0
 49
0.0
140
0.0
141
0.0
142
1.0
143
1.0
 70
  1712
 72
     0
 73
     0
 74
     0
  7

 75
     0
147
1.0
148
0.0
149
0.0
100
AcDbLayout
  1
Model
 70
     1
 71
     0
 10
0.0
 20
0.0
 11
0.0
 21
0.0
 12
0.0
 22
0.0
 32
0.0
 14
-106.9264256923078
 24
-259.577305
 34
0.0
 15
304.4670605494505
 25
92.284092
 35
0.0
146
0.0
 13
0.0
 23
0.0
 33
0.0
 16
1.0
 26
0.0
 36
0.0
 17
0.0
 27
1.0
 37
0.0
 76
     0
330
15B1
  0
MLINESTYLE
  5
15AA
102
{ACAD_REACTORS
330
15A9
102
}
330
15A9
100
AcDbMlineStyle
  2
Standard
 70
     0
  3

 62
   256
 51
90.0
 52
90.0
 71
     2
 49
0.5
 62
   256
  6
BYLAYER
 49
-0.5
 62
   256
  6
BYLAYER
  0
ACDBPLACEHOLDER
  5
15A1
102
{ACAD_REACTORS
330
15A0
102
}
330
15A0
  0
XRECORD
  5
15C2
102
{ACAD_REACTORS
330
15C1
102
}
330
15C1
100
AcDbXrecord
280
     1
1000
rInJVR9YY4Q8hfPWdUq5j5319
1070
     4
1070
     6
  0
ENDSEC
  0
EOF
