  0
SECTION
  2
HEADER
  9
$ACADVER
  1
AC1014
  9
$ACADMAINTVER
 70
     0
  9
$DWGCODEPAGE
  3
ANSI_1250
  9
$INSBASE
 10
0.0
 20
0.0
 30
0.0
  9
$EXTMIN
 10
155.25
 20
-1090.0
 30
0.0
  9
$EXTMAX
 10
1025.895448
 20
-397.181831
 30
0.0
  9
$LIMMIN
 10
-1040.805314
 20
-347.068924
  9
$LIMMAX
 10
643.686187
 20
495.293187
  9
$ORTHOMODE
 70
     1
  9
$REGENMODE
 70
     1
  9
$FILLMODE
 70
     1
  9
$QTEXTMODE
 70
     0
  9
$MIRRTEXT
 70
     1
  9
$DRAGMODE
 70
     2
  9
$LTSCALE
 40
15.0
  9
$OSMODE
 70
  1023
  9
$ATTMODE
 70
     1
  9
$TEXTSIZE
 40
15.0
  9
$TRACEWID
 40
1.0
  9
$TEXTSTYLE
  7
STANDARD
  9
$CLAYER
  8
0
  9
$CELTYPE
  6
BYLAYER
  9
$CECOLOR
 62
   256
  9
$CELTSCALE
 40
5.0
  9
$DELOBJ
 70
     1
  9
$DISPSILH
 70
     0
  9
$DIMSCALE
 40
5.0
  9
$DIMASZ
 40
3.5
  9
$DIMEXO
 40
0.0625
  9
$DIMDLI
 40
0.38
  9
$DIMRND
 40
0.0
  9
$DIMDLE
 40
0.0
  9
$DIMEXE
 40
0.18
  9
$DIMTP
 40
0.0
  9
$DIMTM
 40
0.0
  9
$DIMTXT
 40
3.5
  9
$DIMCEN
 40
0.0
  9
$DIMTSZ
 40
0.0
  9
$DIMTOL
 70
     0
  9
$DIMLIM
 70
     0
  9
$DIMTIH
 70
     0
  9
$DIMTOH
 70
     0
  9
$DIMSE1
 70
     0
  9
$DIMSE2
 70
     0
  9
$DIMTAD
 70
     1
  9
$DIMZIN
 70
     0
  9
$DIMBLK
  1

  9
$DIMASO
 70
     1
  9
$DIMSHO
 70
     1
  9
$DIMPOST
  1

  9
$DIMAPOST
  1

  9
$DIMALT
 70
     0
  9
$DIMALTD
 70
     2
  9
$DIMALTF
 40
25.4
  9
$DIMLFAC
 40
1.0
  9
$DIMTOFL
 70
     0
  9
$DIMTVP
 40
0.0
  9
$DIMTIX
 70
     0
  9
$DIMSOXD
 70
     0
  9
$DIMSAH
 70
     1
  9
$DIMBLK1
  1
_OPEN
  9
$DIMBLK2
  1
_OPEN
  9
$DIMSTYLE
  2
STANDARD
  9
$DIMCLRD
 70
     0
  9
$DIMCLRE
 70
     0
  9
$DIMCLRT
 70
     0
  9
$DIMTFAC
 40
1.0
  9
$DIMGAP
 40
0.625
  9
$DIMJUST
 70
     0
  9
$DIMSD1
 70
     0
  9
$DIMSD2
 70
     0
  9
$DIMTOLJ
 70
     1
  9
$DIMTZIN
 70
     0
  9
$DIMALTZ
 70
     0
  9
$DIMALTTZ
 70
     0
  9
$DIMFIT
 70
     0
  9
$DIMUPT
 70
     0
  9
$DIMUNIT
 70
     2
  9
$DIMDEC
 70
     0
  9
$DIMTDEC
 70
     4
  9
$DIMALTU
 70
     2
  9
$DIMALTTD
 70
     2
  9
$DIMTXSTY
  7
STANDARD
  9
$DIMAUNIT
 70
     0
  9
$LUNITS
 70
     2
  9
$LUPREC
 70
     4
  9
$SKETCHINC
 40
1.0
  9
$FILLETRAD
 40
5.0
  9
$AUNITS
 70
     0
  9
$AUPREC
 70
     0
  9
$MENU
  1
.
  9
$ELEVATION
 40
0.0
  9
$PELEVATION
 40
0.0
  9
$THICKNESS
 40
0.0
  9
$LIMCHECK
 70
     0
  9
$BLIPMODE
 70
     1
  9
$CHAMFERA
 40
10.0
  9
$CHAMFERB
 40
10.0
  9
$CHAMFERC
 40
20.0
  9
$CHAMFERD
 40
0.0
  9
$SKPOLY
 70
     0
  9
$TDCREATE
 40
2450763.421427893
  9
$TDUPDATE
 40
2452915.660944329
  9
$TDINDWG
 40
1.2359336806
  9
$TDUSRTIMER
 40
1.2359336806
  9
$USRTIMER
 70
     1
  9
$ANGBASE
 50
0.0
  9
$ANGDIR
 70
     0
  9
$PDMODE
 70
     3
  9
$PDSIZE
 40
15.0
  9
$PLINEWID
 40
0.0
  9
$COORDS
 70
     2
  9
$SPLFRAME
 70
     0
  9
$SPLINETYPE
 70
     6
  9
$SPLINESEGS
 70
     8
  9
$ATTDIA
 70
     0
  9
$ATTREQ
 70
     1
  9
$HANDLING
 70
     1
  9
$HANDSEED
  5
292B
  9
$SURFTAB1
 70
     6
  9
$SURFTAB2
 70
     6
  9
$SURFTYPE
 70
     6
  9
$SURFU
 70
     6
  9
$SURFV
 70
     6
  9
$UCSNAME
  2

  9
$UCSORG
 10
350.0
 20
-600.0
 30
0.0
  9
$UCSXDIR
 10
1.0
 20
0.0
 30
0.0
  9
$UCSYDIR
 10
0.0
 20
1.0
 30
0.0
  9
$PUCSNAME
  2

  9
$PUCSORG
 10
0.0
 20
0.0
 30
0.0
  9
$PUCSXDIR
 10
1.0
 20
0.0
 30
0.0
  9
$PUCSYDIR
 10
0.0
 20
1.0
 30
0.0
  9
$USERI1
 70
     0
  9
$USERI2
 70
     0
  9
$USERI3
 70
     0
  9
$USERI4
 70
     0
  9
$USERI5
 70
     0
  9
$USERR1
 40
0.0
  9
$USERR2
 40
0.0
  9
$USERR3
 40
0.0
  9
$USERR4
 40
0.0
  9
$USERR5
 40
0.0
  9
$WORLDVIEW
 70
     1
  9
$SHADEDGE
 70
     3
  9
$SHADEDIF
 70
    70
  9
$TILEMODE
 70
     1
  9
$MAXACTVP
 70
    16
  9
$PINSBASE
 10
0.0
 20
0.0
 30
0.0
  9
$PLIMCHECK
 70
     0
  9
$PEXTMIN
 10
1.000000E+20
 20
1.000000E+20
 30
1.000000E+20
  9
$PEXTMAX
 10
-1.000000E+20
 20
-1.000000E+20
 30
-1.000000E+20
  9
$PLIMMIN
 10
0.0
 20
0.0
  9
$PLIMMAX
 10
420.0
 20
297.0
  9
$UNITMODE
 70
     0
  9
$VISRETAIN
 70
     0
  9
$PLINEGEN
 70
     0
  9
$PSLTSCALE
 70
     0
  9
$TREEDEPTH
 70
  3020
  9
$PICKSTYLE
 70
     1
  9
$CMLSTYLE
  2
STANDARD
  9
$CMLJUST
 70
     0
  9
$CMLSCALE
 40
1.0
  9
$PROXYGRAPHICS
 70
     1
  9
$MEASUREMENT
 70
     1
  0
ENDSEC
  0
SECTION
  2
CLASSES
  0
CLASS
  1
LWPOLYLINE
  2
AcDbPolyline
  3
"AutoCAD"
 90
        0
280
     0
281
     1
  0
CLASS
  1
DICTIONARYVAR
  2
AcDbDictionaryVar
  3
"AutoCAD"
 90
        0
280
     0
281
     0
  0
CLASS
  1
HATCH
  2
AcDbHatch
  3
"ACAD_SEDONA"
 90
        0
280
     0
281
     1
  0
ENDSEC
  0
SECTION
  2
TABLES
  0
TABLE
  2
VPORT
  5
8
100
AcDbSymbolTable
 70
     3
  0
VPORT
  5
292A
100
AcDbSymbolTableRecord
100
AcDbViewportTableRecord
  2
*ACTIVE
 70
     0
 10
0.0
 20
0.0
 11
1.0
 21
1.0
 12
651.862385
 22
-745.238308
 13
0.0
 23
0.0
 14
10.0
 24
10.0
 15
50.0
 25
50.0
 16
0.0
 26
0.0
 36
1.0
 17
0.0
 27
0.0
 37
0.0
 40
711.151691
 41
1.730469
 42
50.0
 43
0.0
 44
0.0
 50
0.0
 51
0.0
 71
     0
 72
   100
 73
     1
 74
     0
 75
     0
 76
     1
 77
     0
 78
     0
  0
ENDTAB
  0
TABLE
  2
LTYPE
  5
5
100
AcDbSymbolTable
 70
     2
  0
LTYPE
  5
14
100
AcDbSymbolTableRecord
100
AcDbLinetypeTableRecord
  2
BYBLOCK
 70
     0
  3

 72
    65
 73
     0
 40
0.0
  0
LTYPE
  5
15
100
AcDbSymbolTableRecord
100
AcDbLinetypeTableRecord
  2
BYLAYER
 70
     0
  3

 72
    65
 73
     0
 40
0.0
  0
LTYPE
  5
16
100
AcDbSymbolTableRecord
100
AcDbLinetypeTableRecord
  2
CONTINUOUS
 70
     0
  3
Solid line
 72
    65
 73
     0
 40
0.0
  0
LTYPE
  5
492
100
AcDbSymbolTableRecord
100
AcDbLinetypeTableRecord
  2
DASHDOT
 70
     0
  3
__ . __ . __ . __ . __ . __ . __ . __ . __ . __
 72
    65
 73
     4
 40
1.0
 49
0.5
 74
     0
 49
-0.25
 74
     0
 49
0.0
 74
     0
 49
-0.25
 74
     0
  0
ENDTAB
  0
TABLE
  2
LAYER
  5
2
100
AcDbSymbolTable
 70
     7
  0
LAYER
  5
F
100
AcDbSymbolTableRecord
100
AcDbLayerTableRecord
  2
0
 70
     0
 62
     7
  6
CONTINUOUS
  0
LAYER
  5
1538
100
AcDbSymbolTableRecord
100
AcDbLayerTableRecord
  2
KOTY
 70
     0
 62
    41
  6
CONTINUOUS
  0
LAYER
  5
1A22
100
AcDbSymbolTableRecord
100
AcDbLayerTableRecord
  2
DEFPOINTS
 70
     0
 62
     7
  6
CONTINUOUS
  0
LAYER
  5
27A7
100
AcDbSymbolTableRecord
100
AcDbLayerTableRecord
  2
V0-OBRYS
 70
     0
 62
    90
  6
CONTINUOUS
  0
LAYER
  5
27A8
100
AcDbSymbolTableRecord
100
AcDbLayerTableRecord
  2
V0-VYPLNE
 70
     0
 62
    52
  6
CONTINUOUS
  0
LAYER
  5
27A9
100
AcDbSymbolTableRecord
100
AcDbLayerTableRecord
  2
V0-NAZVY
 70
     0
 62
   210
  6
CONTINUOUS
  0
LAYER
  5
27AA
100
AcDbSymbolTableRecord
100
AcDbLayerTableRecord
  2
V0-ZBYTEK
 70
     0
 62
    51
  6
CONTINUOUS
  0
ENDTAB
  0
TABLE
  2
STYLE
  5
3
100
AcDbSymbolTable
 70
     8
  0
STYLE
  5
10
100
AcDbSymbolTableRecord
100
AcDbTextStyleTableRecord
  2
STANDARD
 70
     0
 40
0.0
 41
1.0
 50
0.0
 71
     0
 42
15.0
  3
ISOCP
  4

  0
STYLE
  5
1BDA
100
AcDbSymbolTableRecord
100
AcDbTextStyleTableRecord
  2
SIMPLCS
 70
     0
 40
0.0
 41
1.0
 50
0.0
 71
     0
 42
0.2
  3
SIMPLCS
  4

  0
STYLE
  5
1C7B
100
AcDbSymbolTableRecord
100
AcDbTextStyleTableRecord
  2

 70
     1
 40
0.0
 41
1.0
 50
0.0
 71
     0
 42
0.2
  3
ltypeshp.shx
  4

  0
STYLE
  5
27AB
100
AcDbSymbolTableRecord
100
AcDbTextStyleTableRecord
  2
ED
 70
     0
 40
20.0
 41
1.0
 50
0.0
 71
     0
 42
2.5
  3
ISOCP.shx
  4

  0
STYLE
  5
27AC
100
AcDbSymbolTableRecord
100
AcDbTextStyleTableRecord
  2
EDVENT
 70
     0
 40
10.0
 41
1.0
 50
0.0
 71
     0
 42
2.5
  3
ISOCP.shx
  4

  0
STYLE
  5
27AD
100
AcDbSymbolTableRecord
100
AcDbTextStyleTableRecord
  2
E
 70
     0
 40
25.0
 41
1.0
 50
0.0
 71
     0
 42
2.5
  3
ISOCP.shx
  4

  0
STYLE
  5
27AE
100
AcDbSymbolTableRecord
100
AcDbTextStyleTableRecord
  2
ED-VENT
 70
     0
 40
25.0
 41
1.0
 50
0.0
 71
     0
 42
2.5
  3
ISOCP.shx
  4

  0
STYLE
  5
27AF
100
AcDbSymbolTableRecord
100
AcDbTextStyleTableRecord
  2
ED2
 70
     0
 40
25.0
 41
1.0
 50
0.0
 71
     0
 42
2.5
  3
ISOCP.shx
  4

  0
ENDTAB
  0
TABLE
  2
VIEW
  5
6
100
AcDbSymbolTable
 70
     0
  0
ENDTAB
  0
TABLE
  2
UCS
  5
7
100
AcDbSymbolTable
 70
     0
  0
ENDTAB
  0
TABLE
  2
APPID
  5
9
100
AcDbSymbolTable
 70
     4
  0
APPID
  5
11
100
AcDbSymbolTableRecord
100
AcDbRegAppTableRecord
  2
ACAD
 70
     0
  0
APPID
  5
906
100
AcDbSymbolTableRecord
100
AcDbRegAppTableRecord
  2
CONTENTTABDATA
 70
     0
  0
APPID
  5
907
100
AcDbSymbolTableRecord
100
AcDbRegAppTableRecord
  2
CONTENTCURRENTTAB
 70
     0
  0
APPID
  5
908
100
AcDbSymbolTableRecord
100
AcDbRegAppTableRecord
  2
CONTENTBLOCKDESCRIPTION
 70
     0
  0
ENDTAB
  0
TABLE
  2
DIMSTYLE
  5
A
100
AcDbSymbolTable
 70
     3
  0
DIMSTYLE
105
1D
102
{ACAD_REACTORS
330
2450
330
2453
330
244F
330
2451
330
244D
330
244E
330
2454
330
2607
330
25C7
330
25E1
102
}
100
AcDbSymbolTableRecord
100
AcDbDimStyleTableRecord
  2
STANDARD
 70
     0
  3

  4

  5

  6
_OPEN
  7
_OPEN
 40
5.0
 41
3.5
 42
0.0625
 43
0.38
 44
0.18
 45
0.0
 46
0.0
 47
0.0
 48
0.0
140
3.5
141
0.0
142
0.0
143
25.4
144
1.0
145
0.0
146
1.0
147
0.625
 71
     0
 72
     0
 73
     0
 74
     0
 75
     0
 76
     0
 77
     1
 78
     0
170
     0
171
     2
172
     0
173
     1
174
     0
175
     0
176
     0
177
     0
178
     0
270
     2
271
     0
272
     4
273
     2
274
     2
340
10
275
     0
280
     0
281
     0
282
     0
283
     1
284
     0
285
     0
286
     0
287
     0
288
     0
  0
DIMSTYLE
105
27B0
100
AcDbSymbolTableRecord
100
AcDbDimStyleTableRecord
  2
ED
 70
     0
  3

  4

  5

  6
_OPEN
  7
_OPEN
 40
0.0
 41
15.0
 42
0.625
 43
3.75
 44
1.25
 45
0.0
 46
0.0
 47
0.0
 48
0.0
140
15.0
141
2.5
142
0.0
143
0.0394
144
1.0
145
0.0
146
1.0
147
3.0
 71
     0
 72
     0
 73
     0
 74
     0
 75
     0
 76
     0
 77
     1
 78
     8
170
     0
171
     4
172
     1
173
     1
174
     0
175
     0
176
     0
177
     0
178
     0
270
     2
271
     0
272
     1
273
     8
274
     4
340
27AB
275
     0
280
     0
281
     0
282
     0
283
     1
284
     8
285
     0
286
     0
287
     3
288
     0
  0
DIMSTYLE
105
27B1
100
AcDbSymbolTableRecord
100
AcDbDimStyleTableRecord
  2
ED2
 70
     0
  3

  4

  5

  6
_OPEN
  7
_OPEN
 40
0.0
 41
25.0
 42
0.625
 43
3.75
 44
1.25
 45
0.0
 46
0.0
 47
0.0
 48
0.0
140
30.0
141
2.5
142
0.0
143
0.0394
144
1.0
145
0.0
146
1.0
147
5.0
 71
     0
 72
     0
 73
     0
 74
     0
 75
     0
 76
     0
 77
     1
 78
     8
170
     0
171
     4
172
     1
173
     1
174
     0
175
     0
176
     0
177
     0
178
     0
270
     2
271
     0
272
     1
273
     8
274
     4
340
27AB
275
     0
280
     0
281
     0
282
     0
283
     1
284
     8
285
     0
286
     0
287
     3
288
     0
  0
ENDTAB
  0
TABLE
  2
BLOCK_RECORD
  5
1
100
AcDbSymbolTable
 70
    21
  0
BLOCK_RECORD
  5
1A
100
AcDbSymbolTableRecord
100
AcDbBlockTableRecord
  2
*MODEL_SPACE
  0
BLOCK_RECORD
  5
17
100
AcDbSymbolTableRecord
100
AcDbBlockTableRecord
  2
*PAPER_SPACE
  0
BLOCK_RECORD
  5
1A05
100
AcDbSymbolTableRecord
100
AcDbBlockTableRecord
  2
_OPEN
  0
BLOCK_RECORD
  5
2811
100
AcDbSymbolTableRecord
100
AcDbBlockTableRecord
  2
*D11
  0
BLOCK_RECORD
  5
281D
100
AcDbSymbolTableRecord
100
AcDbBlockTableRecord
  2
*D12
  0
BLOCK_RECORD
  5
2829
100
AcDbSymbolTableRecord
100
AcDbBlockTableRecord
  2
*D13
  0
BLOCK_RECORD
  5
2835
100
AcDbSymbolTableRecord
100
AcDbBlockTableRecord
  2
*D14
  0
BLOCK_RECORD
  5
2842
100
AcDbSymbolTableRecord
100
AcDbBlockTableRecord
  2
*D15
  0
BLOCK_RECORD
  5
284E
100
AcDbSymbolTableRecord
100
AcDbBlockTableRecord
  2
*D16
  0
BLOCK_RECORD
  5
285A
100
AcDbSymbolTableRecord
100
AcDbBlockTableRecord
  2
*D17
  0
BLOCK_RECORD
  5
28B8
100
AcDbSymbolTableRecord
100
AcDbBlockTableRecord
  2
*D18
  0
BLOCK_RECORD
  5
28C4
100
AcDbSymbolTableRecord
100
AcDbBlockTableRecord
  2
*D19
  0
BLOCK_RECORD
  5
28D0
100
AcDbSymbolTableRecord
100
AcDbBlockTableRecord
  2
*D20
  0
ENDTAB
  0
ENDSEC
  0
SECTION
  2
BLOCKS
  0
BLOCK
  5
1B
100
AcDbEntity
  8
0
100
AcDbBlockBegin
  2
*MODEL_SPACE
 70
     0
 10
0.0
 20
0.0
 30
0.0
  3
*MODEL_SPACE
  1

  0
ENDBLK
  5
1C
100
AcDbEntity
  8
0
100
AcDbBlockEnd
  0
BLOCK
  5
18
100
AcDbEntity
 67
     1
  8
0
100
AcDbBlockBegin
  2
*PAPER_SPACE
 70
     0
 10
0.0
 20
0.0
 30
0.0
  3
*PAPER_SPACE
  1

  0
ENDBLK
  5
19
100
AcDbEntity
 67
     1
  8
0
100
AcDbBlockEnd
  0
BLOCK
  5
1A09
100
AcDbEntity
  8
0
100
AcDbBlockBegin
  2
_OPEN
 70
     0
 10
0.0
 20
0.0
 30
0.0
  3
_OPEN
  1

  0
LINE
  5
1A06
100
AcDbEntity
  8
0
  6
BYBLOCK
 62
     0
100
AcDbLine
 10
-1.0
 20
0.166667
 30
0.0
 11
0.0
 21
0.0
 31
0.0
  0
LINE
  5
1A07
100
AcDbEntity
  8
0
  6
BYBLOCK
 62
     0
100
AcDbLine
 10
0.0
 20
0.0
 30
0.0
 11
-1.0
 21
-0.166667
 31
0.0
  0
LINE
  5
1A08
100
AcDbEntity
  8
0
  6
BYBLOCK
 62
     0
100
AcDbLine
 10
0.0
 20
0.0
 30
0.0
 11
-1.0
 21
0.0
 31
0.0
  0
ENDBLK
  5
1A0A
100
AcDbEntity
  8
0
100
AcDbBlockEnd
  0
BLOCK
  5
2812
100
AcDbEntity
  8
0
 48
5.0
100
AcDbBlockBegin
  2
*D11
 70
     1
 10
0.0
 20
0.0
 30
0.0
  3
*D11
  1

  0
LINE
  5
2813
100
AcDbEntity
  8
0
  6
BYBLOCK
 62
     0
 48
5.0
100
AcDbLine
 10
199.0
 20
-699.3125
 30
0.0
 11
199.0
 21
-770.9
 31
0.0
  0
LINE
  5
2814
100
AcDbEntity
  8
0
  6
BYBLOCK
 62
     0
 48
5.0
100
AcDbLine
 10
501.0
 20
-699.3125
 30
0.0
 11
501.0
 21
-770.9
 31
0.0
  0
LINE
  5
2815
100
AcDbEntity
  8
0
  6
BYBLOCK
 62
     0
 48
5.0
100
AcDbLine
 10
216.5
 20
-770.0
 30
0.0
 11
483.5
 21
-770.0
 31
0.0
  0
INSERT
  5
2816
100
AcDbEntity
  8
0
  6
BYBLOCK
 62
     0
 48
5.0
100
AcDbBlockReference
  2
_OPEN
 10
199.0
 20
-770.0
 30
0.0
 41
17.5
 42
17.5
 43
17.5
 50
180.0
  0
INSERT
  5
2817
100
AcDbEntity
  8
0
  6
BYBLOCK
 62
     0
 48
5.0
100
AcDbBlockReference
  2
_OPEN
 10
501.0
 20
-770.0
 30
0.0
 41
17.5
 42
17.5
 43
17.5
  0
MTEXT
  5
2818
100
AcDbEntity
  8
0
  6
BYBLOCK
 62
     0
 48
5.0
100
AcDbMText
 10
350.0
 20
-758.123278
 30
0.0
 40
17.5
 41
0.0
 71
     5
 72
     1
  1
\A1;302
  0
POINT
  5
2819
100
AcDbEntity
  8
DEFPOINTS
  6
BYBLOCK
 62
     0
 48
5.0
100
AcDbPoint
 10
199.0
 20
-699.0
 30
0.0
  0
POINT
  5
281A
100
AcDbEntity
  8
DEFPOINTS
  6
BYBLOCK
 62
     0
 48
5.0
100
AcDbPoint
 10
501.0
 20
-699.0
 30
0.0
  0
POINT
  5
281B
100
AcDbEntity
  8
DEFPOINTS
  6
BYBLOCK
 62
     0
 48
5.0
100
AcDbPoint
 10
501.0
 20
-770.0
 30
0.0
  0
ENDBLK
  5
281C
100
AcDbEntity
  8
0
 48
5.0
100
AcDbBlockEnd
  0
BLOCK
  5
281E
100
AcDbEntity
  8
0
 48
5.0
100
AcDbBlockBegin
  2
*D12
 70
     1
 10
0.0
 20
0.0
 30
0.0
  3
*D12
  1

  0
LINE
  5
281F
100
AcDbEntity
  8
0
  6
BYBLOCK
 62
     0
 48
5.0
100
AcDbLine
 10
300.0
 20
-652.3125
 30
0.0
 11
300.0
 21
-735.9
 31
0.0
  0
LINE
  5
2820
100
AcDbEntity
  8
0
  6
BYBLOCK
 62
     0
 48
5.0
100
AcDbLine
 10
400.0
 20
-652.3125
 30
0.0
 11
400.0
 21
-735.9
 31
0.0
  0
LINE
  5
2821
100
AcDbEntity
  8
0
  6
BYBLOCK
 62
     0
 48
5.0
100
AcDbLine
 10
317.5
 20
-735.0
 30
0.0
 11
382.5
 21
-735.0
 31
0.0
  0
INSERT
  5
2822
100
AcDbEntity
  8
0
  6
BYBLOCK
 62
     0
 48
5.0
100
AcDbBlockReference
  2
_OPEN
 10
300.0
 20
-735.0
 30
0.0
 41
17.5
 42
17.5
 43
17.5
 50
180.0
  0
INSERT
  5
2823
100
AcDbEntity
  8
0
  6
BYBLOCK
 62
     0
 48
5.0
100
AcDbBlockReference
  2
_OPEN
 10
400.0
 20
-735.0
 30
0.0
 41
17.5
 42
17.5
 43
17.5
  0
MTEXT
  5
2824
100
AcDbEntity
  8
0
  6
BYBLOCK
 62
     0
 48
5.0
100
AcDbMText
 10
350.0
 20
-723.125
 30
0.0
 40
17.5
 41
0.0
 71
     5
 72
     1
  1
\A1;100
  0
POINT
  5
2825
100
AcDbEntity
  8
DEFPOINTS
  6
BYBLOCK
 62
     0
 48
5.0
100
AcDbPoint
 10
300.0
 20
-652.0
 30
0.0
  0
POINT
  5
2826
100
AcDbEntity
  8
DEFPOINTS
  6
BYBLOCK
 62
     0
 48
5.0
100
AcDbPoint
 10
400.0
 20
-652.0
 30
0.0
  0
POINT
  5
2827
100
AcDbEntity
  8
DEFPOINTS
  6
BYBLOCK
 62
     0
 48
5.0
100
AcDbPoint
 10
400.0
 20
-735.0
 30
0.0
  0
ENDBLK
  5
2828
100
AcDbEntity
  8
0
 48
5.0
100
AcDbBlockEnd
  0
BLOCK
  5
282A
100
AcDbEntity
  8
0
 48
5.0
100
AcDbBlockBegin
  2
*D13
 70
     1
 10
0.0
 20
0.0
 30
0.0
  3
*D13
  1

  0
LINE
  5
282B
100
AcDbEntity
  8
0
  6
BYBLOCK
 62
     0
 48
5.0
100
AcDbLine
 10
198.6875
 20
-600.0
 30
0.0
 11
174.1
 21
-600.0
 31
0.0
  0
LINE
  5
282C
100
AcDbEntity
  8
0
  6
BYBLOCK
 62
     0
 48
5.0
100
AcDbLine
 10
309.6875
 20
-459.0
 30
0.0
 11
174.1
 21
-459.0
 31
0.0
  0
LINE
  5
282D
100
AcDbEntity
  8
0
  6
BYBLOCK
 62
     0
 48
5.0
100
AcDbLine
 10
175.0
 20
-582.5
 30
0.0
 11
175.0
 21
-476.5
 31
0.0
  0
INSERT
  5
282E
100
AcDbEntity
  8
0
  6
BYBLOCK
 62
     0
 48
5.0
100
AcDbBlockReference
  2
_OPEN
 10
175.0
 20
-600.0
 30
0.0
 41
17.5
 42
17.5
 43
17.5
 50
270.0
  0
INSERT
  5
282F
100
AcDbEntity
  8
0
  6
BYBLOCK
 62
     0
 48
5.0
100
AcDbBlockReference
  2
_OPEN
 10
175.0
 20
-459.0
 30
0.0
 41
17.5
 42
17.5
 43
17.5
 50
90.0
  0
MTEXT
  5
2830
100
AcDbEntity
  8
0
  6
BYBLOCK
 62
     0
 48
5.0
100
AcDbMText
 10
163.125
 20
-529.5
 30
0.0
 40
17.5
 41
0.0
 71
     5
 72
     1
  1
\A1;141
 11
0.0
 21
1.0
 31
0.0
  0
POINT
  5
2831
100
AcDbEntity
  8
DEFPOINTS
  6
BYBLOCK
 62
     0
 48
5.0
100
AcDbPoint
 10
199.0
 20
-600.0
 30
0.0
  0
POINT
  5
2832
100
AcDbEntity
  8
DEFPOINTS
  6
BYBLOCK
 62
     0
 48
5.0
100
AcDbPoint
 10
310.0
 20
-459.0
 30
0.0
  0
POINT
  5
2833
100
AcDbEntity
  8
DEFPOINTS
  6
BYBLOCK
 62
     0
 48
5.0
100
AcDbPoint
 10
175.0
 20
-459.0
 30
0.0
  0
ENDBLK
  5
2834
100
AcDbEntity
  8
0
 48
5.0
100
AcDbBlockEnd
  0
BLOCK
  5
2836
100
AcDbEntity
  8
0
 48
5.0
100
AcDbBlockBegin
  2
*D14
 70
     1
 10
0.0
 20
0.0
 30
0.0
  3
*D14
  1

  0
LINE
  5
2837
100
AcDbEntity
  8
0
  6
BYBLOCK
 62
     0
 48
5.0
100
AcDbLine
 10
199.0
 20
-699.625
 30
0.0
 11
199.0
 21
-736.00625
 31
0.0
  0
LINE
  5
2838
100
AcDbEntity
  8
0
  6
BYBLOCK
 62
     0
 48
5.0
100
AcDbLine
 10
229.0
 20
-699.625
 30
0.0
 11
229.0
 21
-736.00625
 31
0.0
  0
LINE
  5
2839
100
AcDbEntity
  8
0
  6
BYBLOCK
 62
     0
 48
5.0
100
AcDbLine
 10
181.5
 20
-735.10625
 30
0.0
 11
164.0
 21
-735.10625
 31
0.0
  0
LINE
  5
283A
100
AcDbEntity
  8
0
  6
BYBLOCK
 62
     0
 48
5.0
100
AcDbLine
 10
246.5
 20
-735.10625
 30
0.0
 11
264.0
 21
-735.10625
 31
0.0
  0
INSERT
  5
283B
100
AcDbEntity
  8
0
  6
BYBLOCK
 62
     0
 48
5.0
100
AcDbBlockReference
  2
_OPEN
 10
199.0
 20
-735.10625
 30
0.0
 41
17.5
 42
17.5
 43
17.5
  0
INSERT
  5
283C
100
AcDbEntity
  8
0
  6
BYBLOCK
 62
     0
 48
5.0
100
AcDbBlockReference
  2
_OPEN
 10
229.0
 20
-735.10625
 30
0.0
 41
17.5
 42
17.5
 43
17.5
 50
180.0
  0
MTEXT
  5
283D
100
AcDbEntity
  8
0
  6
BYBLOCK
 62
     0
 48
5.0
100
AcDbMText
 10
214.0
 20
-723.23125
 30
0.0
 40
17.5
 41
0.0
 71
     5
 72
     1
  1
\A1;30
  0
POINT
  5
283E
100
AcDbEntity
  8
DEFPOINTS
  6
BYBLOCK
 62
     0
 48
5.0
100
AcDbPoint
 10
199.0
 20
-699.3125
 30
0.0
  0
POINT
  5
283F
100
AcDbEntity
  8
DEFPOINTS
  6
BYBLOCK
 62
     0
 48
5.0
100
AcDbPoint
 10
229.0
 20
-699.3125
 30
0.0
  0
POINT
  5
2840
100
AcDbEntity
  8
DEFPOINTS
  6
BYBLOCK
 62
     0
 48
5.0
100
AcDbPoint
 10
229.0
 20
-735.10625
 30
0.0
  0
ENDBLK
  5
2841
100
AcDbEntity
  8
0
 48
5.0
100
AcDbBlockEnd
  0
BLOCK
  5
2843
100
AcDbEntity
  8
0
 48
5.0
100
AcDbBlockBegin
  2
*D15
 70
     1
 10
0.0
 20
0.0
 30
0.0
  3
*D15
  1

  0
LINE
  5
2844
100
AcDbEntity
  8
0
  6
BYBLOCK
 62
     0
 48
5.0
100
AcDbLine
 10
501.3125
 20
-501.0
 30
0.0
 11
535.9
 21
-501.0
 31
0.0
  0
LINE
  5
2845
100
AcDbEntity
  8
0
  6
BYBLOCK
 62
     0
 48
5.0
100
AcDbLine
 10
501.3125
 20
-699.0
 30
0.0
 11
535.9
 21
-699.0
 31
0.0
  0
LINE
  5
2846
100
AcDbEntity
  8
0
  6
BYBLOCK
 62
     0
 48
5.0
100
AcDbLine
 10
535.0
 20
-518.5
 30
0.0
 11
535.0
 21
-681.5
 31
0.0
  0
INSERT
  5
2847
100
AcDbEntity
  8
0
  6
BYBLOCK
 62
     0
 48
5.0
100
AcDbBlockReference
  2
_OPEN
 10
535.0
 20
-501.0
 30
0.0
 41
17.5
 42
17.5
 43
17.5
 50
90.0
  0
INSERT
  5
2848
100
AcDbEntity
  8
0
  6
BYBLOCK
 62
     0
 48
5.0
100
AcDbBlockReference
  2
_OPEN
 10
535.0
 20
-699.0
 30
0.0
 41
17.5
 42
17.5
 43
17.5
 50
270.0
  0
MTEXT
  5
2849
100
AcDbEntity
  8
0
  6
BYBLOCK
 62
     0
 48
5.0
100
AcDbMText
 10
523.125
 20
-600.0
 30
0.0
 40
17.5
 41
0.0
 71
     5
 72
     1
  1
\A1;\U+2205198
 11
0.0
 21
1.0
 31
0.0
  0
POINT
  5
284A
100
AcDbEntity
  8
DEFPOINTS
  6
BYBLOCK
 62
     0
 48
5.0
100
AcDbPoint
 10
501.0
 20
-501.0
 30
0.0
  0
POINT
  5
284B
100
AcDbEntity
  8
DEFPOINTS
  6
BYBLOCK
 62
     0
 48
5.0
100
AcDbPoint
 10
501.0
 20
-699.0
 30
0.0
  0
POINT
  5
284C
100
AcDbEntity
  8
DEFPOINTS
  6
BYBLOCK
 62
     0
 48
5.0
100
AcDbPoint
 10
535.0
 20
-699.0
 30
0.0
  0
ENDBLK
  5
284D
100
AcDbEntity
  8
0
 48
5.0
100
AcDbBlockEnd
  0
BLOCK
  5
284F
100
AcDbEntity
  8
0
 48
5.0
100
AcDbBlockBegin
  2
*D16
 70
     1
 10
0.0
 20
0.0
 30
0.0
  3
*D16
  1

  0
LINE
  5
2850
100
AcDbEntity
  8
0
  6
BYBLOCK
 62
     0
 48
5.0
100
AcDbLine
 10
431.15609
 20
-491.5
 30
0.0
 11
565.9
 21
-491.5
 31
0.0
  0
LINE
  5
2851
100
AcDbEntity
  8
0
  6
BYBLOCK
 62
     0
 48
5.0
100
AcDbLine
 10
431.15609
 20
-708.5
 30
0.0
 11
565.9
 21
-708.5
 31
0.0
  0
LINE
  5
2852
100
AcDbEntity
  8
0
  6
BYBLOCK
 62
     0
 48
5.0
100
AcDbLine
 10
565.0
 20
-509.0
 30
0.0
 11
565.0
 21
-691.0
 31
0.0
  0
INSERT
  5
2853
100
AcDbEntity
  8
0
  6
BYBLOCK
 62
     0
 48
5.0
100
AcDbBlockReference
  2
_OPEN
 10
565.0
 20
-491.5
 30
0.0
 41
17.5
 42
17.5
 43
17.5
 50
90.0
  0
INSERT
  5
2854
100
AcDbEntity
  8
0
  6
BYBLOCK
 62
     0
 48
5.0
100
AcDbBlockReference
  2
_OPEN
 10
565.0
 20
-708.5
 30
0.0
 41
17.5
 42
17.5
 43
17.5
 50
270.0
  0
MTEXT
  5
2855
100
AcDbEntity
  8
0
  6
BYBLOCK
 62
     0
 48
5.0
100
AcDbMText
 10
553.123278
 20
-600.0
 30
0.0
 40
17.5
 41
0.0
 71
     5
 72
     1
  1
\A1;\U+2205217
 11
0.0
 21
1.0
 31
0.0
  0
POINT
  5
2856
100
AcDbEntity
  8
DEFPOINTS
  6
BYBLOCK
 62
     0
 48
5.0
100
AcDbPoint
 10
430.84359
 20
-491.5
 30
0.0
  0
POINT
  5
2857
100
AcDbEntity
  8
DEFPOINTS
  6
BYBLOCK
 62
     0
 48
5.0
100
AcDbPoint
 10
430.84359
 20
-708.5
 30
0.0
  0
POINT
  5
2858
100
AcDbEntity
  8
DEFPOINTS
  6
BYBLOCK
 62
     0
 48
5.0
100
AcDbPoint
 10
565.0
 20
-708.5
 30
0.0
  0
ENDBLK
  5
2859
100
AcDbEntity
  8
0
 48
5.0
100
AcDbBlockEnd
  0
BLOCK
  5
285B
100
AcDbEntity
  8
0
 48
5.0
100
AcDbBlockBegin
  2
*D17
 70
     1
 10
0.0
 20
0.0
 30
0.0
  3
*D17
  1

  0
LINE
  5
285C
100
AcDbEntity
  8
0
  6
BYBLOCK
 62
     0
 48
5.0
100
AcDbLine
 10
390.3125
 20
-647.0
 30
0.0
 11
465.844583
 21
-647.0
 31
0.0
  0
LINE
  5
285D
100
AcDbEntity
  8
0
  6
BYBLOCK
 62
     0
 48
5.0
100
AcDbLine
 10
390.3125
 20
-553.0
 30
0.0
 11
465.844583
 21
-553.0
 31
0.0
  0
LINE
  5
285E
100
AcDbEntity
  8
0
  6
BYBLOCK
 62
     0
 48
5.0
100
AcDbLine
 10
464.944583
 20
-629.5
 30
0.0
 11
464.944583
 21
-570.5
 31
0.0
  0
INSERT
  5
285F
100
AcDbEntity
  8
0
  6
BYBLOCK
 62
     0
 48
5.0
100
AcDbBlockReference
  2
_OPEN
 10
464.944583
 20
-647.0
 30
0.0
 41
17.5
 42
17.5
 43
17.5
 50
270.0
  0
INSERT
  5
2860
100
AcDbEntity
  8
0
  6
BYBLOCK
 62
     0
 48
5.0
100
AcDbBlockReference
  2
_OPEN
 10
464.944583
 20
-553.0
 30
0.0
 41
17.5
 42
17.5
 43
17.5
 50
90.0
  0
MTEXT
  5
2861
100
AcDbEntity
  8
0
  6
BYBLOCK
 62
     0
 48
5.0
100
AcDbMText
 10
453.069583
 20
-600.0
 30
0.0
 40
17.5
 41
0.0
 71
     5
 72
     1
  1
\A1;94
 11
0.0
 21
1.0
 31
0.0
  0
POINT
  5
2862
100
AcDbEntity
  8
DEFPOINTS
  6
BYBLOCK
 62
     0
 48
5.0
100
AcDbPoint
 10
390.0
 20
-647.0
 30
0.0
  0
POINT
  5
2863
100
AcDbEntity
  8
DEFPOINTS
  6
BYBLOCK
 62
     0
 48
5.0
100
AcDbPoint
 10
390.0
 20
-553.0
 30
0.0
  0
POINT
  5
2864
100
AcDbEntity
  8
DEFPOINTS
  6
BYBLOCK
 62
     0
 48
5.0
100
AcDbPoint
 10
464.944583
 20
-553.0
 30
0.0
  0
ENDBLK
  5
2865
100
AcDbEntity
  8
0
 48
5.0
100
AcDbBlockEnd
  0
BLOCK
  5
28B9
100
AcDbEntity
  8
0
 48
5.0
100
AcDbBlockBegin
  2
*D18
 70
     1
 10
0.0
 20
0.0
 30
0.0
  3
*D18
  1

  0
LINE
  5
28BA
100
AcDbEntity
  8
0
  6
BYBLOCK
 62
     0
 48
5.0
100
AcDbLine
 10
868.8125
 20
-530.0
 30
0.0
 11
910.004958
 21
-530.0
 31
0.0
  0
LINE
  5
28BB
100
AcDbEntity
  8
0
  6
BYBLOCK
 62
     0
 48
5.0
100
AcDbLine
 10
868.8125
 20
-670.0
 30
0.0
 11
910.004958
 21
-670.0
 31
0.0
  0
LINE
  5
28BC
100
AcDbEntity
  8
0
  6
BYBLOCK
 62
     0
 48
5.0
100
AcDbLine
 10
909.104958
 20
-547.5
 30
0.0
 11
909.104958
 21
-652.5
 31
0.0
  0
INSERT
  5
28BD
100
AcDbEntity
  8
0
  6
BYBLOCK
 62
     0
 48
5.0
100
AcDbBlockReference
  2
_OPEN
 10
909.104958
 20
-530.0
 30
0.0
 41
17.5
 42
17.5
 43
17.5
 50
90.0
  0
INSERT
  5
28BE
100
AcDbEntity
  8
0
  6
BYBLOCK
 62
     0
 48
5.0
100
AcDbBlockReference
  2
_OPEN
 10
909.104958
 20
-670.0
 30
0.0
 41
17.5
 42
17.5
 43
17.5
 50
270.0
  0
MTEXT
  5
28BF
100
AcDbEntity
  8
0
  6
BYBLOCK
 62
     0
 48
5.0
100
AcDbMText
 10
897.229958
 20
-600.0
 30
0.0
 40
17.5
 41
0.0
 71
     5
 72
     1
  1
\A1;140
 11
0.0
 21
1.0
 31
0.0
  0
POINT
  5
28C0
100
AcDbEntity
  8
DEFPOINTS
  6
BYBLOCK
 62
     0
 48
5.0
100
AcDbPoint
 10
868.5
 20
-530.0
 30
0.0
  0
POINT
  5
28C1
100
AcDbEntity
  8
DEFPOINTS
  6
BYBLOCK
 62
     0
 48
5.0
100
AcDbPoint
 10
868.5
 20
-670.0
 30
0.0
  0
POINT
  5
28C2
100
AcDbEntity
  8
DEFPOINTS
  6
BYBLOCK
 62
     0
 48
5.0
100
AcDbPoint
 10
909.104958
 20
-670.0
 30
0.0
  0
ENDBLK
  5
28C3
100
AcDbEntity
  8
0
 48
5.0
100
AcDbBlockEnd
  0
BLOCK
  5
28C5
100
AcDbEntity
  8
0
 48
5.0
100
AcDbBlockBegin
  2
*D19
 70
     1
 10
0.0
 20
0.0
 30
0.0
  3
*D19
  1

  0
LINE
  5
28C6
100
AcDbEntity
  8
0
  6
BYBLOCK
 62
     0
 48
5.0
100
AcDbLine
 10
641.0
 20
-599.6875
 30
0.0
 11
641.0
 21
-416.911999
 31
0.0
  0
LINE
  5
28C7
100
AcDbEntity
  8
0
  6
BYBLOCK
 62
     0
 48
5.0
100
AcDbLine
 10
873.5
 20
-534.6875
 30
0.0
 11
873.5
 21
-416.911999
 31
0.0
  0
LINE
  5
28C8
100
AcDbEntity
  8
0
  6
BYBLOCK
 62
     0
 48
5.0
100
AcDbLine
 10
658.5
 20
-417.811999
 30
0.0
 11
856.0
 21
-417.811999
 31
0.0
  0
INSERT
  5
28C9
100
AcDbEntity
  8
0
  6
BYBLOCK
 62
     0
 48
5.0
100
AcDbBlockReference
  2
_OPEN
 10
641.0
 20
-417.811999
 30
0.0
 41
17.5
 42
17.5
 43
17.5
 50
180.0
  0
INSERT
  5
28CA
100
AcDbEntity
  8
0
  6
BYBLOCK
 62
     0
 48
5.0
100
AcDbBlockReference
  2
_OPEN
 10
873.5
 20
-417.811999
 30
0.0
 41
17.5
 42
17.5
 43
17.5
  0
MTEXT
  5
28CB
100
AcDbEntity
  8
0
  6
BYBLOCK
 62
     0
 48
5.0
100
AcDbMText
 10
757.25
 20
-405.935276
 30
0.0
 40
17.5
 41
0.0
 71
     5
 72
     1
  1
\A1;232.5
  0
POINT
  5
28CC
100
AcDbEntity
  8
DEFPOINTS
  6
BYBLOCK
 62
     0
 48
5.0
100
AcDbPoint
 10
641.0
 20
-600.0
 30
0.0
  0
POINT
  5
28CD
100
AcDbEntity
  8
DEFPOINTS
  6
BYBLOCK
 62
     0
 48
5.0
100
AcDbPoint
 10
873.5
 20
-535.0
 30
0.0
  0
POINT
  5
28CE
100
AcDbEntity
  8
DEFPOINTS
  6
BYBLOCK
 62
     0
 48
5.0
100
AcDbPoint
 10
873.5
 20
-417.811999
 30
0.0
  0
ENDBLK
  5
28CF
100
AcDbEntity
  8
0
 48
5.0
100
AcDbBlockEnd
  0
BLOCK
  5
28D1
100
AcDbEntity
  8
0
 48
5.0
100
AcDbBlockBegin
  2
*D20
 70
     1
 10
0.0
 20
0.0
 30
0.0
  3
*D20
  1

  0
LINE
  5
28D2
100
AcDbEntity
  8
0
  6
BYBLOCK
 62
     0
 48
5.0
100
AcDbLine
 10
873.5
 20
-534.6875
 30
0.0
 11
873.5
 21
-444.08833
 31
0.0
  0
LINE
  5
28D3
100
AcDbEntity
  8
0
  6
BYBLOCK
 62
     0
 48
5.0
100
AcDbLine
 10
750.0
 20
-458.6875
 30
0.0
 11
750.0
 21
-444.08833
 31
0.0
  0
LINE
  5
28D4
100
AcDbEntity
  8
0
  6
BYBLOCK
 62
     0
 48
5.0
100
AcDbLine
 10
856.0
 20
-444.98833
 30
0.0
 11
767.5
 21
-444.98833
 31
0.0
  0
INSERT
  5
28D5
100
AcDbEntity
  8
0
  6
BYBLOCK
 62
     0
 48
5.0
100
AcDbBlockReference
  2
_OPEN
 10
873.5
 20
-444.98833
 30
0.0
 41
17.5
 42
17.5
 43
17.5
  0
INSERT
  5
28D6
100
AcDbEntity
  8
0
  6
BYBLOCK
 62
     0
 48
5.0
100
AcDbBlockReference
  2
_OPEN
 10
750.0
 20
-444.98833
 30
0.0
 41
17.5
 42
17.5
 43
17.5
 50
180.0
  0
MTEXT
  5
28D7
100
AcDbEntity
  8
0
  6
BYBLOCK
 62
     0
 48
5.0
100
AcDbMText
 10
811.75
 20
-433.111607
 30
0.0
 40
17.5
 41
0.0
 71
     5
 72
     1
  1
\A1;124
  0
POINT
  5
28D8
100
AcDbEntity
  8
DEFPOINTS
  6
BYBLOCK
 62
     0
 48
5.0
100
AcDbPoint
 10
873.5
 20
-535.0
 30
0.0
  0
POINT
  5
28D9
100
AcDbEntity
  8
DEFPOINTS
  6
BYBLOCK
 62
     0
 48
5.0
100
AcDbPoint
 10
750.0
 20
-459.0
 30
0.0
  0
POINT
  5
28DA
100
AcDbEntity
  8
DEFPOINTS
  6
BYBLOCK
 62
     0
 48
5.0
100
AcDbPoint
 10
750.0
 20
-444.98833
 30
0.0
  0
ENDBLK
  5
28DB
100
AcDbEntity
  8
0
 48
5.0
100
AcDbBlockEnd
  0
ENDSEC
  0
SECTION
  2
ENTITIES
  0
LINE
  5
2406
100
AcDbEntity
  8
V0-OBRYS
  6
CONTINUOUS
 62
    90
100
AcDbLine
 10
199.0
 20
-600.0
 30
0.0
 11
199.0
 21
-501.0
 31
0.0
  0
LINE
  5
2407
100
AcDbEntity
  8
V0-OBRYS
  6
CONTINUOUS
 62
    90
100
AcDbLine
 10
310.0
 20
-459.0
 30
0.0
 11
350.0
 21
-459.0
 31
0.0
  0
LINE
  5
2408
100
AcDbEntity
  8
V0-OBRYS
  6
CONTINUOUS
 62
    90
100
AcDbLine
 10
310.0
 20
-464.0
 30
0.0
 11
350.0
 21
-464.0
 31
0.0
  0
LINE
  5
2409
100
AcDbEntity
  8
V0-OBRYS
  6
CONTINUOUS
 62
    90
100
AcDbLine
 10
199.0
 20
-501.0
 30
0.0
 11
229.0
 21
-501.0
 31
0.0
  0
LINE
  5
240A
100
AcDbEntity
  8
V0-OBRYS
  6
CONTINUOUS
 62
    90
100
AcDbLine
 10
310.0
 20
-491.5
 30
0.0
 11
279.15641
 21
-491.5
 31
0.0
  0
LINE
  5
240B
100
AcDbEntity
  8
V0-OBRYS
  6
CONTINUOUS
 62
    90
100
AcDbLine
 10
269.15641
 20
-491.5
 30
0.0
 11
229.0
 21
-501.0
 31
0.0
  0
LINE
  5
240C
100
AcDbEntity
  8
V0-OBRYS
  6
CONTINUOUS
 62
    90
100
AcDbLine
 10
310.0
 20
-506.5
 30
0.0
 11
350.0
 21
-506.5
 31
0.0
  0
LINE
  5
240D
100
AcDbEntity
  8
V0-OBRYS
  6
CONTINUOUS
 62
    90
100
AcDbLine
 10
229.0
 20
-501.0
 30
0.0
 11
229.0
 21
-600.0
 31
0.0
  0
LINE
  5
240E
100
AcDbEntity
  8
V0-OBRYS
  6
CONTINUOUS
 62
    90
100
AcDbLine
 10
269.15641
 20
-491.5
 30
0.0
 11
269.15641
 21
-534.893757
 31
0.0
  0
LINE
  5
240F
100
AcDbEntity
  8
V0-OBRYS
  6
CONTINUOUS
 62
    90
100
AcDbLine
 10
274.15641
 20
-489.5
 30
0.0
 11
274.15641
 21
-534.893757
 31
0.0
  0
LINE
  5
2410
100
AcDbEntity
  8
V0-OBRYS
  6
CONTINUOUS
 62
    90
100
AcDbLine
 10
274.15641
 20
-489.5
 30
0.0
 11
279.15641
 21
-489.5
 31
0.0
  0
LINE
  5
2411
100
AcDbEntity
  8
V0-OBRYS
  6
CONTINUOUS
 62
    90
100
AcDbLine
 10
279.15641
 20
-489.5
 30
0.0
 11
279.15641
 21
-534.893757
 31
0.0
  0
LINE
  5
2412
100
AcDbEntity
  8
V0-OBRYS
  6
CONTINUOUS
 62
    90
100
AcDbLine
 10
274.15641
 20
-491.5
 30
0.0
 11
269.15641
 21
-491.5
 31
0.0
  0
LINE
  5
2413
100
AcDbEntity
  8
V0-OBRYS
  6
CONTINUOUS
 62
    90
100
AcDbLine
 10
310.0
 20
-506.5
 30
0.0
 11
310.0
 21
-459.0
 31
0.0
  0
CIRCLE
  5
2414
100
AcDbEntity
  8
V0-OBRYS
  6
CONTINUOUS
 62
    90
100
AcDbCircle
 10
300.0
 20
-553.0
 30
0.0
 40
2.75
  0
LINE
  5
2415
100
AcDbEntity
  8
V0-OBRYS
  6
CONTINUOUS
 62
    90
100
AcDbLine
 10
293.822493
 20
-553.0
 30
0.0
 11
305.838249
 21
-553.0
 31
0.0
  0
LINE
  5
2416
100
AcDbEntity
  8
V0-OBRYS
  6
CONTINUOUS
 62
    90
100
AcDbLine
 10
300.0
 20
-558.0
 30
0.0
 11
300.0
 21
-548.0
 31
0.0
  0
LINE
  5
2417
100
AcDbEntity
  8
V0-OBRYS
  6
CONTINUOUS
 62
    90
100
AcDbLine
 10
263.403281
 20
-534.893757
 30
0.0
 11
350.0
 21
-534.893757
 31
0.0
  0
ARC
  5
2418
100
AcDbEntity
  8
V0-OBRYS
  6
CONTINUOUS
 62
    90
100
AcDbCircle
 10
601.053773
 20
-599.039403
 30
0.0
 40
347.774016
100
AcDbArc
 50
169.994932
 51
180.222915
  0
ARC
  5
2419
100
AcDbEntity
  8
V0-OBRYS
  6
CONTINUOUS
 62
    90
100
AcDbCircle
 10
263.403281
 20
-539.893757
 30
0.0
 40
5.0
100
AcDbArc
 50
90.0
 51
165.226732
  0
LINE
  5
241A
100
AcDbEntity
  8
V0-OBRYS
  6
CONTINUOUS
 62
    90
100
AcDbLine
 10
279.15641
 20
-710.5
 30
0.0
 11
279.15641
 21
-665.106243
 31
0.0
  0
LINE
  5
241B
100
AcDbEntity
  8
V0-OBRYS
  6
CONTINUOUS
 62
    90
100
AcDbLine
 10
274.15641
 20
-710.5
 30
0.0
 11
274.15641
 21
-665.106243
 31
0.0
  0
LINE
  5
241C
100
AcDbEntity
  8
V0-OBRYS
  6
CONTINUOUS
 62
    90
100
AcDbLine
 10
269.15641
 20
-708.5
 30
0.0
 11
269.15641
 21
-665.106243
 31
0.0
  0
LINE
  5
241D
100
AcDbEntity
  8
V0-OBRYS
  6
CONTINUOUS
 62
    90
100
AcDbLine
 10
229.0
 20
-699.0
 30
0.0
 11
229.0
 21
-600.0
 31
0.0
  0
LINE
  5
241E
100
AcDbEntity
  8
V0-OBRYS
  6
CONTINUOUS
 62
    90
100
AcDbLine
 10
199.0
 20
-600.0
 30
0.0
 11
199.0
 21
-699.0
 31
0.0
  0
ARC
  5
241F
100
AcDbEntity
  8
V0-OBRYS
  6
CONTINUOUS
 62
    90
100
AcDbCircle
 10
263.403281
 20
-660.106243
 30
0.0
 40
5.0
100
AcDbArc
 50
194.773268
 51
270.0
  0
ARC
  5
2420
100
AcDbEntity
  8
V0-OBRYS
  6
CONTINUOUS
 62
    90
100
AcDbCircle
 10
601.053773
 20
-600.960597
 30
0.0
 40
347.774016
100
AcDbArc
 50
179.777085
 51
190.005068
  0
LINE
  5
2421
100
AcDbEntity
  8
V0-OBRYS
  6
CONTINUOUS
 62
    90
100
AcDbLine
 10
263.403281
 20
-665.106243
 30
0.0
 11
350.0
 21
-665.106243
 31
0.0
  0
LINE
  5
2422
100
AcDbEntity
  8
V0-OBRYS
  6
CONTINUOUS
 62
    90
100
AcDbLine
 10
293.822493
 20
-647.0
 30
0.0
 11
305.838249
 21
-647.0
 31
0.0
  0
LINE
  5
2423
100
AcDbEntity
  8
V0-OBRYS
  6
CONTINUOUS
 62
    90
100
AcDbLine
 10
420.84359
 20
-708.5
 30
0.0
 11
279.15641
 21
-708.5
 31
0.0
  0
LINE
  5
2424
100
AcDbEntity
  8
V0-OBRYS
  6
CONTINUOUS
 62
    90
100
AcDbLine
 10
199.0
 20
-699.0
 30
0.0
 11
229.0
 21
-699.0
 31
0.0
  0
LINE
  5
2425
100
AcDbEntity
  8
V0-OBRYS
  6
CONTINUOUS
 62
    90
100
AcDbLine
 10
269.15641
 20
-708.5
 30
0.0
 11
229.0
 21
-699.0
 31
0.0
  0
LINE
  5
2426
100
AcDbEntity
  8
V0-OBRYS
  6
CONTINUOUS
 62
    90
100
AcDbLine
 10
274.15641
 20
-708.5
 30
0.0
 11
269.15641
 21
-708.5
 31
0.0
  0
LINE
  5
2427
100
AcDbEntity
  8
V0-OBRYS
  6
CONTINUOUS
 62
    90
100
AcDbLine
 10
274.15641
 20
-710.5
 30
0.0
 11
279.15641
 21
-710.5
 31
0.0
  0
CIRCLE
  5
2428
100
AcDbEntity
  8
V0-OBRYS
  6
CONTINUOUS
 62
    90
100
AcDbCircle
 10
300.0
 20
-647.0
 30
0.0
 40
2.75
  0
LINE
  5
2429
100
AcDbEntity
  8
V0-OBRYS
  6
CONTINUOUS
 62
    90
100
AcDbLine
 10
300.0
 20
-642.0
 30
0.0
 11
300.0
 21
-652.0
 31
0.0
  0
LINE
  5
242A
100
AcDbEntity
  8
V0-OBRYS
  6
CONTINUOUS
 62
    90
100
AcDbLine
 10
420.84359
 20
-489.5
 30
0.0
 11
420.84359
 21
-534.893757
 31
0.0
  0
LINE
  5
242B
100
AcDbEntity
  8
V0-OBRYS
  6
CONTINUOUS
 62
    90
100
AcDbLine
 10
425.84359
 20
-489.5
 30
0.0
 11
425.84359
 21
-534.893757
 31
0.0
  0
LINE
  5
242C
100
AcDbEntity
  8
V0-OBRYS
  6
CONTINUOUS
 62
    90
100
AcDbLine
 10
430.84359
 20
-491.5
 30
0.0
 11
430.84359
 21
-534.893757
 31
0.0
  0
LINE
  5
242D
100
AcDbEntity
  8
V0-OBRYS
  6
CONTINUOUS
 62
    90
100
AcDbLine
 10
471.0
 20
-501.0
 30
0.0
 11
471.0
 21
-600.0
 31
0.0
  0
LINE
  5
242E
100
AcDbEntity
  8
V0-OBRYS
  6
CONTINUOUS
 62
    90
100
AcDbLine
 10
501.0
 20
-600.0
 30
0.0
 11
501.0
 21
-501.0
 31
0.0
  0
LINE
  5
2430
100
AcDbEntity
  8
V0-OBRYS
  6
CONTINUOUS
 62
    90
100
AcDbLine
 10
501.0
 20
-600.0
 30
0.0
 11
501.0
 21
-699.0
 31
0.0
  0
LINE
  5
2431
100
AcDbEntity
  8
V0-OBRYS
  6
CONTINUOUS
 62
    90
100
AcDbLine
 10
471.0
 20
-699.0
 30
0.0
 11
471.0
 21
-600.0
 31
0.0
  0
LINE
  5
2432
100
AcDbEntity
  8
V0-OBRYS
  6
CONTINUOUS
 62
    90
100
AcDbLine
 10
430.84359
 20
-708.5
 30
0.0
 11
430.84359
 21
-665.106243
 31
0.0
  0
LINE
  5
2433
100
AcDbEntity
  8
V0-OBRYS
  6
CONTINUOUS
 62
    90
100
AcDbLine
 10
425.84359
 20
-710.5
 30
0.0
 11
425.84359
 21
-665.106243
 31
0.0
  0
LINE
  5
2434
100
AcDbEntity
  8
V0-OBRYS
  6
CONTINUOUS
 62
    90
100
AcDbLine
 10
420.84359
 20
-710.5
 30
0.0
 11
420.84359
 21
-665.106243
 31
0.0
  0
LINE
  5
2436
100
AcDbEntity
  8
V0-OBRYS
  6
CONTINUOUS
 62
    90
100
AcDbLine
 10
501.0
 20
-699.0
 30
0.0
 11
471.0
 21
-699.0
 31
0.0
  0
LINE
  5
2437
100
AcDbEntity
  8
V0-OBRYS
  6
CONTINUOUS
 62
    90
100
AcDbLine
 10
430.84359
 20
-708.5
 30
0.0
 11
471.0
 21
-699.0
 31
0.0
  0
LINE
  5
2438
100
AcDbEntity
  8
V0-OBRYS
  6
CONTINUOUS
 62
    90
100
AcDbLine
 10
425.84359
 20
-710.5
 30
0.0
 11
420.84359
 21
-710.5
 31
0.0
  0
LINE
  5
2439
100
AcDbEntity
  8
V0-OBRYS
  6
CONTINUOUS
 62
    90
100
AcDbLine
 10
425.84359
 20
-708.5
 30
0.0
 11
430.84359
 21
-708.5
 31
0.0
  0
LINE
  5
243A
100
AcDbEntity
  8
V0-OBRYS
  6
CONTINUOUS
 62
    90
100
AcDbLine
 10
414.335021
 20
-665.106243
 30
0.0
 11
350.0
 21
-665.106243
 31
0.0
  0
CIRCLE
  5
243D
100
AcDbEntity
  8
V0-OBRYS
  6
CONTINUOUS
 62
    90
100
AcDbCircle
 10
400.0
 20
-647.0
 30
0.0
 40
2.75
  0
LINE
  5
243E
100
AcDbEntity
  8
V0-OBRYS
  6
CONTINUOUS
 62
    90
100
AcDbLine
 10
406.177507
 20
-647.0
 30
0.0
 11
394.161751
 21
-647.0
 31
0.0
  0
LINE
  5
243F
100
AcDbEntity
  8
V0-OBRYS
  6
CONTINUOUS
 62
    90
100
AcDbLine
 10
400.0
 20
-642.0
 30
0.0
 11
400.0
 21
-652.0
 31
0.0
  0
LINE
  5
2440
100
AcDbEntity
  8
V0-OBRYS
  6
CONTINUOUS
 62
    90
100
AcDbLine
 10
414.335021
 20
-534.893757
 30
0.0
 11
350.0
 21
-534.893757
 31
0.0
  0
LINE
  5
2441
100
AcDbEntity
  8
V0-OBRYS
  6
CONTINUOUS
 62
    90
100
AcDbLine
 10
406.177507
 20
-553.0
 30
0.0
 11
394.161751
 21
-553.0
 31
0.0
  0
CIRCLE
  5
2442
100
AcDbEntity
  8
V0-OBRYS
  6
CONTINUOUS
 62
    90
100
AcDbCircle
 10
400.0
 20
-553.0
 30
0.0
 40
2.75
  0
LINE
  5
2443
100
AcDbEntity
  8
V0-OBRYS
  6
CONTINUOUS
 62
    90
100
AcDbLine
 10
400.0
 20
-558.0
 30
0.0
 11
400.0
 21
-548.0
 31
0.0
  0
LINE
  5
2444
100
AcDbEntity
  8
V0-OBRYS
  6
CONTINUOUS
 62
    90
100
AcDbLine
 10
390.0
 20
-491.5
 30
0.0
 11
420.84359
 21
-491.5
 31
0.0
  0
LINE
  5
2445
100
AcDbEntity
  8
V0-OBRYS
  6
CONTINUOUS
 62
    90
100
AcDbLine
 10
501.0
 20
-501.0
 30
0.0
 11
471.0
 21
-501.0
 31
0.0
  0
LINE
  5
2446
100
AcDbEntity
  8
V0-OBRYS
  6
CONTINUOUS
 62
    90
100
AcDbLine
 10
430.84359
 20
-491.5
 30
0.0
 11
471.0
 21
-501.0
 31
0.0
  0
LINE
  5
2447
100
AcDbEntity
  8
V0-OBRYS
  6
CONTINUOUS
 62
    90
100
AcDbLine
 10
425.84359
 20
-491.5
 30
0.0
 11
430.84359
 21
-491.5
 31
0.0
  0
LINE
  5
2448
100
AcDbEntity
  8
V0-OBRYS
  6
CONTINUOUS
 62
    90
100
AcDbLine
 10
425.84359
 20
-489.5
 30
0.0
 11
420.84359
 21
-489.5
 31
0.0
  0
LINE
  5
2449
100
AcDbEntity
  8
V0-OBRYS
  6
CONTINUOUS
 62
    90
100
AcDbLine
 10
390.0
 20
-506.5
 30
0.0
 11
350.0
 21
-506.5
 31
0.0
  0
LINE
  5
244A
100
AcDbEntity
  8
V0-OBRYS
  6
CONTINUOUS
 62
    90
100
AcDbLine
 10
390.0
 20
-464.0
 30
0.0
 11
350.0
 21
-464.0
 31
0.0
  0
LINE
  5
244B
100
AcDbEntity
  8
V0-OBRYS
  6
CONTINUOUS
 62
    90
100
AcDbLine
 10
390.0
 20
-459.0
 30
0.0
 11
350.0
 21
-459.0
 31
0.0
  0
LINE
  5
244C
100
AcDbEntity
  8
V0-OBRYS
  6
CONTINUOUS
 62
    90
100
AcDbLine
 10
390.0
 20
-506.5
 30
0.0
 11
390.0
 21
-459.0
 31
0.0
  0
DIMENSION
  5
244D
100
AcDbEntity
  8
V0-VYPLNE
  6
CONTINUOUS
 62
    41
100
AcDbDimension
  2
*D15
 10
535.0
 20
-699.0
 30
0.0
 11
523.125
 21
-600.0
 31
0.0
 70
    32
  1
%%c198
  3
STANDARD
100
AcDbAlignedDimension
 13
501.0
 23
-501.0
 33
0.0
 14
501.0
 24
-699.0
 34
0.0
 50
90.0
100
AcDbRotatedDimension
  0
DIMENSION
  5
244E
100
AcDbEntity
  8
V0-VYPLNE
  6
CONTINUOUS
 62
    41
100
AcDbDimension
  2
*D16
 10
565.0
 20
-708.5
 30
0.0
 11
553.123278
 21
-600.0
 31
0.0
 70
    32
  1
%%c217
  3
STANDARD
100
AcDbAlignedDimension
 13
430.84359
 23
-491.5
 33
0.0
 14
430.84359
 24
-708.5
 34
0.0
 50
90.0
100
AcDbRotatedDimension
  0
DIMENSION
  5
244F
100
AcDbEntity
  8
V0-VYPLNE
  6
CONTINUOUS
 62
    41
100
AcDbDimension
  2
*D13
 10
175.0
 20
-459.0
 30
0.0
 11
163.125
 21
-529.5
 31
0.0
 70
    32
  3
STANDARD
100
AcDbAlignedDimension
 13
199.0
 23
-600.0
 33
0.0
 14
310.0
 24
-459.0
 34
0.0
 50
90.0
100
AcDbRotatedDimension
  0
DIMENSION
  5
2450
100
AcDbEntity
  8
V0-VYPLNE
  6
CONTINUOUS
 62
    41
100
AcDbDimension
  2
*D11
 10
501.0
 20
-770.0
 30
0.0
 11
350.0
 21
-770.0
 31
0.0
 70
   160
  3
STANDARD
100
AcDbAlignedDimension
 13
199.0
 23
-699.0
 33
0.0
 14
501.0
 24
-699.0
 34
0.0
100
AcDbRotatedDimension
  0
DIMENSION
  5
2451
100
AcDbEntity
  8
V0-VYPLNE
  6
CONTINUOUS
 62
    41
100
AcDbDimension
  2
*D14
 10
229.0
 20
-735.10625
 30
0.0
 11
214.0
 21
-735.10625
 31
0.0
 70
   160
  3
STANDARD
100
AcDbAlignedDimension
 13
199.0
 23
-699.3125
 33
0.0
 14
229.0
 24
-699.3125
 34
0.0
100
AcDbRotatedDimension
  0
LINE
  5
2452
100
AcDbEntity
  8
V0-VYPLNE
  6
CONTINUOUS
 62
    41
100
AcDbLine
 10
199.0
 20
-735.10625
 30
0.0
 11
224.0
 21
-735.10625
 31
0.0
  0
DIMENSION
  5
2453
100
AcDbEntity
  8
V0-VYPLNE
  6
CONTINUOUS
 62
    41
100
AcDbDimension
  2
*D12
 10
400.0
 20
-735.0
 30
0.0
 11
350.0
 21
-723.125
 31
0.0
 70
    32
  3
STANDARD
100
AcDbAlignedDimension
 13
300.0
 23
-652.0
 33
0.0
 14
400.0
 24
-652.0
 34
0.0
100
AcDbRotatedDimension
  0
DIMENSION
  5
2454
100
AcDbEntity
  8
V0-VYPLNE
  6
CONTINUOUS
 62
    41
 48
5.0
100
AcDbDimension
  2
*D17
 10
464.944583
 20
-553.0
 30
0.0
 11
464.944583
 21
-600.0
 31
0.0
 70
   160
  3
STANDARD
100
AcDbAlignedDimension
 13
390.0
 23
-647.0
 33
0.0
 14
390.0
 24
-553.0
 34
0.0
 50
90.0
100
AcDbRotatedDimension
  0
LINE
  5
2456
100
AcDbEntity
  8
V0-VYPLNE
  6
DASHDOT
 62
    63
 48
3.0
100
AcDbLine
 10
199.0
 20
-600.0
 30
0.0
 11
501.0
 21
-600.0
 31
0.0
  0
MTEXT
  5
2457
100
AcDbEntity
  8
KOTY
 48
5.0
100
AcDbMText
 10
526.282551
 20
-458.593836
 30
0.0
 40
17.5
 41
0.0
 71
     4
 72
     1
  1
\A1;
  0
INSERT
  5
2458
100
AcDbEntity
  8
V0-VYPLNE
  6
CONTINUOUS
 62
    41
 48
5.0
100
AcDbBlockReference
  2
_OPEN
 10
402.443568
 20
-549.980418
 30
0.0
 41
17.5
 42
17.5
 43
17.5
 50
230.724022
  0
LINE
  5
2459
100
AcDbEntity
  8
V0-VYPLNE
  6
CONTINUOUS
 62
    41
100
AcDbLine
 10
413.522054
 20
-536.433569
 30
0.0
 11
474.623062
 21
-461.718836
 31
0.0
  0
LINE
  5
245B
100
AcDbEntity
  8
V0-VYPLNE
  6
CONTINUOUS
 62
    41
100
AcDbLine
 10
474.623062
 20
-461.718836
 30
0.0
 11
516.935181
 21
-461.718836
 31
0.0
  0
MTEXT
  5
245C
100
AcDbEntity
  8
V0-VYPLNE
  6
CONTINUOUS
 62
    41
100
AcDbMText
 10
480.845432
 20
-441.828901
 30
0.0
 40
15.0
 41
47.29
 71
     1
 72
     5
  1
%%c5,5
  0
LINE
  5
24AD
100
AcDbEntity
  8
V0-VYPLNE
  6
DASHDOT
 62
    63
 48
3.0
100
AcDbLine
 10
620.0
 20
-600.0
 30
0.0
 11
863.761768
 21
-600.0
 31
0.0
  0
LINE
  5
24AE
100
AcDbEntity
  8
V0-VYPLNE
  6
DASHDOT
 62
    63
 48
3.0
100
AcDbLine
 10
750.0
 20
-482.278302
 30
0.0
 11
750.0
 21
-730.0
 31
0.0
  0
LINE
  5
24E3
100
AcDbEntity
  8
V0-OBRYS
  6
CONTINUOUS
 62
    90
100
AcDbLine
 10
806.12676
 20
-553.493582
 30
0.0
 11
820.720097
 21
-542.712079
 31
0.0
  0
LINE
  5
24E4
100
AcDbEntity
  8
V0-OBRYS
  6
CONTINUOUS
 62
    90
100
AcDbLine
 10
749.999457
 20
-538.08428
 30
0.0
 11
749.995532
 21
-583.305143
 31
0.0
  0
ARC
  5
24E5
100
AcDbEntity
  8
V0-OBRYS
  6
CONTINUOUS
 62
    90
100
AcDbCircle
 10
782.703042
 20
-619.938673
 30
0.0
 40
49.110047
100
AcDbArc
 50
94.288647
 51
131.759431
  0
ARC
  5
24E6
100
AcDbEntity
  8
V0-OBRYS
  6
CONTINUOUS
 62
    90
100
AcDbCircle
 10
782.048479
 20
-586.77618
 30
0.0
 40
64.502745
100
AcDbArc
 50
53.133515
 51
112.631049
  0
ARC
  5
24E7
100
AcDbEntity
  8
V0-OBRYS
  6
CONTINUOUS
 62
    90
100
AcDbCircle
 10
761.749457
 20
-538.0853
 30
0.0
 40
11.75
100
AcDbArc
 50
112.631049
 51
179.995026
  0
ARC
  5
24E8
100
AcDbEntity
  8
V0-OBRYS
  6
CONTINUOUS
 62
    90
100
AcDbCircle
 10
817.927276
 20
-538.931848
 30
0.0
 40
4.7
100
AcDbArc
 50
306.456849
 51
53.133515
  0
ARC
  5
24E9
100
AcDbEntity
  8
V0-OBRYS
  6
CONTINUOUS
 62
    90
100
AcDbCircle
 10
754.850133
 20
-508.786458
 30
0.0
 40
4.7
100
AcDbArc
 50
351.456849
 51
98.133515
  0
ARC
  5
24EA
100
AcDbEntity
  8
V0-OBRYS
  6
CONTINUOUS
 62
    90
100
AcDbCircle
 10
763.311044
 20
-567.987651
 30
0.0
 40
64.502745
100
AcDbArc
 50
98.133515
 51
157.631049
  0
ARC
  5
24EB
100
AcDbEntity
  8
V0-OBRYS
  6
CONTINUOUS
 62
    90
100
AcDbCircle
 10
714.527817
 20
-547.911575
 30
0.0
 40
11.75
100
AcDbArc
 50
157.631049
 51
224.995026
  0
LINE
  5
24EC
100
AcDbEntity
  8
V0-OBRYS
  6
CONTINUOUS
 62
    90
100
AcDbLine
 10
706.218591
 20
-556.219358
 30
0.0
 11
738.191794
 21
-588.198113
 31
0.0
  0
ARC
  5
24ED
100
AcDbEntity
  8
V0-OBRYS
  6
CONTINUOUS
 62
    90
100
AcDbCircle
 10
787.223314
 20
-590.974228
 30
0.0
 40
49.110047
100
AcDbArc
 50
139.288647
 51
176.759431
  0
LINE
  5
24EE
100
AcDbEntity
  8
V0-OBRYS
  6
CONTINUOUS
 62
    90
100
AcDbLine
 10
756.743373
 20
-527.821708
 30
0.0
 11
759.497983
 21
-509.484662
 31
0.0
  0
ARC
  5
24EF
100
AcDbEntity
  8
V0-OBRYS
  6
CONTINUOUS
 62
    90
100
AcDbCircle
 10
740.974228
 20
-562.776686
 30
0.0
 40
49.110047
100
AcDbArc
 50
229.288647
 51
266.759431
  0
LINE
  5
24F0
100
AcDbEntity
  8
V0-OBRYS
  6
CONTINUOUS
 62
    90
100
AcDbLine
 10
706.219358
 20
-643.781409
 30
0.0
 11
738.198113
 21
-611.808206
 31
0.0
  0
LINE
  5
24F1
100
AcDbEntity
  8
V0-OBRYS
  6
CONTINUOUS
 62
    90
100
AcDbLine
 10
688.08428
 20
-600.000543
 30
0.0
 11
733.305143
 21
-600.004468
 31
0.0
  0
LINE
  5
24F2
100
AcDbEntity
  8
V0-OBRYS
  6
CONTINUOUS
 62
    90
100
AcDbLine
 10
703.493582
 20
-543.87324
 30
0.0
 11
692.712079
 21
-529.279903
 31
0.0
  0
ARC
  5
24F3
100
AcDbEntity
  8
V0-OBRYS
  6
CONTINUOUS
 62
    90
100
AcDbCircle
 10
769.938673
 20
-567.296958
 30
0.0
 40
49.110047
100
AcDbArc
 50
184.288647
 51
221.759431
  0
ARC
  5
24F4
100
AcDbEntity
  8
V0-OBRYS
  6
CONTINUOUS
 62
    90
100
AcDbCircle
 10
736.77618
 20
-567.951521
 30
0.0
 40
64.502745
100
AcDbArc
 50
143.133515
 51
202.631049
  0
ARC
  5
24F5
100
AcDbEntity
  8
V0-OBRYS
  6
CONTINUOUS
 62
    90
100
AcDbCircle
 10
658.786458
 20
-595.149867
 30
0.0
 40
4.7
100
AcDbArc
 50
81.456849
 51
188.133515
  0
ARC
  5
24F6
100
AcDbEntity
  8
V0-OBRYS
  6
CONTINUOUS
 62
    90
100
AcDbCircle
 10
717.987651
 20
-586.688956
 30
0.0
 40
64.502745
100
AcDbArc
 50
188.133515
 51
247.631049
  0
ARC
  5
24F7
100
AcDbEntity
  8
V0-OBRYS
  6
CONTINUOUS
 62
    90
100
AcDbCircle
 10
697.911575
 20
-635.472183
 30
0.0
 40
11.75
100
AcDbArc
 50
247.631049
 51
314.995026
  0
ARC
  5
24F8
100
AcDbEntity
  8
V0-OBRYS
  6
CONTINUOUS
 62
    90
100
AcDbCircle
 10
688.0853
 20
-588.250543
 30
0.0
 40
11.75
100
AcDbArc
 50
202.631049
 51
269.995026
  0
LINE
  5
24F9
100
AcDbEntity
  8
V0-OBRYS
  6
CONTINUOUS
 62
    90
100
AcDbLine
 10
677.821708
 20
-593.256627
 30
0.0
 11
659.484662
 21
-590.502017
 31
0.0
  0
ARC
  5
24FA
100
AcDbEntity
  8
V0-OBRYS
  6
CONTINUOUS
 62
    90
100
AcDbCircle
 10
688.931848
 20
-532.072724
 30
0.0
 40
4.7
100
AcDbArc
 50
36.456849
 51
143.133515
  0
ARC
  5
24FB
100
AcDbEntity
  8
V0-OBRYS
  6
CONTINUOUS
 62
    90
100
AcDbCircle
 10
712.776686
 20
-609.025772
 30
0.0
 40
49.110047
100
AcDbArc
 50
319.288647
 51
356.759431
  0
LINE
  5
24FC
100
AcDbEntity
  8
V0-OBRYS
  6
CONTINUOUS
 62
    90
100
AcDbLine
 10
793.781409
 20
-643.780642
 30
0.0
 11
761.808206
 21
-611.801887
 31
0.0
  0
LINE
  5
24FD
100
AcDbEntity
  8
V0-OBRYS
  6
CONTINUOUS
 62
    90
100
AcDbLine
 10
750.000543
 20
-661.91572
 30
0.0
 11
750.004468
 21
-616.694857
 31
0.0
  0
LINE
  5
24FE
100
AcDbEntity
  8
V0-OBRYS
  6
CONTINUOUS
 62
    90
100
AcDbLine
 10
693.87324
 20
-646.506418
 30
0.0
 11
679.279903
 21
-657.287921
 31
0.0
  0
ARC
  5
24FF
100
AcDbEntity
  8
V0-OBRYS
  6
CONTINUOUS
 62
    90
100
AcDbCircle
 10
717.296958
 20
-580.061327
 30
0.0
 40
49.110047
100
AcDbArc
 50
274.288647
 51
311.759431
  0
ARC
  5
2500
100
AcDbEntity
  8
V0-OBRYS
  6
CONTINUOUS
 62
    90
100
AcDbCircle
 10
717.951521
 20
-613.22382
 30
0.0
 40
64.502745
100
AcDbArc
 50
233.133515
 51
292.631049
  0
ARC
  5
2501
100
AcDbEntity
  8
V0-OBRYS
  6
CONTINUOUS
 62
    90
100
AcDbCircle
 10
745.149867
 20
-691.213542
 30
0.0
 40
4.7
100
AcDbArc
 50
171.456849
 51
278.133515
  0
ARC
  5
2502
100
AcDbEntity
  8
V0-OBRYS
  6
CONTINUOUS
 62
    90
100
AcDbCircle
 10
736.688956
 20
-632.012349
 30
0.0
 40
64.502745
100
AcDbArc
 50
278.133515
 51
337.631049
  0
ARC
  5
2503
100
AcDbEntity
  8
V0-OBRYS
  6
CONTINUOUS
 62
    90
100
AcDbCircle
 10
785.472183
 20
-652.088425
 30
0.0
 40
11.75
100
AcDbArc
 50
337.631049
 51
44.995026
  0
ARC
  5
2504
100
AcDbEntity
  8
V0-OBRYS
  6
CONTINUOUS
 62
    90
100
AcDbCircle
 10
738.250543
 20
-661.9147
 30
0.0
 40
11.75
100
AcDbArc
 50
292.631049
 51
359.995026
  0
LINE
  5
2505
100
AcDbEntity
  8
V0-OBRYS
  6
CONTINUOUS
 62
    90
100
AcDbLine
 10
743.256627
 20
-672.178292
 30
0.0
 11
740.502017
 21
-690.515338
 31
0.0
  0
ARC
  5
2506
100
AcDbEntity
  8
V0-OBRYS
  6
CONTINUOUS
 62
    90
100
AcDbCircle
 10
682.072724
 20
-661.068152
 30
0.0
 40
4.7
100
AcDbArc
 50
126.456849
 51
233.133515
  0
ARC
  5
2507
100
AcDbEntity
  8
V0-OBRYS
  6
CONTINUOUS
 62
    90
100
AcDbCircle
 10
759.025772
 20
-637.223314
 30
0.0
 40
49.110047
100
AcDbArc
 50
49.288647
 51
86.759431
  0
LINE
  5
2508
100
AcDbEntity
  8
V0-OBRYS
  6
CONTINUOUS
 62
    90
100
AcDbLine
 10
793.780642
 20
-556.218591
 30
0.0
 11
761.801887
 21
-588.191794
 31
0.0
  0
LINE
  5
2509
100
AcDbEntity
  8
V0-OBRYS
  6
CONTINUOUS
 62
    90
100
AcDbLine
 10
811.91572
 20
-599.999457
 30
0.0
 11
766.694857
 21
-599.995532
 31
0.0
  0
LINE
  5
250A
100
AcDbEntity
  8
V0-OBRYS
  6
CONTINUOUS
 62
    90
100
AcDbLine
 10
796.506418
 20
-656.12676
 30
0.0
 11
807.287921
 21
-670.720097
 31
0.0
  0
ARC
  5
250B
100
AcDbEntity
  8
V0-OBRYS
  6
CONTINUOUS
 62
    90
100
AcDbCircle
 10
730.061327
 20
-632.703042
 30
0.0
 40
49.110047
100
AcDbArc
 50
4.288647
 51
41.759431
  0
ARC
  5
250C
100
AcDbEntity
  8
V0-OBRYS
  6
CONTINUOUS
 62
    90
100
AcDbCircle
 10
763.22382
 20
-632.048479
 30
0.0
 40
64.502745
100
AcDbArc
 50
323.133515
 51
22.631049
  0
ARC
  5
250D
100
AcDbEntity
  8
V0-OBRYS
  6
CONTINUOUS
 62
    90
100
AcDbCircle
 10
841.213542
 20
-604.850133
 30
0.0
 40
4.7
100
AcDbArc
 50
261.456849
 51
8.133515
  0
ARC
  5
250E
100
AcDbEntity
  8
V0-OBRYS
  6
CONTINUOUS
 62
    90
100
AcDbCircle
 10
782.012349
 20
-613.311044
 30
0.0
 40
64.502745
100
AcDbArc
 50
8.133515
 51
67.631049
  0
ARC
  5
250F
100
AcDbEntity
  8
V0-OBRYS
  6
CONTINUOUS
 62
    90
100
AcDbCircle
 10
802.088425
 20
-564.527817
 30
0.0
 40
11.75
100
AcDbArc
 50
67.631049
 51
134.995026
  0
ARC
  5
2510
100
AcDbEntity
  8
V0-OBRYS
  6
CONTINUOUS
 62
    90
100
AcDbCircle
 10
811.9147
 20
-611.749457
 30
0.0
 40
11.75
100
AcDbArc
 50
22.631049
 51
89.995026
  0
LINE
  5
2511
100
AcDbEntity
  8
V0-OBRYS
  6
CONTINUOUS
 62
    90
100
AcDbLine
 10
822.178292
 20
-606.743373
 30
0.0
 11
840.515338
 21
-609.497983
 31
0.0
  0
ARC
  5
2512
100
AcDbEntity
  8
V0-OBRYS
  6
CONTINUOUS
 62
    90
100
AcDbCircle
 10
811.068152
 20
-667.927276
 30
0.0
 40
4.7
100
AcDbArc
 50
216.456849
 51
323.133515
  0
CIRCLE
  5
2513
100
AcDbEntity
  8
V0-OBRYS
  6
CONTINUOUS
 62
    90
100
AcDbCircle
 10
750.0
 20
-600.0
 30
0.0
 40
13.100983
  0
ARC
  5
2514
100
AcDbEntity
  8
V0-OBRYS
  6
CONTINUOUS
 62
    90
100
AcDbCircle
 10
750.0
 20
-600.0
 30
0.0
 40
109.0
100
AcDbArc
 50
39.956201
 51
320.043799
  0
LINE
  5
2515
100
AcDbEntity
  8
V0-OBRYS
  6
CONTINUOUS
 62
    90
100
AcDbLine
 10
750.0
 20
-459.0
 30
0.0
 11
710.0
 21
-459.0
 31
0.0
  0
LINE
  5
2516
100
AcDbEntity
  8
V0-OBRYS
  6
CONTINUOUS
 62
    90
100
AcDbLine
 10
710.0
 20
-459.0
 30
0.0
 11
710.0
 21
-503.144437
 31
0.0
  0
LINE
  5
2517
100
AcDbEntity
  8
V0-OBRYS
  6
CONTINUOUS
 62
    90
100
AcDbLine
 10
750.0
 20
-464.0
 30
0.0
 11
710.0
 21
-464.0
 31
0.0
  0
LINE
  5
2518
100
AcDbEntity
  8
V0-OBRYS
  6
CONTINUOUS
 62
    90
100
AcDbLine
 10
790.0
 20
-459.0
 30
0.0
 11
790.0
 21
-503.144437
 31
0.0
  0
LINE
  5
2519
100
AcDbEntity
  8
V0-OBRYS
  6
CONTINUOUS
 62
    90
100
AcDbLine
 10
750.0
 20
-464.0
 30
0.0
 11
790.0
 21
-464.0
 31
0.0
  0
LINE
  5
251A
100
AcDbEntity
  8
V0-OBRYS
  6
CONTINUOUS
 62
    90
100
AcDbLine
 10
750.0
 20
-459.0
 30
0.0
 11
790.0
 21
-459.0
 31
0.0
  0
LINE
  5
251B
100
AcDbEntity
  8
V0-OBRYS
  6
CONTINUOUS
 62
    90
100
AcDbLine
 10
873.5
 20
-535.0
 30
0.0
 11
873.5
 21
-580.0
 31
0.0
  0
LINE
  5
251C
100
AcDbEntity
  8
V0-OBRYS
  6
CONTINUOUS
 62
    90
100
AcDbLine
 10
873.5
 20
-580.0
 30
0.0
 11
869.5
 21
-580.0
 31
0.0
  0
LINE
  5
251D
100
AcDbEntity
  8
V0-OBRYS
  6
CONTINUOUS
 62
    90
100
AcDbLine
 10
869.5
 20
-580.0
 30
0.0
 11
869.5
 21
-600.0
 31
0.0
  0
LINE
  5
251E
100
AcDbEntity
  8
V0-OBRYS
  6
CONTINUOUS
 62
    90
100
AcDbLine
 10
868.5
 20
-530.0
 30
0.0
 11
833.552379
 21
-530.0
 31
0.0
  0
ARC
  5
2521
100
AcDbEntity
  8
V0-OBRYS
  6
CONTINUOUS
 62
    90
100
AcDbCircle
 10
868.5
 20
-535.0
 30
0.0
 40
5.0
100
AcDbArc
 50
0.0
 51
90.0
  0
LINE
  5
2522
100
AcDbEntity
  8
V0-OBRYS
  6
CONTINUOUS
 62
    90
100
AcDbLine
 10
868.5
 20
-670.0
 30
0.0
 11
833.552379
 21
-670.0
 31
0.0
  0
ARC
  5
2523
100
AcDbEntity
  8
V0-OBRYS
  6
CONTINUOUS
 62
    90
100
AcDbCircle
 10
868.5
 20
-665.0
 30
0.0
 40
5.0
100
AcDbArc
 50
270.0
 51
0.0
  0
LINE
  5
2524
100
AcDbEntity
  8
V0-OBRYS
  6
CONTINUOUS
 62
    90
100
AcDbLine
 10
873.5
 20
-665.0
 30
0.0
 11
873.5
 21
-620.0
 31
0.0
  0
LINE
  5
2525
100
AcDbEntity
  8
V0-OBRYS
  6
CONTINUOUS
 62
    90
100
AcDbLine
 10
873.5
 20
-620.0
 30
0.0
 11
869.5
 21
-620.0
 31
0.0
  0
LINE
  5
2526
100
AcDbEntity
  8
V0-OBRYS
  6
CONTINUOUS
 62
    90
100
AcDbLine
 10
869.5
 20
-620.0
 30
0.0
 11
869.5
 21
-600.0
 31
0.0
  0
LINE
  5
2527
100
AcDbEntity
  8
V0-VYPLNE
  6
DASHDOT
 62
    63
 48
3.0
100
AcDbLine
 10
859.5
 20
-553.0
 30
0.0
 11
887.950763
 21
-553.0
 31
0.0
  0
LINE
  5
2528
100
AcDbEntity
  8
V0-VYPLNE
  6
DASHDOT
 62
    63
 48
3.0
100
AcDbLine
 10
859.5
 20
-647.0
 30
0.0
 11
887.950763
 21
-647.0
 31
0.0
  0
CIRCLE
  5
2529
100
AcDbEntity
  8
V0-OBRYS
  6
CONTINUOUS
 62
    90
100
AcDbCircle
 10
750.0
 20
-600.0
 30
0.0
 40
98.0
  0
ARC
  5
252A
100
AcDbEntity
  8
V0-OBRYS
  6
CONTINUOUS
 62
    90
100
AcDbCircle
 10
750.0
 20
-600.0
 30
0.0
 40
105.0
100
AcDbArc
 50
39.552959
 51
320.447041
  0
LINE
  5
252C
100
AcDbEntity
  8
V0-OBRYS
  6
CONTINUOUS
 62
    90
100
AcDbLine
 10
436.596719
 20
-534.893757
 30
0.0
 11
350.0
 21
-534.893757
 31
0.0
  0
ARC
  5
252D
100
AcDbEntity
  8
V0-OBRYS
  6
CONTINUOUS
 62
    90
100
AcDbCircle
 10
436.596719
 20
-539.893757
 30
0.0
 40
5.0
100
AcDbArc
 50
14.773268
 51
90.0
  0
ARC
  5
252E
100
AcDbEntity
  8
V0-OBRYS
  6
CONTINUOUS
 62
    90
100
AcDbCircle
 10
98.946227
 20
-599.039403
 30
0.0
 40
347.774016
100
AcDbArc
 50
359.777085
 51
10.005068
  0
ARC
  5
252F
100
AcDbEntity
  8
V0-OBRYS
  6
CONTINUOUS
 62
    90
100
AcDbCircle
 10
98.946227
 20
-600.960597
 30
0.0
 40
347.774016
100
AcDbArc
 50
349.994932
 51
0.222915
  0
ARC
  5
2530
100
AcDbEntity
  8
V0-OBRYS
  6
CONTINUOUS
 62
    90
100
AcDbCircle
 10
436.596719
 20
-660.106243
 30
0.0
 40
5.0
100
AcDbArc
 50
270.0
 51
345.226732
  0
LINE
  5
2531
100
AcDbEntity
  8
V0-OBRYS
  6
CONTINUOUS
 62
    90
100
AcDbLine
 10
436.596719
 20
-665.106243
 30
0.0
 11
350.0
 21
-665.106243
 31
0.0
  0
ARC
  5
2533
100
AcDbEntity
  8
V0-OBRYS
  6
CONTINUOUS
 62
    90
100
AcDbCircle
 10
749.890826
 20
-599.529019
 30
0.0
 40
102.077801
100
AcDbArc
 50
359.683796
 51
39.018084
  0
LINE
  5
2534
100
AcDbEntity
  8
V0-OBRYS
  6
CONTINUOUS
 62
    90
100
AcDbLine
 10
833.552379
 20
-530.0
 30
0.0
 11
829.199897
 21
-535.264342
 31
0.0
  0
ARC
  5
2536
100
AcDbEntity
  8
V0-OBRYS
  6
CONTINUOUS
 62
    90
100
AcDbCircle
 10
749.890826
 20
-600.470981
 30
0.0
 40
102.077801
100
AcDbArc
 50
320.981916
 51
0.316204
  0
LINE
  5
2537
100
AcDbEntity
  8
V0-OBRYS
  6
CONTINUOUS
 62
    90
100
AcDbLine
 10
833.552379
 20
-670.0
 30
0.0
 11
829.199897
 21
-664.735658
 31
0.0
  0
LINE
  5
2539
100
AcDbEntity
  8
V0-OBRYS
  6
CONTINUOUS
 62
    90
100
AcDbLine
 10
420.84359
 20
-839.5
 30
0.0
 11
420.84359
 21
-950.0
 31
0.0
  0
LINE
  5
253A
100
AcDbEntity
  8
V0-OBRYS
  6
CONTINUOUS
 62
    90
100
AcDbLine
 10
430.84359
 20
-841.5
 30
0.0
 11
430.84359
 21
-950.0
 31
0.0
  0
LINE
  5
253B
100
AcDbEntity
  8
V0-OBRYS
  6
CONTINUOUS
 62
    90
100
AcDbLine
 10
425.84359
 20
-839.5
 30
0.0
 11
425.84359
 21
-950.0
 31
0.0
  0
LINE
  5
253C
100
AcDbEntity
  8
V0-OBRYS
  6
CONTINUOUS
 62
    90
100
AcDbLine
 10
269.15641
 20
-841.5
 30
0.0
 11
269.15641
 21
-950.0
 31
0.0
  0
LINE
  5
253D
100
AcDbEntity
  8
V0-OBRYS
  6
CONTINUOUS
 62
    90
100
AcDbLine
 10
274.15641
 20
-839.5
 30
0.0
 11
274.15641
 21
-950.0
 31
0.0
  0
LINE
  5
253E
100
AcDbEntity
  8
V0-OBRYS
  6
CONTINUOUS
 62
    90
100
AcDbLine
 10
279.15641
 20
-839.5
 30
0.0
 11
279.15641
 21
-950.0
 31
0.0
  0
LINE
  5
253F
100
AcDbEntity
  8
V0-OBRYS
  6
CONTINUOUS
 62
    90
100
AcDbLine
 10
390.0
 20
-985.062269
 30
0.0
 11
390.0
 21
-949.062269
 31
0.0
  0
LINE
  5
2540
100
AcDbEntity
  8
V0-OBRYS
  6
CONTINUOUS
 62
    90
100
AcDbLine
 10
430.84359
 20
-841.5
 30
0.0
 11
471.0
 21
-851.0
 31
0.0
  0
LINE
  5
2541
100
AcDbEntity
  8
V0-OBRYS
  6
CONTINUOUS
 62
    90
100
AcDbLine
 10
310.0
 20
-985.062269
 30
0.0
 11
310.0
 21
-949.062269
 31
0.0
  0
LINE
  5
2542
100
AcDbEntity
  8
V0-OBRYS
  6
CONTINUOUS
 62
    90
100
AcDbLine
 10
269.15641
 20
-841.5
 30
0.0
 11
229.0
 21
-851.0
 31
0.0
  0
LINE
  5
2544
100
AcDbEntity
  8
V0-VYPLNE
  6
DASHDOT
 62
    63
 48
3.0
100
AcDbLine
 10
199.0
 20
-950.0
 30
0.0
 11
345.0
 21
-950.0
 31
0.0
  0
LINE
  5
2545
100
AcDbEntity
  8
V0-OBRYS
  6
CONTINUOUS
 62
    90
100
AcDbLine
 10
269.15641
 20
-1058.5
 30
0.0
 11
229.0
 21
-1049.0
 31
0.0
  0
LINE
  5
2546
100
AcDbEntity
  8
V0-OBRYS
  6
CONTINUOUS
 62
    90
100
AcDbLine
 10
199.0
 20
-950.0
 30
0.0
 11
199.0
 21
-1049.0
 31
0.0
  0
LINE
  5
2547
100
AcDbEntity
  8
V0-OBRYS
  6
CONTINUOUS
 62
    90
100
AcDbLine
 10
229.0
 20
-1049.0
 30
0.0
 11
229.0
 21
-950.0
 31
0.0
  0
LINE
  5
2548
100
AcDbEntity
  8
V0-OBRYS
  6
CONTINUOUS
 62
    90
100
AcDbLine
 10
199.0
 20
-1049.0
 30
0.0
 11
229.0
 21
-1049.0
 31
0.0
  0
LINE
  5
2549
100
AcDbEntity
  8
V0-OBRYS
  6
CONTINUOUS
 62
    90
100
AcDbLine
 10
229.0
 20
-851.0
 30
0.0
 11
229.0
 21
-950.0
 31
0.0
  0
LINE
  5
254A
100
AcDbEntity
  8
V0-OBRYS
  6
CONTINUOUS
 62
    90
100
AcDbLine
 10
199.0
 20
-950.0
 30
0.0
 11
199.0
 21
-851.0
 31
0.0
  0
LINE
  5
254B
100
AcDbEntity
  8
V0-OBRYS
  6
CONTINUOUS
 62
    90
100
AcDbLine
 10
199.0
 20
-851.0
 30
0.0
 11
229.0
 21
-851.0
 31
0.0
  0
LINE
  5
254C
100
AcDbEntity
  8
V0-OBRYS
  6
CONTINUOUS
 62
    90
100
AcDbLine
 10
420.84359
 20
-1060.5
 30
0.0
 11
420.84359
 21
-950.0
 31
0.0
  0
LINE
  5
254D
100
AcDbEntity
  8
V0-OBRYS
  6
CONTINUOUS
 62
    90
100
AcDbLine
 10
430.84359
 20
-1058.5
 30
0.0
 11
430.84359
 21
-950.0
 31
0.0
  0
LINE
  5
254E
100
AcDbEntity
  8
V0-OBRYS
  6
CONTINUOUS
 62
    90
100
AcDbLine
 10
425.84359
 20
-1060.5
 30
0.0
 11
425.84359
 21
-950.0
 31
0.0
  0
LINE
  5
254F
100
AcDbEntity
  8
V0-OBRYS
  6
CONTINUOUS
 62
    90
100
AcDbLine
 10
279.15641
 20
-1060.5
 30
0.0
 11
279.15641
 21
-950.0
 31
0.0
  0
LINE
  5
2550
100
AcDbEntity
  8
V0-OBRYS
  6
CONTINUOUS
 62
    90
100
AcDbLine
 10
269.15641
 20
-1058.5
 30
0.0
 11
269.15641
 21
-950.0
 31
0.0
  0
LINE
  5
2551
100
AcDbEntity
  8
V0-OBRYS
  6
CONTINUOUS
 62
    90
100
AcDbLine
 10
274.15641
 20
-1060.5
 30
0.0
 11
274.15641
 21
-950.0
 31
0.0
  0
LINE
  5
2552
100
AcDbEntity
  8
V0-OBRYS
  6
CONTINUOUS
 62
    90
100
AcDbLine
 10
471.0
 20
-1049.0
 30
0.0
 11
471.0
 21
-950.0
 31
0.0
  0
LINE
  5
2553
100
AcDbEntity
  8
V0-OBRYS
  6
CONTINUOUS
 62
    90
100
AcDbLine
 10
501.0
 20
-950.0
 30
0.0
 11
501.0
 21
-1049.0
 31
0.0
  0
LINE
  5
2554
100
AcDbEntity
  8
V0-OBRYS
  6
CONTINUOUS
 62
    90
100
AcDbLine
 10
420.84359
 20
-1058.5
 30
0.0
 11
279.15641
 21
-1058.5
 31
0.0
  0
LINE
  5
2555
100
AcDbEntity
  8
V0-OBRYS
  6
CONTINUOUS
 62
    90
100
AcDbLine
 10
274.15641
 20
-1058.5
 30
0.0
 11
269.15641
 21
-1058.5
 31
0.0
  0
LINE
  5
2556
100
AcDbEntity
  8
V0-OBRYS
  6
CONTINUOUS
 62
    90
100
AcDbLine
 10
274.15641
 20
-1060.5
 30
0.0
 11
279.15641
 21
-1060.5
 31
0.0
  0
LINE
  5
2557
100
AcDbEntity
  8
V0-OBRYS
  6
CONTINUOUS
 62
    90
100
AcDbLine
 10
430.84359
 20
-1058.5
 30
0.0
 11
471.0
 21
-1049.0
 31
0.0
  0
LINE
  5
2558
100
AcDbEntity
  8
V0-OBRYS
  6
CONTINUOUS
 62
    90
100
AcDbLine
 10
425.84359
 20
-1060.5
 30
0.0
 11
420.84359
 21
-1060.5
 31
0.0
  0
LINE
  5
2559
100
AcDbEntity
  8
V0-OBRYS
  6
CONTINUOUS
 62
    90
100
AcDbLine
 10
425.84359
 20
-1058.5
 30
0.0
 11
430.84359
 21
-1058.5
 31
0.0
  0
LINE
  5
255A
100
AcDbEntity
  8
V0-OBRYS
  6
CONTINUOUS
 62
    90
100
AcDbLine
 10
501.0
 20
-1049.0
 30
0.0
 11
471.0
 21
-1049.0
 31
0.0
  0
LINE
  5
255D
100
AcDbEntity
  8
V0-VYPLNE
  6
DASHDOT
 62
    63
 48
3.0
100
AcDbLine
 10
370.0
 20
-950.0
 30
0.0
 11
501.0
 21
-950.0
 31
0.0
  0
LINE
  5
255E
100
AcDbEntity
  8
V0-OBRYS
  6
CONTINUOUS
 62
    90
100
AcDbLine
 10
385.0
 20
-990.062269
 30
0.0
 11
350.0
 21
-990.062269
 31
0.0
  0
LINE
  5
2569
100
AcDbEntity
  8
V0-OBRYS
  6
CONTINUOUS
 62
    90
100
AcDbLine
 10
315.0
 20
-990.062269
 30
0.0
 11
350.0
 21
-990.062269
 31
0.0
  0
LINE
  5
256F
100
AcDbEntity
  8
V0-OBRYS
  6
CONTINUOUS
 62
    90
100
AcDbLine
 10
501.0
 20
-950.0
 30
0.0
 11
501.0
 21
-851.0
 31
0.0
  0
LINE
  5
2570
100
AcDbEntity
  8
V0-OBRYS
  6
CONTINUOUS
 62
    90
100
AcDbLine
 10
471.0
 20
-851.0
 30
0.0
 11
471.0
 21
-950.0
 31
0.0
  0
LINE
  5
257A
100
AcDbEntity
  8
V0-OBRYS
  6
CONTINUOUS
 62
    90
100
AcDbLine
 10
501.0
 20
-851.0
 30
0.0
 11
471.0
 21
-851.0
 31
0.0
  0
LINE
  5
257F
100
AcDbEntity
  8
V0-OBRYS
  6
CONTINUOUS
 62
    90
100
AcDbLine
 10
274.15641
 20
-841.5
 30
0.0
 11
269.15641
 21
-841.5
 31
0.0
  0
LINE
  5
2580
100
AcDbEntity
  8
V0-OBRYS
  6
CONTINUOUS
 62
    90
100
AcDbLine
 10
420.84359
 20
-841.5
 30
0.0
 11
279.15641
 21
-841.5
 31
0.0
  0
LINE
  5
2581
100
AcDbEntity
  8
V0-OBRYS
  6
CONTINUOUS
 62
    90
100
AcDbLine
 10
274.15641
 20
-839.5
 30
0.0
 11
279.15641
 21
-839.5
 31
0.0
  0
LINE
  5
2582
100
AcDbEntity
  8
V0-OBRYS
  6
CONTINUOUS
 62
    90
100
AcDbLine
 10
425.84359
 20
-839.5
 30
0.0
 11
420.84359
 21
-839.5
 31
0.0
  0
LINE
  5
2584
100
AcDbEntity
  8
V0-OBRYS
  6
CONTINUOUS
 62
    90
100
AcDbLine
 10
425.84359
 20
-841.5
 30
0.0
 11
430.84359
 21
-841.5
 31
0.0
  0
LINE
  5
2586
100
AcDbEntity
  8
V0-VYPLNE
  6
DASHDOT
 62
    63
 48
3.0
100
AcDbLine
 10
300.0
 20
-1067.120785
 30
0.0
 11
300.0
 21
-1090.0
 31
0.0
  0
LINE
  5
2587
100
AcDbEntity
  8
V0-VYPLNE
  6
DASHDOT
 62
    63
 48
3.0
100
AcDbLine
 10
400.0
 20
-1066.384408
 30
0.0
 11
400.0
 21
-1090.0
 31
0.0
  0
ARC
  5
258A
100
AcDbEntity
  8
V0-OBRYS
  6
CONTINUOUS
 62
    90
100
AcDbCircle
 10
315.0
 20
-985.062269
 30
0.0
 40
5.0
100
AcDbArc
 50
180.0
 51
270.0
  0
ARC
  5
258B
100
AcDbEntity
  8
V0-OBRYS
  6
CONTINUOUS
 62
    90
100
AcDbCircle
 10
385.0
 20
-985.062269
 30
0.0
 40
5.0
100
AcDbArc
 50
270.0
 51
0.0
  0
LINE
  5
258C
100
AcDbEntity
  8
V0-OBRYS
  6
CONTINUOUS
 62
    90
100
AcDbLine
 10
385.0
 20
-909.937731
 30
0.0
 11
350.0
 21
-909.937731
 31
0.0
  0
LINE
  5
258D
100
AcDbEntity
  8
V0-OBRYS
  6
CONTINUOUS
 62
    90
100
AcDbLine
 10
310.0
 20
-914.937731
 30
0.0
 11
310.0
 21
-950.937731
 31
0.0
  0
LINE
  5
258E
100
AcDbEntity
  8
V0-OBRYS
  6
CONTINUOUS
 62
    90
100
AcDbLine
 10
315.0
 20
-909.937731
 30
0.0
 11
350.0
 21
-909.937731
 31
0.0
  0
ARC
  5
258F
100
AcDbEntity
  8
V0-OBRYS
  6
CONTINUOUS
 62
    90
100
AcDbCircle
 10
315.0
 20
-914.937731
 30
0.0
 40
5.0
100
AcDbArc
 50
90.0
 51
180.0
  0
LINE
  5
2590
100
AcDbEntity
  8
V0-OBRYS
  6
CONTINUOUS
 62
    90
100
AcDbLine
 10
390.0
 20
-914.937731
 30
0.0
 11
390.0
 21
-950.937731
 31
0.0
  0
ARC
  5
2591
100
AcDbEntity
  8
V0-OBRYS
  6
CONTINUOUS
 62
    90
100
AcDbCircle
 10
385.0
 20
-914.937731
 30
0.0
 40
5.0
100
AcDbArc
 50
0.0
 51
90.0
  0
LINE
  5
2592
100
AcDbEntity
  8
V0-OBRYS
  6
CONTINUOUS
 62
    90
100
AcDbLine
 10
260.0
 20
-1074.0
 30
0.0
 11
350.0
 21
-1074.0
 31
0.0
  0
LINE
  5
2594
100
AcDbEntity
  8
V0-OBRYS
  6
CONTINUOUS
 62
    90
100
AcDbLine
 10
255.0
 20
-1069.0
 30
0.0
 11
255.0
 21
-1040.0
 31
0.0
  0
ARC
  5
2596
100
AcDbEntity
  8
V0-OBRYS
  6
CONTINUOUS
 62
    90
100
AcDbCircle
 10
260.0
 20
-1069.0
 30
0.0
 40
5.0
100
AcDbArc
 50
180.0
 51
270.0
  0
LINE
  5
2597
100
AcDbEntity
  8
V0-OBRYS
  6
CONTINUOUS
 62
    90
100
AcDbLine
 10
445.0
 20
-1069.0
 30
0.0
 11
445.0
 21
-1040.0
 31
0.0
  0
ARC
  5
2598
100
AcDbEntity
  8
V0-OBRYS
  6
CONTINUOUS
 62
    90
100
AcDbCircle
 10
440.0
 20
-1069.0
 30
0.0
 40
5.0
100
AcDbArc
 50
270.0
 51
0.0
  0
LINE
  5
2599
100
AcDbEntity
  8
V0-OBRYS
  6
CONTINUOUS
 62
    90
100
AcDbLine
 10
440.0
 20
-1074.0
 30
0.0
 11
350.0
 21
-1074.0
 31
0.0
  0
DIMENSION
  5
25C7
100
AcDbEntity
  8
V0-VYPLNE
  6
CONTINUOUS
 62
    41
100
AcDbDimension
  2
*D19
 10
873.5
 20
-417.811999
 30
0.0
 11
757.25
 21
-405.935276
 31
0.0
 70
    32
  3
STANDARD
100
AcDbAlignedDimension
 13
641.0
 23
-600.0
 33
0.0
 14
873.5
 24
-535.0
 34
0.0
100
AcDbRotatedDimension
1001
ACAD
1000
DSTYLE
1002
{
1070
   271
1070
     1
1002
}
  0
DIMENSION
  5
25E1
100
AcDbEntity
  8
V0-VYPLNE
  6
CONTINUOUS
 62
    41
100
AcDbDimension
  2
*D20
 10
750.0
 20
-444.98833
 30
0.0
 11
811.75
 21
-433.111607
 31
0.0
 70
    32
  1
124
  3
STANDARD
100
AcDbAlignedDimension
 13
873.5
 23
-535.0
 33
0.0
 14
750.0
 24
-459.0
 34
0.0
100
AcDbRotatedDimension
1001
ACAD
1000
DSTYLE
1002
{
1070
   271
1070
     1
1002
}
  0
DIMENSION
  5
2607
100
AcDbEntity
  8
V0-VYPLNE
  6
CONTINUOUS
 62
    41
100
AcDbDimension
  2
*D18
 10
909.104958
 20
-670.0
 30
0.0
 11
897.229958
 21
-600.0
 31
0.0
 70
    32
  3
STANDARD
100
AcDbAlignedDimension
 13
868.5
 23
-530.0
 33
0.0
 14
868.5
 24
-670.0
 34
0.0
 50
90.0
100
AcDbRotatedDimension
  0
TEXT
  5
260E
100
AcDbEntity
  8
V0-NAZVY
  6
CONTINUOUS
 62
   210
100
AcDbText
 10
573.856557
 20
-846.975956
 30
0.0
 40
30.0
  1
MIXVENT-TD-800/200
100
AcDbText
  0
LINE
  5
260F
100
AcDbEntity
  8
V0-ZBYTEK
  6
CONTINUOUS
 62
    51
100
AcDbLine
 10
572.386733
 20
-952.34108
 30
0.0
 11
924.685196
 21
-952.34108
 31
0.0
  0
MTEXT
  5
2610
100
AcDbEntity
  8
V0-ZBYTEK
  6
CONTINUOUS
 62
    51
100
AcDbMText
 10
573.00321
 20
-907.257796
 30
0.0
 40
15.0
 41
456.2164
 71
     1
 72
     5
  1
otacky      prikon      prutok    hmotnost
  0
TEXT
  5
2611
100
AcDbEntity
  8
V0-ZBYTEK
  6
CONTINUOUS
 62
   130
100
AcDbText
 10
574.572606
 20
-883.418925
 30
0.0
 40
15.0
  1
DIAGONALNI VENTILATOR DO KRUHOVEHO 
100
AcDbText
  0
TEXT
  5
2612
100
AcDbEntity
  8
V0-ZBYTEK
  6
CONTINUOUS
 62
    51
100
AcDbText
 10
565.735101
 20
-1003.023071
 30
0.0
 40
15.0
  1
  1850           120            665         4,9
100
AcDbText
  0
TEXT
  5
2613
100
AcDbEntity
  8
V0-ZBYTEK
  6
CONTINUOUS
 62
    51
100
AcDbText
 10
579.985376
 20
-978.020118
 30
0.0
 40
15.0
  1
2500          140            880         4,9
100
AcDbText
  0
MTEXT
  5
2614
100
AcDbEntity
  8
V0-ZBYTEK
  6
CONTINUOUS
 62
    51
100
AcDbMText
 10
566.053275
 20
-928.616448
 30
0.0
 40
15.0
 41
363.382
 71
     1
 72
     5
  1
   min             W          m /h          kg\P  
  0
TEXT
  5
2615
100
AcDbEntity
  8
V0-ZBYTEK
  6
CONTINUOUS
 62
   130
100
AcDbText
 10
951.645448
 20
-883.569641
 30
0.0
 40
15.0
  1
POTRUBI
100
AcDbText
  0
TEXT
  5
2627
100
AcDbEntity
  8
V0-NAZVY
  6
CONTINUOUS
 62
   210
100
AcDbText
 10
293.500772
 20
-574.308664
 30
0.0
 40
15.0
  1
MIXVENT-TD
 72
     1
 11
350.92793
 21
-574.308664
 31
0.0
100
AcDbText
  0
TEXT
  5
2630
100
AcDbEntity
  8
V0-NAZVY
  6
CONTINUOUS
 62
   210
100
AcDbText
 10
293.500772
 20
-884.624509
 30
0.0
 40
15.0
  1
MIXVENT-TD
 72
     1
 11
350.92793
 21
-884.624509
 31
0.0
100
AcDbText
  0
TEXT
  5
2631
100
AcDbEntity
  8
V0-NAZVY
  6
CONTINUOUS
 62
   210
100
AcDbText
 10
312.154793
 20
-644.834991
 30
0.0
 40
15.0
  1
800/200
 72
     1
 11
348.910698
 21
-644.834991
 31
0.0
100
AcDbText
  0
TEXT
  5
2632
100
AcDbEntity
  8
V0-NAZVY
  6
CONTINUOUS
 62
   210
100
AcDbText
 10
312.154793
 20
-1027.692203
 30
0.0
 40
15.0
  1
800/200
 72
     1
 11
348.910698
 21
-1027.692203
 31
0.0
100
AcDbText
  0
LINE
  5
279E
100
AcDbEntity
  8
V0-VYPLNE
  6
CONTINUOUS
100
AcDbLine
 10
345.134708
 20
-580.504157
 30
0.0
 11
345.134708
 21
-620.504157
 31
0.0
  0
LINE
  5
279F
100
AcDbEntity
  8
V0-VYPLNE
  6
CONTINUOUS
100
AcDbLine
 10
345.134708
 20
-620.504157
 30
0.0
 11
375.134708
 21
-600.504157
 31
0.0
  0
LINE
  5
27A0
100
AcDbEntity
  8
V0-VYPLNE
  6
CONTINUOUS
100
AcDbLine
 10
375.134708
 20
-600.504157
 30
0.0
 11
345.134708
 21
-580.504157
 31
0.0
  0
LINE
  5
27A1
100
AcDbEntity
  8
V0-VYPLNE
  6
CONTINUOUS
100
AcDbLine
 10
341.100245
 20
-929.105723
 30
0.0
 11
341.100245
 21
-969.105723
 31
0.0
  0
LINE
  5
27A2
100
AcDbEntity
  8
V0-VYPLNE
  6
CONTINUOUS
100
AcDbLine
 10
341.100245
 20
-969.105723
 30
0.0
 11
371.100245
 21
-949.105723
 31
0.0
  0
LINE
  5
27A3
100
AcDbEntity
  8
V0-VYPLNE
  6
CONTINUOUS
100
AcDbLine
 10
371.100245
 20
-949.105723
 30
0.0
 11
341.100245
 21
-929.105723
 31
0.0
  0
POINT
  5
27A4
100
AcDbEntity
  8
V0-VYPLNE
  6
CONTINUOUS
100
AcDbPoint
 10
229.0
 20
-600.0
 30
0.0
  0
POINT
  5
27A5
100
AcDbEntity
  8
V0-VYPLNE
  6
CONTINUOUS
100
AcDbPoint
 10
229.0
 20
-950.0
 30
0.0
  0
POINT
  5
27A6
100
AcDbEntity
  8
V0-VYPLNE
  6
CONTINUOUS
100
AcDbPoint
 10
750.0
 20
-600.0
 30
0.0
  0
VIEWPORT
  5
22
100
AcDbEntity
 67
     1
  8
0
100
AcDbViewport
 10
261.517699
 20
154.724298
 30
0.0
 40
523.035398
 41
309.448596
 68
    -1
 69
     1
1001
ACAD
1000
MVIEW
1002
{
1070
    16
1010
0.0
1020
0.0
1030
0.0
1010
0.0
1020
0.0
1030
1.0
1040
0.0
1040
309.448596
1040
261.517699
1040
154.724298
1040
50.0
1040
0.0
1040
0.0
1070
     0
1070
   100
1070
     1
1070
     0
1070
     0
1070
     0
1070
     0
1070
     0
1040
0.0
1040
0.0
1040
0.0
1040
1.0
1040
1.0
1040
10.0
1040
10.0
1070
     0
1002
{
1002
}
1002
}
  0
ENDSEC
  0
SECTION
  2
OBJECTS
  0
DICTIONARY
  5
C
100
AcDbDictionary
  3
ACAD_GROUP
350
D
  3
ACAD_MLINESTYLE
350
E
  3
ACDBVARIABLEDICTIONARY
350
86C
  3
CONTENTDICTIONARY
350
905
  0
DICTIONARY
  5
D
102
{ACAD_REACTORS
330
C
102
}
100
AcDbDictionary
  0
DICTIONARY
  5
E
102
{ACAD_REACTORS
330
C
102
}
100
AcDbDictionary
  3
STANDARD
350
13
  0
DICTIONARY
  5
86C
102
{ACAD_REACTORS
330
C
102
}
100
AcDbDictionary
  3
SORTENTS
350
86D
  0
DICTIONARY
  5
905
102
{ACAD_REACTORS
330
C
102
}
100
AcDbDictionary
  0
MLINESTYLE
  5
13
102
{ACAD_REACTORS
330
E
102
}
100
AcDbMlineStyle
  2
STANDARD
 70
     0
  3

 62
     0
 51
90.0
 52
90.0
 71
     2
 49
0.5
 62
   256
  6
BYLAYER
 49
-0.5
 62
   256
  6
BYLAYER
  0
DICTIONARYVAR
  5
86D
102
{ACAD_REACTORS
330
86C
102
}
100
DictionaryVariables
280
     0
  1
96
  0
ENDSEC
  0
EOF
