  0
SECTION
  2
HEADER
  9
$ACADVER
  1
AC1014
  9
$ACADMAINTVER
 70
     0
  9
$DWGCODEPAGE
  3
ANSI_1250
  9
$INSBASE
 10
0.0
 20
0.0
 30
0.0
  9
$EXTMIN
 10
160.86652
 20
-720.0
 30
0.0
  9
$EXTMAX
 10
1013.808253
 20
-105.752781
 30
0.0
  9
$LIMMIN
 10
-1040.805314
 20
-347.068924
  9
$LIMMAX
 10
643.686187
 20
495.293187
  9
$ORTHOMODE
 70
     0
  9
$REGENMODE
 70
     1
  9
$FILLMODE
 70
     1
  9
$QTEXTMODE
 70
     0
  9
$MIRRTEXT
 70
     1
  9
$DRAGMODE
 70
     2
  9
$LTSCALE
 40
15.0
  9
$OSMODE
 70
  1023
  9
$ATTMODE
 70
     1
  9
$TEXTSIZE
 40
15.0
  9
$TRACEWID
 40
1.0
  9
$TEXTSTYLE
  7
STANDARD
  9
$CLAYER
  8
V0-OBRYS
  9
$CELTYPE
  6
BYLAYER
  9
$CECOLOR
 62
   256
  9
$CELTSCALE
 40
5.0
  9
$DELOBJ
 70
     1
  9
$DISPSILH
 70
     0
  9
$DIMSCALE
 40
5.0
  9
$DIMASZ
 40
3.5
  9
$DIMEXO
 40
0.0625
  9
$DIMDLI
 40
0.38
  9
$DIMRND
 40
0.0
  9
$DIMDLE
 40
0.0
  9
$DIMEXE
 40
0.18
  9
$DIMTP
 40
0.0
  9
$DIMTM
 40
0.0
  9
$DIMTXT
 40
3.5
  9
$DIMCEN
 40
0.0
  9
$DIMTSZ
 40
0.0
  9
$DIMTOL
 70
     0
  9
$DIMLIM
 70
     0
  9
$DIMTIH
 70
     0
  9
$DIMTOH
 70
     0
  9
$DIMSE1
 70
     0
  9
$DIMSE2
 70
     0
  9
$DIMTAD
 70
     1
  9
$DIMZIN
 70
     0
  9
$DIMBLK
  1

  9
$DIMASO
 70
     1
  9
$DIMSHO
 70
     1
  9
$DIMPOST
  1

  9
$DIMAPOST
  1

  9
$DIMALT
 70
     0
  9
$DIMALTD
 70
     2
  9
$DIMALTF
 40
25.4
  9
$DIMLFAC
 40
1.0
  9
$DIMTOFL
 70
     0
  9
$DIMTVP
 40
0.0
  9
$DIMTIX
 70
     0
  9
$DIMSOXD
 70
     0
  9
$DIMSAH
 70
     1
  9
$DIMBLK1
  1
_OPEN
  9
$DIMBLK2
  1
_OPEN
  9
$DIMSTYLE
  2
STANDARD
  9
$DIMCLRD
 70
     0
  9
$DIMCLRE
 70
     0
  9
$DIMCLRT
 70
     0
  9
$DIMTFAC
 40
1.0
  9
$DIMGAP
 40
0.625
  9
$DIMJUST
 70
     0
  9
$DIMSD1
 70
     0
  9
$DIMSD2
 70
     0
  9
$DIMTOLJ
 70
     1
  9
$DIMTZIN
 70
     0
  9
$DIMALTZ
 70
     0
  9
$DIMALTTZ
 70
     0
  9
$DIMFIT
 70
     0
  9
$DIMUPT
 70
     0
  9
$DIMUNIT
 70
     2
  9
$DIMDEC
 70
     1
  9
$DIMTDEC
 70
     4
  9
$DIMALTU
 70
     2
  9
$DIMALTTD
 70
     2
  9
$DIMTXSTY
  7
STANDARD
  9
$DIMAUNIT
 70
     0
  9
$LUNITS
 70
     2
  9
$LUPREC
 70
     4
  9
$SKETCHINC
 40
1.0
  9
$FILLETRAD
 40
5.0
  9
$AUNITS
 70
     0
  9
$AUPREC
 70
     0
  9
$MENU
  1
.
  9
$ELEVATION
 40
0.0
  9
$PELEVATION
 40
0.0
  9
$THICKNESS
 40
0.0
  9
$LIMCHECK
 70
     0
  9
$BLIPMODE
 70
     1
  9
$CHAMFERA
 40
10.0
  9
$CHAMFERB
 40
10.0
  9
$CHAMFERC
 40
20.0
  9
$CHAMFERD
 40
0.0
  9
$SKPOLY
 70
     0
  9
$TDCREATE
 40
2450763.421427893
  9
$TDUPDATE
 40
2452915.660262268
  9
$TDINDWG
 40
1.2457789352
  9
$TDUSRTIMER
 40
1.2457789352
  9
$USRTIMER
 70
     1
  9
$ANGBASE
 50
0.0
  9
$ANGDIR
 70
     0
  9
$PDMODE
 70
     3
  9
$PDSIZE
 40
15.0
  9
$PLINEWID
 40
0.0
  9
$COORDS
 70
     2
  9
$SPLFRAME
 70
     0
  9
$SPLINETYPE
 70
     6
  9
$SPLINESEGS
 70
     8
  9
$ATTDIA
 70
     0
  9
$ATTREQ
 70
     1
  9
$HANDLING
 70
     1
  9
$HANDSEED
  5
2954
  9
$SURFTAB1
 70
     6
  9
$SURFTAB2
 70
     6
  9
$SURFTYPE
 70
     6
  9
$SURFU
 70
     6
  9
$SURFV
 70
     6
  9
$UCSNAME
  2

  9
$UCSORG
 10
497.5
 20
-600.0
 30
0.0
  9
$UCSXDIR
 10
1.0
 20
0.0
 30
0.0
  9
$UCSYDIR
 10
0.0
 20
1.0
 30
0.0
  9
$PUCSNAME
  2

  9
$PUCSORG
 10
0.0
 20
0.0
 30
0.0
  9
$PUCSXDIR
 10
1.0
 20
0.0
 30
0.0
  9
$PUCSYDIR
 10
0.0
 20
1.0
 30
0.0
  9
$USERI1
 70
     0
  9
$USERI2
 70
     0
  9
$USERI3
 70
     0
  9
$USERI4
 70
     0
  9
$USERI5
 70
     0
  9
$USERR1
 40
0.0
  9
$USERR2
 40
0.0
  9
$USERR3
 40
0.0
  9
$USERR4
 40
0.0
  9
$USERR5
 40
0.0
  9
$WORLDVIEW
 70
     1
  9
$SHADEDGE
 70
     3
  9
$SHADEDIF
 70
    70
  9
$TILEMODE
 70
     1
  9
$MAXACTVP
 70
    16
  9
$PINSBASE
 10
0.0
 20
0.0
 30
0.0
  9
$PLIMCHECK
 70
     0
  9
$PEXTMIN
 10
1.000000E+20
 20
1.000000E+20
 30
1.000000E+20
  9
$PEXTMAX
 10
-1.000000E+20
 20
-1.000000E+20
 30
-1.000000E+20
  9
$PLIMMIN
 10
0.0
 20
0.0
  9
$PLIMMAX
 10
420.0
 20
297.0
  9
$UNITMODE
 70
     0
  9
$VISRETAIN
 70
     0
  9
$PLINEGEN
 70
     0
  9
$PSLTSCALE
 70
     0
  9
$TREEDEPTH
 70
  3020
  9
$PICKSTYLE
 70
     1
  9
$CMLSTYLE
  2
STANDARD
  9
$CMLJUST
 70
     0
  9
$CMLSCALE
 40
1.0
  9
$PROXYGRAPHICS
 70
     1
  9
$MEASUREMENT
 70
     1
  0
ENDSEC
  0
SECTION
  2
CLASSES
  0
CLASS
  1
LWPOLYLINE
  2
AcDbPolyline
  3
"AutoCAD"
 90
        0
280
     0
281
     1
  0
CLASS
  1
DICTIONARYVAR
  2
AcDbDictionaryVar
  3
"AutoCAD"
 90
        0
280
     0
281
     0
  0
CLASS
  1
HATCH
  2
AcDbHatch
  3
"ACAD_SEDONA"
 90
        0
280
     0
281
     1
  0
ENDSEC
  0
SECTION
  2
TABLES
  0
TABLE
  2
VPORT
  5
8
100
AcDbSymbolTable
 70
     2
  0
VPORT
  5
2953
100
AcDbSymbolTableRecord
100
AcDbViewportTableRecord
  2
*ACTIVE
 70
     0
 10
0.0
 20
0.0
 11
1.0
 21
1.0
 12
639.512368
 22
-412.116959
 13
0.0
 23
0.0
 14
10.0
 24
10.0
 15
50.0
 25
50.0
 16
0.0
 26
0.0
 36
1.0
 17
0.0
 27
0.0
 37
0.0
 40
632.895322
 41
1.730469
 42
50.0
 43
0.0
 44
0.0
 50
0.0
 51
0.0
 71
     0
 72
   100
 73
     1
 74
     0
 75
     0
 76
     1
 77
     0
 78
     0
  0
ENDTAB
  0
TABLE
  2
LTYPE
  5
5
100
AcDbSymbolTable
 70
     2
  0
LTYPE
  5
14
100
AcDbSymbolTableRecord
100
AcDbLinetypeTableRecord
  2
BYBLOCK
 70
     0
  3

 72
    65
 73
     0
 40
0.0
  0
LTYPE
  5
15
100
AcDbSymbolTableRecord
100
AcDbLinetypeTableRecord
  2
BYLAYER
 70
     0
  3

 72
    65
 73
     0
 40
0.0
  0
LTYPE
  5
16
100
AcDbSymbolTableRecord
100
AcDbLinetypeTableRecord
  2
CONTINUOUS
 70
     0
  3
Solid line
 72
    65
 73
     0
 40
0.0
  0
LTYPE
  5
492
100
AcDbSymbolTableRecord
100
AcDbLinetypeTableRecord
  2
DASHDOT
 70
     0
  3
__ . __ . __ . __ . __ . __ . __ . __ . __ . __
 72
    65
 73
     4
 40
1.0
 49
0.5
 74
     0
 49
-0.25
 74
     0
 49
0.0
 74
     0
 49
-0.25
 74
     0
  0
ENDTAB
  0
TABLE
  2
LAYER
  5
2
100
AcDbSymbolTable
 70
     6
  0
LAYER
  5
F
100
AcDbSymbolTableRecord
100
AcDbLayerTableRecord
  2
0
 70
     0
 62
     7
  6
CONTINUOUS
  0
LAYER
  5
1A22
100
AcDbSymbolTableRecord
100
AcDbLayerTableRecord
  2
DEFPOINTS
 70
     0
 62
     7
  6
CONTINUOUS
  0
LAYER
  5
2638
100
AcDbSymbolTableRecord
100
AcDbLayerTableRecord
  2
V0-OBRYS
 70
     0
 62
    90
  6
CONTINUOUS
  0
LAYER
  5
2639
100
AcDbSymbolTableRecord
100
AcDbLayerTableRecord
  2
V0-VYPLNE
 70
     0
 62
    52
  6
CONTINUOUS
  0
LAYER
  5
263A
100
AcDbSymbolTableRecord
100
AcDbLayerTableRecord
  2
V0-NAZVY
 70
     0
 62
   210
  6
CONTINUOUS
  0
LAYER
  5
263B
100
AcDbSymbolTableRecord
100
AcDbLayerTableRecord
  2
V0-ZBYTEK
 70
     0
 62
    51
  6
CONTINUOUS
  0
ENDTAB
  0
TABLE
  2
STYLE
  5
3
100
AcDbSymbolTable
 70
     8
  0
STYLE
  5
10
100
AcDbSymbolTableRecord
100
AcDbTextStyleTableRecord
  2
STANDARD
 70
     0
 40
0.0
 41
1.0
 50
0.0
 71
     0
 42
15.0
  3
ISOCP
  4

  0
STYLE
  5
1BDA
100
AcDbSymbolTableRecord
100
AcDbTextStyleTableRecord
  2
SIMPLCS
 70
     0
 40
0.0
 41
1.0
 50
0.0
 71
     0
 42
0.2
  3
SIMPLCS
  4

  0
STYLE
  5
1C7B
100
AcDbSymbolTableRecord
100
AcDbTextStyleTableRecord
  2

 70
     1
 40
0.0
 41
1.0
 50
0.0
 71
     0
 42
0.2
  3
ltypeshp.shx
  4

  0
STYLE
  5
263C
100
AcDbSymbolTableRecord
100
AcDbTextStyleTableRecord
  2
ED
 70
     0
 40
20.0
 41
1.0
 50
0.0
 71
     0
 42
2.5
  3
ISOCP.shx
  4

  0
STYLE
  5
263D
100
AcDbSymbolTableRecord
100
AcDbTextStyleTableRecord
  2
EDVENT
 70
     0
 40
10.0
 41
1.0
 50
0.0
 71
     0
 42
2.5
  3
ISOCP.shx
  4

  0
STYLE
  5
263E
100
AcDbSymbolTableRecord
100
AcDbTextStyleTableRecord
  2
E
 70
     0
 40
25.0
 41
1.0
 50
0.0
 71
     0
 42
2.5
  3
ISOCP.shx
  4

  0
STYLE
  5
263F
100
AcDbSymbolTableRecord
100
AcDbTextStyleTableRecord
  2
ED-VENT
 70
     0
 40
25.0
 41
1.0
 50
0.0
 71
     0
 42
2.5
  3
ISOCP.shx
  4

  0
STYLE
  5
2640
100
AcDbSymbolTableRecord
100
AcDbTextStyleTableRecord
  2
ED2
 70
     0
 40
25.0
 41
1.0
 50
0.0
 71
     0
 42
2.5
  3
ISOCP.shx
  4

  0
ENDTAB
  0
TABLE
  2
VIEW
  5
6
100
AcDbSymbolTable
 70
     0
  0
ENDTAB
  0
TABLE
  2
UCS
  5
7
100
AcDbSymbolTable
 70
     0
  0
ENDTAB
  0
TABLE
  2
APPID
  5
9
100
AcDbSymbolTable
 70
     4
  0
APPID
  5
11
100
AcDbSymbolTableRecord
100
AcDbRegAppTableRecord
  2
ACAD
 70
     0
  0
APPID
  5
906
100
AcDbSymbolTableRecord
100
AcDbRegAppTableRecord
  2
CONTENTTABDATA
 70
     0
  0
APPID
  5
907
100
AcDbSymbolTableRecord
100
AcDbRegAppTableRecord
  2
CONTENTCURRENTTAB
 70
     0
  0
APPID
  5
908
100
AcDbSymbolTableRecord
100
AcDbRegAppTableRecord
  2
CONTENTBLOCKDESCRIPTION
 70
     0
  0
ENDTAB
  0
TABLE
  2
DIMSTYLE
  5
A
100
AcDbSymbolTable
 70
     3
  0
DIMSTYLE
105
1D
102
{ACAD_REACTORS
330
2292
330
229F
330
2285
330
2232
330
2225
330
2240
330
2274
330
2217
330
220A
330
2267
102
}
100
AcDbSymbolTableRecord
100
AcDbDimStyleTableRecord
  2
STANDARD
 70
     0
  3

  4

  5

  6
_OPEN
  7
_OPEN
 40
5.0
 41
3.5
 42
0.0625
 43
0.38
 44
0.18
 45
0.0
 46
0.0
 47
0.0
 48
0.0
140
3.5
141
0.0
142
0.0
143
25.4
144
1.0
145
0.0
146
1.0
147
0.625
 71
     0
 72
     0
 73
     0
 74
     0
 75
     0
 76
     0
 77
     1
 78
     0
170
     0
171
     2
172
     0
173
     1
174
     0
175
     0
176
     0
177
     0
178
     0
270
     2
271
     0
272
     4
273
     2
274
     2
340
10
275
     0
280
     0
281
     0
282
     0
283
     1
284
     0
285
     0
286
     0
287
     0
288
     0
  0
DIMSTYLE
105
2641
100
AcDbSymbolTableRecord
100
AcDbDimStyleTableRecord
  2
ED
 70
     0
  3

  4

  5

  6
_OPEN
  7
_OPEN
 40
0.0
 41
15.0
 42
0.625
 43
3.75
 44
1.25
 45
0.0
 46
0.0
 47
0.0
 48
0.0
140
15.0
141
2.5
142
0.0
143
0.0394
144
1.0
145
0.0
146
1.0
147
3.0
 71
     0
 72
     0
 73
     0
 74
     0
 75
     0
 76
     0
 77
     1
 78
     8
170
     0
171
     4
172
     1
173
     1
174
     0
175
     0
176
     0
177
     0
178
     0
270
     2
271
     0
272
     1
273
     8
274
     4
340
263C
275
     0
280
     0
281
     0
282
     0
283
     1
284
     8
285
     0
286
     0
287
     3
288
     0
  0
DIMSTYLE
105
2642
100
AcDbSymbolTableRecord
100
AcDbDimStyleTableRecord
  2
ED2
 70
     0
  3

  4

  5

  6
_OPEN
  7
_OPEN
 40
0.0
 41
25.0
 42
0.625
 43
3.75
 44
1.25
 45
0.0
 46
0.0
 47
0.0
 48
0.0
140
30.0
141
2.5
142
0.0
143
0.0394
144
1.0
145
0.0
146
1.0
147
5.0
 71
     0
 72
     0
 73
     0
 74
     0
 75
     0
 76
     0
 77
     1
 78
     8
170
     0
171
     4
172
     1
173
     1
174
     0
175
     0
176
     0
177
     0
178
     0
270
     2
271
     0
272
     1
273
     8
274
     4
340
263C
275
     0
280
     0
281
     0
282
     0
283
     1
284
     8
285
     0
286
     0
287
     3
288
     0
  0
ENDTAB
  0
TABLE
  2
BLOCK_RECORD
  5
1
100
AcDbSymbolTable
 70
    18
  0
BLOCK_RECORD
  5
1A
100
AcDbSymbolTableRecord
100
AcDbBlockTableRecord
  2
*MODEL_SPACE
  0
BLOCK_RECORD
  5
17
100
AcDbSymbolTableRecord
100
AcDbBlockTableRecord
  2
*PAPER_SPACE
  0
BLOCK_RECORD
  5
1A05
100
AcDbSymbolTableRecord
100
AcDbBlockTableRecord
  2
_OPEN
  0
BLOCK_RECORD
  5
282D
100
AcDbSymbolTableRecord
100
AcDbBlockTableRecord
  2
*D8
  0
BLOCK_RECORD
  5
2839
100
AcDbSymbolTableRecord
100
AcDbBlockTableRecord
  2
*D9
  0
BLOCK_RECORD
  5
2845
100
AcDbSymbolTableRecord
100
AcDbBlockTableRecord
  2
*D10
  0
BLOCK_RECORD
  5
28F8
100
AcDbSymbolTableRecord
100
AcDbBlockTableRecord
  2
*D11
  0
BLOCK_RECORD
  5
2904
100
AcDbSymbolTableRecord
100
AcDbBlockTableRecord
  2
*D12
  0
BLOCK_RECORD
  5
2910
100
AcDbSymbolTableRecord
100
AcDbBlockTableRecord
  2
*D13
  0
BLOCK_RECORD
  5
291D
100
AcDbSymbolTableRecord
100
AcDbBlockTableRecord
  2
*D14
  0
BLOCK_RECORD
  5
2929
100
AcDbSymbolTableRecord
100
AcDbBlockTableRecord
  2
*D15
  0
BLOCK_RECORD
  5
2935
100
AcDbSymbolTableRecord
100
AcDbBlockTableRecord
  2
*D16
  0
BLOCK_RECORD
  5
2941
100
AcDbSymbolTableRecord
100
AcDbBlockTableRecord
  2
*D17
  0
ENDTAB
  0
ENDSEC
  0
SECTION
  2
BLOCKS
  0
BLOCK
  5
1B
100
AcDbEntity
  8
0
100
AcDbBlockBegin
  2
*MODEL_SPACE
 70
     0
 10
0.0
 20
0.0
 30
0.0
  3
*MODEL_SPACE
  1

  0
ENDBLK
  5
1C
100
AcDbEntity
  8
0
100
AcDbBlockEnd
  0
BLOCK
  5
18
100
AcDbEntity
 67
     1
  8
0
100
AcDbBlockBegin
  2
*PAPER_SPACE
 70
     0
 10
0.0
 20
0.0
 30
0.0
  3
*PAPER_SPACE
  1

  0
ENDBLK
  5
19
100
AcDbEntity
 67
     1
  8
0
100
AcDbBlockEnd
  0
BLOCK
  5
1A09
100
AcDbEntity
  8
0
100
AcDbBlockBegin
  2
_OPEN
 70
     0
 10
0.0
 20
0.0
 30
0.0
  3
_OPEN
  1

  0
LINE
  5
1A06
100
AcDbEntity
  8
0
  6
BYBLOCK
 62
     0
100
AcDbLine
 10
-1.0
 20
0.166667
 30
0.0
 11
0.0
 21
0.0
 31
0.0
  0
LINE
  5
1A07
100
AcDbEntity
  8
0
  6
BYBLOCK
 62
     0
100
AcDbLine
 10
0.0
 20
0.0
 30
0.0
 11
-1.0
 21
-0.166667
 31
0.0
  0
LINE
  5
1A08
100
AcDbEntity
  8
0
  6
BYBLOCK
 62
     0
100
AcDbLine
 10
0.0
 20
0.0
 30
0.0
 11
-1.0
 21
0.0
 31
0.0
  0
ENDBLK
  5
1A0A
100
AcDbEntity
  8
0
100
AcDbBlockEnd
  0
BLOCK
  5
282E
100
AcDbEntity
  8
0
 48
5.0
100
AcDbBlockBegin
  2
*D8
 70
     1
 10
0.0
 20
0.0
 30
0.0
  3
*D8
  1

  0
LINE
  5
282F
100
AcDbEntity
  8
0
  6
BYBLOCK
 62
     0
 48
5.0
100
AcDbLine
 10
650.0
 20
-299.6875
 30
0.0
 11
650.0
 21
-125.482948
 31
0.0
  0
LINE
  5
2830
100
AcDbEntity
  8
0
  6
BYBLOCK
 62
     0
 48
5.0
100
AcDbLine
 10
861.5
 20
-234.6875
 30
0.0
 11
861.5
 21
-125.482948
 31
0.0
  0
LINE
  5
2831
100
AcDbEntity
  8
0
  6
BYBLOCK
 62
     0
 48
5.0
100
AcDbLine
 10
667.5
 20
-126.382948
 30
0.0
 11
844.0
 21
-126.382948
 31
0.0
  0
INSERT
  5
2832
100
AcDbEntity
  8
0
  6
BYBLOCK
 62
     0
 48
5.0
100
AcDbBlockReference
  2
_OPEN
 10
650.0
 20
-126.382948
 30
0.0
 41
17.5
 42
17.5
 43
17.5
 50
180.0
  0
INSERT
  5
2833
100
AcDbEntity
  8
0
  6
BYBLOCK
 62
     0
 48
5.0
100
AcDbBlockReference
  2
_OPEN
 10
861.5
 20
-126.382948
 30
0.0
 41
17.5
 42
17.5
 43
17.5
  0
MTEXT
  5
2834
100
AcDbEntity
  8
0
  6
BYBLOCK
 62
     0
 48
5.0
100
AcDbMText
 10
755.75
 20
-114.506226
 30
0.0
 40
17.5
 41
0.0
 71
     5
 72
     1
  1
\A1;211.5
  0
POINT
  5
2835
100
AcDbEntity
  8
DEFPOINTS
  6
BYBLOCK
 62
     0
 48
5.0
100
AcDbPoint
 10
650.0
 20
-300.0
 30
0.0
  0
POINT
  5
2836
100
AcDbEntity
  8
DEFPOINTS
  6
BYBLOCK
 62
     0
 48
5.0
100
AcDbPoint
 10
861.5
 20
-235.0
 30
0.0
  0
POINT
  5
2837
100
AcDbEntity
  8
DEFPOINTS
  6
BYBLOCK
 62
     0
 48
5.0
100
AcDbPoint
 10
861.5
 20
-126.382948
 30
0.0
  0
ENDBLK
  5
2838
100
AcDbEntity
  8
0
 48
5.0
100
AcDbBlockEnd
  0
BLOCK
  5
283A
100
AcDbEntity
  8
0
 48
5.0
100
AcDbBlockBegin
  2
*D9
 70
     1
 10
0.0
 20
0.0
 30
0.0
  3
*D9
  1

  0
LINE
  5
283B
100
AcDbEntity
  8
0
  6
BYBLOCK
 62
     0
 48
5.0
100
AcDbLine
 10
861.8125
 20
-235.0
 30
0.0
 11
896.496596
 21
-235.0
 31
0.0
  0
LINE
  5
283C
100
AcDbEntity
  8
0
  6
BYBLOCK
 62
     0
 48
5.0
100
AcDbLine
 10
861.8125
 20
-365.0
 30
0.0
 11
896.496596
 21
-365.0
 31
0.0
  0
LINE
  5
283D
100
AcDbEntity
  8
0
  6
BYBLOCK
 62
     0
 48
5.0
100
AcDbLine
 10
895.596596
 20
-252.5
 30
0.0
 11
895.596596
 21
-347.5
 31
0.0
  0
INSERT
  5
283E
100
AcDbEntity
  8
0
  6
BYBLOCK
 62
     0
 48
5.0
100
AcDbBlockReference
  2
_OPEN
 10
895.596596
 20
-235.0
 30
0.0
 41
17.5
 42
17.5
 43
17.5
 50
90.0
  0
INSERT
  5
283F
100
AcDbEntity
  8
0
  6
BYBLOCK
 62
     0
 48
5.0
100
AcDbBlockReference
  2
_OPEN
 10
895.596596
 20
-365.0
 30
0.0
 41
17.5
 42
17.5
 43
17.5
 50
270.0
  0
MTEXT
  5
2840
100
AcDbEntity
  8
0
  6
BYBLOCK
 62
     0
 48
5.0
100
AcDbMText
 10
883.721596
 20
-300.0
 30
0.0
 40
17.5
 41
0.0
 71
     5
 72
     1
  1
\A1;130.0
 11
0.0
 21
1.0
 31
0.0
  0
POINT
  5
2841
100
AcDbEntity
  8
DEFPOINTS
  6
BYBLOCK
 62
     0
 48
5.0
100
AcDbPoint
 10
861.5
 20
-235.0
 30
0.0
  0
POINT
  5
2842
100
AcDbEntity
  8
DEFPOINTS
  6
BYBLOCK
 62
     0
 48
5.0
100
AcDbPoint
 10
861.5
 20
-365.0
 30
0.0
  0
POINT
  5
2843
100
AcDbEntity
  8
DEFPOINTS
  6
BYBLOCK
 62
     0
 48
5.0
100
AcDbPoint
 10
895.596596
 20
-365.0
 30
0.0
  0
ENDBLK
  5
2844
100
AcDbEntity
  8
0
 48
5.0
100
AcDbBlockEnd
  0
BLOCK
  5
2846
100
AcDbEntity
  8
0
 48
5.0
100
AcDbBlockBegin
  2
*D10
 70
     1
 10
0.0
 20
0.0
 30
0.0
  3
*D10
  1

  0
LINE
  5
2847
100
AcDbEntity
  8
0
  6
BYBLOCK
 62
     0
 48
5.0
100
AcDbLine
 10
750.0
 20
-172.6875
 30
0.0
 11
750.0
 21
-151.418437
 31
0.0
  0
LINE
  5
2848
100
AcDbEntity
  8
0
  6
BYBLOCK
 62
     0
 48
5.0
100
AcDbLine
 10
861.5
 20
-234.6875
 30
0.0
 11
861.5
 21
-151.418437
 31
0.0
  0
LINE
  5
2849
100
AcDbEntity
  8
0
  6
BYBLOCK
 62
     0
 48
5.0
100
AcDbLine
 10
767.5
 20
-152.318437
 30
0.0
 11
844.0
 21
-152.318437
 31
0.0
  0
INSERT
  5
284A
100
AcDbEntity
  8
0
  6
BYBLOCK
 62
     0
 48
5.0
100
AcDbBlockReference
  2
_OPEN
 10
750.0
 20
-152.318437
 30
0.0
 41
17.5
 42
17.5
 43
17.5
 50
180.0
  0
INSERT
  5
284B
100
AcDbEntity
  8
0
  6
BYBLOCK
 62
     0
 48
5.0
100
AcDbBlockReference
  2
_OPEN
 10
861.5
 20
-152.318437
 30
0.0
 41
17.5
 42
17.5
 43
17.5
  0
MTEXT
  5
284C
100
AcDbEntity
  8
0
  6
BYBLOCK
 62
     0
 48
5.0
100
AcDbMText
 10
805.75
 20
-140.443437
 30
0.0
 40
17.5
 41
0.0
 71
     5
 72
     1
  1
\A1;111.5
  0
POINT
  5
284D
100
AcDbEntity
  8
DEFPOINTS
  6
BYBLOCK
 62
     0
 48
5.0
100
AcDbPoint
 10
750.0
 20
-173.0
 30
0.0
  0
POINT
  5
284E
100
AcDbEntity
  8
DEFPOINTS
  6
BYBLOCK
 62
     0
 48
5.0
100
AcDbPoint
 10
861.5
 20
-235.0
 30
0.0
  0
POINT
  5
284F
100
AcDbEntity
  8
DEFPOINTS
  6
BYBLOCK
 62
     0
 48
5.0
100
AcDbPoint
 10
861.5
 20
-152.318437
 30
0.0
  0
ENDBLK
  5
2850
100
AcDbEntity
  8
0
 48
5.0
100
AcDbBlockEnd
  0
BLOCK
  5
28F9
100
AcDbEntity
  8
0
 48
5.0
100
AcDbBlockBegin
  2
*D11
 70
     1
 10
0.0
 20
0.0
 30
0.0
  3
*D11
  1

  0
LINE
  5
28FA
100
AcDbEntity
  8
0
  6
BYBLOCK
 62
     0
 48
5.0
100
AcDbLine
 10
202.1875
 20
-378.8125
 30
0.0
 11
202.1875
 21
-467.564358
 31
0.0
  0
LINE
  5
28FB
100
AcDbEntity
  8
0
  6
BYBLOCK
 62
     0
 48
5.0
100
AcDbLine
 10
497.5
 20
-378.8125
 30
0.0
 11
497.5
 21
-467.564358
 31
0.0
  0
LINE
  5
28FC
100
AcDbEntity
  8
0
  6
BYBLOCK
 62
     0
 48
5.0
100
AcDbLine
 10
219.6875
 20
-466.664358
 30
0.0
 11
480.0
 21
-466.664358
 31
0.0
  0
INSERT
  5
28FD
100
AcDbEntity
  8
0
  6
BYBLOCK
 62
     0
 48
5.0
100
AcDbBlockReference
  2
_OPEN
 10
202.1875
 20
-466.664358
 30
0.0
 41
17.5
 42
17.5
 43
17.5
 50
180.0
  0
INSERT
  5
28FE
100
AcDbEntity
  8
0
  6
BYBLOCK
 62
     0
 48
5.0
100
AcDbBlockReference
  2
_OPEN
 10
497.5
 20
-466.664358
 30
0.0
 41
17.5
 42
17.5
 43
17.5
  0
MTEXT
  5
28FF
100
AcDbEntity
  8
0
  6
BYBLOCK
 62
     0
 48
5.0
100
AcDbMText
 10
349.84375
 20
-454.787635
 30
0.0
 40
17.5
 41
0.0
 71
     5
 72
     1
  1
\A1;295
  0
POINT
  5
2900
100
AcDbEntity
  8
DEFPOINTS
  6
BYBLOCK
 62
     0
 48
5.0
100
AcDbPoint
 10
202.1875
 20
-378.5
 30
0.0
  0
POINT
  5
2901
100
AcDbEntity
  8
DEFPOINTS
  6
BYBLOCK
 62
     0
 48
5.0
100
AcDbPoint
 10
497.5
 20
-378.5
 30
0.0
  0
POINT
  5
2902
100
AcDbEntity
  8
DEFPOINTS
  6
BYBLOCK
 62
     0
 48
5.0
100
AcDbPoint
 10
497.5
 20
-466.664358
 30
0.0
  0
ENDBLK
  5
2903
100
AcDbEntity
  8
0
 48
5.0
100
AcDbBlockEnd
  0
BLOCK
  5
2905
100
AcDbEntity
  8
0
 48
5.0
100
AcDbBlockBegin
  2
*D12
 70
     1
 10
0.0
 20
0.0
 30
0.0
  3
*D12
  1

  0
LINE
  5
2906
100
AcDbEntity
  8
0
  6
BYBLOCK
 62
     0
 48
5.0
100
AcDbLine
 10
202.1875
 20
-300.0
 30
0.0
 11
180.596687
 21
-300.0
 31
0.0
  0
LINE
  5
2907
100
AcDbEntity
  8
0
  6
BYBLOCK
 62
     0
 48
5.0
100
AcDbLine
 10
309.6875
 20
-173.0
 30
0.0
 11
180.596687
 21
-173.0
 31
0.0
  0
LINE
  5
2908
100
AcDbEntity
  8
0
  6
BYBLOCK
 62
     0
 48
5.0
100
AcDbLine
 10
181.496687
 20
-282.5
 30
0.0
 11
181.496687
 21
-190.5
 31
0.0
  0
INSERT
  5
2909
100
AcDbEntity
  8
0
  6
BYBLOCK
 62
     0
 48
5.0
100
AcDbBlockReference
  2
_OPEN
 10
181.496687
 20
-300.0
 30
0.0
 41
17.5
 42
17.5
 43
17.5
 50
270.0
  0
INSERT
  5
290A
100
AcDbEntity
  8
0
  6
BYBLOCK
 62
     0
 48
5.0
100
AcDbBlockReference
  2
_OPEN
 10
181.496687
 20
-173.0
 30
0.0
 41
17.5
 42
17.5
 43
17.5
 50
90.0
  0
MTEXT
  5
290B
100
AcDbEntity
  8
0
  6
BYBLOCK
 62
     0
 48
5.0
100
AcDbMText
 10
169.619965
 20
-236.5
 30
0.0
 40
17.5
 41
0.0
 71
     5
 72
     1
  1
\A1;127
 11
0.0
 21
1.0
 31
0.0
  0
POINT
  5
290C
100
AcDbEntity
  8
DEFPOINTS
  6
BYBLOCK
 62
     0
 48
5.0
100
AcDbPoint
 10
202.5
 20
-300.0
 30
0.0
  0
POINT
  5
290D
100
AcDbEntity
  8
DEFPOINTS
  6
BYBLOCK
 62
     0
 48
5.0
100
AcDbPoint
 10
310.0
 20
-173.0
 30
0.0
  0
POINT
  5
290E
100
AcDbEntity
  8
DEFPOINTS
  6
BYBLOCK
 62
     0
 48
5.0
100
AcDbPoint
 10
181.496687
 20
-173.0
 30
0.0
  0
ENDBLK
  5
290F
100
AcDbEntity
  8
0
 48
5.0
100
AcDbBlockEnd
  0
BLOCK
  5
2911
100
AcDbEntity
  8
0
 48
5.0
100
AcDbBlockBegin
  2
*D13
 70
     1
 10
0.0
 20
0.0
 30
0.0
  3
*D13
  1

  0
LINE
  5
2912
100
AcDbEntity
  8
0
  6
BYBLOCK
 62
     0
 48
5.0
100
AcDbLine
 10
202.1875
 20
-379.125
 30
0.0
 11
202.1875
 21
-437.338789
 31
0.0
  0
LINE
  5
2913
100
AcDbEntity
  8
0
  6
BYBLOCK
 62
     0
 48
5.0
100
AcDbLine
 10
232.1875
 20
-378.8125
 30
0.0
 11
232.1875
 21
-437.338789
 31
0.0
  0
LINE
  5
2914
100
AcDbEntity
  8
0
  6
BYBLOCK
 62
     0
 48
5.0
100
AcDbLine
 10
184.6875
 20
-436.438789
 30
0.0
 11
167.1875
 21
-436.438789
 31
0.0
  0
LINE
  5
2915
100
AcDbEntity
  8
0
  6
BYBLOCK
 62
     0
 48
5.0
100
AcDbLine
 10
249.6875
 20
-436.438789
 30
0.0
 11
267.1875
 21
-436.438789
 31
0.0
  0
INSERT
  5
2916
100
AcDbEntity
  8
0
  6
BYBLOCK
 62
     0
 48
5.0
100
AcDbBlockReference
  2
_OPEN
 10
202.1875
 20
-436.438789
 30
0.0
 41
17.5
 42
17.5
 43
17.5
  0
INSERT
  5
2917
100
AcDbEntity
  8
0
  6
BYBLOCK
 62
     0
 48
5.0
100
AcDbBlockReference
  2
_OPEN
 10
232.1875
 20
-436.438789
 30
0.0
 41
17.5
 42
17.5
 43
17.5
 50
180.0
  0
MTEXT
  5
2918
100
AcDbEntity
  8
0
  6
BYBLOCK
 62
     0
 48
5.0
100
AcDbMText
 10
217.1875
 20
-424.563789
 30
0.0
 40
17.5
 41
0.0
 71
     5
 72
     1
  1
\A1;30
  0
POINT
  5
2919
100
AcDbEntity
  8
DEFPOINTS
  6
BYBLOCK
 62
     0
 48
5.0
100
AcDbPoint
 10
202.1875
 20
-378.8125
 30
0.0
  0
POINT
  5
291A
100
AcDbEntity
  8
DEFPOINTS
  6
BYBLOCK
 62
     0
 48
5.0
100
AcDbPoint
 10
232.1875
 20
-378.5
 30
0.0
  0
POINT
  5
291B
100
AcDbEntity
  8
DEFPOINTS
  6
BYBLOCK
 62
     0
 48
5.0
100
AcDbPoint
 10
232.1875
 20
-436.438789
 30
0.0
  0
ENDBLK
  5
291C
100
AcDbEntity
  8
0
 48
5.0
100
AcDbBlockEnd
  0
BLOCK
  5
291E
100
AcDbEntity
  8
0
 48
5.0
100
AcDbBlockBegin
  2
*D14
 70
     1
 10
0.0
 20
0.0
 30
0.0
  3
*D14
  1

  0
LINE
  5
291F
100
AcDbEntity
  8
0
  6
BYBLOCK
 62
     0
 48
5.0
100
AcDbLine
 10
384.474251
 20
-270.0
 30
0.0
 11
456.9
 21
-270.0
 31
0.0
  0
LINE
  5
2920
100
AcDbEntity
  8
0
  6
BYBLOCK
 62
     0
 48
5.0
100
AcDbLine
 10
384.474251
 20
-330.0
 30
0.0
 11
456.9
 21
-330.0
 31
0.0
  0
LINE
  5
2921
100
AcDbEntity
  8
0
  6
BYBLOCK
 62
     0
 48
5.0
100
AcDbLine
 10
456.0
 20
-287.5
 30
0.0
 11
456.0
 21
-312.5
 31
0.0
  0
INSERT
  5
2922
100
AcDbEntity
  8
0
  6
BYBLOCK
 62
     0
 48
5.0
100
AcDbBlockReference
  2
_OPEN
 10
456.0
 20
-270.0
 30
0.0
 41
17.5
 42
17.5
 43
17.5
 50
90.0
  0
INSERT
  5
2923
100
AcDbEntity
  8
0
  6
BYBLOCK
 62
     0
 48
5.0
100
AcDbBlockReference
  2
_OPEN
 10
456.0
 20
-330.0
 30
0.0
 41
17.5
 42
17.5
 43
17.5
 50
270.0
  0
MTEXT
  5
2924
100
AcDbEntity
  8
0
  6
BYBLOCK
 62
     0
 48
5.0
100
AcDbMText
 10
444.125
 20
-300.0
 30
0.0
 40
17.5
 41
0.0
 71
     5
 72
     1
  1
\A1;60
 11
0.0
 21
1.0
 31
0.0
  0
POINT
  5
2925
100
AcDbEntity
  8
DEFPOINTS
  6
BYBLOCK
 62
     0
 48
5.0
100
AcDbPoint
 10
384.161751
 20
-270.0
 30
0.0
  0
POINT
  5
2926
100
AcDbEntity
  8
DEFPOINTS
  6
BYBLOCK
 62
     0
 48
5.0
100
AcDbPoint
 10
384.161751
 20
-330.0
 30
0.0
  0
POINT
  5
2927
100
AcDbEntity
  8
DEFPOINTS
  6
BYBLOCK
 62
     0
 48
5.0
100
AcDbPoint
 10
456.0
 20
-330.0
 30
0.0
  0
ENDBLK
  5
2928
100
AcDbEntity
  8
0
 48
5.0
100
AcDbBlockEnd
  0
BLOCK
  5
292A
100
AcDbEntity
  8
0
 48
5.0
100
AcDbBlockBegin
  2
*D15
 70
     1
 10
0.0
 20
0.0
 30
0.0
  3
*D15
  1

  0
LINE
  5
292B
100
AcDbEntity
  8
0
  6
BYBLOCK
 62
     0
 48
5.0
100
AcDbLine
 10
410.3125
 20
-200.0
 30
0.0
 11
567.687882
 21
-200.0
 31
0.0
  0
LINE
  5
292C
100
AcDbEntity
  8
0
  6
BYBLOCK
 62
     0
 48
5.0
100
AcDbLine
 10
410.3125
 20
-400.0
 30
0.0
 11
567.687882
 21
-400.0
 31
0.0
  0
LINE
  5
292D
100
AcDbEntity
  8
0
  6
BYBLOCK
 62
     0
 48
5.0
100
AcDbLine
 10
566.787882
 20
-217.5
 30
0.0
 11
566.787882
 21
-382.5
 31
0.0
  0
INSERT
  5
292E
100
AcDbEntity
  8
0
  6
BYBLOCK
 62
     0
 48
5.0
100
AcDbBlockReference
  2
_OPEN
 10
566.787882
 20
-200.0
 30
0.0
 41
17.5
 42
17.5
 43
17.5
 50
90.0
  0
INSERT
  5
292F
100
AcDbEntity
  8
0
  6
BYBLOCK
 62
     0
 48
5.0
100
AcDbBlockReference
  2
_OPEN
 10
566.787882
 20
-400.0
 30
0.0
 41
17.5
 42
17.5
 43
17.5
 50
270.0
  0
MTEXT
  5
2930
100
AcDbEntity
  8
0
  6
BYBLOCK
 62
     0
 48
5.0
100
AcDbMText
 10
554.91116
 20
-300.0
 30
0.0
 40
17.5
 41
0.0
 71
     5
 72
     1
  1
\A1;\U+2205200
 11
0.0
 21
1.0
 31
0.0
  0
POINT
  5
2931
100
AcDbEntity
  8
DEFPOINTS
  6
BYBLOCK
 62
     0
 48
5.0
100
AcDbPoint
 10
410.0
 20
-200.0
 30
0.0
  0
POINT
  5
2932
100
AcDbEntity
  8
DEFPOINTS
  6
BYBLOCK
 62
     0
 48
5.0
100
AcDbPoint
 10
410.0
 20
-400.0
 30
0.0
  0
POINT
  5
2933
100
AcDbEntity
  8
DEFPOINTS
  6
BYBLOCK
 62
     0
 48
5.0
100
AcDbPoint
 10
566.787882
 20
-400.0
 30
0.0
  0
ENDBLK
  5
2934
100
AcDbEntity
  8
0
 48
5.0
100
AcDbBlockEnd
  0
BLOCK
  5
2936
100
AcDbEntity
  8
0
 48
5.0
100
AcDbBlockBegin
  2
*D16
 70
     1
 10
0.0
 20
0.0
 30
0.0
  3
*D16
  1

  0
LINE
  5
2937
100
AcDbEntity
  8
0
  6
BYBLOCK
 62
     0
 48
5.0
100
AcDbLine
 10
497.8125
 20
-221.5
 30
0.0
 11
537.42941
 21
-221.5
 31
0.0
  0
LINE
  5
2938
100
AcDbEntity
  8
0
  6
BYBLOCK
 62
     0
 48
5.0
100
AcDbLine
 10
497.8125
 20
-378.5
 30
0.0
 11
537.42941
 21
-378.5
 31
0.0
  0
LINE
  5
2939
100
AcDbEntity
  8
0
  6
BYBLOCK
 62
     0
 48
5.0
100
AcDbLine
 10
536.52941
 20
-239.0
 30
0.0
 11
536.52941
 21
-361.0
 31
0.0
  0
INSERT
  5
293A
100
AcDbEntity
  8
0
  6
BYBLOCK
 62
     0
 48
5.0
100
AcDbBlockReference
  2
_OPEN
 10
536.52941
 20
-221.5
 30
0.0
 41
17.5
 42
17.5
 43
17.5
 50
90.0
  0
INSERT
  5
293B
100
AcDbEntity
  8
0
  6
BYBLOCK
 62
     0
 48
5.0
100
AcDbBlockReference
  2
_OPEN
 10
536.52941
 20
-378.5
 30
0.0
 41
17.5
 42
17.5
 43
17.5
 50
270.0
  0
MTEXT
  5
293C
100
AcDbEntity
  8
0
  6
BYBLOCK
 62
     0
 48
5.0
100
AcDbMText
 10
524.65441
 20
-300.0
 30
0.0
 40
17.5
 41
0.0
 71
     5
 72
     1
  1
\A1;\U+2205157
 11
0.0
 21
1.0
 31
0.0
  0
POINT
  5
293D
100
AcDbEntity
  8
DEFPOINTS
  6
BYBLOCK
 62
     0
 48
5.0
100
AcDbPoint
 10
497.5
 20
-221.5
 30
0.0
  0
POINT
  5
293E
100
AcDbEntity
  8
DEFPOINTS
  6
BYBLOCK
 62
     0
 48
5.0
100
AcDbPoint
 10
497.5
 20
-378.5
 30
0.0
  0
POINT
  5
293F
100
AcDbEntity
  8
DEFPOINTS
  6
BYBLOCK
 62
     0
 48
5.0
100
AcDbPoint
 10
536.52941
 20
-378.5
 30
0.0
  0
ENDBLK
  5
2940
100
AcDbEntity
  8
0
 48
5.0
100
AcDbBlockEnd
  0
BLOCK
  5
2942
100
AcDbEntity
  8
0
 48
5.0
100
AcDbBlockBegin
  2
*D17
 70
     1
 10
0.0
 20
0.0
 30
0.0
  3
*D17
  1

  0
LINE
  5
2943
100
AcDbEntity
  8
0
  6
BYBLOCK
 62
     0
 48
5.0
100
AcDbLine
 10
310.0
 20
-335.3125
 30
0.0
 11
310.0
 21
-435.65959
 31
0.0
  0
LINE
  5
2944
100
AcDbEntity
  8
0
  6
BYBLOCK
 62
     0
 48
5.0
100
AcDbLine
 10
390.0
 20
-335.3125
 30
0.0
 11
390.0
 21
-435.65959
 31
0.0
  0
LINE
  5
2945
100
AcDbEntity
  8
0
  6
BYBLOCK
 62
     0
 48
5.0
100
AcDbLine
 10
327.5
 20
-434.75959
 30
0.0
 11
372.5
 21
-434.75959
 31
0.0
  0
INSERT
  5
2946
100
AcDbEntity
  8
0
  6
BYBLOCK
 62
     0
 48
5.0
100
AcDbBlockReference
  2
_OPEN
 10
310.0
 20
-434.75959
 30
0.0
 41
17.5
 42
17.5
 43
17.5
 50
180.0
  0
INSERT
  5
2947
100
AcDbEntity
  8
0
  6
BYBLOCK
 62
     0
 48
5.0
100
AcDbBlockReference
  2
_OPEN
 10
390.0
 20
-434.75959
 30
0.0
 41
17.5
 42
17.5
 43
17.5
  0
MTEXT
  5
2948
100
AcDbEntity
  8
0
  6
BYBLOCK
 62
     0
 48
5.0
100
AcDbMText
 10
350.0
 20
-422.88459
 30
0.0
 40
17.5
 41
0.0
 71
     5
 72
     1
  1
\A1;80
  0
POINT
  5
2949
100
AcDbEntity
  8
DEFPOINTS
  6
BYBLOCK
 62
     0
 48
5.0
100
AcDbPoint
 10
310.0
 20
-335.0
 30
0.0
  0
POINT
  5
294A
100
AcDbEntity
  8
DEFPOINTS
  6
BYBLOCK
 62
     0
 48
5.0
100
AcDbPoint
 10
390.0
 20
-335.0
 30
0.0
  0
POINT
  5
294B
100
AcDbEntity
  8
DEFPOINTS
  6
BYBLOCK
 62
     0
 48
5.0
100
AcDbPoint
 10
390.0
 20
-434.75959
 30
0.0
  0
ENDBLK
  5
294C
100
AcDbEntity
  8
0
 48
5.0
100
AcDbBlockEnd
  0
ENDSEC
  0
SECTION
  2
ENTITIES
  0
LINE
  5
20AC
100
AcDbEntity
  8
V0-VYPLNE
  6
DASHDOT
 62
    63
 48
3.0
100
AcDbLine
 10
202.5
 20
-300.0
 30
0.0
 11
419.529991
 21
-300.0
 31
0.0
  0
LINE
  5
20AE
100
AcDbEntity
  8
V0-OBRYS
  6
CONTINUOUS
 62
    90
100
AcDbLine
 10
202.5
 20
-300.0
 30
0.0
 11
202.1875
 21
-221.5
 31
0.0
  0
LINE
  5
20AF
100
AcDbEntity
  8
V0-OBRYS
  6
CONTINUOUS
 62
    90
100
AcDbLine
 10
310.0
 20
-173.0
 30
0.0
 11
350.0
 21
-173.0
 31
0.0
  0
LINE
  5
20B0
100
AcDbEntity
  8
V0-OBRYS
  6
CONTINUOUS
 62
    90
100
AcDbLine
 10
310.0
 20
-178.0
 30
0.0
 11
350.0
 21
-178.0
 31
0.0
  0
LINE
  5
20B2
100
AcDbEntity
  8
V0-OBRYS
  6
CONTINUOUS
 62
    90
100
AcDbLine
 10
202.1875
 20
-221.5
 30
0.0
 11
232.1875
 21
-221.5
 31
0.0
  0
LINE
  5
20B3
100
AcDbEntity
  8
V0-OBRYS
  6
CONTINUOUS
 62
    90
100
AcDbLine
 10
310.0
 20
-200.0
 30
0.0
 11
300.0
 21
-200.0
 31
0.0
  0
LINE
  5
20B4
100
AcDbEntity
  8
V0-OBRYS
  6
CONTINUOUS
 62
    90
100
AcDbLine
 10
290.0
 20
-200.0
 30
0.0
 11
232.1875
 21
-221.5
 31
0.0
  0
LINE
  5
20B5
100
AcDbEntity
  8
V0-OBRYS
  6
CONTINUOUS
 62
    90
100
AcDbLine
 10
310.0
 20
-215.0
 30
0.0
 11
350.0
 21
-215.0
 31
0.0
  0
LINE
  5
20B7
100
AcDbEntity
  8
V0-OBRYS
  6
CONTINUOUS
 62
    90
100
AcDbLine
 10
290.0
 20
-200.0
 30
0.0
 11
290.0
 21
-234.893757
 31
0.0
  0
LINE
  5
20B8
100
AcDbEntity
  8
V0-OBRYS
  6
CONTINUOUS
 62
    90
100
AcDbLine
 10
295.0
 20
-198.0
 30
0.0
 11
295.0
 21
-234.893757
 31
0.0
  0
LINE
  5
20B9
100
AcDbEntity
  8
V0-OBRYS
  6
CONTINUOUS
 62
    90
100
AcDbLine
 10
295.0
 20
-198.0
 30
0.0
 11
300.0
 21
-198.0
 31
0.0
  0
LINE
  5
20BA
100
AcDbEntity
  8
V0-OBRYS
  6
CONTINUOUS
 62
    90
100
AcDbLine
 10
300.0
 20
-198.0
 30
0.0
 11
300.0
 21
-234.893757
 31
0.0
  0
LINE
  5
20BB
100
AcDbEntity
  8
V0-OBRYS
  6
CONTINUOUS
 62
    90
100
AcDbLine
 10
295.0
 20
-200.0
 30
0.0
 11
290.0
 21
-200.0
 31
0.0
  0
LINE
  5
20BC
100
AcDbEntity
  8
V0-OBRYS
  6
CONTINUOUS
 62
    90
100
AcDbLine
 10
310.0
 20
-215.0
 30
0.0
 11
310.0
 21
-173.0
 31
0.0
  0
CIRCLE
  5
20BE
100
AcDbEntity
  8
V0-OBRYS
  6
CONTINUOUS
 62
    90
100
AcDbCircle
 10
310.0
 20
-270.0
 30
0.0
 40
2.75
  0
LINE
  5
20BF
100
AcDbEntity
  8
V0-VYPLNE
  6
DASHDOT
 62
    63
 48
3.0
100
AcDbLine
 10
303.822493
 20
-270.0
 30
0.0
 11
315.838249
 21
-270.0
 31
0.0
  0
LINE
  5
20C0
100
AcDbEntity
  8
V0-VYPLNE
  6
DASHDOT
 62
    63
 48
3.0
100
AcDbLine
 10
310.0
 20
-275.0
 30
0.0
 11
310.0
 21
-265.0
 31
0.0
  0
LINE
  5
20C5
100
AcDbEntity
  8
V0-OBRYS
  6
CONTINUOUS
 62
    90
100
AcDbLine
 10
300.0
 20
-402.0
 30
0.0
 11
300.0
 21
-365.106243
 31
0.0
  0
LINE
  5
20C6
100
AcDbEntity
  8
V0-OBRYS
  6
CONTINUOUS
 62
    90
100
AcDbLine
 10
295.0
 20
-402.0
 30
0.0
 11
295.0
 21
-365.106243
 31
0.0
  0
LINE
  5
20C7
100
AcDbEntity
  8
V0-OBRYS
  6
CONTINUOUS
 62
    90
100
AcDbLine
 10
290.0
 20
-400.0
 30
0.0
 11
232.1875
 21
-378.5
 31
0.0
  0
LINE
  5
20C8
100
AcDbEntity
  8
V0-OBRYS
  6
CONTINUOUS
 62
    90
100
AcDbLine
 10
290.0
 20
-400.0
 30
0.0
 11
290.0
 21
-365.106243
 31
0.0
  0
LINE
  5
20CA
100
AcDbEntity
  8
V0-OBRYS
  6
CONTINUOUS
 62
    90
100
AcDbLine
 10
202.5
 20
-300.0
 30
0.0
 11
202.1875
 21
-378.5
 31
0.0
  0
LINE
  5
20CB
100
AcDbEntity
  8
V0-OBRYS
  6
CONTINUOUS
 62
    90
100
AcDbLine
 10
202.1875
 20
-378.5
 30
0.0
 11
232.1875
 21
-378.5
 31
0.0
  0
LINE
  5
20CD
100
AcDbEntity
  8
V0-VYPLNE
  6
DASHDOT
 62
    63
 48
3.0
100
AcDbLine
 10
303.822493
 20
-330.0
 30
0.0
 11
315.838249
 21
-330.0
 31
0.0
  0
LINE
  5
20CF
100
AcDbEntity
  8
V0-OBRYS
  6
CONTINUOUS
 62
    90
100
AcDbLine
 10
295.0
 20
-402.0
 30
0.0
 11
300.0
 21
-402.0
 31
0.0
  0
LINE
  5
20D0
100
AcDbEntity
  8
V0-OBRYS
  6
CONTINUOUS
 62
    90
100
AcDbLine
 10
295.0
 20
-400.0
 30
0.0
 11
290.0
 21
-400.0
 31
0.0
  0
LINE
  5
20D1
100
AcDbEntity
  8
V0-OBRYS
  6
CONTINUOUS
 62
    90
100
AcDbLine
 10
350.0
 20
-400.0
 30
0.0
 11
300.0
 21
-400.0
 31
0.0
  0
LINE
  5
20D3
100
AcDbEntity
  8
V0-VYPLNE
  6
DASHDOT
 62
    63
 48
3.0
100
AcDbLine
 10
310.0
 20
-325.0
 30
0.0
 11
310.0
 21
-335.0
 31
0.0
  0
CIRCLE
  5
20D4
100
AcDbEntity
  8
V0-OBRYS
  6
CONTINUOUS
 62
    90
100
AcDbCircle
 10
310.0
 20
-330.0
 30
0.0
 40
2.75
  0
LINE
  5
20D5
100
AcDbEntity
  8
V0-OBRYS
  6
CONTINUOUS
 62
    90
100
AcDbLine
 10
400.0
 20
-198.0
 30
0.0
 11
400.0
 21
-234.893757
 31
0.0
  0
LINE
  5
20D6
100
AcDbEntity
  8
V0-OBRYS
  6
CONTINUOUS
 62
    90
100
AcDbLine
 10
405.0
 20
-198.0
 30
0.0
 11
405.0
 21
-234.893757
 31
0.0
  0
LINE
  5
20D7
100
AcDbEntity
  8
V0-OBRYS
  6
CONTINUOUS
 62
    90
100
AcDbLine
 10
410.0
 20
-200.0
 30
0.0
 11
467.5
 21
-221.5
 31
0.0
  0
LINE
  5
20D8
100
AcDbEntity
  8
V0-OBRYS
  6
CONTINUOUS
 62
    90
100
AcDbLine
 10
410.0
 20
-200.0
 30
0.0
 11
410.0
 21
-234.893757
 31
0.0
  0
LINE
  5
20D9
100
AcDbEntity
  8
V0-OBRYS
  6
CONTINUOUS
 62
    90
100
AcDbLine
 10
390.0
 20
-215.0
 30
0.0
 11
390.0
 21
-173.0
 31
0.0
  0
LINE
  5
20DB
100
AcDbEntity
  8
V0-OBRYS
  6
CONTINUOUS
 62
    90
100
AcDbLine
 10
497.5
 20
-300.0
 30
0.0
 11
497.5
 21
-378.5
 31
0.0
  0
LINE
  5
20DC
100
AcDbEntity
  8
V0-OBRYS
  6
CONTINUOUS
 62
    90
100
AcDbLine
 10
467.5
 20
-378.5
 30
0.0
 11
467.5
 21
-300.0
 31
0.0
  0
LINE
  5
20DD
100
AcDbEntity
  8
V0-OBRYS
  6
CONTINUOUS
 62
    90
100
AcDbLine
 10
410.0
 20
-400.0
 30
0.0
 11
410.0
 21
-365.106243
 31
0.0
  0
LINE
  5
20DE
100
AcDbEntity
  8
V0-OBRYS
  6
CONTINUOUS
 62
    90
100
AcDbLine
 10
405.0
 20
-402.0
 30
0.0
 11
405.0
 21
-365.106243
 31
0.0
  0
LINE
  5
20E0
100
AcDbEntity
  8
V0-OBRYS
  6
CONTINUOUS
 62
    90
100
AcDbLine
 10
410.0
 20
-400.0
 30
0.0
 11
467.5
 21
-378.5
 31
0.0
  0
LINE
  5
20E1
100
AcDbEntity
  8
V0-OBRYS
  6
CONTINUOUS
 62
    90
100
AcDbLine
 10
497.5
 20
-378.5
 30
0.0
 11
467.5
 21
-378.5
 31
0.0
  0
LINE
  5
20E2
100
AcDbEntity
  8
V0-OBRYS
  6
CONTINUOUS
 62
    90
100
AcDbLine
 10
350.0
 20
-400.0
 30
0.0
 11
400.0
 21
-400.0
 31
0.0
  0
LINE
  5
20E4
100
AcDbEntity
  8
V0-OBRYS
  6
CONTINUOUS
 62
    90
100
AcDbLine
 10
405.0
 20
-402.0
 30
0.0
 11
400.0
 21
-402.0
 31
0.0
  0
LINE
  5
20E5
100
AcDbEntity
  8
V0-OBRYS
  6
CONTINUOUS
 62
    90
100
AcDbLine
 10
405.0
 20
-400.0
 30
0.0
 11
410.0
 21
-400.0
 31
0.0
  0
LINE
  5
20E7
100
AcDbEntity
  8
V0-VYPLNE
  6
DASHDOT
 62
    63
 48
3.0
100
AcDbLine
 10
870.0
 20
-300.0
 30
0.0
 11
640.0
 21
-300.0
 31
0.0
  0
LINE
  5
20E8
100
AcDbEntity
  8
V0-OBRYS
  6
CONTINUOUS
 62
    90
100
AcDbLine
 10
467.5
 20
-221.5
 30
0.0
 11
467.5
 21
-300.0
 31
0.0
  0
LINE
  5
20E9
100
AcDbEntity
  8
V0-OBRYS
  6
CONTINUOUS
 62
    90
100
AcDbLine
 10
497.5
 20
-300.0
 30
0.0
 11
497.5
 21
-221.5
 31
0.0
  0
LINE
  5
20EA
100
AcDbEntity
  8
V0-OBRYS
  6
CONTINUOUS
 62
    90
100
AcDbLine
 10
497.5
 20
-221.5
 30
0.0
 11
467.5
 21
-221.5
 31
0.0
  0
CIRCLE
  5
20EC
100
AcDbEntity
  8
V0-OBRYS
  6
CONTINUOUS
 62
    90
100
AcDbCircle
 10
390.0
 20
-330.0
 30
0.0
 40
2.75
  0
LINE
  5
20ED
100
AcDbEntity
  8
V0-VYPLNE
  6
DASHDOT
 62
    63
 48
3.0
100
AcDbLine
 10
390.0
 20
-325.0
 30
0.0
 11
390.0
 21
-335.0
 31
0.0
  0
LINE
  5
20EE
100
AcDbEntity
  8
V0-VYPLNE
  6
DASHDOT
 62
    63
 48
3.0
100
AcDbLine
 10
396.177507
 20
-330.0
 30
0.0
 11
384.161751
 21
-330.0
 31
0.0
  0
LINE
  5
20F0
100
AcDbEntity
  8
V0-OBRYS
  6
CONTINUOUS
 62
    90
100
AcDbLine
 10
390.0
 20
-215.0
 30
0.0
 11
350.0
 21
-215.0
 31
0.0
  0
LINE
  5
20F1
100
AcDbEntity
  8
V0-VYPLNE
  6
DASHDOT
 62
    63
 48
3.0
100
AcDbLine
 10
390.0
 20
-275.0
 30
0.0
 11
390.0
 21
-265.0
 31
0.0
  0
LINE
  5
20F2
100
AcDbEntity
  8
V0-VYPLNE
  6
DASHDOT
 62
    63
 48
3.0
100
AcDbLine
 10
396.177507
 20
-270.0
 30
0.0
 11
384.161751
 21
-270.0
 31
0.0
  0
CIRCLE
  5
20F3
100
AcDbEntity
  8
V0-OBRYS
  6
CONTINUOUS
 62
    90
100
AcDbCircle
 10
390.0
 20
-270.0
 30
0.0
 40
2.75
  0
LINE
  5
20F5
100
AcDbEntity
  8
V0-OBRYS
  6
CONTINUOUS
 62
    90
100
AcDbLine
 10
390.0
 20
-178.0
 30
0.0
 11
350.0
 21
-178.0
 31
0.0
  0
LINE
  5
20F6
100
AcDbEntity
  8
V0-OBRYS
  6
CONTINUOUS
 62
    90
100
AcDbLine
 10
390.0
 20
-173.0
 30
0.0
 11
350.0
 21
-173.0
 31
0.0
  0
LINE
  5
20F7
100
AcDbEntity
  8
V0-OBRYS
  6
CONTINUOUS
 62
    90
100
AcDbLine
 10
405.0
 20
-198.0
 30
0.0
 11
400.0
 21
-198.0
 31
0.0
  0
LINE
  5
20F8
100
AcDbEntity
  8
V0-OBRYS
  6
CONTINUOUS
 62
    90
100
AcDbLine
 10
405.0
 20
-200.0
 30
0.0
 11
410.0
 21
-200.0
 31
0.0
  0
LINE
  5
20F9
100
AcDbEntity
  8
V0-OBRYS
  6
CONTINUOUS
 62
    90
100
AcDbLine
 10
390.0
 20
-200.0
 30
0.0
 11
400.0
 21
-200.0
 31
0.0
  0
LINE
  5
20FB
100
AcDbEntity
  8
V0-VYPLNE
  6
DASHDOT
 62
    63
 48
3.0
100
AcDbLine
 10
750.0
 20
-189.477471
 30
0.0
 11
750.0
 21
-410.955684
 31
0.0
  0
CIRCLE
  5
2138
100
AcDbEntity
  8
V0-OBRYS
  6
CONTINUOUS
 62
    90
100
AcDbCircle
 10
750.0
 20
-300.0
 30
0.0
 40
72.597406
  0
LINE
  5
2139
100
AcDbEntity
  8
V0-OBRYS
  6
CONTINUOUS
 62
    90
100
AcDbLine
 10
790.691901
 20
-266.282847
 30
0.0
 11
801.272071
 21
-258.466257
 31
0.0
  0
LINE
  5
213A
100
AcDbEntity
  8
V0-OBRYS
  6
CONTINUOUS
 62
    90
100
AcDbLine
 10
749.999607
 20
-255.111103
 30
0.0
 11
749.996761
 21
-287.896229
 31
0.0
  0
ARC
  5
213B
100
AcDbEntity
  8
V0-OBRYS
  6
CONTINUOUS
 62
    90
100
AcDbCircle
 10
773.709705
 20
-314.455538
 30
0.0
 40
35.604784
100
AcDbArc
 50
94.288647
 51
131.759431
  0
ARC
  5
213C
100
AcDbEntity
  8
V0-OBRYS
  6
CONTINUOUS
 62
    90
100
AcDbCircle
 10
773.235147
 20
-290.412731
 30
0.0
 40
46.76449
100
AcDbArc
 50
53.133515
 51
112.631049
  0
ARC
  5
213D
100
AcDbEntity
  8
V0-OBRYS
  6
CONTINUOUS
 62
    90
100
AcDbCircle
 10
758.518357
 20
-255.111843
 30
0.0
 40
8.51875
100
AcDbArc
 50
112.631049
 51
179.995026
  0
ARC
  5
213E
100
AcDbEntity
  8
V0-OBRYS
  6
CONTINUOUS
 62
    90
100
AcDbCircle
 10
799.247275
 20
-255.72559
 30
0.0
 40
3.4075
100
AcDbArc
 50
306.456849
 51
53.133515
  0
ARC
  5
213F
100
AcDbEntity
  8
V0-OBRYS
  6
CONTINUOUS
 62
    90
100
AcDbCircle
 10
753.516347
 20
-233.870182
 30
0.0
 40
3.4075
100
AcDbArc
 50
351.456849
 51
98.133515
  0
ARC
  5
2140
100
AcDbEntity
  8
V0-OBRYS
  6
CONTINUOUS
 62
    90
100
AcDbCircle
 10
759.650507
 20
-276.791047
 30
0.0
 40
46.76449
100
AcDbArc
 50
98.133515
 51
157.631049
  0
ARC
  5
2141
100
AcDbEntity
  8
V0-OBRYS
  6
CONTINUOUS
 62
    90
100
AcDbCircle
 10
724.282667
 20
-262.235892
 30
0.0
 40
8.51875
100
AcDbArc
 50
157.631049
 51
224.995026
  0
LINE
  5
2142
100
AcDbEntity
  8
V0-OBRYS
  6
CONTINUOUS
 62
    90
100
AcDbLine
 10
718.258478
 20
-268.259035
 30
0.0
 11
741.439051
 21
-291.443632
 31
0.0
  0
ARC
  5
2143
100
AcDbEntity
  8
V0-OBRYS
  6
CONTINUOUS
 62
    90
100
AcDbCircle
 10
776.986902
 20
-293.456315
 30
0.0
 40
35.604784
100
AcDbArc
 50
139.288647
 51
176.759431
  0
LINE
  5
2144
100
AcDbEntity
  8
V0-OBRYS
  6
CONTINUOUS
 62
    90
100
AcDbLine
 10
754.888946
 20
-247.670738
 30
0.0
 11
756.886038
 21
-234.37638
 31
0.0
  0
ARC
  5
2145
100
AcDbEntity
  8
V0-OBRYS
  6
CONTINUOUS
 62
    90
100
AcDbCircle
 10
743.456315
 20
-273.013098
 30
0.0
 40
35.604784
100
AcDbArc
 50
229.288647
 51
266.759431
  0
LINE
  5
2146
100
AcDbEntity
  8
V0-OBRYS
  6
CONTINUOUS
 62
    90
100
AcDbLine
 10
718.259035
 20
-331.741522
 30
0.0
 11
741.443632
 21
-308.560949
 31
0.0
  0
LINE
  5
2147
100
AcDbEntity
  8
V0-OBRYS
  6
CONTINUOUS
 62
    90
100
AcDbLine
 10
705.111103
 20
-300.000393
 30
0.0
 11
737.896229
 21
-300.003239
 31
0.0
  0
LINE
  5
2148
100
AcDbEntity
  8
V0-OBRYS
  6
CONTINUOUS
 62
    90
100
AcDbLine
 10
716.282847
 20
-259.308099
 30
0.0
 11
708.466257
 21
-248.727929
 31
0.0
  0
ARC
  5
2149
100
AcDbEntity
  8
V0-OBRYS
  6
CONTINUOUS
 62
    90
100
AcDbCircle
 10
764.455538
 20
-276.290295
 30
0.0
 40
35.604784
100
AcDbArc
 50
184.288647
 51
221.759431
  0
ARC
  5
214A
100
AcDbEntity
  8
V0-OBRYS
  6
CONTINUOUS
 62
    90
100
AcDbCircle
 10
740.412731
 20
-276.764853
 30
0.0
 40
46.76449
100
AcDbArc
 50
143.133515
 51
202.631049
  0
ARC
  5
214B
100
AcDbEntity
  8
V0-OBRYS
  6
CONTINUOUS
 62
    90
100
AcDbCircle
 10
683.870182
 20
-296.483653
 30
0.0
 40
3.4075
100
AcDbArc
 50
81.456849
 51
188.133515
  0
ARC
  5
214C
100
AcDbEntity
  8
V0-OBRYS
  6
CONTINUOUS
 62
    90
100
AcDbCircle
 10
726.791047
 20
-290.349493
 30
0.0
 40
46.76449
100
AcDbArc
 50
188.133515
 51
247.631049
  0
ARC
  5
214D
100
AcDbEntity
  8
V0-OBRYS
  6
CONTINUOUS
 62
    90
100
AcDbCircle
 10
712.235892
 20
-325.717333
 30
0.0
 40
8.51875
100
AcDbArc
 50
247.631049
 51
314.995026
  0
ARC
  5
214E
100
AcDbEntity
  8
V0-OBRYS
  6
CONTINUOUS
 62
    90
100
AcDbCircle
 10
705.111843
 20
-291.481643
 30
0.0
 40
8.51875
100
AcDbArc
 50
202.631049
 51
269.995026
  0
LINE
  5
214F
100
AcDbEntity
  8
V0-OBRYS
  6
CONTINUOUS
 62
    90
100
AcDbLine
 10
697.670738
 20
-295.111054
 30
0.0
 11
684.37638
 21
-293.113962
 31
0.0
  0
ARC
  5
2150
100
AcDbEntity
  8
V0-OBRYS
  6
CONTINUOUS
 62
    90
100
AcDbCircle
 10
705.72559
 20
-250.752725
 30
0.0
 40
3.4075
100
AcDbArc
 50
36.456849
 51
143.133515
  0
ARC
  5
2151
100
AcDbEntity
  8
V0-OBRYS
  6
CONTINUOUS
 62
    90
100
AcDbCircle
 10
723.013098
 20
-306.543685
 30
0.0
 40
35.604784
100
AcDbArc
 50
319.288647
 51
356.759431
  0
LINE
  5
2152
100
AcDbEntity
  8
V0-OBRYS
  6
CONTINUOUS
 62
    90
100
AcDbLine
 10
781.741522
 20
-331.740965
 30
0.0
 11
758.560949
 21
-308.556368
 31
0.0
  0
LINE
  5
2153
100
AcDbEntity
  8
V0-OBRYS
  6
CONTINUOUS
 62
    90
100
AcDbLine
 10
750.000393
 20
-344.888897
 30
0.0
 11
750.003239
 21
-312.103771
 31
0.0
  0
LINE
  5
2154
100
AcDbEntity
  8
V0-OBRYS
  6
CONTINUOUS
 62
    90
100
AcDbLine
 10
709.308099
 20
-333.717153
 30
0.0
 11
698.727929
 21
-341.533743
 31
0.0
  0
ARC
  5
2155
100
AcDbEntity
  8
V0-OBRYS
  6
CONTINUOUS
 62
    90
100
AcDbCircle
 10
726.290295
 20
-285.544462
 30
0.0
 40
35.604784
100
AcDbArc
 50
274.288647
 51
311.759431
  0
ARC
  5
2156
100
AcDbEntity
  8
V0-OBRYS
  6
CONTINUOUS
 62
    90
100
AcDbCircle
 10
726.764853
 20
-309.587269
 30
0.0
 40
46.76449
100
AcDbArc
 50
233.133515
 51
292.631049
  0
ARC
  5
2157
100
AcDbEntity
  8
V0-OBRYS
  6
CONTINUOUS
 62
    90
100
AcDbCircle
 10
746.483653
 20
-366.129818
 30
0.0
 40
3.4075
100
AcDbArc
 50
171.456849
 51
278.133515
  0
ARC
  5
2158
100
AcDbEntity
  8
V0-OBRYS
  6
CONTINUOUS
 62
    90
100
AcDbCircle
 10
740.349493
 20
-323.208953
 30
0.0
 40
46.76449
100
AcDbArc
 50
278.133515
 51
337.631049
  0
ARC
  5
2159
100
AcDbEntity
  8
V0-OBRYS
  6
CONTINUOUS
 62
    90
100
AcDbCircle
 10
775.717333
 20
-337.764108
 30
0.0
 40
8.51875
100
AcDbArc
 50
337.631049
 51
44.995026
  0
ARC
  5
215A
100
AcDbEntity
  8
V0-OBRYS
  6
CONTINUOUS
 62
    90
100
AcDbCircle
 10
741.481643
 20
-344.888157
 30
0.0
 40
8.51875
100
AcDbArc
 50
292.631049
 51
359.995026
  0
LINE
  5
215B
100
AcDbEntity
  8
V0-OBRYS
  6
CONTINUOUS
 62
    90
100
AcDbLine
 10
745.111054
 20
-352.329262
 30
0.0
 11
743.113962
 21
-365.62362
 31
0.0
  0
ARC
  5
215C
100
AcDbEntity
  8
V0-OBRYS
  6
CONTINUOUS
 62
    90
100
AcDbCircle
 10
700.752725
 20
-344.27441
 30
0.0
 40
3.4075
100
AcDbArc
 50
126.456849
 51
233.133515
  0
ARC
  5
215D
100
AcDbEntity
  8
V0-OBRYS
  6
CONTINUOUS
 62
    90
100
AcDbCircle
 10
756.543685
 20
-326.986902
 30
0.0
 40
35.604784
100
AcDbArc
 50
49.288647
 51
86.759431
  0
LINE
  5
215E
100
AcDbEntity
  8
V0-OBRYS
  6
CONTINUOUS
 62
    90
100
AcDbLine
 10
781.740965
 20
-268.258478
 30
0.0
 11
758.556368
 21
-291.439051
 31
0.0
  0
LINE
  5
215F
100
AcDbEntity
  8
V0-OBRYS
  6
CONTINUOUS
 62
    90
100
AcDbLine
 10
794.888897
 20
-299.999607
 30
0.0
 11
762.103771
 21
-299.996761
 31
0.0
  0
LINE
  5
2160
100
AcDbEntity
  8
V0-OBRYS
  6
CONTINUOUS
 62
    90
100
AcDbLine
 10
783.717153
 20
-340.691901
 30
0.0
 11
791.533743
 21
-351.272071
 31
0.0
  0
ARC
  5
2161
100
AcDbEntity
  8
V0-OBRYS
  6
CONTINUOUS
 62
    90
100
AcDbCircle
 10
735.544462
 20
-323.709705
 30
0.0
 40
35.604784
100
AcDbArc
 50
4.288647
 51
41.759431
  0
ARC
  5
2162
100
AcDbEntity
  8
V0-OBRYS
  6
CONTINUOUS
 62
    90
100
AcDbCircle
 10
759.587269
 20
-323.235147
 30
0.0
 40
46.76449
100
AcDbArc
 50
323.133515
 51
22.631049
  0
ARC
  5
2163
100
AcDbEntity
  8
V0-OBRYS
  6
CONTINUOUS
 62
    90
100
AcDbCircle
 10
816.129818
 20
-303.516347
 30
0.0
 40
3.4075
100
AcDbArc
 50
261.456849
 51
8.133515
  0
ARC
  5
2164
100
AcDbEntity
  8
V0-OBRYS
  6
CONTINUOUS
 62
    90
100
AcDbCircle
 10
773.208953
 20
-309.650507
 30
0.0
 40
46.76449
100
AcDbArc
 50
8.133515
 51
67.631049
  0
ARC
  5
2165
100
AcDbEntity
  8
V0-OBRYS
  6
CONTINUOUS
 62
    90
100
AcDbCircle
 10
787.764108
 20
-274.282667
 30
0.0
 40
8.51875
100
AcDbArc
 50
67.631049
 51
134.995026
  0
ARC
  5
2166
100
AcDbEntity
  8
V0-OBRYS
  6
CONTINUOUS
 62
    90
100
AcDbCircle
 10
794.888157
 20
-308.518357
 30
0.0
 40
8.51875
100
AcDbArc
 50
22.631049
 51
89.995026
  0
LINE
  5
2167
100
AcDbEntity
  8
V0-OBRYS
  6
CONTINUOUS
 62
    90
100
AcDbLine
 10
802.329262
 20
-304.888946
 30
0.0
 11
815.62362
 21
-306.886038
 31
0.0
  0
ARC
  5
2168
100
AcDbEntity
  8
V0-OBRYS
  6
CONTINUOUS
 62
    90
100
AcDbCircle
 10
794.27441
 20
-349.247275
 30
0.0
 40
3.4075
100
AcDbArc
 50
216.456849
 51
323.133515
  0
CIRCLE
  5
2169
100
AcDbEntity
  8
V0-OBRYS
  6
CONTINUOUS
 62
    90
100
AcDbCircle
 10
750.0
 20
-300.0
 30
0.0
 40
9.498213
  0
ARC
  5
216A
100
AcDbEntity
  8
V0-OBRYS
  6
CONTINUOUS
 62
    90
100
AcDbCircle
 10
750.0
 20
-300.0
 30
0.0
 40
100.0
100
AcDbArc
 50
40.541602
 51
319.458398
  0
LINE
  5
216C
100
AcDbEntity
  8
V0-OBRYS
  6
CONTINUOUS
 62
    90
100
AcDbLine
 10
710.0
 20
-209.950014
 30
0.0
 11
710.0
 21
-173.0
 31
0.0
  0
LINE
  5
216D
100
AcDbEntity
  8
V0-OBRYS
  6
CONTINUOUS
 62
    90
100
AcDbLine
 10
710.0
 20
-173.0
 30
0.0
 11
750.0
 21
-173.0
 31
0.0
  0
LINE
  5
216E
100
AcDbEntity
  8
V0-OBRYS
  6
CONTINUOUS
 62
    90
100
AcDbLine
 10
710.0
 20
-180.0
 30
0.0
 11
750.0
 21
-180.0
 31
0.0
  0
LINE
  5
216F
100
AcDbEntity
  8
V0-OBRYS
  6
CONTINUOUS
 62
    90
100
AcDbLine
 10
861.5
 20
-240.0
 30
0.0
 11
861.5
 21
-290.0
 31
0.0
  0
LINE
  5
2170
100
AcDbEntity
  8
V0-OBRYS
  6
CONTINUOUS
 62
    90
100
AcDbLine
 10
861.5
 20
-290.0
 30
0.0
 11
856.064193
 21
-290.0
 31
0.0
  0
LINE
  5
2171
100
AcDbEntity
  8
V0-OBRYS
  6
CONTINUOUS
 62
    90
100
AcDbLine
 10
856.064193
 20
-290.0
 30
0.0
 11
856.064193
 21
-300.362902
 31
0.0
  0
LINE
  5
2172
100
AcDbEntity
  8
V0-OBRYS
  6
CONTINUOUS
 62
    90
100
AcDbLine
 10
856.5
 20
-235.0
 30
0.0
 11
813.248821
 21
-235.0
 31
0.0
  0
ARC
  5
2174
100
AcDbEntity
  8
V0-OBRYS
  6
CONTINUOUS
 62
    90
100
AcDbCircle
 10
750.0
 20
-300.0
 30
0.0
 40
103.0
100
AcDbArc
 50
39.128959
 51
320.871041
  0
ARC
  5
2176
100
AcDbEntity
  8
V0-OBRYS
  6
CONTINUOUS
 62
    90
100
AcDbCircle
 10
749.523611
 20
-300.362902
 30
0.0
 40
91.604986
100
AcDbArc
 50
360.0
 51
45.85025
  0
LINE
  5
2177
100
AcDbEntity
  8
V0-OBRYS
  6
CONTINUOUS
 62
    90
100
AcDbLine
 10
856.5
 20
-365.0
 30
0.0
 11
813.248821
 21
-365.0
 31
0.0
  0
LINE
  5
2178
100
AcDbEntity
  8
V0-OBRYS
  6
CONTINUOUS
 62
    90
100
AcDbLine
 10
861.5
 20
-360.0
 30
0.0
 11
861.5
 21
-310.0
 31
0.0
  0
ARC
  5
2179
100
AcDbEntity
  8
V0-OBRYS
  6
CONTINUOUS
 62
    90
100
AcDbCircle
 10
749.523611
 20
-299.637098
 30
0.0
 40
91.604986
100
AcDbArc
 50
314.14975
 51
0.0
  0
LINE
  5
217A
100
AcDbEntity
  8
V0-OBRYS
  6
CONTINUOUS
 62
    90
100
AcDbLine
 10
856.064193
 20
-310.0
 30
0.0
 11
856.064193
 21
-299.637098
 31
0.0
  0
LINE
  5
217B
100
AcDbEntity
  8
V0-OBRYS
  6
CONTINUOUS
 62
    90
100
AcDbLine
 10
861.5
 20
-310.0
 30
0.0
 11
856.064193
 21
-310.0
 31
0.0
  0
LINE
  5
217C
100
AcDbEntity
  8
V0-OBRYS
  6
CONTINUOUS
 62
    90
100
AcDbLine
 10
790.0
 20
-173.0
 30
0.0
 11
750.0
 21
-173.0
 31
0.0
  0
LINE
  5
217D
100
AcDbEntity
  8
V0-OBRYS
  6
CONTINUOUS
 62
    90
100
AcDbLine
 10
790.0
 20
-180.0
 30
0.0
 11
750.0
 21
-180.0
 31
0.0
  0
LINE
  5
217E
100
AcDbEntity
  8
V0-OBRYS
  6
CONTINUOUS
 62
    90
100
AcDbLine
 10
790.0
 20
-209.950014
 30
0.0
 11
790.0
 21
-173.0
 31
0.0
  0
LINE
  5
217F
100
AcDbEntity
  8
V0-VYPLNE
  6
DASHDOT
 62
    63
 48
3.0
100
AcDbLine
 10
855.0
 20
-270.0
 30
0.0
 11
868.079585
 21
-270.0
 31
0.0
  0
LINE
  5
2180
100
AcDbEntity
  8
V0-VYPLNE
  6
DASHDOT
 62
    63
 48
3.0
100
AcDbLine
 10
855.0
 20
-330.0
 30
0.0
 11
868.079585
 21
-330.0
 31
0.0
  0
LINE
  5
2182
100
AcDbEntity
  8
V0-OBRYS
  6
CONTINUOUS
 62
    90
100
AcDbLine
 10
280.691851
 20
-365.106243
 30
0.0
 11
350.0
 21
-365.106243
 31
0.0
  0
LINE
  5
2183
100
AcDbEntity
  8
V0-OBRYS
  6
CONTINUOUS
 62
    90
100
AcDbLine
 10
350.0
 20
-700.0
 30
0.0
 11
300.0
 21
-700.0
 31
0.0
  0
LINE
  5
2184
100
AcDbEntity
  8
V0-OBRYS
  6
CONTINUOUS
 62
    90
100
AcDbLine
 10
280.691851
 20
-234.893757
 30
0.0
 11
350.0
 21
-234.893757
 31
0.0
  0
LINE
  5
2185
100
AcDbEntity
  8
V0-OBRYS
  6
CONTINUOUS
 62
    90
100
AcDbLine
 10
315.0
 20
-637.0
 30
0.0
 11
350.0
 21
-637.0
 31
0.0
  0
LINE
  5
2188
100
AcDbEntity
  8
V0-VYPLNE
  6
DASHDOT
 62
    63
 48
3.0
100
AcDbLine
 10
202.5
 20
-600.0
 30
0.0
 11
350.0
 21
-600.0
 31
0.0
  0
ARC
  5
2189
100
AcDbEntity
  8
V0-OBRYS
  6
CONTINUOUS
 62
    90
100
AcDbCircle
 10
618.32452
 20
-299.039403
 30
0.0
 40
347.774016
100
AcDbArc
 50
170.063887
 51
180.222915
  0
LINE
  5
218A
100
AcDbEntity
  8
V0-OBRYS
  6
CONTINUOUS
 62
    90
100
AcDbLine
 10
295.0
 20
-498.0
 30
0.0
 11
295.0
 21
-600.0
 31
0.0
  0
LINE
  5
218B
100
AcDbEntity
  8
V0-OBRYS
  6
CONTINUOUS
 62
    90
100
AcDbLine
 10
290.0
 20
-500.0
 30
0.0
 11
290.0
 21
-600.0
 31
0.0
  0
LINE
  5
218C
100
AcDbEntity
  8
V0-OBRYS
  6
CONTINUOUS
 62
    90
100
AcDbLine
 10
232.5
 20
-521.5
 30
0.0
 11
232.5
 21
-600.0
 31
0.0
  0
LINE
  5
218D
100
AcDbEntity
  8
V0-OBRYS
  6
CONTINUOUS
 62
    90
100
AcDbLine
 10
202.5
 20
-600.0
 30
0.0
 11
202.5
 21
-521.5
 31
0.0
  0
LINE
  5
218E
100
AcDbEntity
  8
V0-OBRYS
  6
CONTINUOUS
 62
    90
100
AcDbLine
 10
290.0
 20
-700.0
 30
0.0
 11
290.0
 21
-600.0
 31
0.0
  0
LINE
  5
218F
100
AcDbEntity
  8
V0-OBRYS
  6
CONTINUOUS
 62
    90
100
AcDbLine
 10
290.0
 20
-700.0
 30
0.0
 11
232.5
 21
-678.5
 31
0.0
  0
LINE
  5
2190
100
AcDbEntity
  8
V0-OBRYS
  6
CONTINUOUS
 62
    90
100
AcDbLine
 10
295.0
 20
-702.0
 30
0.0
 11
295.0
 21
-600.0
 31
0.0
  0
LINE
  5
2191
100
AcDbEntity
  8
V0-OBRYS
  6
CONTINUOUS
 62
    90
100
AcDbLine
 10
300.0
 20
-702.0
 30
0.0
 11
300.0
 21
-600.0
 31
0.0
  0
LINE
  5
2192
100
AcDbEntity
  8
V0-OBRYS
  6
CONTINUOUS
 62
    90
100
AcDbLine
 10
295.0
 20
-700.0
 30
0.0
 11
290.0
 21
-700.0
 31
0.0
  0
LINE
  5
2193
100
AcDbEntity
  8
V0-OBRYS
  6
CONTINUOUS
 62
    90
100
AcDbLine
 10
295.0
 20
-702.0
 30
0.0
 11
300.0
 21
-702.0
 31
0.0
  0
LINE
  5
2194
100
AcDbEntity
  8
V0-OBRYS
  6
CONTINUOUS
 62
    90
100
AcDbLine
 10
202.5
 20
-600.0
 30
0.0
 11
202.5
 21
-678.5
 31
0.0
  0
LINE
  5
2195
100
AcDbEntity
  8
V0-OBRYS
  6
CONTINUOUS
 62
    90
100
AcDbLine
 10
232.5
 20
-678.5
 30
0.0
 11
232.5
 21
-600.0
 31
0.0
  0
LINE
  5
2196
100
AcDbEntity
  8
V0-OBRYS
  6
CONTINUOUS
 62
    90
100
AcDbLine
 10
202.5
 20
-678.5
 30
0.0
 11
232.5
 21
-678.5
 31
0.0
  0
ARC
  5
2197
100
AcDbEntity
  8
V0-OBRYS
  6
CONTINUOUS
 62
    90
100
AcDbCircle
 10
618.32452
 20
-300.960597
 30
0.0
 40
347.774016
100
AcDbArc
 50
179.777085
 51
189.936113
  0
LINE
  5
219B
100
AcDbEntity
  8
V0-VYPLNE
  6
DASHDOT
 62
    63
 48
3.0
100
AcDbLine
 10
310.0
 20
-690.747859
 30
0.0
 11
310.0
 21
-720.0
 31
0.0
  0
LINE
  5
219C
100
AcDbEntity
  8
V0-OBRYS
  6
CONTINUOUS
 62
    90
100
AcDbLine
 10
310.0
 20
-632.0
 30
0.0
 11
310.0
 21
-595.0
 31
0.0
  0
LINE
  5
219D
100
AcDbEntity
  8
V0-OBRYS
  6
CONTINUOUS
 62
    90
100
AcDbLine
 10
300.0
 20
-498.0
 30
0.0
 11
300.0
 21
-600.0
 31
0.0
  0
LINE
  5
219E
100
AcDbEntity
  8
V0-OBRYS
  6
CONTINUOUS
 62
    90
100
AcDbLine
 10
290.0
 20
-500.0
 30
0.0
 11
232.5
 21
-521.5
 31
0.0
  0
LINE
  5
219F
100
AcDbEntity
  8
V0-OBRYS
  6
CONTINUOUS
 62
    90
100
AcDbLine
 10
202.5
 20
-521.5
 30
0.0
 11
232.5
 21
-521.5
 31
0.0
  0
LINE
  5
21A3
100
AcDbEntity
  8
V0-OBRYS
  6
CONTINUOUS
 62
    90
100
AcDbLine
 10
295.0
 20
-500.0
 30
0.0
 11
290.0
 21
-500.0
 31
0.0
  0
LINE
  5
21A5
100
AcDbEntity
  8
V0-OBRYS
  6
CONTINUOUS
 62
    90
100
AcDbLine
 10
400.0
 20
-500.0
 30
0.0
 11
300.0
 21
-500.0
 31
0.0
  0
LINE
  5
21A6
100
AcDbEntity
  8
V0-OBRYS
  6
CONTINUOUS
 62
    90
100
AcDbLine
 10
295.0
 20
-498.0
 30
0.0
 11
300.0
 21
-498.0
 31
0.0
  0
LINE
  5
21A8
100
AcDbEntity
  8
V0-OBRYS
  6
CONTINUOUS
 62
    90
100
AcDbLine
 10
497.5
 20
-600.0
 30
0.0
 11
497.5
 21
-521.5
 31
0.0
  0
LINE
  5
21A9
100
AcDbEntity
  8
V0-OBRYS
  6
CONTINUOUS
 62
    90
100
AcDbLine
 10
467.5
 20
-521.5
 30
0.0
 11
467.5
 21
-600.0
 31
0.0
  0
LINE
  5
21AA
100
AcDbEntity
  8
V0-OBRYS
  6
CONTINUOUS
 62
    90
100
AcDbLine
 10
410.0
 20
-500.0
 30
0.0
 11
410.0
 21
-600.0
 31
0.0
  0
LINE
  5
21AB
100
AcDbEntity
  8
V0-OBRYS
  6
CONTINUOUS
 62
    90
100
AcDbLine
 10
405.0
 20
-498.0
 30
0.0
 11
405.0
 21
-600.0
 31
0.0
  0
LINE
  5
21AC
100
AcDbEntity
  8
V0-OBRYS
  6
CONTINUOUS
 62
    90
100
AcDbLine
 10
497.5
 20
-678.5
 30
0.0
 11
467.5
 21
-678.5
 31
0.0
  0
LINE
  5
21AF
100
AcDbEntity
  8
V0-OBRYS
  6
CONTINUOUS
 62
    90
100
AcDbLine
 10
410.0
 20
-700.0
 30
0.0
 11
467.5
 21
-678.5
 31
0.0
  0
LINE
  5
21B0
100
AcDbEntity
  8
V0-OBRYS
  6
CONTINUOUS
 62
    90
100
AcDbLine
 10
400.0
 20
-702.0
 30
0.0
 11
400.0
 21
-600.0
 31
0.0
  0
LINE
  5
21B1
100
AcDbEntity
  8
V0-OBRYS
  6
CONTINUOUS
 62
    90
100
AcDbLine
 10
405.0
 20
-702.0
 30
0.0
 11
405.0
 21
-600.0
 31
0.0
  0
LINE
  5
21B2
100
AcDbEntity
  8
V0-OBRYS
  6
CONTINUOUS
 62
    90
100
AcDbLine
 10
410.0
 20
-700.0
 30
0.0
 11
410.0
 21
-600.0
 31
0.0
  0
LINE
  5
21B3
100
AcDbEntity
  8
V0-OBRYS
  6
CONTINUOUS
 62
    90
100
AcDbLine
 10
350.0
 20
-700.0
 30
0.0
 11
400.0
 21
-700.0
 31
0.0
  0
LINE
  5
21B4
100
AcDbEntity
  8
V0-OBRYS
  6
CONTINUOUS
 62
    90
100
AcDbLine
 10
405.0
 20
-700.0
 30
0.0
 11
410.0
 21
-700.0
 31
0.0
  0
LINE
  5
21B5
100
AcDbEntity
  8
V0-OBRYS
  6
CONTINUOUS
 62
    90
100
AcDbLine
 10
405.0
 20
-702.0
 30
0.0
 11
400.0
 21
-702.0
 31
0.0
  0
LINE
  5
21BB
100
AcDbEntity
  8
V0-VYPLNE
  6
DASHDOT
 62
    63
 48
3.0
100
AcDbLine
 10
390.0
 20
-691.991709
 30
0.0
 11
390.0
 21
-720.0
 31
0.0
  0
LINE
  5
21BD
100
AcDbEntity
  8
V0-OBRYS
  6
CONTINUOUS
 62
    90
100
AcDbLine
 10
467.5
 20
-678.5
 30
0.0
 11
467.5
 21
-600.0
 31
0.0
  0
LINE
  5
21BE
100
AcDbEntity
  8
V0-OBRYS
  6
CONTINUOUS
 62
    90
100
AcDbLine
 10
497.5
 20
-600.0
 30
0.0
 11
497.5
 21
-678.5
 31
0.0
  0
LINE
  5
21BF
100
AcDbEntity
  8
V0-OBRYS
  6
CONTINUOUS
 62
    90
100
AcDbLine
 10
497.5
 20
-521.5
 30
0.0
 11
467.5
 21
-521.5
 31
0.0
  0
LINE
  5
21C0
100
AcDbEntity
  8
V0-OBRYS
  6
CONTINUOUS
 62
    90
100
AcDbLine
 10
390.0
 20
-632.0
 30
0.0
 11
390.0
 21
-595.0
 31
0.0
  0
LINE
  5
21C1
100
AcDbEntity
  8
V0-OBRYS
  6
CONTINUOUS
 62
    90
100
AcDbLine
 10
400.0
 20
-498.0
 30
0.0
 11
400.0
 21
-600.0
 31
0.0
  0
LINE
  5
21C2
100
AcDbEntity
  8
V0-OBRYS
  6
CONTINUOUS
 62
    90
100
AcDbLine
 10
410.0
 20
-500.0
 30
0.0
 11
467.5
 21
-521.5
 31
0.0
  0
LINE
  5
21C6
100
AcDbEntity
  8
V0-OBRYS
  6
CONTINUOUS
 62
    90
100
AcDbLine
 10
385.0
 20
-637.0
 30
0.0
 11
350.0
 21
-637.0
 31
0.0
  0
LINE
  5
21CA
100
AcDbEntity
  8
V0-OBRYS
  6
CONTINUOUS
 62
    90
100
AcDbLine
 10
405.0
 20
-500.0
 30
0.0
 11
410.0
 21
-500.0
 31
0.0
  0
LINE
  5
21CD
100
AcDbEntity
  8
V0-OBRYS
  6
CONTINUOUS
 62
    90
100
AcDbLine
 10
405.0
 20
-498.0
 30
0.0
 11
400.0
 21
-498.0
 31
0.0
  0
ARC
  5
21D5
100
AcDbEntity
  8
V0-OBRYS
  6
CONTINUOUS
 62
    90
100
AcDbCircle
 10
81.67548
 20
-299.039403
 30
0.0
 40
347.774016
100
AcDbArc
 50
359.777085
 51
9.936113
  0
ARC
  5
21D6
100
AcDbEntity
  8
V0-OBRYS
  6
CONTINUOUS
 62
    90
100
AcDbCircle
 10
81.67548
 20
-300.960597
 30
0.0
 40
347.774016
100
AcDbArc
 50
350.063887
 51
0.222915
  0
LINE
  5
21D9
100
AcDbEntity
  8
V0-OBRYS
  6
CONTINUOUS
 62
    90
100
AcDbLine
 10
419.308149
 20
-234.893757
 30
0.0
 11
350.0
 21
-234.893757
 31
0.0
  0
LINE
  5
21DA
100
AcDbEntity
  8
V0-OBRYS
  6
CONTINUOUS
 62
    90
100
AcDbLine
 10
419.308149
 20
-365.106243
 30
0.0
 11
350.0
 21
-365.106243
 31
0.0
  0
LINE
  5
21DC
100
AcDbEntity
  8
V0-OBRYS
  6
CONTINUOUS
 62
    90
100
AcDbLine
 10
400.0
 20
-402.0
 30
0.0
 11
400.0
 21
-365.106243
 31
0.0
  0
LINE
  5
21DE
100
AcDbEntity
  8
V0-OBRYS
  6
CONTINUOUS
 62
    90
100
AcDbLine
 10
315.0
 20
-563.0
 30
0.0
 11
350.0
 21
-563.0
 31
0.0
  0
LINE
  5
21DF
100
AcDbEntity
  8
V0-OBRYS
  6
CONTINUOUS
 62
    90
100
AcDbLine
 10
310.0
 20
-568.0
 30
0.0
 11
310.0
 21
-605.0
 31
0.0
  0
LINE
  5
21E0
100
AcDbEntity
  8
V0-OBRYS
  6
CONTINUOUS
 62
    90
100
AcDbLine
 10
385.0
 20
-563.0
 30
0.0
 11
350.0
 21
-563.0
 31
0.0
  0
LINE
  5
21E1
100
AcDbEntity
  8
V0-OBRYS
  6
CONTINUOUS
 62
    90
100
AcDbLine
 10
390.0
 20
-568.0
 30
0.0
 11
390.0
 21
-605.0
 31
0.0
  0
LINE
  5
21E3
100
AcDbEntity
  8
V0-OBRYS
  6
CONTINUOUS
 62
    90
100
AcDbLine
 10
275.0
 20
-711.5
 30
0.0
 11
425.0
 21
-711.5
 31
0.0
  0
LINE
  5
21E4
100
AcDbEntity
  8
V0-OBRYS
  6
CONTINUOUS
 62
    90
100
AcDbLine
 10
270.0
 20
-706.5
 30
0.0
 11
270.0
 21
-672.0901
 31
0.0
  0
LINE
  5
21E5
100
AcDbEntity
  8
V0-OBRYS
  6
CONTINUOUS
 62
    90
100
AcDbLine
 10
430.0
 20
-706.5
 30
0.0
 11
430.0
 21
-672.0901
 31
0.0
  0
ARC
  5
21E7
100
AcDbEntity
  8
V0-OBRYS
  6
CONTINUOUS
 62
    90
100
AcDbCircle
 10
275.0
 20
-706.5
 30
0.0
 40
5.0
100
AcDbArc
 50
180.0
 51
270.0
  0
ARC
  5
21E8
100
AcDbEntity
  8
V0-OBRYS
  6
CONTINUOUS
 62
    90
100
AcDbCircle
 10
425.0
 20
-706.5
 30
0.0
 40
5.0
100
AcDbArc
 50
270.0
 51
0.0
  0
ARC
  5
21EA
100
AcDbEntity
  8
V0-OBRYS
  6
CONTINUOUS
 62
    90
100
AcDbCircle
 10
280.691851
 20
-239.893757
 30
0.0
 40
5.0
100
AcDbArc
 50
90.0
 51
170.063887
  0
ARC
  5
21EB
100
AcDbEntity
  8
V0-OBRYS
  6
CONTINUOUS
 62
    90
100
AcDbCircle
 10
280.691851
 20
-360.106243
 30
0.0
 40
5.0
100
AcDbArc
 50
189.936113
 51
270.0
  0
ARC
  5
21EC
100
AcDbEntity
  8
V0-OBRYS
  6
CONTINUOUS
 62
    90
100
AcDbCircle
 10
419.308149
 20
-360.106243
 30
0.0
 40
5.0
100
AcDbArc
 50
270.0
 51
350.063887
  0
ARC
  5
21ED
100
AcDbEntity
  8
V0-OBRYS
  6
CONTINUOUS
 62
    90
100
AcDbCircle
 10
419.308149
 20
-239.893757
 30
0.0
 40
5.0
100
AcDbArc
 50
9.936113
 51
90.0
  0
ARC
  5
21EF
100
AcDbEntity
  8
V0-OBRYS
  6
CONTINUOUS
 62
    90
100
AcDbCircle
 10
315.0
 20
-568.0
 30
0.0
 40
5.0
100
AcDbArc
 50
90.0
 51
180.0
  0
ARC
  5
21F0
100
AcDbEntity
  8
V0-OBRYS
  6
CONTINUOUS
 62
    90
100
AcDbCircle
 10
315.0
 20
-632.0
 30
0.0
 40
5.0
100
AcDbArc
 50
180.0
 51
270.0
  0
ARC
  5
21F1
100
AcDbEntity
  8
V0-OBRYS
  6
CONTINUOUS
 62
    90
100
AcDbCircle
 10
385.0
 20
-632.0
 30
0.0
 40
5.0
100
AcDbArc
 50
270.0
 51
0.0
  0
ARC
  5
21F2
100
AcDbEntity
  8
V0-OBRYS
  6
CONTINUOUS
 62
    90
100
AcDbCircle
 10
385.0
 20
-568.0
 30
0.0
 40
5.0
100
AcDbArc
 50
0.0
 51
90.0
  0
DIMENSION
  5
220A
100
AcDbEntity
  8
V0-VYPLNE
  6
CONTINUOUS
 62
    41
100
AcDbDimension
  2
*D16
 10
536.52941
 20
-378.5
 30
0.0
 11
524.65441
 21
-300.0
 31
0.0
 70
    32
  1
%%c157
  3
STANDARD
100
AcDbAlignedDimension
 13
497.5
 23
-221.5
 33
0.0
 14
497.5
 24
-378.5
 34
0.0
 50
90.0
100
AcDbRotatedDimension
  0
DIMENSION
  5
2217
100
AcDbEntity
  8
V0-VYPLNE
  6
CONTINUOUS
 62
    41
100
AcDbDimension
  2
*D15
 10
566.787882
 20
-400.0
 30
0.0
 11
554.91116
 21
-300.0
 31
0.0
 70
    32
  1
%%c200
  3
STANDARD
100
AcDbAlignedDimension
 13
410.0
 23
-200.0
 33
0.0
 14
410.0
 24
-400.0
 34
0.0
 50
90.0
100
AcDbRotatedDimension
  0
DIMENSION
  5
2225
100
AcDbEntity
  8
V0-VYPLNE
  6
CONTINUOUS
 62
    41
100
AcDbDimension
  2
*D12
 10
181.496687
 20
-173.0
 30
0.0
 11
169.619965
 21
-236.5
 31
0.0
 70
    32
  3
STANDARD
100
AcDbAlignedDimension
 13
202.5
 23
-300.0
 33
0.0
 14
310.0
 24
-173.0
 34
0.0
 50
90.0
100
AcDbRotatedDimension
  0
DIMENSION
  5
2232
100
AcDbEntity
  8
V0-VYPLNE
  6
CONTINUOUS
 62
    41
100
AcDbDimension
  2
*D11
 10
497.5
 20
-466.664358
 30
0.0
 11
349.84375
 21
-454.787635
 31
0.0
 70
    32
  3
STANDARD
100
AcDbAlignedDimension
 13
202.1875
 23
-378.5
 33
0.0
 14
497.5
 24
-378.5
 34
0.0
100
AcDbRotatedDimension
  0
DIMENSION
  5
2240
100
AcDbEntity
  8
V0-VYPLNE
  6
CONTINUOUS
 62
    41
100
AcDbDimension
  2
*D13
 10
232.1875
 20
-436.438789
 30
0.0
 11
217.1875
 21
-436.438789
 31
0.0
 70
   160
  3
STANDARD
100
AcDbAlignedDimension
 13
202.1875
 23
-378.8125
 33
0.0
 14
232.1875
 24
-378.5
 34
0.0
100
AcDbRotatedDimension
  0
LINE
  5
2259
100
AcDbEntity
  8
V0-VYPLNE
  6
CONTINUOUS
 62
    41
100
AcDbLine
 10
202.5
 20
-436.438789
 30
0.0
 11
232.5
 21
-436.438789
 31
0.0
  0
DIMENSION
  5
2267
100
AcDbEntity
  8
V0-VYPLNE
  6
CONTINUOUS
 62
    41
100
AcDbDimension
  2
*D17
 10
390.0
 20
-434.75959
 30
0.0
 11
350.0
 21
-422.88459
 31
0.0
 70
    32
  3
STANDARD
100
AcDbAlignedDimension
 13
310.0
 23
-335.0
 33
0.0
 14
390.0
 24
-335.0
 34
0.0
100
AcDbRotatedDimension
  0
DIMENSION
  5
2274
100
AcDbEntity
  8
V0-VYPLNE
  6
CONTINUOUS
 62
    41
100
AcDbDimension
  2
*D14
 10
456.0
 20
-330.0
 30
0.0
 11
456.0
 21
-300.0
 31
0.0
 70
   160
  3
STANDARD
100
AcDbAlignedDimension
 13
384.161751
 23
-270.0
 33
0.0
 14
384.161751
 24
-330.0
 34
0.0
 50
90.0
100
AcDbRotatedDimension
  0
LEADER
  5
2276
100
AcDbEntity
  8
V0-VYPLNE
  6
CONTINUOUS
 62
    41
100
AcDbLeader
  3
STANDARD
 73
     0
 75
     1
 40
20.125
 41
41.849874
 76
     3
 10
308.860184
 20
-267.775769
 30
0.0
 10
260.46396
 20
-216.715451
 30
0.0
 10
242.96396
 20
-216.715451
 30
0.0
 77
    41
340
2277
  0
MTEXT
  5
2277
102
{ACAD_REACTORS
330
2276
102
}
100
AcDbEntity
  8
V0-VYPLNE
  6
CONTINUOUS
 62
    41
100
AcDbMText
 10
239.83896
 20
-203.527951
 30
0.0
 40
17.5
 41
0.0
 71
     6
 72
     1
  1
\A1;%%c5,5
  0
DIMENSION
  5
2285
100
AcDbEntity
  8
V0-VYPLNE
  6
CONTINUOUS
 62
    41
100
AcDbDimension
  2
*D10
 10
861.5
 20
-152.318437
 30
0.0
 11
805.75
 21
-140.443437
 31
0.0
 70
    32
  3
STANDARD
100
AcDbAlignedDimension
 13
750.0
 23
-173.0
 33
0.0
 14
861.5
 24
-235.0
 34
0.0
100
AcDbRotatedDimension
1001
ACAD
1000
DSTYLE
1002
{
1070
   271
1070
     1
1002
}
  0
DIMENSION
  5
2292
100
AcDbEntity
  8
V0-VYPLNE
  6
CONTINUOUS
 62
    41
100
AcDbDimension
  2
*D8
 10
861.5
 20
-126.382948
 30
0.0
 11
755.75
 21
-114.506226
 31
0.0
 70
    32
  3
STANDARD
100
AcDbAlignedDimension
 13
650.0
 23
-300.0
 33
0.0
 14
861.5
 24
-235.0
 34
0.0
100
AcDbRotatedDimension
1001
ACAD
1000
DSTYLE
1002
{
1070
   271
1070
     1
1002
}
  0
DIMENSION
  5
229F
100
AcDbEntity
  8
V0-VYPLNE
  6
CONTINUOUS
 62
    41
100
AcDbDimension
  2
*D9
 10
895.596596
 20
-365.0
 30
0.0
 11
883.721596
 21
-300.0
 31
0.0
 70
    32
  3
STANDARD
100
AcDbAlignedDimension
 13
861.5
 23
-235.0
 33
0.0
 14
861.5
 24
-365.0
 34
0.0
 50
90.0
100
AcDbRotatedDimension
1001
ACAD
1000
DSTYLE
1002
{
1070
   271
1070
     1
1002
}
  0
ARC
  5
22A2
100
AcDbEntity
  8
V0-OBRYS
  6
CONTINUOUS
 62
    90
100
AcDbCircle
 10
856.5
 20
-240.0
 30
0.0
 40
5.0
100
AcDbArc
 50
0.0
 51
90.0
  0
ARC
  5
22A3
100
AcDbEntity
  8
V0-OBRYS
  6
CONTINUOUS
 62
    90
100
AcDbCircle
 10
856.5
 20
-360.0
 30
0.0
 40
5.0
100
AcDbArc
 50
270.0
 51
0.0
  0
TEXT
  5
253E
100
AcDbEntity
  8
V0-NAZVY
  6
CONTINUOUS
 62
   210
100
AcDbText
 10
561.769362
 20
-517.677475
 30
0.0
 40
30.0
  1
MIXVENT-TD-500/160
100
AcDbText
  0
LINE
  5
253F
100
AcDbEntity
  8
V0-ZBYTEK
  6
CONTINUOUS
 62
    51
100
AcDbLine
 10
560.299538
 20
-623.0426
 30
0.0
 11
912.598001
 21
-623.0426
 31
0.0
  0
MTEXT
  5
2540
100
AcDbEntity
  8
V0-ZBYTEK
  6
CONTINUOUS
 62
    51
100
AcDbMText
 10
560.916015
 20
-577.959316
 30
0.0
 40
15.0
 41
456.2164
 71
     1
 72
     5
  1
otacky      prikon      prutok    hmotnost
  0
TEXT
  5
2541
100
AcDbEntity
  8
V0-ZBYTEK
  6
CONTINUOUS
 62
   130
100
AcDbText
 10
562.485411
 20
-554.120445
 30
0.0
 40
15.0
  1
DIAGONALNI VENTILATOR DO KRUHOVEHO 
100
AcDbText
  0
TEXT
  5
2543
100
AcDbEntity
  8
V0-ZBYTEK
  6
CONTINUOUS
 62
    51
100
AcDbText
 10
567.898181
 20
-648.721638
 30
0.0
 40
15.0
  1
1850           50            400         2,7
100
AcDbText
  0
MTEXT
  5
2544
100
AcDbEntity
  8
V0-ZBYTEK
  6
CONTINUOUS
 62
    51
100
AcDbMText
 10
553.96608
 20
-599.317968
 30
0.0
 40
15.0
 41
363.382
 71
     1
 72
     5
  1
   min             W          m /h          kg\P  
  0
TEXT
  5
2545
100
AcDbEntity
  8
V0-ZBYTEK
  6
CONTINUOUS
 62
   130
100
AcDbText
 10
939.558253
 20
-554.271161
 30
0.0
 40
15.0
  1
POTRUBI
100
AcDbText
  0
LINE
  5
255B
100
AcDbEntity
  8
V0-VYPLNE
  6
DASHDOT
 62
    63
 48
3.0
100
AcDbLine
 10
460.926313
 20
-300.0
 30
0.0
 11
497.5
 21
-300.0
 31
0.0
  0
TEXT
  5
2565
100
AcDbEntity
  8
V0-NAZVY
  6
CONTINUOUS
 62
   210
100
AcDbText
 10
291.499733
 20
-257.10041
 30
0.0
 40
15.0
  1
MIXVENT-TD
 72
     1
 11
348.926891
 21
-257.10041
 31
0.0
100
AcDbText
  0
TEXT
  5
2566
100
AcDbEntity
  8
V0-NAZVY
  6
CONTINUOUS
 62
   210
100
AcDbText
 10
317.705448
 20
-343.747043
 30
0.0
 40
15.0
  1
500/160
 72
     1
 11
352.961353
 21
-343.747043
 31
0.0
100
AcDbText
  0
TEXT
  5
2567
100
AcDbEntity
  8
V0-NAZVY
  6
CONTINUOUS
 62
   210
100
AcDbText
 10
293.516964
 20
-539.205724
 30
0.0
 40
15.0
  1
MIXVENT-TD
 72
     1
 11
350.944122
 21
-539.205724
 31
0.0
100
AcDbText
  0
TEXT
  5
2568
100
AcDbEntity
  8
V0-NAZVY
  6
CONTINUOUS
 62
   210
100
AcDbText
 10
313.670985
 20
-668.168152
 30
0.0
 40
15.0
  1
500/160
 72
     1
 11
348.926891
 21
-668.168152
 31
0.0
100
AcDbText
  0
LINE
  5
2643
100
AcDbEntity
  8
V0-VYPLNE
  6
CONTINUOUS
 62
    52
100
AcDbLine
 10
341.116438
 20
-279.416209
 30
0.0
 11
341.116438
 21
-319.416209
 31
0.0
  0
LINE
  5
2644
100
AcDbEntity
  8
V0-VYPLNE
  6
CONTINUOUS
 62
    52
100
AcDbLine
 10
341.116438
 20
-319.416209
 30
0.0
 11
371.116438
 21
-299.416209
 31
0.0
  0
LINE
  5
2645
100
AcDbEntity
  8
V0-VYPLNE
  6
CONTINUOUS
 62
    52
100
AcDbLine
 10
371.116438
 20
-299.416209
 30
0.0
 11
341.116438
 21
-279.416209
 31
0.0
  0
LINE
  5
2646
100
AcDbEntity
  8
V0-VYPLNE
  6
CONTINUOUS
 62
    52
100
AcDbLine
 10
343.133669
 20
-579.656863
 30
0.0
 11
343.133669
 21
-619.656863
 31
0.0
  0
LINE
  5
2647
100
AcDbEntity
  8
V0-VYPLNE
  6
CONTINUOUS
 62
    52
100
AcDbLine
 10
343.133669
 20
-619.656863
 30
0.0
 11
373.133669
 21
-599.656863
 31
0.0
  0
LINE
  5
2648
100
AcDbEntity
  8
V0-VYPLNE
  6
CONTINUOUS
 62
    52
100
AcDbLine
 10
373.133669
 20
-599.656863
 30
0.0
 11
343.133669
 21
-579.656863
 31
0.0
  0
LINE
  5
2651
100
AcDbEntity
  8
V0-OBRYS
 48
5.0
100
AcDbLine
 10
232.1875
 20
-221.5
 30
0.0
 11
232.1875
 21
-378.5
 31
0.0
  0
POINT
  5
2652
100
AcDbEntity
  8
V0-VYPLNE
  6
CONTINUOUS
 62
    52
100
AcDbPoint
 10
232.1875
 20
-300.0
 30
0.0
  0
POINT
  5
2653
100
AcDbEntity
  8
V0-VYPLNE
  6
CONTINUOUS
 62
    52
100
AcDbPoint
 10
232.5
 20
-600.0
 30
0.0
  0
POINT
  5
2654
100
AcDbEntity
  8
V0-VYPLNE
  6
CONTINUOUS
 62
    52
100
AcDbPoint
 10
750.0
 20
-300.0
 30
0.0
  0
TEXT
  5
27DB
100
AcDbEntity
  8
V0-NAZVY
  6
CONTINUOUS
 62
   210
100
AcDbText
 10
655.420408
 20
-434.704045
 30
0.0
 40
15.0
  1
MIXVENT-TD-500/160
100
AcDbText
  0
VIEWPORT
  5
22
100
AcDbEntity
 67
     1
  8
0
100
AcDbViewport
 10
261.517699
 20
154.724298
 30
0.0
 40
523.035398
 41
309.448596
 68
    -1
 69
     1
1001
ACAD
1000
MVIEW
1002
{
1070
    16
1010
0.0
1020
0.0
1030
0.0
1010
0.0
1020
0.0
1030
1.0
1040
0.0
1040
309.448596
1040
261.517699
1040
154.724298
1040
50.0
1040
0.0
1040
0.0
1070
     0
1070
   100
1070
     1
1070
     0
1070
     0
1070
     0
1070
     0
1070
     0
1040
0.0
1040
0.0
1040
0.0
1040
1.0
1040
1.0
1040
10.0
1040
10.0
1070
     0
1002
{
1002
}
1002
}
  0
ENDSEC
  0
SECTION
  2
OBJECTS
  0
DICTIONARY
  5
C
100
AcDbDictionary
  3
ACAD_GROUP
350
D
  3
ACAD_MLINESTYLE
350
E
  3
ACDBVARIABLEDICTIONARY
350
86C
  3
CONTENTDICTIONARY
350
905
  0
DICTIONARY
  5
D
102
{ACAD_REACTORS
330
C
102
}
100
AcDbDictionary
  0
DICTIONARY
  5
E
102
{ACAD_REACTORS
330
C
102
}
100
AcDbDictionary
  3
STANDARD
350
13
  0
DICTIONARY
  5
86C
102
{ACAD_REACTORS
330
C
102
}
100
AcDbDictionary
  3
SORTENTS
350
86D
  0
DICTIONARY
  5
905
102
{ACAD_REACTORS
330
C
102
}
100
AcDbDictionary
  0
MLINESTYLE
  5
13
102
{ACAD_REACTORS
330
E
102
}
100
AcDbMlineStyle
  2
STANDARD
 70
     0
  3

 62
     0
 51
90.0
 52
90.0
 71
     2
 49
0.5
 62
   256
  6
BYLAYER
 49
-0.5
 62
   256
  6
BYLAYER
  0
DICTIONARYVAR
  5
86D
102
{ACAD_REACTORS
330
86C
102
}
100
DictionaryVariables
280
     0
  1
96
  0
ENDSEC
  0
EOF
