  0
SECTION
  2
HEADER
  9
$ACADVER
  1
AC1014
  9
$ACADMAINTVER
 70
     0
  9
$DWGCODEPAGE
  3
ANSI_1250
  9
$INSBASE
 10
0.0
 20
0.0
 30
0.0
  9
$EXTMIN
 10
-179.655578
 20
-706.095198
 30
0.0
  9
$EXTMAX
 10
651.634815
 20
-119.135974
 30
0.0
  9
$LIMMIN
 10
-1040.805314
 20
-347.068924
  9
$LIMMAX
 10
643.686187
 20
495.293187
  9
$ORTHOMODE
 70
     1
  9
$REGENMODE
 70
     1
  9
$FILLMODE
 70
     1
  9
$QTEXTMODE
 70
     0
  9
$MIRRTEXT
 70
     1
  9
$DRAGMODE
 70
     2
  9
$LTSCALE
 40
15.0
  9
$OSMODE
 70
  1023
  9
$ATTMODE
 70
     1
  9
$TEXTSIZE
 40
12.0
  9
$TRACEWID
 40
1.0
  9
$TEXTSTYLE
  7
STANDARD
  9
$CLAYER
  8
V0-VYPLNE
  9
$CELTYPE
  6
BYLAYER
  9
$CECOLOR
 62
   256
  9
$CELTSCALE
 40
5.0
  9
$DELOBJ
 70
     1
  9
$DISPSILH
 70
     0
  9
$DIMSCALE
 40
5.0
  9
$DIMASZ
 40
3.5
  9
$DIMEXO
 40
0.0625
  9
$DIMDLI
 40
0.38
  9
$DIMRND
 40
0.0
  9
$DIMDLE
 40
0.0
  9
$DIMEXE
 40
0.18
  9
$DIMTP
 40
0.0
  9
$DIMTM
 40
0.0
  9
$DIMTXT
 40
3.5
  9
$DIMCEN
 40
0.0
  9
$DIMTSZ
 40
0.0
  9
$DIMTOL
 70
     0
  9
$DIMLIM
 70
     0
  9
$DIMTIH
 70
     0
  9
$DIMTOH
 70
     0
  9
$DIMSE1
 70
     0
  9
$DIMSE2
 70
     0
  9
$DIMTAD
 70
     1
  9
$DIMZIN
 70
     0
  9
$DIMBLK
  1

  9
$DIMASO
 70
     1
  9
$DIMSHO
 70
     1
  9
$DIMPOST
  1

  9
$DIMAPOST
  1

  9
$DIMALT
 70
     0
  9
$DIMALTD
 70
     2
  9
$DIMALTF
 40
25.4
  9
$DIMLFAC
 40
1.0
  9
$DIMTOFL
 70
     0
  9
$DIMTVP
 40
0.0
  9
$DIMTIX
 70
     0
  9
$DIMSOXD
 70
     0
  9
$DIMSAH
 70
     1
  9
$DIMBLK1
  1
_OPEN
  9
$DIMBLK2
  1
_OPEN
  9
$DIMSTYLE
  2
STANDARD
  9
$DIMCLRD
 70
     0
  9
$DIMCLRE
 70
     0
  9
$DIMCLRT
 70
     0
  9
$DIMTFAC
 40
1.0
  9
$DIMGAP
 40
0.625
  9
$DIMJUST
 70
     0
  9
$DIMSD1
 70
     0
  9
$DIMSD2
 70
     0
  9
$DIMTOLJ
 70
     1
  9
$DIMTZIN
 70
     0
  9
$DIMALTZ
 70
     0
  9
$DIMALTTZ
 70
     0
  9
$DIMFIT
 70
     0
  9
$DIMUPT
 70
     0
  9
$DIMUNIT
 70
     2
  9
$DIMDEC
 70
     0
  9
$DIMTDEC
 70
     4
  9
$DIMALTU
 70
     2
  9
$DIMALTTD
 70
     2
  9
$DIMTXSTY
  7
STANDARD
  9
$DIMAUNIT
 70
     0
  9
$LUNITS
 70
     2
  9
$LUPREC
 70
     4
  9
$SKETCHINC
 40
1.0
  9
$FILLETRAD
 40
5.0
  9
$AUNITS
 70
     0
  9
$AUPREC
 70
     0
  9
$MENU
  1
.
  9
$ELEVATION
 40
0.0
  9
$PELEVATION
 40
0.0
  9
$THICKNESS
 40
0.0
  9
$LIMCHECK
 70
     0
  9
$BLIPMODE
 70
     1
  9
$CHAMFERA
 40
10.0
  9
$CHAMFERB
 40
10.0
  9
$CHAMFERC
 40
20.0
  9
$CHAMFERD
 40
0.0
  9
$SKPOLY
 70
     0
  9
$TDCREATE
 40
2450763.421427893
  9
$TDUPDATE
 40
2452915.659013657
  9
$TDINDWG
 40
1.1859672454
  9
$TDUSRTIMER
 40
1.1859672454
  9
$USRTIMER
 70
     1
  9
$ANGBASE
 50
0.0
  9
$ANGDIR
 70
     0
  9
$PDMODE
 70
     3
  9
$PDSIZE
 40
15.0
  9
$PLINEWID
 40
0.0
  9
$COORDS
 70
     2
  9
$SPLFRAME
 70
     0
  9
$SPLINETYPE
 70
     6
  9
$SPLINESEGS
 70
     8
  9
$ATTDIA
 70
     0
  9
$ATTREQ
 70
     1
  9
$HANDLING
 70
     1
  9
$HANDSEED
  5
249D
  9
$SURFTAB1
 70
     6
  9
$SURFTAB2
 70
     6
  9
$SURFTYPE
 70
     6
  9
$SURFU
 70
     6
  9
$SURFV
 70
     6
  9
$UCSNAME
  2

  9
$UCSORG
 10
350.0
 20
-300.0
 30
0.0
  9
$UCSXDIR
 10
1.0
 20
0.0
 30
0.0
  9
$UCSYDIR
 10
0.0
 20
1.0
 30
0.0
  9
$PUCSNAME
  2

  9
$PUCSORG
 10
0.0
 20
0.0
 30
0.0
  9
$PUCSXDIR
 10
1.0
 20
0.0
 30
0.0
  9
$PUCSYDIR
 10
0.0
 20
1.0
 30
0.0
  9
$USERI1
 70
     0
  9
$USERI2
 70
     0
  9
$USERI3
 70
     0
  9
$USERI4
 70
     0
  9
$USERI5
 70
     0
  9
$USERR1
 40
0.0
  9
$USERR2
 40
0.0
  9
$USERR3
 40
0.0
  9
$USERR4
 40
0.0
  9
$USERR5
 40
0.0
  9
$WORLDVIEW
 70
     1
  9
$SHADEDGE
 70
     3
  9
$SHADEDIF
 70
    70
  9
$TILEMODE
 70
     1
  9
$MAXACTVP
 70
    16
  9
$PINSBASE
 10
0.0
 20
0.0
 30
0.0
  9
$PLIMCHECK
 70
     0
  9
$PEXTMIN
 10
1.000000E+20
 20
1.000000E+20
 30
1.000000E+20
  9
$PEXTMAX
 10
-1.000000E+20
 20
-1.000000E+20
 30
-1.000000E+20
  9
$PLIMMIN
 10
0.0
 20
0.0
  9
$PLIMMAX
 10
420.0
 20
297.0
  9
$UNITMODE
 70
     0
  9
$VISRETAIN
 70
     0
  9
$PLINEGEN
 70
     0
  9
$PSLTSCALE
 70
     0
  9
$TREEDEPTH
 70
  3020
  9
$PICKSTYLE
 70
     1
  9
$CMLSTYLE
  2
STANDARD
  9
$CMLJUST
 70
     0
  9
$CMLSCALE
 40
1.0
  9
$PROXYGRAPHICS
 70
     1
  9
$MEASUREMENT
 70
     1
  0
ENDSEC
  0
SECTION
  2
CLASSES
  0
CLASS
  1
LWPOLYLINE
  2
AcDbPolyline
  3
"AutoCAD"
 90
        0
280
     0
281
     1
  0
CLASS
  1
DICTIONARYVAR
  2
AcDbDictionaryVar
  3
"AutoCAD"
 90
        0
280
     0
281
     0
  0
CLASS
  1
HATCH
  2
AcDbHatch
  3
"ACAD_SEDONA"
 90
        0
280
     0
281
     1
  0
ENDSEC
  0
SECTION
  2
TABLES
  0
TABLE
  2
VPORT
  5
8
100
AcDbSymbolTable
 70
     2
  0
VPORT
  5
249C
100
AcDbSymbolTableRecord
100
AcDbViewportTableRecord
  2
*ACTIVE
 70
     0
 10
0.0
 20
0.0
 11
1.0
 21
1.0
 12
287.442993
 22
-407.854051
 13
0.0
 23
0.0
 14
10.0
 24
10.0
 15
50.0
 25
50.0
 16
0.0
 26
0.0
 36
1.0
 17
0.0
 27
0.0
 37
0.0
 40
601.335005
 41
1.730469
 42
50.0
 43
0.0
 44
0.0
 50
0.0
 51
0.0
 71
     0
 72
   100
 73
     1
 74
     0
 75
     0
 76
     1
 77
     0
 78
     0
  0
ENDTAB
  0
TABLE
  2
LTYPE
  5
5
100
AcDbSymbolTable
 70
     3
  0
LTYPE
  5
14
100
AcDbSymbolTableRecord
100
AcDbLinetypeTableRecord
  2
BYBLOCK
 70
     0
  3

 72
    65
 73
     0
 40
0.0
  0
LTYPE
  5
15
100
AcDbSymbolTableRecord
100
AcDbLinetypeTableRecord
  2
BYLAYER
 70
     0
  3

 72
    65
 73
     0
 40
0.0
  0
LTYPE
  5
16
100
AcDbSymbolTableRecord
100
AcDbLinetypeTableRecord
  2
CONTINUOUS
 70
     0
  3
Solid line
 72
    65
 73
     0
 40
0.0
  0
LTYPE
  5
1D7
100
AcDbSymbolTableRecord
100
AcDbLinetypeTableRecord
  2
DASHED
 70
     0
  3
__ __ __ __ __ __ __ __ __ __ __ __ __ __ __ __
 72
    65
 73
     2
 40
0.75
 49
0.5
 74
     0
 49
-0.25
 74
     0
  0
LTYPE
  5
492
100
AcDbSymbolTableRecord
100
AcDbLinetypeTableRecord
  2
DASHDOT
 70
     0
  3
__ . __ . __ . __ . __ . __ . __ . __ . __ . __
 72
    65
 73
     4
 40
1.0
 49
0.5
 74
     0
 49
-0.25
 74
     0
 49
0.0
 74
     0
 49
-0.25
 74
     0
  0
ENDTAB
  0
TABLE
  2
LAYER
  5
2
100
AcDbSymbolTable
 70
     6
  0
LAYER
  5
F
100
AcDbSymbolTableRecord
100
AcDbLayerTableRecord
  2
0
 70
     0
 62
     7
  6
CONTINUOUS
  0
LAYER
  5
1A22
100
AcDbSymbolTableRecord
100
AcDbLayerTableRecord
  2
DEFPOINTS
 70
     0
 62
     7
  6
CONTINUOUS
  0
LAYER
  5
22C1
100
AcDbSymbolTableRecord
100
AcDbLayerTableRecord
  2
V0-OBRYS
 70
     0
 62
    90
  6
CONTINUOUS
  0
LAYER
  5
22C2
100
AcDbSymbolTableRecord
100
AcDbLayerTableRecord
  2
V0-VYPLNE
 70
     0
 62
    52
  6
CONTINUOUS
  0
LAYER
  5
22C3
100
AcDbSymbolTableRecord
100
AcDbLayerTableRecord
  2
V0-NAZVY
 70
     0
 62
   210
  6
CONTINUOUS
  0
LAYER
  5
22C4
100
AcDbSymbolTableRecord
100
AcDbLayerTableRecord
  2
V0-ZBYTEK
 70
     0
 62
    51
  6
CONTINUOUS
  0
ENDTAB
  0
TABLE
  2
STYLE
  5
3
100
AcDbSymbolTable
 70
     8
  0
STYLE
  5
10
100
AcDbSymbolTableRecord
100
AcDbTextStyleTableRecord
  2
STANDARD
 70
     0
 40
0.0
 41
1.0
 50
0.0
 71
     0
 42
12.0
  3
ISOCP
  4

  0
STYLE
  5
1BDA
100
AcDbSymbolTableRecord
100
AcDbTextStyleTableRecord
  2
SIMPLCS
 70
     0
 40
0.0
 41
1.0
 50
0.0
 71
     0
 42
0.2
  3
SIMPLCS
  4

  0
STYLE
  5
1C7B
100
AcDbSymbolTableRecord
100
AcDbTextStyleTableRecord
  2

 70
     1
 40
0.0
 41
1.0
 50
0.0
 71
     0
 42
0.2
  3
ltypeshp.shx
  4

  0
STYLE
  5
22C5
100
AcDbSymbolTableRecord
100
AcDbTextStyleTableRecord
  2
ED
 70
     0
 40
20.0
 41
1.0
 50
0.0
 71
     0
 42
2.5
  3
ISOCP.shx
  4

  0
STYLE
  5
22C6
100
AcDbSymbolTableRecord
100
AcDbTextStyleTableRecord
  2
EDVENT
 70
     0
 40
10.0
 41
1.0
 50
0.0
 71
     0
 42
2.5
  3
ISOCP.shx
  4

  0
STYLE
  5
22C7
100
AcDbSymbolTableRecord
100
AcDbTextStyleTableRecord
  2
E
 70
     0
 40
25.0
 41
1.0
 50
0.0
 71
     0
 42
2.5
  3
ISOCP.shx
  4

  0
STYLE
  5
22C8
100
AcDbSymbolTableRecord
100
AcDbTextStyleTableRecord
  2
ED-VENT
 70
     0
 40
25.0
 41
1.0
 50
0.0
 71
     0
 42
2.5
  3
ISOCP.shx
  4

  0
STYLE
  5
22C9
100
AcDbSymbolTableRecord
100
AcDbTextStyleTableRecord
  2
ED2
 70
     0
 40
25.0
 41
1.0
 50
0.0
 71
     0
 42
2.5
  3
ISOCP.shx
  4

  0
ENDTAB
  0
TABLE
  2
VIEW
  5
6
100
AcDbSymbolTable
 70
     0
  0
ENDTAB
  0
TABLE
  2
UCS
  5
7
100
AcDbSymbolTable
 70
     0
  0
ENDTAB
  0
TABLE
  2
APPID
  5
9
100
AcDbSymbolTable
 70
     4
  0
APPID
  5
11
100
AcDbSymbolTableRecord
100
AcDbRegAppTableRecord
  2
ACAD
 70
     0
  0
APPID
  5
906
100
AcDbSymbolTableRecord
100
AcDbRegAppTableRecord
  2
CONTENTTABDATA
 70
     0
  0
APPID
  5
907
100
AcDbSymbolTableRecord
100
AcDbRegAppTableRecord
  2
CONTENTCURRENTTAB
 70
     0
  0
APPID
  5
908
100
AcDbSymbolTableRecord
100
AcDbRegAppTableRecord
  2
CONTENTBLOCKDESCRIPTION
 70
     0
  0
ENDTAB
  0
TABLE
  2
DIMSTYLE
  5
A
100
AcDbSymbolTable
 70
     3
  0
DIMSTYLE
105
1D
102
{ACAD_REACTORS
330
1FF0
330
1FE3
330
2029
330
2037
330
1FFE
330
201C
330
1FD6
330
20A1
330
2079
330
2094
102
}
100
AcDbSymbolTableRecord
100
AcDbDimStyleTableRecord
  2
STANDARD
 70
     0
  3

  4

  5

  6
_OPEN
  7
_OPEN
 40
5.0
 41
3.5
 42
0.0625
 43
0.38
 44
0.18
 45
0.0
 46
0.0
 47
0.0
 48
0.0
140
3.5
141
0.0
142
0.0
143
25.4
144
1.0
145
0.0
146
1.0
147
0.625
 71
     0
 72
     0
 73
     0
 74
     0
 75
     0
 76
     0
 77
     1
 78
     0
170
     0
171
     2
172
     0
173
     1
174
     0
175
     0
176
     0
177
     0
178
     0
270
     2
271
     0
272
     4
273
     2
274
     2
340
10
275
     0
280
     0
281
     0
282
     0
283
     1
284
     0
285
     0
286
     0
287
     0
288
     0
  0
DIMSTYLE
105
22CA
100
AcDbSymbolTableRecord
100
AcDbDimStyleTableRecord
  2
ED
 70
     0
  3

  4

  5

  6
_OPEN
  7
_OPEN
 40
0.0
 41
15.0
 42
0.625
 43
3.75
 44
1.25
 45
0.0
 46
0.0
 47
0.0
 48
0.0
140
15.0
141
2.5
142
0.0
143
0.0394
144
1.0
145
0.0
146
1.0
147
3.0
 71
     0
 72
     0
 73
     0
 74
     0
 75
     0
 76
     0
 77
     1
 78
     8
170
     0
171
     4
172
     1
173
     1
174
     0
175
     0
176
     0
177
     0
178
     0
270
     2
271
     0
272
     1
273
     8
274
     4
340
22C5
275
     0
280
     0
281
     0
282
     0
283
     1
284
     8
285
     0
286
     0
287
     3
288
     0
  0
DIMSTYLE
105
22CB
100
AcDbSymbolTableRecord
100
AcDbDimStyleTableRecord
  2
ED2
 70
     0
  3

  4

  5

  6
_OPEN
  7
_OPEN
 40
0.0
 41
25.0
 42
0.625
 43
3.75
 44
1.25
 45
0.0
 46
0.0
 47
0.0
 48
0.0
140
30.0
141
2.5
142
0.0
143
0.0394
144
1.0
145
0.0
146
1.0
147
5.0
 71
     0
 72
     0
 73
     0
 74
     0
 75
     0
 76
     0
 77
     1
 78
     8
170
     0
171
     4
172
     1
173
     1
174
     0
175
     0
176
     0
177
     0
178
     0
270
     2
271
     0
272
     1
273
     8
274
     4
340
22C5
275
     0
280
     0
281
     0
282
     0
283
     1
284
     8
285
     0
286
     0
287
     3
288
     0
  0
ENDTAB
  0
TABLE
  2
BLOCK_RECORD
  5
1
100
AcDbSymbolTable
 70
    21
  0
BLOCK_RECORD
  5
1A
100
AcDbSymbolTableRecord
100
AcDbBlockTableRecord
  2
*MODEL_SPACE
  0
BLOCK_RECORD
  5
17
100
AcDbSymbolTableRecord
100
AcDbBlockTableRecord
  2
*PAPER_SPACE
  0
BLOCK_RECORD
  5
1A05
100
AcDbSymbolTableRecord
100
AcDbBlockTableRecord
  2
_OPEN
  0
BLOCK_RECORD
  5
2387
100
AcDbSymbolTableRecord
100
AcDbBlockTableRecord
  2
*D11
  0
BLOCK_RECORD
  5
2393
100
AcDbSymbolTableRecord
100
AcDbBlockTableRecord
  2
*D12
  0
BLOCK_RECORD
  5
239F
100
AcDbSymbolTableRecord
100
AcDbBlockTableRecord
  2
*D13
  0
BLOCK_RECORD
  5
23AB
100
AcDbSymbolTableRecord
100
AcDbBlockTableRecord
  2
*D14
  0
BLOCK_RECORD
  5
23B7
100
AcDbSymbolTableRecord
100
AcDbBlockTableRecord
  2
*D15
  0
BLOCK_RECORD
  5
23C4
100
AcDbSymbolTableRecord
100
AcDbBlockTableRecord
  2
*D16
  0
BLOCK_RECORD
  5
23D0
100
AcDbSymbolTableRecord
100
AcDbBlockTableRecord
  2
*D17
  0
BLOCK_RECORD
  5
242E
100
AcDbSymbolTableRecord
100
AcDbBlockTableRecord
  2
*D18
  0
BLOCK_RECORD
  5
243A
100
AcDbSymbolTableRecord
100
AcDbBlockTableRecord
  2
*D19
  0
BLOCK_RECORD
  5
2446
100
AcDbSymbolTableRecord
100
AcDbBlockTableRecord
  2
*D20
  0
ENDTAB
  0
ENDSEC
  0
SECTION
  2
BLOCKS
  0
BLOCK
  5
1B
100
AcDbEntity
  8
0
100
AcDbBlockBegin
  2
*MODEL_SPACE
 70
     0
 10
0.0
 20
0.0
 30
0.0
  3
*MODEL_SPACE
  1

  0
ENDBLK
  5
1C
100
AcDbEntity
  8
0
100
AcDbBlockEnd
  0
BLOCK
  5
18
100
AcDbEntity
 67
     1
  8
0
100
AcDbBlockBegin
  2
*PAPER_SPACE
 70
     0
 10
0.0
 20
0.0
 30
0.0
  3
*PAPER_SPACE
  1

  0
ENDBLK
  5
19
100
AcDbEntity
 67
     1
  8
0
100
AcDbBlockEnd
  0
BLOCK
  5
1A09
100
AcDbEntity
  8
0
100
AcDbBlockBegin
  2
_OPEN
 70
     0
 10
0.0
 20
0.0
 30
0.0
  3
_OPEN
  1

  0
LINE
  5
1A06
100
AcDbEntity
  8
0
  6
BYBLOCK
 62
     0
100
AcDbLine
 10
-1.0
 20
0.166667
 30
0.0
 11
0.0
 21
0.0
 31
0.0
  0
LINE
  5
1A07
100
AcDbEntity
  8
0
  6
BYBLOCK
 62
     0
100
AcDbLine
 10
0.0
 20
0.0
 30
0.0
 11
-1.0
 21
-0.166667
 31
0.0
  0
LINE
  5
1A08
100
AcDbEntity
  8
0
  6
BYBLOCK
 62
     0
100
AcDbLine
 10
0.0
 20
0.0
 30
0.0
 11
-1.0
 21
0.0
 31
0.0
  0
ENDBLK
  5
1A0A
100
AcDbEntity
  8
0
100
AcDbBlockEnd
  0
BLOCK
  5
2388
100
AcDbEntity
  8
0
 48
5.0
100
AcDbBlockBegin
  2
*D11
 70
     1
 10
0.0
 20
0.0
 30
0.0
  3
*D11
  1

  0
LINE
  5
2389
100
AcDbEntity
  8
0
  6
BYBLOCK
 62
     0
 48
5.0
100
AcDbLine
 10
-129.0
 20
-361.8125
 30
0.0
 11
-129.0
 21
-453.96747
 31
0.0
  0
LINE
  5
238A
100
AcDbEntity
  8
0
  6
BYBLOCK
 62
     0
 48
5.0
100
AcDbLine
 10
129.0
 20
-361.8125
 30
0.0
 11
129.0
 21
-453.96747
 31
0.0
  0
LINE
  5
238B
100
AcDbEntity
  8
0
  6
BYBLOCK
 62
     0
 48
5.0
100
AcDbLine
 10
-111.5
 20
-453.06747
 30
0.0
 11
111.5
 21
-453.06747
 31
0.0
  0
INSERT
  5
238C
100
AcDbEntity
  8
0
  6
BYBLOCK
 62
     0
 48
5.0
100
AcDbBlockReference
  2
_OPEN
 10
-129.0
 20
-453.06747
 30
0.0
 41
17.5
 42
17.5
 43
17.5
 50
180.0
  0
INSERT
  5
238D
100
AcDbEntity
  8
0
  6
BYBLOCK
 62
     0
 48
5.0
100
AcDbBlockReference
  2
_OPEN
 10
129.0
 20
-453.06747
 30
0.0
 41
17.5
 42
17.5
 43
17.5
  0
MTEXT
  5
238E
100
AcDbEntity
  8
0
  6
BYBLOCK
 62
     0
 48
5.0
100
AcDbMText
 10
0.0
 20
-441.190747
 30
0.0
 40
17.5
 41
0.0
 71
     5
 72
     1
  1
\A1;258
  0
POINT
  5
238F
100
AcDbEntity
  8
DEFPOINTS
  6
BYBLOCK
 62
     0
 48
5.0
100
AcDbPoint
 10
-129.0
 20
-361.5
 30
0.0
  0
POINT
  5
2390
100
AcDbEntity
  8
DEFPOINTS
  6
BYBLOCK
 62
     0
 48
5.0
100
AcDbPoint
 10
129.0
 20
-361.5
 30
0.0
  0
POINT
  5
2391
100
AcDbEntity
  8
DEFPOINTS
  6
BYBLOCK
 62
     0
 48
5.0
100
AcDbPoint
 10
129.0
 20
-453.06747
 30
0.0
  0
ENDBLK
  5
2392
100
AcDbEntity
  8
0
 48
5.0
100
AcDbBlockEnd
  0
BLOCK
  5
2394
100
AcDbEntity
  8
0
 48
5.0
100
AcDbBlockBegin
  2
*D12
 70
     1
 10
0.0
 20
0.0
 30
0.0
  3
*D12
  1

  0
LINE
  5
2395
100
AcDbEntity
  8
0
  6
BYBLOCK
 62
     0
 48
5.0
100
AcDbLine
 10
60.3125
 20
-212.0
 30
0.0
 11
185.216513
 21
-212.0
 31
0.0
  0
LINE
  5
2396
100
AcDbEntity
  8
0
  6
BYBLOCK
 62
     0
 48
5.0
100
AcDbLine
 10
60.3125
 20
-388.0
 30
0.0
 11
185.216513
 21
-388.0
 31
0.0
  0
LINE
  5
2397
100
AcDbEntity
  8
0
  6
BYBLOCK
 62
     0
 48
5.0
100
AcDbLine
 10
184.316513
 20
-229.5
 30
0.0
 11
184.316513
 21
-370.5
 31
0.0
  0
INSERT
  5
2398
100
AcDbEntity
  8
0
  6
BYBLOCK
 62
     0
 48
5.0
100
AcDbBlockReference
  2
_OPEN
 10
184.316513
 20
-212.0
 30
0.0
 41
17.5
 42
17.5
 43
17.5
 50
90.0
  0
INSERT
  5
2399
100
AcDbEntity
  8
0
  6
BYBLOCK
 62
     0
 48
5.0
100
AcDbBlockReference
  2
_OPEN
 10
184.316513
 20
-388.0
 30
0.0
 41
17.5
 42
17.5
 43
17.5
 50
270.0
  0
MTEXT
  5
239A
100
AcDbEntity
  8
0
  6
BYBLOCK
 62
     0
 48
5.0
100
AcDbMText
 10
172.441513
 20
-300.0
 30
0.0
 40
17.5
 41
0.0
 71
     5
 72
     1
  1
\A1;\U+2205176
 11
0.0
 21
1.0
 31
0.0
  0
POINT
  5
239B
100
AcDbEntity
  8
DEFPOINTS
  6
BYBLOCK
 62
     0
 48
5.0
100
AcDbPoint
 10
60.0
 20
-212.0
 30
0.0
  0
POINT
  5
239C
100
AcDbEntity
  8
DEFPOINTS
  6
BYBLOCK
 62
     0
 48
5.0
100
AcDbPoint
 10
60.0
 20
-388.0
 30
0.0
  0
POINT
  5
239D
100
AcDbEntity
  8
DEFPOINTS
  6
BYBLOCK
 62
     0
 48
5.0
100
AcDbPoint
 10
184.316513
 20
-388.0
 30
0.0
  0
ENDBLK
  5
239E
100
AcDbEntity
  8
0
 48
5.0
100
AcDbBlockEnd
  0
BLOCK
  5
23A0
100
AcDbEntity
  8
0
 48
5.0
100
AcDbBlockBegin
  2
*D13
 70
     1
 10
0.0
 20
0.0
 30
0.0
  3
*D13
  1

  0
LINE
  5
23A1
100
AcDbEntity
  8
0
  6
BYBLOCK
 62
     0
 48
5.0
100
AcDbLine
 10
34.474251
 20
-270.0
 30
0.0
 11
94.661269
 21
-270.0
 31
0.0
  0
LINE
  5
23A2
100
AcDbEntity
  8
0
  6
BYBLOCK
 62
     0
 48
5.0
100
AcDbLine
 10
34.474251
 20
-330.0
 30
0.0
 11
94.661269
 21
-330.0
 31
0.0
  0
LINE
  5
23A3
100
AcDbEntity
  8
0
  6
BYBLOCK
 62
     0
 48
5.0
100
AcDbLine
 10
93.761269
 20
-287.5
 30
0.0
 11
93.761269
 21
-312.5
 31
0.0
  0
INSERT
  5
23A4
100
AcDbEntity
  8
0
  6
BYBLOCK
 62
     0
 48
5.0
100
AcDbBlockReference
  2
_OPEN
 10
93.761269
 20
-270.0
 30
0.0
 41
17.5
 42
17.5
 43
17.5
 50
90.0
  0
INSERT
  5
23A5
100
AcDbEntity
  8
0
  6
BYBLOCK
 62
     0
 48
5.0
100
AcDbBlockReference
  2
_OPEN
 10
93.761269
 20
-330.0
 30
0.0
 41
17.5
 42
17.5
 43
17.5
 50
270.0
  0
MTEXT
  5
23A6
100
AcDbEntity
  8
0
  6
BYBLOCK
 62
     0
 48
5.0
100
AcDbMText
 10
81.886269
 20
-300.0
 30
0.0
 40
17.5
 41
0.0
 71
     5
 72
     1
  1
\A1;60
 11
0.0
 21
1.0
 31
0.0
  0
POINT
  5
23A7
100
AcDbEntity
  8
DEFPOINTS
  6
BYBLOCK
 62
     0
 48
5.0
100
AcDbPoint
 10
34.161751
 20
-270.0
 30
0.0
  0
POINT
  5
23A8
100
AcDbEntity
  8
DEFPOINTS
  6
BYBLOCK
 62
     0
 48
5.0
100
AcDbPoint
 10
34.161751
 20
-330.0
 30
0.0
  0
POINT
  5
23A9
100
AcDbEntity
  8
DEFPOINTS
  6
BYBLOCK
 62
     0
 48
5.0
100
AcDbPoint
 10
93.761269
 20
-330.0
 30
0.0
  0
ENDBLK
  5
23AA
100
AcDbEntity
  8
0
 48
5.0
100
AcDbBlockEnd
  0
BLOCK
  5
23AC
100
AcDbEntity
  8
0
 48
5.0
100
AcDbBlockBegin
  2
*D14
 70
     1
 10
0.0
 20
0.0
 30
0.0
  3
*D14
  1

  0
LINE
  5
23AD
100
AcDbEntity
  8
0
  6
BYBLOCK
 62
     0
 48
5.0
100
AcDbLine
 10
-129.3125
 20
-299.563987
 30
0.0
 11
-160.805578
 21
-299.563987
 31
0.0
  0
LINE
  5
23AE
100
AcDbEntity
  8
0
  6
BYBLOCK
 62
     0
 48
5.0
100
AcDbLine
 10
-40.3125
 20
-185.0
 30
0.0
 11
-160.805578
 21
-185.0
 31
0.0
  0
LINE
  5
23AF
100
AcDbEntity
  8
0
  6
BYBLOCK
 62
     0
 48
5.0
100
AcDbLine
 10
-159.905578
 20
-282.063987
 30
0.0
 11
-159.905578
 21
-202.5
 31
0.0
  0
INSERT
  5
23B0
100
AcDbEntity
  8
0
  6
BYBLOCK
 62
     0
 48
5.0
100
AcDbBlockReference
  2
_OPEN
 10
-159.905578
 20
-299.563987
 30
0.0
 41
17.5
 42
17.5
 43
17.5
 50
270.0
  0
INSERT
  5
23B1
100
AcDbEntity
  8
0
  6
BYBLOCK
 62
     0
 48
5.0
100
AcDbBlockReference
  2
_OPEN
 10
-159.905578
 20
-185.0
 30
0.0
 41
17.5
 42
17.5
 43
17.5
 50
90.0
  0
MTEXT
  5
23B2
100
AcDbEntity
  8
0
  6
BYBLOCK
 62
     0
 48
5.0
100
AcDbMText
 10
-171.780578
 20
-242.281993
 30
0.0
 40
17.5
 41
0.0
 71
     5
 72
     1
  1
\A1;115
 11
0.0
 21
1.0
 31
0.0
  0
POINT
  5
23B3
100
AcDbEntity
  8
DEFPOINTS
  6
BYBLOCK
 62
     0
 48
5.0
100
AcDbPoint
 10
-129.0
 20
-299.563987
 30
0.0
  0
POINT
  5
23B4
100
AcDbEntity
  8
DEFPOINTS
  6
BYBLOCK
 62
     0
 48
5.0
100
AcDbPoint
 10
-40.0
 20
-185.0
 30
0.0
  0
POINT
  5
23B5
100
AcDbEntity
  8
DEFPOINTS
  6
BYBLOCK
 62
     0
 48
5.0
100
AcDbPoint
 10
-159.905578
 20
-185.0
 30
0.0
  0
ENDBLK
  5
23B6
100
AcDbEntity
  8
0
 48
5.0
100
AcDbBlockEnd
  0
BLOCK
  5
23B8
100
AcDbEntity
  8
0
 48
5.0
100
AcDbBlockBegin
  2
*D15
 70
     1
 10
0.0
 20
0.0
 30
0.0
  3
*D15
  1

  0
LINE
  5
23B9
100
AcDbEntity
  8
0
  6
BYBLOCK
 62
     0
 48
5.0
100
AcDbLine
 10
-129.0
 20
-362.125
 30
0.0
 11
-129.0
 21
-417.126634
 31
0.0
  0
LINE
  5
23BA
100
AcDbEntity
  8
0
  6
BYBLOCK
 62
     0
 48
5.0
100
AcDbLine
 10
-104.0
 20
-362.125
 30
0.0
 11
-104.0
 21
-417.126634
 31
0.0
  0
LINE
  5
23BB
100
AcDbEntity
  8
0
  6
BYBLOCK
 62
     0
 48
5.0
100
AcDbLine
 10
-146.5
 20
-416.226634
 30
0.0
 11
-164.0
 21
-416.226634
 31
0.0
  0
LINE
  5
23BC
100
AcDbEntity
  8
0
  6
BYBLOCK
 62
     0
 48
5.0
100
AcDbLine
 10
-86.5
 20
-416.226634
 30
0.0
 11
-69.0
 21
-416.226634
 31
0.0
  0
INSERT
  5
23BD
100
AcDbEntity
  8
0
  6
BYBLOCK
 62
     0
 48
5.0
100
AcDbBlockReference
  2
_OPEN
 10
-129.0
 20
-416.226634
 30
0.0
 41
17.5
 42
17.5
 43
17.5
  0
INSERT
  5
23BE
100
AcDbEntity
  8
0
  6
BYBLOCK
 62
     0
 48
5.0
100
AcDbBlockReference
  2
_OPEN
 10
-104.0
 20
-416.226634
 30
0.0
 41
17.5
 42
17.5
 43
17.5
 50
180.0
  0
MTEXT
  5
23BF
100
AcDbEntity
  8
0
  6
BYBLOCK
 62
     0
 48
5.0
100
AcDbMText
 10
-116.5
 20
-404.349912
 30
0.0
 40
17.5
 41
0.0
 71
     5
 72
     1
  1
\A1;25
  0
POINT
  5
23C0
100
AcDbEntity
  8
DEFPOINTS
  6
BYBLOCK
 62
     0
 48
5.0
100
AcDbPoint
 10
-129.0
 20
-361.8125
 30
0.0
  0
POINT
  5
23C1
100
AcDbEntity
  8
DEFPOINTS
  6
BYBLOCK
 62
     0
 48
5.0
100
AcDbPoint
 10
-104.0
 20
-361.8125
 30
0.0
  0
POINT
  5
23C2
100
AcDbEntity
  8
DEFPOINTS
  6
BYBLOCK
 62
     0
 48
5.0
100
AcDbPoint
 10
-104.0
 20
-416.226634
 30
0.0
  0
ENDBLK
  5
23C3
100
AcDbEntity
  8
0
 48
5.0
100
AcDbBlockEnd
  0
BLOCK
  5
23C5
100
AcDbEntity
  8
0
 48
5.0
100
AcDbBlockBegin
  2
*D16
 70
     1
 10
0.0
 20
0.0
 30
0.0
  3
*D16
  1

  0
LINE
  5
23C6
100
AcDbEntity
  8
0
  6
BYBLOCK
 62
     0
 48
5.0
100
AcDbLine
 10
-40.0
 20
-335.3125
 30
0.0
 11
-40.0
 21
-416.103277
 31
0.0
  0
LINE
  5
23C7
100
AcDbEntity
  8
0
  6
BYBLOCK
 62
     0
 48
5.0
100
AcDbLine
 10
40.0
 20
-335.3125
 30
0.0
 11
40.0
 21
-416.103277
 31
0.0
  0
LINE
  5
23C8
100
AcDbEntity
  8
0
  6
BYBLOCK
 62
     0
 48
5.0
100
AcDbLine
 10
-22.5
 20
-415.203277
 30
0.0
 11
22.5
 21
-415.203277
 31
0.0
  0
INSERT
  5
23C9
100
AcDbEntity
  8
0
  6
BYBLOCK
 62
     0
 48
5.0
100
AcDbBlockReference
  2
_OPEN
 10
-40.0
 20
-415.203277
 30
0.0
 41
17.5
 42
17.5
 43
17.5
 50
180.0
  0
INSERT
  5
23CA
100
AcDbEntity
  8
0
  6
BYBLOCK
 62
     0
 48
5.0
100
AcDbBlockReference
  2
_OPEN
 10
40.0
 20
-415.203277
 30
0.0
 41
17.5
 42
17.5
 43
17.5
  0
MTEXT
  5
23CB
100
AcDbEntity
  8
0
  6
BYBLOCK
 62
     0
 48
5.0
100
AcDbMText
 10
0.0
 20
-403.328277
 30
0.0
 40
17.5
 41
0.0
 71
     5
 72
     1
  1
\A1;80
  0
POINT
  5
23CC
100
AcDbEntity
  8
DEFPOINTS
  6
BYBLOCK
 62
     0
 48
5.0
100
AcDbPoint
 10
-40.0
 20
-335.0
 30
0.0
  0
POINT
  5
23CD
100
AcDbEntity
  8
DEFPOINTS
  6
BYBLOCK
 62
     0
 48
5.0
100
AcDbPoint
 10
40.0
 20
-335.0
 30
0.0
  0
POINT
  5
23CE
100
AcDbEntity
  8
DEFPOINTS
  6
BYBLOCK
 62
     0
 48
5.0
100
AcDbPoint
 10
40.0
 20
-415.203277
 30
0.0
  0
ENDBLK
  5
23CF
100
AcDbEntity
  8
0
 48
5.0
100
AcDbBlockEnd
  0
BLOCK
  5
23D1
100
AcDbEntity
  8
0
 48
5.0
100
AcDbBlockBegin
  2
*D17
 70
     1
 10
0.0
 20
0.0
 30
0.0
  3
*D17
  1

  0
LINE
  5
23D2
100
AcDbEntity
  8
0
  6
BYBLOCK
 62
     0
 48
5.0
100
AcDbLine
 10
129.3125
 20
-238.5
 30
0.0
 11
158.58028
 21
-238.5
 31
0.0
  0
LINE
  5
23D3
100
AcDbEntity
  8
0
  6
BYBLOCK
 62
     0
 48
5.0
100
AcDbLine
 10
129.3125
 20
-361.5
 30
0.0
 11
158.58028
 21
-361.5
 31
0.0
  0
LINE
  5
23D4
100
AcDbEntity
  8
0
  6
BYBLOCK
 62
     0
 48
5.0
100
AcDbLine
 10
157.68028
 20
-256.0
 30
0.0
 11
157.68028
 21
-344.0
 31
0.0
  0
INSERT
  5
23D5
100
AcDbEntity
  8
0
  6
BYBLOCK
 62
     0
 48
5.0
100
AcDbBlockReference
  2
_OPEN
 10
157.68028
 20
-238.5
 30
0.0
 41
17.5
 42
17.5
 43
17.5
 50
90.0
  0
INSERT
  5
23D6
100
AcDbEntity
  8
0
  6
BYBLOCK
 62
     0
 48
5.0
100
AcDbBlockReference
  2
_OPEN
 10
157.68028
 20
-361.5
 30
0.0
 41
17.5
 42
17.5
 43
17.5
 50
270.0
  0
MTEXT
  5
23D7
100
AcDbEntity
  8
0
  6
BYBLOCK
 62
     0
 48
5.0
100
AcDbMText
 10
145.803557
 20
-300.0
 30
0.0
 40
17.5
 41
0.0
 71
     5
 72
     1
  1
\A1;\U+2205123
 11
0.0
 21
1.0
 31
0.0
  0
POINT
  5
23D8
100
AcDbEntity
  8
DEFPOINTS
  6
BYBLOCK
 62
     0
 48
5.0
100
AcDbPoint
 10
129.0
 20
-238.5
 30
0.0
  0
POINT
  5
23D9
100
AcDbEntity
  8
DEFPOINTS
  6
BYBLOCK
 62
     0
 48
5.0
100
AcDbPoint
 10
129.0
 20
-361.5
 30
0.0
  0
POINT
  5
23DA
100
AcDbEntity
  8
DEFPOINTS
  6
BYBLOCK
 62
     0
 48
5.0
100
AcDbPoint
 10
157.68028
 20
-361.5
 30
0.0
  0
ENDBLK
  5
23DB
100
AcDbEntity
  8
0
 48
5.0
100
AcDbBlockEnd
  0
BLOCK
  5
242F
100
AcDbEntity
  8
0
 48
5.0
100
AcDbBlockBegin
  2
*D18
 70
     1
 10
0.0
 20
0.0
 30
0.0
  3
*D18
  1

  0
LINE
  5
2430
100
AcDbEntity
  8
0
  6
BYBLOCK
 62
     0
 48
5.0
100
AcDbLine
 10
450.0
 20
-259.6875
 30
0.0
 11
450.0
 21
-137.985974
 31
0.0
  0
LINE
  5
2431
100
AcDbEntity
  8
0
  6
BYBLOCK
 62
     0
 48
5.0
100
AcDbLine
 10
262.0
 20
-299.6875
 30
0.0
 11
262.0
 21
-137.985974
 31
0.0
  0
LINE
  5
2432
100
AcDbEntity
  8
0
  6
BYBLOCK
 62
     0
 48
5.0
100
AcDbLine
 10
432.5
 20
-138.885974
 30
0.0
 11
279.5
 21
-138.885974
 31
0.0
  0
INSERT
  5
2433
100
AcDbEntity
  8
0
  6
BYBLOCK
 62
     0
 48
5.0
100
AcDbBlockReference
  2
_OPEN
 10
450.0
 20
-138.885974
 30
0.0
 41
17.5
 42
17.5
 43
17.5
  0
INSERT
  5
2434
100
AcDbEntity
  8
0
  6
BYBLOCK
 62
     0
 48
5.0
100
AcDbBlockReference
  2
_OPEN
 10
262.0
 20
-138.885974
 30
0.0
 41
17.5
 42
17.5
 43
17.5
 50
180.0
  0
MTEXT
  5
2435
100
AcDbEntity
  8
0
  6
BYBLOCK
 62
     0
 48
5.0
100
AcDbMText
 10
356.0
 20
-127.010974
 30
0.0
 40
17.5
 41
0.0
 71
     5
 72
     1
  1
\A1;188
  0
POINT
  5
2436
100
AcDbEntity
  8
DEFPOINTS
  6
BYBLOCK
 62
     0
 48
5.0
100
AcDbPoint
 10
450.0
 20
-260.0
 30
0.0
  0
POINT
  5
2437
100
AcDbEntity
  8
DEFPOINTS
  6
BYBLOCK
 62
     0
 48
5.0
100
AcDbPoint
 10
262.0
 20
-300.0
 30
0.0
  0
POINT
  5
2438
100
AcDbEntity
  8
DEFPOINTS
  6
BYBLOCK
 62
     0
 48
5.0
100
AcDbPoint
 10
262.0
 20
-138.885974
 30
0.0
  0
ENDBLK
  5
2439
100
AcDbEntity
  8
0
 48
5.0
100
AcDbBlockEnd
  0
BLOCK
  5
243B
100
AcDbEntity
  8
0
 48
5.0
100
AcDbBlockBegin
  2
*D19
 70
     1
 10
0.0
 20
0.0
 30
0.0
  3
*D19
  1

  0
LINE
  5
243C
100
AcDbEntity
  8
0
  6
BYBLOCK
 62
     0
 48
5.0
100
AcDbLine
 10
435.462929
 20
-255.0
 30
0.0
 11
477.639534
 21
-255.0
 31
0.0
  0
LINE
  5
243D
100
AcDbEntity
  8
0
  6
BYBLOCK
 62
     0
 48
5.0
100
AcDbLine
 10
435.624535
 20
-345.0
 30
0.0
 11
477.639534
 21
-345.0
 31
0.0
  0
LINE
  5
243E
100
AcDbEntity
  8
0
  6
BYBLOCK
 62
     0
 48
5.0
100
AcDbLine
 10
476.739534
 20
-272.5
 30
0.0
 11
476.739534
 21
-327.5
 31
0.0
  0
INSERT
  5
243F
100
AcDbEntity
  8
0
  6
BYBLOCK
 62
     0
 48
5.0
100
AcDbBlockReference
  2
_OPEN
 10
476.739534
 20
-255.0
 30
0.0
 41
17.5
 42
17.5
 43
17.5
 50
90.0
  0
INSERT
  5
2440
100
AcDbEntity
  8
0
  6
BYBLOCK
 62
     0
 48
5.0
100
AcDbBlockReference
  2
_OPEN
 10
476.739534
 20
-345.0
 30
0.0
 41
17.5
 42
17.5
 43
17.5
 50
270.0
  0
MTEXT
  5
2441
100
AcDbEntity
  8
0
  6
BYBLOCK
 62
     0
 48
5.0
100
AcDbMText
 10
464.864534
 20
-300.0
 30
0.0
 40
17.5
 41
0.0
 71
     5
 72
     1
  1
\A1;90
 11
0.0
 21
1.0
 31
0.0
  0
POINT
  5
2442
100
AcDbEntity
  8
DEFPOINTS
  6
BYBLOCK
 62
     0
 48
5.0
100
AcDbPoint
 10
435.150429
 20
-255.0
 30
0.0
  0
POINT
  5
2443
100
AcDbEntity
  8
DEFPOINTS
  6
BYBLOCK
 62
     0
 48
5.0
100
AcDbPoint
 10
435.312035
 20
-345.0
 30
0.0
  0
POINT
  5
2444
100
AcDbEntity
  8
DEFPOINTS
  6
BYBLOCK
 62
     0
 48
5.0
100
AcDbPoint
 10
476.739534
 20
-345.0
 30
0.0
  0
ENDBLK
  5
2445
100
AcDbEntity
  8
0
 48
5.0
100
AcDbBlockEnd
  0
BLOCK
  5
2447
100
AcDbEntity
  8
0
 48
5.0
100
AcDbBlockBegin
  2
*D20
 70
     1
 10
0.0
 20
0.0
 30
0.0
  3
*D20
  1

  0
LINE
  5
2448
100
AcDbEntity
  8
0
  6
BYBLOCK
 62
     0
 48
5.0
100
AcDbLine
 10
450.0
 20
-259.6875
 30
0.0
 11
450.0
 21
-163.105833
 31
0.0
  0
LINE
  5
2449
100
AcDbEntity
  8
0
  6
BYBLOCK
 62
     0
 48
5.0
100
AcDbLine
 10
350.0
 20
-184.6875
 30
0.0
 11
350.0
 21
-163.105833
 31
0.0
  0
LINE
  5
244A
100
AcDbEntity
  8
0
  6
BYBLOCK
 62
     0
 48
5.0
100
AcDbLine
 10
432.5
 20
-164.005833
 30
0.0
 11
367.5
 21
-164.005833
 31
0.0
  0
INSERT
  5
244B
100
AcDbEntity
  8
0
  6
BYBLOCK
 62
     0
 48
5.0
100
AcDbBlockReference
  2
_OPEN
 10
450.0
 20
-164.005833
 30
0.0
 41
17.5
 42
17.5
 43
17.5
  0
INSERT
  5
244C
100
AcDbEntity
  8
0
  6
BYBLOCK
 62
     0
 48
5.0
100
AcDbBlockReference
  2
_OPEN
 10
350.0
 20
-164.005833
 30
0.0
 41
17.5
 42
17.5
 43
17.5
 50
180.0
  0
MTEXT
  5
244D
100
AcDbEntity
  8
0
  6
BYBLOCK
 62
     0
 48
5.0
100
AcDbMText
 10
400.0
 20
-152.130833
 30
0.0
 40
17.5
 41
0.0
 71
     5
 72
     1
  1
\A1;100
  0
POINT
  5
244E
100
AcDbEntity
  8
DEFPOINTS
  6
BYBLOCK
 62
     0
 48
5.0
100
AcDbPoint
 10
450.0
 20
-260.0
 30
0.0
  0
POINT
  5
244F
100
AcDbEntity
  8
DEFPOINTS
  6
BYBLOCK
 62
     0
 48
5.0
100
AcDbPoint
 10
350.0
 20
-185.0
 30
0.0
  0
POINT
  5
2450
100
AcDbEntity
  8
DEFPOINTS
  6
BYBLOCK
 62
     0
 48
5.0
100
AcDbPoint
 10
350.0
 20
-164.005833
 30
0.0
  0
ENDBLK
  5
2451
100
AcDbEntity
  8
0
 48
5.0
100
AcDbBlockEnd
  0
ENDSEC
  0
SECTION
  2
ENTITIES
  0
LINE
  5
1EC6
100
AcDbEntity
  8
V0-VYPLNE
  6
DASHDOT
 62
    63
 48
3.0
100
AcDbLine
 10
-129.0
 20
-300.0
 30
0.0
 11
64.793482
 21
-300.0
 31
0.0
  0
LINE
  5
1EC8
100
AcDbEntity
  8
V0-OBRYS
  6
CONTINUOUS
 62
    90
100
AcDbLine
 10
-129.0
 20
-300.0
 30
0.0
 11
-129.0
 21
-238.5
 31
0.0
  0
LINE
  5
1EC9
100
AcDbEntity
  8
V0-OBRYS
  6
CONTINUOUS
 62
    90
100
AcDbLine
 10
-40.0
 20
-185.0
 30
0.0
 11
0.0
 21
-185.0
 31
0.0
  0
LINE
  5
1ECA
100
AcDbEntity
  8
V0-OBRYS
  6
CONTINUOUS
 62
    90
100
AcDbLine
 10
-40.0
 20
-195.0
 30
0.0
 11
0.0
 21
-195.0
 31
0.0
  0
LINE
  5
1ECC
100
AcDbEntity
  8
V0-OBRYS
  6
CONTINUOUS
 62
    90
100
AcDbLine
 10
-129.0
 20
-238.5
 30
0.0
 11
-104.0
 21
-238.5
 31
0.0
  0
LINE
  5
1ECD
100
AcDbEntity
  8
V0-OBRYS
  6
CONTINUOUS
 62
    90
100
AcDbLine
 10
-40.0
 20
-212.0
 30
0.0
 11
-45.0
 21
-212.0
 31
0.0
  0
LINE
  5
1ECE
100
AcDbEntity
  8
V0-OBRYS
  6
CONTINUOUS
 62
    90
100
AcDbLine
 10
-60.0
 20
-212.0
 30
0.0
 11
-104.0
 21
-238.5
 31
0.0
  0
LINE
  5
1ECF
100
AcDbEntity
  8
V0-OBRYS
  6
CONTINUOUS
 62
    90
100
AcDbLine
 10
-40.0
 20
-230.0
 30
0.0
 11
0.0
 21
-230.0
 31
0.0
  0
LINE
  5
1ED0
100
AcDbEntity
  8
V0-OBRYS
  6
CONTINUOUS
 62
    90
100
AcDbLine
 10
-104.0
 20
-238.5
 30
0.0
 11
-104.0
 21
-300.0
 31
0.0
  0
LINE
  5
1ED1
100
AcDbEntity
  8
V0-OBRYS
  6
CONTINUOUS
 62
    90
100
AcDbLine
 10
-60.0
 20
-212.0
 30
0.0
 11
-60.0
 21
-300.0
 31
0.0
  0
LINE
  5
1ED2
100
AcDbEntity
  8
V0-OBRYS
  6
CONTINUOUS
 62
    90
100
AcDbLine
 10
-50.0
 20
-210.0
 30
0.0
 11
-50.0
 21
-265.703545
 31
0.0
  0
LINE
  5
1ED3
100
AcDbEntity
  8
V0-OBRYS
  6
CONTINUOUS
 62
    90
100
AcDbLine
 10
-50.0
 20
-210.0
 30
0.0
 11
-45.0
 21
-210.0
 31
0.0
  0
LINE
  5
1ED4
100
AcDbEntity
  8
V0-OBRYS
  6
CONTINUOUS
 62
    90
100
AcDbLine
 10
-45.0
 20
-210.0
 30
0.0
 11
-45.0
 21
-255.0
 31
0.0
  0
LINE
  5
1ED5
100
AcDbEntity
  8
V0-OBRYS
  6
CONTINUOUS
 62
    90
100
AcDbLine
 10
-50.0
 20
-212.0
 30
0.0
 11
-60.0
 21
-212.0
 31
0.0
  0
LINE
  5
1ED6
100
AcDbEntity
  8
V0-OBRYS
  6
CONTINUOUS
 62
    90
100
AcDbLine
 10
-40.0
 20
-230.0
 30
0.0
 11
-40.0
 21
-185.0
 31
0.0
  0
LINE
  5
1ED7
100
AcDbEntity
  8
V0-VYPLNE
  6
DASHDOT
 62
    63
 48
3.0
100
AcDbLine
 10
438.155257
 20
-300.0
 30
0.0
 11
255.010043
 21
-300.0
 31
0.0
  0
CIRCLE
  5
1ED8
100
AcDbEntity
  8
V0-OBRYS
  6
CONTINUOUS
 62
    90
100
AcDbCircle
 10
-40.0
 20
-270.0
 30
0.0
 40
2.75
  0
LINE
  5
1ED9
100
AcDbEntity
  8
V0-VYPLNE
  6
DASHDOT
 62
    63
 48
3.0
100
AcDbLine
 10
-46.177507
 20
-270.0
 30
0.0
 11
-34.161751
 21
-270.0
 31
0.0
  0
LINE
  5
1EDA
100
AcDbEntity
  8
V0-VYPLNE
  6
DASHDOT
 62
    63
 48
3.0
100
AcDbLine
 10
-40.0
 20
-275.0
 30
0.0
 11
-40.0
 21
-265.0
 31
0.0
  0
LINE
  5
1EDB
100
AcDbEntity
  8
V0-OBRYS
  6
CONTINUOUS
 62
    90
100
AcDbLine
 10
-43.491431
 20
-255.0
 30
0.0
 11
0.0
 21
-255.0
 31
0.0
  0
ARC
  5
1EDC
100
AcDbEntity
  8
V0-OBRYS
  6
CONTINUOUS
 62
    90
100
AcDbCircle
 10
106.365846
 20
-299.519213
 30
0.0
 40
159.980553
100
AcDbArc
 50
165.226732
 51
180.312745
  0
ARC
  5
1EDD
100
AcDbEntity
  8
V0-OBRYS
  6
CONTINUOUS
 62
    90
100
AcDbCircle
 10
-43.491431
 20
-260.0
 30
0.0
 40
5.0
100
AcDbArc
 50
90.0
 51
165.226732
  0
LINE
  5
1EDE
100
AcDbEntity
  8
V0-OBRYS
  6
CONTINUOUS
 62
    90
100
AcDbLine
 10
-60.0
 20
-388.0
 30
0.0
 11
-104.0
 21
-361.5
 31
0.0
  0
LINE
  5
1EDF
100
AcDbEntity
  8
V0-OBRYS
  6
CONTINUOUS
 62
    90
100
AcDbLine
 10
-45.0
 20
-390.0
 30
0.0
 11
-45.0
 21
-345.0
 31
0.0
  0
LINE
  5
1EE0
100
AcDbEntity
  8
V0-OBRYS
  6
CONTINUOUS
 62
    90
100
AcDbLine
 10
-50.0
 20
-390.0
 30
0.0
 11
-50.0
 21
-334.296455
 31
0.0
  0
LINE
  5
1EE1
100
AcDbEntity
  8
V0-OBRYS
  6
CONTINUOUS
 62
    90
100
AcDbLine
 10
-60.0
 20
-388.0
 30
0.0
 11
-60.0
 21
-300.0
 31
0.0
  0
LINE
  5
1EE2
100
AcDbEntity
  8
V0-OBRYS
  6
CONTINUOUS
 62
    90
100
AcDbLine
 10
-104.0
 20
-361.5
 30
0.0
 11
-104.0
 21
-300.0
 31
0.0
  0
LINE
  5
1EE3
100
AcDbEntity
  8
V0-OBRYS
  6
CONTINUOUS
 62
    90
100
AcDbLine
 10
-129.0
 20
-300.0
 30
0.0
 11
-129.0
 21
-361.5
 31
0.0
  0
LINE
  5
1EE4
100
AcDbEntity
  8
V0-OBRYS
  6
CONTINUOUS
 62
    90
100
AcDbLine
 10
-129.0
 20
-361.5
 30
0.0
 11
-104.0
 21
-361.5
 31
0.0
  0
ARC
  5
1EE5
100
AcDbEntity
  8
V0-OBRYS
  6
CONTINUOUS
 62
    90
100
AcDbCircle
 10
106.365846
 20
-300.480787
 30
0.0
 40
159.980553
100
AcDbArc
 50
179.687255
 51
194.773268
  0
LINE
  5
1EE6
100
AcDbEntity
  8
V0-OBRYS
  6
CONTINUOUS
 62
    90
100
AcDbLine
 10
-43.491431
 20
-345.0
 30
0.0
 11
0.0
 21
-345.0
 31
0.0
  0
LINE
  5
1EE7
100
AcDbEntity
  8
V0-VYPLNE
  6
DASHDOT
 62
    63
 48
3.0
100
AcDbLine
 10
-46.177507
 20
-330.0
 30
0.0
 11
-34.161751
 21
-330.0
 31
0.0
  0
CIRCLE
  5
1EE8
100
AcDbEntity
  8
V0-OBRYS
  6
CONTINUOUS
 62
    90
100
AcDbCircle
 10
-40.0
 20
-330.0
 30
0.0
 40
2.75
  0
ARC
  5
1EE9
100
AcDbEntity
  8
V0-OBRYS
  6
CONTINUOUS
 62
    90
100
AcDbCircle
 10
-43.491431
 20
-340.0
 30
0.0
 40
5.0
100
AcDbArc
 50
194.773268
 51
270.0
  0
LINE
  5
1EEA
100
AcDbEntity
  8
V0-OBRYS
  6
CONTINUOUS
 62
    90
100
AcDbLine
 10
-50.0
 20
-388.0
 30
0.0
 11
-60.0
 21
-388.0
 31
0.0
  0
LINE
  5
1EEB
100
AcDbEntity
  8
V0-OBRYS
  6
CONTINUOUS
 62
    90
100
AcDbLine
 10
0.0
 20
-388.0
 30
0.0
 11
-45.0
 21
-388.0
 31
0.0
  0
LINE
  5
1EEC
100
AcDbEntity
  8
V0-OBRYS
  6
CONTINUOUS
 62
    90
100
AcDbLine
 10
-50.0
 20
-390.0
 30
0.0
 11
-45.0
 21
-390.0
 31
0.0
  0
LINE
  5
1EED
100
AcDbEntity
  8
V0-OBRYS
  6
CONTINUOUS
 62
    90
100
AcDbLine
 10
60.0
 20
-212.0
 30
0.0
 11
104.0
 21
-238.5
 31
0.0
  0
LINE
  5
1EEE
100
AcDbEntity
  8
V0-OBRYS
  6
CONTINUOUS
 62
    90
100
AcDbLine
 10
45.0
 20
-210.0
 30
0.0
 11
45.0
 21
-255.0
 31
0.0
  0
LINE
  5
1EEF
100
AcDbEntity
  8
V0-OBRYS
  6
CONTINUOUS
 62
    90
100
AcDbLine
 10
50.0
 20
-210.0
 30
0.0
 11
50.0
 21
-265.703545
 31
0.0
  0
LINE
  5
1EF0
100
AcDbEntity
  8
V0-OBRYS
  6
CONTINUOUS
 62
    90
100
AcDbLine
 10
40.0
 20
-230.0
 30
0.0
 11
40.0
 21
-185.0
 31
0.0
  0
LINE
  5
1EF1
100
AcDbEntity
  8
V0-OBRYS
  6
CONTINUOUS
 62
    90
100
AcDbLine
 10
60.0
 20
-212.0
 30
0.0
 11
60.0
 21
-300.0
 31
0.0
  0
LINE
  5
1EF2
100
AcDbEntity
  8
V0-OBRYS
  6
CONTINUOUS
 62
    90
100
AcDbLine
 10
129.0
 20
-300.0
 30
0.0
 11
129.0
 21
-361.5
 31
0.0
  0
LINE
  5
1EF3
100
AcDbEntity
  8
V0-OBRYS
  6
CONTINUOUS
 62
    90
100
AcDbLine
 10
104.0
 20
-361.5
 30
0.0
 11
104.0
 21
-300.0
 31
0.0
  0
LINE
  5
1EF4
100
AcDbEntity
  8
V0-OBRYS
  6
CONTINUOUS
 62
    90
100
AcDbLine
 10
60.0
 20
-388.0
 30
0.0
 11
60.0
 21
-300.0
 31
0.0
  0
LINE
  5
1EF5
100
AcDbEntity
  8
V0-OBRYS
  6
CONTINUOUS
 62
    90
100
AcDbLine
 10
50.0
 20
-390.0
 30
0.0
 11
50.0
 21
-334.296455
 31
0.0
  0
LINE
  5
1EF6
100
AcDbEntity
  8
V0-OBRYS
  6
CONTINUOUS
 62
    90
100
AcDbLine
 10
45.0
 20
-390.0
 30
0.0
 11
45.0
 21
-345.0
 31
0.0
  0
LINE
  5
1EF7
100
AcDbEntity
  8
V0-OBRYS
  6
CONTINUOUS
 62
    90
100
AcDbLine
 10
60.0
 20
-388.0
 30
0.0
 11
104.0
 21
-361.5
 31
0.0
  0
LINE
  5
1EF8
100
AcDbEntity
  8
V0-OBRYS
  6
CONTINUOUS
 62
    90
100
AcDbLine
 10
129.0
 20
-361.5
 30
0.0
 11
104.0
 21
-361.5
 31
0.0
  0
LINE
  5
1EF9
100
AcDbEntity
  8
V0-OBRYS
  6
CONTINUOUS
 62
    90
100
AcDbLine
 10
0.0
 20
-388.0
 30
0.0
 11
45.0
 21
-388.0
 31
0.0
  0
LINE
  5
1EFA
100
AcDbEntity
  8
V0-OBRYS
  6
CONTINUOUS
 62
    90
100
AcDbLine
 10
50.0
 20
-388.0
 30
0.0
 11
60.0
 21
-388.0
 31
0.0
  0
LINE
  5
1EFB
100
AcDbEntity
  8
V0-OBRYS
  6
CONTINUOUS
 62
    90
100
AcDbLine
 10
50.0
 20
-390.0
 30
0.0
 11
45.0
 21
-390.0
 31
0.0
  0
LINE
  5
1EFD
100
AcDbEntity
  8
V0-OBRYS
  6
CONTINUOUS
 62
    90
100
AcDbLine
 10
104.0
 20
-238.5
 30
0.0
 11
104.0
 21
-300.0
 31
0.0
  0
LINE
  5
1EFE
100
AcDbEntity
  8
V0-OBRYS
  6
CONTINUOUS
 62
    90
100
AcDbLine
 10
129.0
 20
-300.0
 30
0.0
 11
129.0
 21
-238.5
 31
0.0
  0
LINE
  5
1EFF
100
AcDbEntity
  8
V0-OBRYS
  6
CONTINUOUS
 62
    90
100
AcDbLine
 10
129.0
 20
-238.5
 30
0.0
 11
104.0
 21
-238.5
 31
0.0
  0
ARC
  5
1F00
100
AcDbEntity
  8
V0-OBRYS
  6
CONTINUOUS
 62
    90
100
AcDbCircle
 10
-106.365846
 20
-299.519213
 30
0.0
 40
159.980553
100
AcDbArc
 50
359.687255
 51
14.773268
  0
LINE
  5
1F01
100
AcDbEntity
  8
V0-OBRYS
  6
CONTINUOUS
 62
    90
100
AcDbLine
 10
43.491431
 20
-345.0
 30
0.0
 11
0.0
 21
-345.0
 31
0.0
  0
ARC
  5
1F02
100
AcDbEntity
  8
V0-OBRYS
  6
CONTINUOUS
 62
    90
100
AcDbCircle
 10
-106.365846
 20
-300.480787
 30
0.0
 40
159.980553
100
AcDbArc
 50
345.226732
 51
0.312745
  0
ARC
  5
1F03
100
AcDbEntity
  8
V0-OBRYS
  6
CONTINUOUS
 62
    90
100
AcDbCircle
 10
43.491431
 20
-340.0
 30
0.0
 40
5.0
100
AcDbArc
 50
270.0
 51
345.226732
  0
CIRCLE
  5
1F04
100
AcDbEntity
  8
V0-OBRYS
  6
CONTINUOUS
 62
    90
100
AcDbCircle
 10
40.0
 20
-330.0
 30
0.0
 40
2.75
  0
LINE
  5
1F05
100
AcDbEntity
  8
V0-VYPLNE
  6
DASHDOT
 62
    63
 48
3.0
100
AcDbLine
 10
46.177507
 20
-330.0
 30
0.0
 11
34.161751
 21
-330.0
 31
0.0
  0
LINE
  5
1F06
100
AcDbEntity
  8
V0-OBRYS
  6
CONTINUOUS
 62
    90
100
AcDbLine
 10
43.491431
 20
-255.0
 30
0.0
 11
0.0
 21
-255.0
 31
0.0
  0
LINE
  5
1F07
100
AcDbEntity
  8
V0-OBRYS
  6
CONTINUOUS
 62
    90
100
AcDbLine
 10
40.0
 20
-230.0
 30
0.0
 11
0.0
 21
-230.0
 31
0.0
  0
LINE
  5
1F08
100
AcDbEntity
  8
V0-VYPLNE
  6
DASHDOT
 62
    63
 48
3.0
100
AcDbLine
 10
40.0
 20
-275.0
 30
0.0
 11
40.0
 21
-265.0
 31
0.0
  0
LINE
  5
1F09
100
AcDbEntity
  8
V0-VYPLNE
  6
DASHDOT
 62
    63
 48
3.0
100
AcDbLine
 10
46.177507
 20
-270.0
 30
0.0
 11
34.161751
 21
-270.0
 31
0.0
  0
CIRCLE
  5
1F0A
100
AcDbEntity
  8
V0-OBRYS
  6
CONTINUOUS
 62
    90
100
AcDbCircle
 10
40.0
 20
-270.0
 30
0.0
 40
2.75
  0
ARC
  5
1F0B
100
AcDbEntity
  8
V0-OBRYS
  6
CONTINUOUS
 62
    90
100
AcDbCircle
 10
43.491431
 20
-260.0
 30
0.0
 40
5.0
100
AcDbArc
 50
14.773268
 51
90.0
  0
LINE
  5
1F0C
100
AcDbEntity
  8
V0-OBRYS
  6
CONTINUOUS
 62
    90
100
AcDbLine
 10
40.0
 20
-185.0
 30
0.0
 11
0.0
 21
-185.0
 31
0.0
  0
LINE
  5
1F0D
100
AcDbEntity
  8
V0-OBRYS
  6
CONTINUOUS
 62
    90
100
AcDbLine
 10
40.0
 20
-195.0
 30
0.0
 11
0.0
 21
-195.0
 31
0.0
  0
LINE
  5
1F0E
100
AcDbEntity
  8
V0-OBRYS
  6
CONTINUOUS
 62
    90
100
AcDbLine
 10
50.0
 20
-212.0
 30
0.0
 11
60.0
 21
-212.0
 31
0.0
  0
LINE
  5
1F0F
100
AcDbEntity
  8
V0-OBRYS
  6
CONTINUOUS
 62
    90
100
AcDbLine
 10
40.0
 20
-212.0
 30
0.0
 11
45.0
 21
-212.0
 31
0.0
  0
LINE
  5
1F10
100
AcDbEntity
  8
V0-OBRYS
  6
CONTINUOUS
 62
    90
100
AcDbLine
 10
50.0
 20
-210.0
 30
0.0
 11
45.0
 21
-210.0
 31
0.0
  0
LINE
  5
1F11
100
AcDbEntity
  8
V0-VYPLNE
  6
DASHDOT
 62
    63
 48
3.0
100
AcDbLine
 10
350.0
 20
-176.201644
 30
0.0
 11
350.0
 21
-399.640624
 31
0.0
  0
CIRCLE
  5
1F14
100
AcDbEntity
  8
V0-OBRYS
  6
CONTINUOUS
 62
    90
100
AcDbCircle
 10
350.0
 20
-300.0
 30
0.0
 40
61.5
  0
ARC
  5
1F15
100
AcDbEntity
  8
V0-OBRYS
  6
CONTINUOUS
 62
    90
100
AcDbCircle
 10
350.0
 20
-300.0
 30
0.0
 40
88.0
100
AcDbArc
 50
30.754704
 51
329.245296
  0
LINE
  5
1F1C
100
AcDbEntity
  8
V0-VYPLNE
  6
DASHDOT
 62
    63
 48
3.0
100
AcDbLine
 10
270.1
 20
-300.0
 30
0.0
 11
429.9
 21
-300.0
 31
0.0
  0
LINE
  5
1F1D
100
AcDbEntity
  8
V0-VYPLNE
  6
DASHDOT
 62
    63
 48
3.0
100
AcDbLine
 10
350.0
 20
-214.885799
 30
0.0
 11
350.0
 21
-379.9
 31
0.0
  0
LINE
  5
1F1E
100
AcDbEntity
  8
V0-VYPLNE
  6
DASHED
 62
    56
 48
3.0
100
AcDbLine
 10
397.707746
 20
-260.469544
 30
0.0
 11
410.112083
 21
-251.305267
 31
0.0
  0
LINE
  5
1F1F
100
AcDbEntity
  8
V0-OBRYS
  6
CONTINUOUS
 62
    90
100
AcDbLine
 10
349.999539
 20
-247.371638
 30
0.0
 11
349.996202
 21
-285.809372
 31
0.0
  0
ARC
  5
1F20
100
AcDbEntity
  8
V0-OBRYS
  6
CONTINUOUS
 62
    90
100
AcDbCircle
 10
377.797586
 20
-316.947872
 30
0.0
 40
41.74354
100
AcDbArc
 50
94.288647
 51
131.759431
  0
ARC
  5
1F21
100
AcDbEntity
  8
V0-VYPLNE
  6
DASHED
 62
    56
 48
3.0
100
AcDbCircle
 10
377.241207
 20
-288.759753
 30
0.0
 40
54.827333
100
AcDbArc
 50
53.133515
 51
112.631049
  0
ARC
  5
1F22
100
AcDbEntity
  8
V0-OBRYS
  6
CONTINUOUS
 62
    90
100
AcDbCircle
 10
359.987039
 20
-247.372505
 30
0.0
 40
9.9875
100
AcDbArc
 50
112.631049
 51
179.995026
  0
ARC
  5
1F23
100
AcDbEntity
  8
V0-VYPLNE
  6
DASHED
 62
    56
 48
3.0
100
AcDbCircle
 10
407.738185
 20
-248.09207
 30
0.0
 40
3.995
100
AcDbArc
 50
306.456849
 51
53.133515
  0
ARC
  5
1F24
100
AcDbEntity
  8
V0-VYPLNE
  6
DASHED
 62
    56
 48
3.0
100
AcDbCircle
 10
354.122613
 20
-222.468489
 30
0.0
 40
3.995
100
AcDbArc
 50
351.456849
 51
98.133515
  0
ARC
  5
1F25
100
AcDbEntity
  8
V0-VYPLNE
  6
DASHED
 62
    56
 48
3.0
100
AcDbCircle
 10
361.314388
 20
-272.789503
 30
0.0
 40
54.827333
100
AcDbArc
 50
98.133515
 51
157.631049
  0
ARC
  5
1F26
100
AcDbEntity
  8
V0-OBRYS
  6
CONTINUOUS
 62
    90
100
AcDbCircle
 10
319.848644
 20
-255.724839
 30
0.0
 40
9.9875
100
AcDbArc
 50
157.631049
 51
224.995026
  0
LINE
  5
1F27
100
AcDbEntity
  8
V0-OBRYS
  6
CONTINUOUS
 62
    90
100
AcDbLine
 10
312.785802
 20
-262.786455
 30
0.0
 11
339.963025
 21
-289.968396
 31
0.0
  0
ARC
  5
1F28
100
AcDbEntity
  8
V0-OBRYS
  6
CONTINUOUS
 62
    90
100
AcDbCircle
 10
381.639817
 20
-292.328094
 30
0.0
 40
41.74354
100
AcDbArc
 50
139.288647
 51
176.759431
  0
LINE
  5
1F29
100
AcDbEntity
  8
V0-VYPLNE
  6
DASHED
 62
    56
 48
3.0
100
AcDbLine
 10
355.731867
 20
-238.648452
 30
0.0
 11
358.073286
 21
-223.061963
 31
0.0
  0
ARC
  5
1F2A
100
AcDbEntity
  8
V0-OBRYS
  6
CONTINUOUS
 62
    90
100
AcDbCircle
 10
342.328094
 20
-268.360183
 30
0.0
 40
41.74354
100
AcDbArc
 50
229.288647
 51
266.759431
  0
LINE
  5
1F2B
100
AcDbEntity
  8
V0-OBRYS
  6
CONTINUOUS
 62
    90
100
AcDbLine
 10
312.786455
 20
-337.214198
 30
0.0
 11
339.968396
 21
-310.036975
 31
0.0
  0
LINE
  5
1F2C
100
AcDbEntity
  8
V0-OBRYS
  6
CONTINUOUS
 62
    90
100
AcDbLine
 10
297.371638
 20
-300.000461
 30
0.0
 11
335.809372
 21
-300.003798
 31
0.0
  0
LINE
  5
1F2D
100
AcDbEntity
  8
V0-VYPLNE
  6
DASHED
 62
    56
 48
3.0
100
AcDbLine
 10
310.469544
 20
-252.292254
 30
0.0
 11
301.305267
 21
-239.887917
 31
0.0
  0
ARC
  5
1F2E
100
AcDbEntity
  8
V0-OBRYS
  6
CONTINUOUS
 62
    90
100
AcDbCircle
 10
366.947872
 20
-272.202414
 30
0.0
 40
41.74354
100
AcDbArc
 50
184.288647
 51
221.759431
  0
ARC
  5
1F2F
100
AcDbEntity
  8
V0-VYPLNE
  6
DASHED
 62
    56
 48
3.0
100
AcDbCircle
 10
338.759753
 20
-272.758793
 30
0.0
 40
54.827333
100
AcDbArc
 50
143.133515
 51
202.631049
  0
ARC
  5
1F30
100
AcDbEntity
  8
V0-VYPLNE
  6
DASHED
 62
    56
 48
3.0
100
AcDbCircle
 10
272.468489
 20
-295.877387
 30
0.0
 40
3.995
100
AcDbArc
 50
81.456849
 51
188.133515
  0
ARC
  5
1F31
100
AcDbEntity
  8
V0-VYPLNE
  6
DASHED
 62
    56
 48
3.0
100
AcDbCircle
 10
322.789503
 20
-288.685612
 30
0.0
 40
54.827333
100
AcDbArc
 50
188.133515
 51
247.631049
  0
ARC
  5
1F32
100
AcDbEntity
  8
V0-OBRYS
  6
CONTINUOUS
 62
    90
100
AcDbCircle
 10
305.724839
 20
-330.151356
 30
0.0
 40
9.9875
100
AcDbArc
 50
247.631049
 51
314.995026
  0
ARC
  5
1F33
100
AcDbEntity
  8
V0-OBRYS
  6
CONTINUOUS
 62
    90
100
AcDbCircle
 10
297.372505
 20
-290.012961
 30
0.0
 40
9.9875
100
AcDbArc
 50
202.631049
 51
269.995026
  0
LINE
  5
1F34
100
AcDbEntity
  8
V0-VYPLNE
  6
DASHED
 62
    56
 48
3.0
100
AcDbLine
 10
288.648452
 20
-294.268133
 30
0.0
 11
273.061963
 21
-291.926714
 31
0.0
  0
ARC
  5
1F35
100
AcDbEntity
  8
V0-VYPLNE
  6
DASHED
 62
    56
 48
3.0
100
AcDbCircle
 10
298.09207
 20
-242.261815
 30
0.0
 40
3.995
100
AcDbArc
 50
36.456849
 51
143.133515
  0
ARC
  5
1F36
100
AcDbEntity
  8
V0-OBRYS
  6
CONTINUOUS
 62
    90
100
AcDbCircle
 10
318.360183
 20
-307.671906
 30
0.0
 40
41.74354
100
AcDbArc
 50
319.288647
 51
356.759431
  0
LINE
  5
1F37
100
AcDbEntity
  8
V0-OBRYS
  6
CONTINUOUS
 62
    90
100
AcDbLine
 10
387.214198
 20
-337.213545
 30
0.0
 11
360.036975
 21
-310.031604
 31
0.0
  0
LINE
  5
1F38
100
AcDbEntity
  8
V0-OBRYS
  6
CONTINUOUS
 62
    90
100
AcDbLine
 10
350.000461
 20
-352.628362
 30
0.0
 11
350.003798
 21
-314.190628
 31
0.0
  0
LINE
  5
1F39
100
AcDbEntity
  8
V0-VYPLNE
  6
DASHED
 62
    56
 48
3.0
100
AcDbLine
 10
302.292254
 20
-339.530456
 30
0.0
 11
289.887917
 21
-348.694733
 31
0.0
  0
ARC
  5
1F3A
100
AcDbEntity
  8
V0-OBRYS
  6
CONTINUOUS
 62
    90
100
AcDbCircle
 10
322.202414
 20
-283.052128
 30
0.0
 40
41.74354
100
AcDbArc
 50
274.288647
 51
311.759431
  0
ARC
  5
1F3B
100
AcDbEntity
  8
V0-VYPLNE
  6
DASHED
 62
    56
 48
3.0
100
AcDbCircle
 10
322.758793
 20
-311.240247
 30
0.0
 40
54.827333
100
AcDbArc
 50
233.133515
 51
292.631049
  0
ARC
  5
1F3C
100
AcDbEntity
  8
V0-VYPLNE
  6
DASHED
 62
    56
 48
3.0
100
AcDbCircle
 10
345.877387
 20
-377.531511
 30
0.0
 40
3.995
100
AcDbArc
 50
171.456849
 51
278.133515
  0
ARC
  5
1F3D
100
AcDbEntity
  8
V0-VYPLNE
  6
DASHED
 62
    56
 48
3.0
100
AcDbCircle
 10
338.685612
 20
-327.210497
 30
0.0
 40
54.827333
100
AcDbArc
 50
278.133515
 51
337.631049
  0
ARC
  5
1F3E
100
AcDbEntity
  8
V0-OBRYS
  6
CONTINUOUS
 62
    90
100
AcDbCircle
 10
380.151356
 20
-344.275161
 30
0.0
 40
9.9875
100
AcDbArc
 50
337.631049
 51
44.995026
  0
ARC
  5
1F3F
100
AcDbEntity
  8
V0-OBRYS
  6
CONTINUOUS
 62
    90
100
AcDbCircle
 10
340.012961
 20
-352.627495
 30
0.0
 40
9.9875
100
AcDbArc
 50
292.631049
 51
359.995026
  0
LINE
  5
1F40
100
AcDbEntity
  8
V0-VYPLNE
  6
DASHED
 62
    56
 48
3.0
100
AcDbLine
 10
344.268133
 20
-361.351548
 30
0.0
 11
341.926714
 21
-376.938037
 31
0.0
  0
ARC
  5
1F41
100
AcDbEntity
  8
V0-VYPLNE
  6
DASHED
 62
    56
 48
3.0
100
AcDbCircle
 10
292.261815
 20
-351.90793
 30
0.0
 40
3.995
100
AcDbArc
 50
126.456849
 51
233.133515
  0
ARC
  5
1F42
100
AcDbEntity
  8
V0-OBRYS
  6
CONTINUOUS
 62
    90
100
AcDbCircle
 10
357.671906
 20
-331.639817
 30
0.0
 40
41.74354
100
AcDbArc
 50
49.288647
 51
86.759431
  0
LINE
  5
1F43
100
AcDbEntity
  8
V0-OBRYS
  6
CONTINUOUS
 62
    90
100
AcDbLine
 10
387.213545
 20
-262.785802
 30
0.0
 11
360.031604
 21
-289.963025
 31
0.0
  0
LINE
  5
1F44
100
AcDbEntity
  8
V0-OBRYS
  6
CONTINUOUS
 62
    90
100
AcDbLine
 10
402.628362
 20
-299.999539
 30
0.0
 11
364.190628
 21
-299.996202
 31
0.0
  0
LINE
  5
1F45
100
AcDbEntity
  8
V0-VYPLNE
  6
DASHED
 62
    56
 48
3.0
100
AcDbLine
 10
389.530456
 20
-347.707746
 30
0.0
 11
398.694733
 21
-360.112083
 31
0.0
  0
ARC
  5
1F46
100
AcDbEntity
  8
V0-OBRYS
  6
CONTINUOUS
 62
    90
100
AcDbCircle
 10
333.052128
 20
-327.797586
 30
0.0
 40
41.74354
100
AcDbArc
 50
4.288647
 51
41.759431
  0
ARC
  5
1F47
100
AcDbEntity
  8
V0-VYPLNE
  6
DASHED
 62
    56
 48
3.0
100
AcDbCircle
 10
361.240247
 20
-327.241207
 30
0.0
 40
54.827333
100
AcDbArc
 50
323.133515
 51
22.631049
  0
ARC
  5
1F48
100
AcDbEntity
  8
V0-VYPLNE
  6
DASHED
 62
    56
 48
3.0
100
AcDbCircle
 10
427.531511
 20
-304.122613
 30
0.0
 40
3.995
100
AcDbArc
 50
261.456849
 51
8.133515
  0
ARC
  5
1F49
100
AcDbEntity
  8
V0-VYPLNE
  6
DASHED
 62
    56
 48
3.0
100
AcDbCircle
 10
377.210497
 20
-311.314388
 30
0.0
 40
54.827333
100
AcDbArc
 50
8.133515
 51
67.631049
  0
ARC
  5
1F4A
100
AcDbEntity
  8
V0-OBRYS
  6
CONTINUOUS
 62
    90
100
AcDbCircle
 10
394.275161
 20
-269.848644
 30
0.0
 40
9.9875
100
AcDbArc
 50
67.631049
 51
134.995026
  0
ARC
  5
1F4B
100
AcDbEntity
  8
V0-OBRYS
  6
CONTINUOUS
 62
    90
100
AcDbCircle
 10
402.627495
 20
-309.987039
 30
0.0
 40
9.9875
100
AcDbArc
 50
22.631049
 51
89.995026
  0
LINE
  5
1F4C
100
AcDbEntity
  8
V0-VYPLNE
  6
DASHED
 62
    56
 48
3.0
100
AcDbLine
 10
411.351548
 20
-305.731867
 30
0.0
 11
426.938037
 21
-308.073286
 31
0.0
  0
ARC
  5
1F4D
100
AcDbEntity
  8
V0-VYPLNE
  6
DASHED
 62
    56
 48
3.0
100
AcDbCircle
 10
401.90793
 20
-357.738185
 30
0.0
 40
3.995
100
AcDbArc
 50
216.456849
 51
323.133515
  0
CIRCLE
  5
1F4E
100
AcDbEntity
  8
V0-OBRYS
  6
CONTINUOUS
 62
    90
100
AcDbCircle
 10
350.0
 20
-300.0
 30
0.0
 40
11.135836
  0
LINE
  5
1F5E
100
AcDbEntity
  8
V0-OBRYS
  6
CONTINUOUS
 62
    90
100
AcDbLine
 10
-129.0
 20
-600.0
 30
0.0
 11
-129.0
 21
-661.5
 31
0.0
  0
LINE
  5
1F5F
100
AcDbEntity
  8
V0-OBRYS
  6
CONTINUOUS
 62
    90
100
AcDbLine
 10
-104.0
 20
-661.5
 30
0.0
 11
-104.0
 21
-600.0
 31
0.0
  0
LINE
  5
1F60
100
AcDbEntity
  8
V0-OBRYS
  6
CONTINUOUS
 62
    90
100
AcDbLine
 10
-60.0
 20
-688.0
 30
0.0
 11
-60.0
 21
-600.0
 31
0.0
  0
LINE
  5
1F61
100
AcDbEntity
  8
V0-OBRYS
  6
CONTINUOUS
 62
    90
100
AcDbLine
 10
-60.0
 20
-688.0
 30
0.0
 11
-104.0
 21
-661.5
 31
0.0
  0
LINE
  5
1F62
100
AcDbEntity
  8
V0-OBRYS
  6
CONTINUOUS
 62
    90
100
AcDbLine
 10
-129.0
 20
-661.5
 30
0.0
 11
-104.0
 21
-661.5
 31
0.0
  0
LINE
  5
1F63
100
AcDbEntity
  8
V0-OBRYS
  6
CONTINUOUS
 62
    90
100
AcDbLine
 10
-50.0
 20
-688.0
 30
0.0
 11
-60.0
 21
-688.0
 31
0.0
  0
LINE
  5
1F64
100
AcDbEntity
  8
V0-OBRYS
  6
CONTINUOUS
 62
    90
100
AcDbLine
 10
-60.0
 20
-512.0
 30
0.0
 11
-104.0
 21
-538.5
 31
0.0
  0
LINE
  5
1F65
100
AcDbEntity
  8
V0-VYPLNE
  6
DASHDOT
 62
    63
 48
3.0
100
AcDbLine
 10
-129.0
 20
-600.0
 30
0.0
 11
129.0
 21
-600.0
 31
0.0
  0
LINE
  5
1F66
100
AcDbEntity
  8
V0-OBRYS
  6
CONTINUOUS
 62
    90
100
AcDbLine
 10
-104.0
 20
-538.5
 30
0.0
 11
-104.0
 21
-600.0
 31
0.0
  0
LINE
  5
1F67
100
AcDbEntity
  8
V0-OBRYS
  6
CONTINUOUS
 62
    90
100
AcDbLine
 10
-129.0
 20
-600.0
 30
0.0
 11
-129.0
 21
-538.5
 31
0.0
  0
LINE
  5
1F68
100
AcDbEntity
  8
V0-OBRYS
  6
CONTINUOUS
 62
    90
100
AcDbLine
 10
-129.0
 20
-538.5
 30
0.0
 11
-104.0
 21
-538.5
 31
0.0
  0
LINE
  5
1F69
100
AcDbEntity
  8
V0-OBRYS
  6
CONTINUOUS
 62
    90
100
AcDbLine
 10
-60.0
 20
-512.0
 30
0.0
 11
-60.0
 21
-600.0
 31
0.0
  0
LINE
  5
1F6A
100
AcDbEntity
  8
V0-OBRYS
  6
CONTINUOUS
 62
    90
100
AcDbLine
 10
-50.0
 20
-512.0
 30
0.0
 11
-60.0
 21
-512.0
 31
0.0
  0
LINE
  5
1F6B
100
AcDbEntity
  8
V0-OBRYS
  6
CONTINUOUS
 62
    90
100
AcDbLine
 10
60.0
 20
-688.0
 30
0.0
 11
60.0
 21
-600.0
 31
0.0
  0
LINE
  5
1F6C
100
AcDbEntity
  8
V0-OBRYS
  6
CONTINUOUS
 62
    90
100
AcDbLine
 10
104.0
 20
-661.5
 30
0.0
 11
104.0
 21
-600.0
 31
0.0
  0
LINE
  5
1F6D
100
AcDbEntity
  8
V0-OBRYS
  6
CONTINUOUS
 62
    90
100
AcDbLine
 10
129.0
 20
-600.0
 30
0.0
 11
129.0
 21
-661.5
 31
0.0
  0
LINE
  5
1F6F
100
AcDbEntity
  8
V0-OBRYS
  6
CONTINUOUS
 62
    90
100
AcDbLine
 10
60.0
 20
-688.0
 30
0.0
 11
104.0
 21
-661.5
 31
0.0
  0
LINE
  5
1F70
100
AcDbEntity
  8
V0-OBRYS
  6
CONTINUOUS
 62
    90
100
AcDbLine
 10
0.0
 20
-688.0
 30
0.0
 11
-45.0
 21
-688.0
 31
0.0
  0
LINE
  5
1F71
100
AcDbEntity
  8
V0-OBRYS
  6
CONTINUOUS
 62
    90
100
AcDbLine
 10
-50.0
 20
-690.0
 30
0.0
 11
-50.0
 21
-510.0
 31
0.0
  0
LINE
  5
1F72
100
AcDbEntity
  8
V0-OBRYS
  6
CONTINUOUS
 62
    90
100
AcDbLine
 10
-45.0
 20
-690.0
 30
0.0
 11
-45.0
 21
-510.0
 31
0.0
  0
LINE
  5
1F73
100
AcDbEntity
  8
V0-OBRYS
  6
CONTINUOUS
 62
    90
100
AcDbLine
 10
-50.0
 20
-690.0
 30
0.0
 11
-45.0
 21
-690.0
 31
0.0
  0
LINE
  5
1F74
100
AcDbEntity
  8
V0-OBRYS
  6
CONTINUOUS
 62
    90
100
AcDbLine
 10
45.0
 20
-690.0
 30
0.0
 11
45.0
 21
-510.0
 31
0.0
  0
LINE
  5
1F75
100
AcDbEntity
  8
V0-OBRYS
  6
CONTINUOUS
 62
    90
100
AcDbLine
 10
50.0
 20
-690.0
 30
0.0
 11
50.0
 21
-510.0
 31
0.0
  0
LINE
  5
1F76
100
AcDbEntity
  8
V0-OBRYS
  6
CONTINUOUS
 62
    90
100
AcDbLine
 10
0.0
 20
-688.0
 30
0.0
 11
45.0
 21
-688.0
 31
0.0
  0
LINE
  5
1F77
100
AcDbEntity
  8
V0-OBRYS
  6
CONTINUOUS
 62
    90
100
AcDbLine
 10
50.0
 20
-690.0
 30
0.0
 11
45.0
 21
-690.0
 31
0.0
  0
LINE
  5
1F78
100
AcDbEntity
  8
V0-OBRYS
  6
CONTINUOUS
 62
    90
100
AcDbLine
 10
50.0
 20
-688.0
 30
0.0
 11
60.0
 21
-688.0
 31
0.0
  0
LINE
  5
1F79
100
AcDbEntity
  8
V0-OBRYS
  6
CONTINUOUS
 62
    90
100
AcDbLine
 10
129.0
 20
-661.5
 30
0.0
 11
104.0
 21
-661.5
 31
0.0
  0
LINE
  5
1F7C
100
AcDbEntity
  8
V0-OBRYS
  6
CONTINUOUS
 62
    90
100
AcDbLine
 10
60.0
 20
-512.0
 30
0.0
 11
104.0
 21
-538.5
 31
0.0
  0
LINE
  5
1F7E
100
AcDbEntity
  8
V0-OBRYS
  6
CONTINUOUS
 62
    90
100
AcDbLine
 10
60.0
 20
-512.0
 30
0.0
 11
60.0
 21
-600.0
 31
0.0
  0
LINE
  5
1F7F
100
AcDbEntity
  8
V0-OBRYS
  6
CONTINUOUS
 62
    90
100
AcDbLine
 10
50.0
 20
-512.0
 30
0.0
 11
60.0
 21
-512.0
 31
0.0
  0
LINE
  5
1F80
100
AcDbEntity
  8
V0-OBRYS
  6
CONTINUOUS
 62
    90
100
AcDbLine
 10
129.0
 20
-600.0
 30
0.0
 11
129.0
 21
-538.5
 31
0.0
  0
LINE
  5
1F81
100
AcDbEntity
  8
V0-OBRYS
  6
CONTINUOUS
 62
    90
100
AcDbLine
 10
104.0
 20
-538.5
 30
0.0
 11
104.0
 21
-600.0
 31
0.0
  0
LINE
  5
1F82
100
AcDbEntity
  8
V0-OBRYS
  6
CONTINUOUS
 62
    90
100
AcDbLine
 10
129.0
 20
-538.5
 30
0.0
 11
104.0
 21
-538.5
 31
0.0
  0
LINE
  5
1F85
100
AcDbEntity
  8
V0-OBRYS
  6
CONTINUOUS
 62
    90
100
AcDbLine
 10
50.0
 20
-510.0
 30
0.0
 11
45.0
 21
-510.0
 31
0.0
  0
LINE
  5
1F89
100
AcDbEntity
  8
V0-OBRYS
  6
CONTINUOUS
 62
    90
100
AcDbLine
 10
-50.0
 20
-510.0
 30
0.0
 11
-45.0
 21
-510.0
 31
0.0
  0
LINE
  5
1F8A
100
AcDbEntity
  8
V0-OBRYS
  6
CONTINUOUS
 62
    90
100
AcDbLine
 10
45.0
 20
-512.0
 30
0.0
 11
-45.0
 21
-512.0
 31
0.0
  0
LINE
  5
1F8D
100
AcDbEntity
  8
V0-OBRYS
  6
CONTINUOUS
 62
    90
100
AcDbLine
 10
-54.524244
 20
-668.168034
 30
0.0
 11
-54.524244
 21
-697.0
 31
0.0
  0
LINE
  5
1F8E
100
AcDbEntity
  8
V0-OBRYS
  6
CONTINUOUS
 62
    90
100
AcDbLine
 10
-51.524244
 20
-700.0
 30
0.0
 11
-0.283604
 21
-700.0
 31
0.0
  0
ARC
  5
1F8F
100
AcDbEntity
  8
V0-OBRYS
  6
CONTINUOUS
 62
    90
100
AcDbCircle
 10
-51.524244
 20
-697.0
 30
0.0
 40
3.0
100
AcDbArc
 50
180.0
 51
270.0
  0
LINE
  5
1F90
100
AcDbEntity
  8
V0-OBRYS
  6
CONTINUOUS
 62
    90
100
AcDbLine
 10
54.524244
 20
-668.168034
 30
0.0
 11
54.524244
 21
-697.0
 31
0.0
  0
LINE
  5
1F91
100
AcDbEntity
  8
V0-OBRYS
  6
CONTINUOUS
 62
    90
100
AcDbLine
 10
51.524244
 20
-700.0
 30
0.0
 11
0.283604
 21
-700.0
 31
0.0
  0
ARC
  5
1F92
100
AcDbEntity
  8
V0-OBRYS
  6
CONTINUOUS
 62
    90
100
AcDbCircle
 10
51.524244
 20
-697.0
 30
0.0
 40
3.0
100
AcDbArc
 50
270.0
 51
360.0
  0
LINE
  5
1F93
100
AcDbEntity
  8
V0-VYPLNE
  6
DASHDOT
 62
    63
 48
3.0
100
AcDbLine
 10
-40.0
 20
-695.0
 30
0.0
 11
-40.0
 21
-706.095198
 31
0.0
  0
LINE
  5
1F94
100
AcDbEntity
  8
V0-VYPLNE
  6
DASHDOT
 62
    63
 48
3.0
100
AcDbLine
 10
40.0
 20
-695.0
 30
0.0
 11
40.0
 21
-706.095198
 31
0.0
  0
LINE
  5
1F95
100
AcDbEntity
  8
V0-OBRYS
  6
CONTINUOUS
 62
    90
100
AcDbLine
 10
-38.252051
 20
-600.053944
 30
0.0
 11
-38.252051
 21
-582.4969
 31
0.0
  0
LINE
  5
1F96
100
AcDbEntity
  8
V0-OBRYS
  6
CONTINUOUS
 62
    90
100
AcDbLine
 10
-33.252051
 20
-577.4969
 30
0.0
 11
-0.283604
 21
-577.4969
 31
0.0
  0
ARC
  5
1F98
100
AcDbEntity
  8
V0-OBRYS
  6
CONTINUOUS
 62
    90
100
AcDbCircle
 10
-33.252051
 20
-582.4969
 30
0.0
 40
5.0
100
AcDbArc
 50
90.0
 51
180.0
  0
LINE
  5
1F99
100
AcDbEntity
  8
V0-OBRYS
  6
CONTINUOUS
 62
    90
100
AcDbLine
 10
33.252051
 20
-577.4969
 30
0.0
 11
0.283604
 21
-577.4969
 31
0.0
  0
LINE
  5
1F9A
100
AcDbEntity
  8
V0-OBRYS
  6
CONTINUOUS
 62
    90
100
AcDbLine
 10
38.252051
 20
-600.053944
 30
0.0
 11
38.252051
 21
-582.4969
 31
0.0
  0
ARC
  5
1F9B
100
AcDbEntity
  8
V0-OBRYS
  6
CONTINUOUS
 62
    90
100
AcDbCircle
 10
33.252051
 20
-582.4969
 30
0.0
 40
5.0
100
AcDbArc
 50
0.0
 51
90.0
  0
LINE
  5
1F9C
100
AcDbEntity
  8
V0-OBRYS
  6
CONTINUOUS
 62
    90
100
AcDbLine
 10
-33.252051
 20
-622.5031
 30
0.0
 11
-0.283604
 21
-622.5031
 31
0.0
  0
LINE
  5
1F9D
100
AcDbEntity
  8
V0-OBRYS
  6
CONTINUOUS
 62
    90
100
AcDbLine
 10
-38.252051
 20
-599.946056
 30
0.0
 11
-38.252051
 21
-617.5031
 31
0.0
  0
ARC
  5
1F9E
100
AcDbEntity
  8
V0-OBRYS
  6
CONTINUOUS
 62
    90
100
AcDbCircle
 10
-33.252051
 20
-617.5031
 30
0.0
 40
5.0
100
AcDbArc
 50
180.0
 51
270.0
  0
LINE
  5
1F9F
100
AcDbEntity
  8
V0-OBRYS
  6
CONTINUOUS
 62
    90
100
AcDbLine
 10
38.252051
 20
-599.946056
 30
0.0
 11
38.252051
 21
-617.5031
 31
0.0
  0
LINE
  5
1FA0
100
AcDbEntity
  8
V0-OBRYS
  6
CONTINUOUS
 62
    90
100
AcDbLine
 10
33.252051
 20
-622.5031
 30
0.0
 11
0.283604
 21
-622.5031
 31
0.0
  0
ARC
  5
1FA1
100
AcDbEntity
  8
V0-OBRYS
  6
CONTINUOUS
 62
    90
100
AcDbCircle
 10
33.252051
 20
-617.5031
 30
0.0
 40
5.0
100
AcDbArc
 50
270.0
 51
0.0
  0
LINE
  5
1FB1
100
AcDbEntity
  8
V0-OBRYS
  6
CONTINUOUS
 62
    90
100
AcDbLine
 10
327.5
 20
-185.0
 30
0.0
 11
372.5
 21
-185.0
 31
0.0
  0
LINE
  5
1FB2
100
AcDbEntity
  8
V0-OBRYS
  6
CONTINUOUS
 62
    90
100
AcDbLine
 10
372.5
 20
-185.0
 30
0.0
 11
372.5
 21
-215.941897
 31
0.0
  0
LINE
  5
1FB3
100
AcDbEntity
  8
V0-OBRYS
  6
CONTINUOUS
 62
    90
100
AcDbLine
 10
327.5
 20
-185.0
 30
0.0
 11
327.5
 21
-215.941897
 31
0.0
  0
LINE
  5
1FB4
100
AcDbEntity
  8
V0-OBRYS
  6
CONTINUOUS
 62
    90
100
AcDbLine
 10
327.5
 20
-195.0
 30
0.0
 11
372.5
 21
-195.0
 31
0.0
  0
LINE
  5
1FB5
100
AcDbEntity
  8
V0-OBRYS
  6
CONTINUOUS
 62
    90
100
AcDbLine
 10
450.0
 20
-260.0
 30
0.0
 11
450.0
 21
-283.873883
 31
0.0
  0
LINE
  5
1FB6
100
AcDbEntity
  8
V0-OBRYS
  6
CONTINUOUS
 62
    90
100
AcDbLine
 10
445.0
 20
-255.0
 30
0.0
 11
425.300859
 21
-255.0
 31
0.0
  0
LINE
  5
1FB7
100
AcDbEntity
  8
V0-OBRYS
  6
CONTINUOUS
 62
    90
100
AcDbLine
 10
445.0
 20
-345.0
 30
0.0
 11
425.62407
 21
-345.0
 31
0.0
  0
ARC
  5
1FB8
100
AcDbEntity
  8
V0-OBRYS
  6
CONTINUOUS
 62
    90
100
AcDbCircle
 10
445.0
 20
-260.0
 30
0.0
 40
5.0
100
AcDbArc
 50
0.0
 51
90.0
  0
ARC
  5
1FB9
100
AcDbEntity
  8
V0-OBRYS
  6
CONTINUOUS
 62
    90
100
AcDbCircle
 10
445.0
 20
-340.0
 30
0.0
 40
5.0
100
AcDbArc
 50
270.0
 51
0.0
  0
LINE
  5
1FBA
100
AcDbEntity
  8
V0-VYPLNE
  6
DASHDOT
 62
    63
 48
3.0
100
AcDbLine
 10
445.0
 20
-270.0
 30
0.0
 11
457.287338
 21
-270.0
 31
0.0
  0
LINE
  5
1FBB
100
AcDbEntity
  8
V0-VYPLNE
  6
DASHDOT
 62
    63
 48
3.0
100
AcDbLine
 10
445.0
 20
-330.0
 30
0.0
 11
457.287338
 21
-330.0
 31
0.0
  0
ARC
  5
1FBE
100
AcDbEntity
  8
V0-OBRYS
  6
CONTINUOUS
 62
    90
100
AcDbCircle
 10
350.0
 20
-300.0
 30
0.0
 40
91.053636
100
AcDbArc
 50
29.617947
 51
330.382053
  0
ARC
  5
1FC0
100
AcDbEntity
  8
V0-OBRYS
  6
CONTINUOUS
 62
    90
100
AcDbCircle
 10
350.0
 20
-300.0
 30
0.0
 40
84.203065
100
AcDbArc
 50
328.877361
 51
30.59936
  0
LINE
  5
1FC1
100
AcDbEntity
  8
V0-OBRYS
  6
CONTINUOUS
 62
    90
100
AcDbLine
 10
425.300859
 20
-255.0
 30
0.0
 11
422.583493
 21
-257.127075
 31
0.0
  0
LINE
  5
1FC2
100
AcDbEntity
  8
V0-OBRYS
  6
CONTINUOUS
 62
    90
100
AcDbLine
 10
425.654331
 20
-344.949107
 30
0.0
 11
422.083122
 21
-343.522175
 31
0.0
  0
DIMENSION
  5
1FD6
100
AcDbEntity
  8
V0-VYPLNE
  6
CONTINUOUS
 62
    41
100
AcDbDimension
  2
*D17
 10
157.68028
 20
-361.5
 30
0.0
 11
145.803557
 21
-300.0
 31
0.0
 70
    32
  1
%%C123
  3
STANDARD
100
AcDbAlignedDimension
 13
129.0
 23
-238.5
 33
0.0
 14
129.0
 24
-361.5
 34
0.0
 50
90.0
100
AcDbRotatedDimension
  0
DIMENSION
  5
1FE3
100
AcDbEntity
  8
V0-VYPLNE
  6
CONTINUOUS
 62
    41
100
AcDbDimension
  2
*D12
 10
184.316513
 20
-388.0
 30
0.0
 11
172.441513
 21
-300.0
 31
0.0
 70
    32
  1
%%c176
  3
STANDARD
100
AcDbAlignedDimension
 13
60.0
 23
-212.0
 33
0.0
 14
60.0
 24
-388.0
 34
0.0
 50
90.0
100
AcDbRotatedDimension
  0
DIMENSION
  5
1FF0
100
AcDbEntity
  8
V0-VYPLNE
  6
CONTINUOUS
 62
    41
100
AcDbDimension
  2
*D11
 10
129.0
 20
-453.06747
 30
0.0
 11
0.0
 21
-441.190747
 31
0.0
 70
    32
  3
STANDARD
100
AcDbAlignedDimension
 13
-129.0
 23
-361.5
 33
0.0
 14
129.0
 24
-361.5
 34
0.0
100
AcDbRotatedDimension
  0
DIMENSION
  5
1FFE
100
AcDbEntity
  8
V0-VYPLNE
  6
CONTINUOUS
 62
    41
100
AcDbDimension
  2
*D15
 10
-104.0
 20
-416.226634
 30
0.0
 11
-116.5
 21
-416.226634
 31
0.0
 70
   160
  3
STANDARD
100
AcDbAlignedDimension
 13
-129.0
 23
-361.8125
 33
0.0
 14
-104.0
 24
-361.8125
 34
0.0
100
AcDbRotatedDimension
  0
LINE
  5
200B
100
AcDbEntity
  8
V0-VYPLNE
  6
CONTINUOUS
 62
    41
100
AcDbLine
 10
-129.0
 20
-416.226634
 30
0.0
 11
-104.0
 21
-416.226634
 31
0.0
  0
LINE
  5
200E
100
AcDbEntity
  8
V0-VYPLNE
  6
DASHDOT
 62
    63
 48
3.0
100
AcDbLine
 10
-40.0
 20
-325.0
 30
0.0
 11
-40.0
 21
-335.0
 31
0.0
  0
LINE
  5
200F
100
AcDbEntity
  8
V0-VYPLNE
  6
DASHDOT
 62
    63
 48
3.0
100
AcDbLine
 10
40.0
 20
-325.0
 30
0.0
 11
40.0
 21
-335.0
 31
0.0
  0
DIMENSION
  5
201C
100
AcDbEntity
  8
V0-VYPLNE
  6
CONTINUOUS
 62
    41
 48
5.0
100
AcDbDimension
  2
*D16
 10
40.0
 20
-415.203277
 30
0.0
 11
0.0
 21
-403.328277
 31
0.0
 70
    32
  3
STANDARD
100
AcDbAlignedDimension
 13
-40.0
 23
-335.0
 33
0.0
 14
40.0
 24
-335.0
 34
0.0
100
AcDbRotatedDimension
  0
DIMENSION
  5
2029
100
AcDbEntity
  8
V0-VYPLNE
  6
CONTINUOUS
 62
    41
 48
5.0
100
AcDbDimension
  2
*D13
 10
93.761269
 20
-330.0
 30
0.0
 11
93.761269
 21
-300.0
 31
0.0
 70
   160
  3
STANDARD
100
AcDbAlignedDimension
 13
34.161751
 23
-270.0
 33
0.0
 14
34.161751
 24
-330.0
 34
0.0
 50
90.0
100
AcDbRotatedDimension
  0
LINE
  5
202A
100
AcDbEntity
  8
V0-VYPLNE
  6
CONTINUOUS
 62
    52
100
AcDbLine
 10
1.120716
 20
-300.0
 30
0.0
 11
0.0
 21
-300.0
 31
0.0
  0
DIMENSION
  5
2037
100
AcDbEntity
  8
V0-VYPLNE
  6
CONTINUOUS
 62
    41
100
AcDbDimension
  2
*D14
 10
-159.905578
 20
-185.0
 30
0.0
 11
-171.780578
 21
-242.281993
 31
0.0
 70
    32
  3
STANDARD
100
AcDbAlignedDimension
 13
-129.0
 23
-299.563987
 33
0.0
 14
-40.0
 24
-185.0
 34
0.0
 50
90.0
100
AcDbRotatedDimension
  0
LEADER
  5
203A
100
AcDbEntity
  8
V0-VYPLNE
  6
CONTINUOUS
 62
    41
 48
5.0
100
AcDbLeader
  3
STANDARD
 73
     0
 75
     1
 40
20.125
 41
41.849874
 76
     3
 10
-42.091469
 20
-267.839933
 30
0.0
 10
-79.912878
 20
-212.407613
 30
0.0
 10
-97.412878
 20
-212.407613
 30
0.0
 77
    41
340
203B
  0
MTEXT
  5
203B
102
{ACAD_REACTORS
330
203A
102
}
100
AcDbEntity
  8
V0-VYPLNE
  6
CONTINUOUS
 62
    41
 48
5.0
100
AcDbMText
 10
-100.537878
 20
-199.220113
 30
0.0
 40
17.5
 41
0.0
 71
     6
 72
     1
  1
\A1;%%c5,5
  0
DIMENSION
  5
2079
100
AcDbEntity
  8
V0-VYPLNE
  6
CONTINUOUS
 62
    41
100
AcDbDimension
  2
*D19
 10
476.739534
 20
-345.0
 30
0.0
 11
464.864534
 21
-300.0
 31
0.0
 70
    32
  3
STANDARD
100
AcDbAlignedDimension
 13
435.150429
 23
-255.0
 33
0.0
 14
435.312035
 24
-345.0
 34
0.0
 50
90.0
100
AcDbRotatedDimension
  0
DIMENSION
  5
2094
100
AcDbEntity
  8
V0-VYPLNE
  6
CONTINUOUS
 62
    41
100
AcDbDimension
  2
*D20
 10
350.0
 20
-164.005833
 30
0.0
 11
400.0
 21
-152.130833
 31
0.0
 70
    32
  3
STANDARD
100
AcDbAlignedDimension
 13
450.0
 23
-260.0
 33
0.0
 14
350.0
 24
-185.0
 34
0.0
100
AcDbRotatedDimension
  0
DIMENSION
  5
20A1
100
AcDbEntity
  8
V0-VYPLNE
  6
CONTINUOUS
 62
    41
100
AcDbDimension
  2
*D18
 10
262.0
 20
-138.885974
 30
0.0
 11
356.0
 21
-127.010974
 31
0.0
 70
    32
  3
STANDARD
100
AcDbAlignedDimension
 13
450.0
 23
-260.0
 33
0.0
 14
262.0
 24
-300.0
 34
0.0
100
AcDbRotatedDimension
  0
TEXT
  5
218F
100
AcDbEntity
  8
V0-NAZVY
  6
CONTINUOUS
 62
   210
100
AcDbText
 10
199.595924
 20
-495.862348
 30
0.0
 40
30.0
  1
MIXVENT-TD-350/125
100
AcDbText
  0
LINE
  5
2190
100
AcDbEntity
  8
V0-ZBYTEK
  6
CONTINUOUS
 62
    51
100
AcDbLine
 10
198.1261
 20
-601.227472
 30
0.0
 11
550.424563
 21
-601.227472
 31
0.0
  0
MTEXT
  5
2191
100
AcDbEntity
  8
V0-ZBYTEK
  6
CONTINUOUS
 62
    51
100
AcDbMText
 10
198.742578
 20
-556.144188
 30
0.0
 40
15.0
 41
456.2164
 71
     1
 72
     5
  1
otacky      prikon      prutok    hmotnost
  0
TEXT
  5
2192
100
AcDbEntity
  8
V0-ZBYTEK
  6
CONTINUOUS
 62
   130
100
AcDbText
 10
200.311974
 20
-532.305318
 30
0.0
 40
15.0
  1
DIAGONALNI VENTILATOR DO KRUHOVEHO 
100
AcDbText
  0
TEXT
  5
2193
100
AcDbEntity
  8
V0-ZBYTEK
  6
CONTINUOUS
 62
    51
100
AcDbText
 10
191.474468
 20
-651.909463
 30
0.0
 40
15.0
  1
  1900           40            300         2,0
100
AcDbText
  0
TEXT
  5
2194
100
AcDbEntity
  8
V0-ZBYTEK
  6
CONTINUOUS
 62
    51
100
AcDbText
 10
205.724744
 20
-626.90651
 30
0.0
 40
15.0
  1
2210           56            360         2,0
100
AcDbText
  0
MTEXT
  5
2195
100
AcDbEntity
  8
V0-ZBYTEK
  6
CONTINUOUS
 62
    51
100
AcDbMText
 10
191.792642
 20
-577.50284
 30
0.0
 40
15.0
 41
363.382
 71
     1
 72
     5
  1
   min             W          m /h          kg\P  
  0
TEXT
  5
2196
100
AcDbEntity
  8
V0-ZBYTEK
  6
CONTINUOUS
 62
   130
100
AcDbText
 10
577.384815
 20
-532.456033
 30
0.0
 40
15.0
  1
POTRUBI
100
AcDbText
  0
LINE
  5
219C
100
AcDbEntity
  8
V0-OBRYS
  6
CONTINUOUS
 62
    90
100
AcDbLine
 10
450.030492
 20
-283.873883
 30
0.0
 11
445.57728
 21
-283.873883
 31
0.0
  0
LINE
  5
219D
100
AcDbEntity
  8
V0-OBRYS
  6
CONTINUOUS
 62
    90
100
AcDbLine
 10
445.57728
 20
-283.873883
 30
0.0
 11
445.57728
 21
-299.888018
 31
0.0
  0
LINE
  5
219E
100
AcDbEntity
  8
V0-OBRYS
  6
CONTINUOUS
 62
    90
100
AcDbLine
 10
445.57728
 20
-316.126117
 30
0.0
 11
445.57728
 21
-300.111982
 31
0.0
  0
LINE
  5
219F
100
AcDbEntity
  8
V0-OBRYS
  6
CONTINUOUS
 62
    90
100
AcDbLine
 10
450.030492
 20
-316.126117
 30
0.0
 11
445.57728
 21
-316.126117
 31
0.0
  0
LINE
  5
21A0
100
AcDbEntity
  8
V0-OBRYS
  6
CONTINUOUS
 62
    90
100
AcDbLine
 10
450.0
 20
-316.126117
 30
0.0
 11
450.0
 21
-340.0
 31
0.0
  0
LINE
  5
21B2
100
AcDbEntity
  8
V0-VYPLNE
  6
DASHDOT
 62
    63
 48
3.0
100
AcDbLine
 10
101.003216
 20
-300.0
 30
0.0
 11
129.0
 21
-300.0
 31
0.0
  0
TEXT
  5
21BB
100
AcDbEntity
  8
V0-NAZVY
  6
CONTINUOUS
 62
   210
100
AcDbText
 10
-42.704791
 20
-286.68146
 30
0.0
 40
12.0
  1
MIXVENT-TD
 72
     1
 11
3.236936
 21
-286.68146
 31
0.0
100
AcDbText
  0
TEXT
  5
21BC
100
AcDbEntity
  8
V0-NAZVY
  6
CONTINUOUS
 62
   210
100
AcDbText
 10
-42.704791
 20
-553.992095
 30
0.0
 40
12.0
  1
MIXVENT-TD
 72
     1
 11
3.236936
 21
-553.992095
 31
0.0
100
AcDbText
  0
TEXT
  5
21BE
100
AcDbEntity
  8
V0-NAZVY
  6
CONTINUOUS
 62
   210
100
AcDbText
 10
-29.146482
 20
-337.983574
 30
0.0
 40
12.0
  1
350/125
 72
     1
 11
-0.697953
 21
-337.983574
 31
0.0
100
AcDbText
  0
TEXT
  5
21BF
100
AcDbEntity
  8
V0-NAZVY
  6
CONTINUOUS
 62
   210
100
AcDbText
 10
-29.146482
 20
-662.904261
 30
0.0
 40
12.0
  1
350/125
 72
     1
 11
-0.697953
 21
-662.904261
 31
0.0
100
AcDbText
  0
LINE
  5
231F
100
AcDbEntity
  8
V0-VYPLNE
  6
CONTINUOUS
 62
    52
100
AcDbLine
 10
-8.089658
 20
-284.318271
 30
0.0
 11
-8.089658
 21
-316.318271
 31
0.0
  0
LINE
  5
2320
100
AcDbEntity
  8
V0-VYPLNE
  6
CONTINUOUS
 62
    52
100
AcDbLine
 10
-8.089658
 20
-316.318271
 30
0.0
 11
15.910342
 21
-300.318271
 31
0.0
  0
LINE
  5
2321
100
AcDbEntity
  8
V0-VYPLNE
  6
CONTINUOUS
 62
    52
100
AcDbLine
 10
15.910342
 20
-300.318271
 30
0.0
 11
-8.089658
 21
-284.318271
 31
0.0
  0
LINE
  5
2322
100
AcDbEntity
  8
V0-VYPLNE
  6
CONTINUOUS
 62
    52
100
AcDbLine
 10
-8.089658
 20
-582.723747
 30
0.0
 11
-8.089658
 21
-614.723747
 31
0.0
  0
LINE
  5
2323
100
AcDbEntity
  8
V0-VYPLNE
  6
CONTINUOUS
 62
    52
100
AcDbLine
 10
-8.089658
 20
-614.723747
 30
0.0
 11
15.910342
 21
-598.723747
 31
0.0
  0
LINE
  5
2324
100
AcDbEntity
  8
V0-VYPLNE
  6
CONTINUOUS
 62
    52
100
AcDbLine
 10
15.910342
 20
-598.723747
 30
0.0
 11
-8.089658
 21
-582.723747
 31
0.0
  0
POINT
  5
2325
100
AcDbEntity
  8
V0-VYPLNE
 48
5.0
100
AcDbPoint
 10
-104.0
 20
-300.0
 30
0.0
  0
POINT
  5
2326
100
AcDbEntity
  8
V0-VYPLNE
 48
5.0
100
AcDbPoint
 10
-104.0
 20
-600.0
 30
0.0
  0
POINT
  5
2327
100
AcDbEntity
  8
V0-VYPLNE
 48
5.0
100
AcDbPoint
 10
350.0
 20
-300.0
 30
0.0
  0
VIEWPORT
  5
22
100
AcDbEntity
 67
     1
  8
0
100
AcDbViewport
 10
261.517699
 20
154.724298
 30
0.0
 40
523.035398
 41
309.448596
 68
    -1
 69
     1
1001
ACAD
1000
MVIEW
1002
{
1070
    16
1010
0.0
1020
0.0
1030
0.0
1010
0.0
1020
0.0
1030
1.0
1040
0.0
1040
309.448596
1040
261.517699
1040
154.724298
1040
50.0
1040
0.0
1040
0.0
1070
     0
1070
   100
1070
     1
1070
     0
1070
     0
1070
     0
1070
     0
1070
     0
1040
0.0
1040
0.0
1040
0.0
1040
1.0
1040
1.0
1040
10.0
1040
10.0
1070
     0
1002
{
1002
}
1002
}
  0
ENDSEC
  0
SECTION
  2
OBJECTS
  0
DICTIONARY
  5
C
100
AcDbDictionary
  3
ACAD_GROUP
350
D
  3
ACAD_MLINESTYLE
350
E
  3
ACDBVARIABLEDICTIONARY
350
86C
  3
CONTENTDICTIONARY
350
905
  0
DICTIONARY
  5
D
102
{ACAD_REACTORS
330
C
102
}
100
AcDbDictionary
  0
DICTIONARY
  5
E
102
{ACAD_REACTORS
330
C
102
}
100
AcDbDictionary
  3
STANDARD
350
13
  0
DICTIONARY
  5
86C
102
{ACAD_REACTORS
330
C
102
}
100
AcDbDictionary
  3
SORTENTS
350
86D
  0
DICTIONARY
  5
905
102
{ACAD_REACTORS
330
C
102
}
100
AcDbDictionary
  0
MLINESTYLE
  5
13
102
{ACAD_REACTORS
330
E
102
}
100
AcDbMlineStyle
  2
STANDARD
 70
     0
  3

 62
     0
 51
90.0
 52
90.0
 71
     2
 49
0.5
 62
   256
  6
BYLAYER
 49
-0.5
 62
   256
  6
BYLAYER
  0
DICTIONARYVAR
  5
86D
102
{ACAD_REACTORS
330
86C
102
}
100
DictionaryVariables
280
     0
  1
96
  0
ENDSEC
  0
EOF
