  0
SECTION
  2
HEADER
  9
$ACADVER
  1
AC1014
  9
$ACADMAINTVER
 70
     0
  9
$DWGCODEPAGE
  3
ANSI_1250
  9
$INSBASE
 10
0.0
 20
0.0
 30
0.0
  9
$EXTMIN
 10
-592.651944
 20
-404.361239
 30
0.0
  9
$EXTMAX
 10
471.054833
 20
563.466936
 30
0.0
  9
$LIMMIN
 10
-1040.805314
 20
-347.068924
  9
$LIMMAX
 10
643.686187
 20
495.293187
  9
$ORTHOMODE
 70
     1
  9
$REGENMODE
 70
     1
  9
$FILLMODE
 70
     1
  9
$QTEXTMODE
 70
     0
  9
$MIRRTEXT
 70
     1
  9
$DRAGMODE
 70
     2
  9
$LTSCALE
 40
15.0
  9
$OSMODE
 70
  1023
  9
$ATTMODE
 70
     1
  9
$TEXTSIZE
 40
15.0
  9
$TRACEWID
 40
1.0
  9
$TEXTSTYLE
  7
STANDARD
  9
$CLAYER
  8
V0-VYPLNE
  9
$CELTYPE
  6
BYLAYER
  9
$CECOLOR
 62
   256
  9
$CELTSCALE
 40
5.0
  9
$DELOBJ
 70
     1
  9
$DISPSILH
 70
     0
  9
$DIMSCALE
 40
5.0
  9
$DIMASZ
 40
3.5
  9
$DIMEXO
 40
0.0625
  9
$DIMDLI
 40
0.38
  9
$DIMRND
 40
0.0
  9
$DIMDLE
 40
0.0
  9
$DIMEXE
 40
0.18
  9
$DIMTP
 40
0.0
  9
$DIMTM
 40
0.0
  9
$DIMTXT
 40
3.5
  9
$DIMCEN
 40
0.0
  9
$DIMTSZ
 40
0.0
  9
$DIMTOL
 70
     0
  9
$DIMLIM
 70
     0
  9
$DIMTIH
 70
     0
  9
$DIMTOH
 70
     0
  9
$DIMSE1
 70
     0
  9
$DIMSE2
 70
     0
  9
$DIMTAD
 70
     1
  9
$DIMZIN
 70
     0
  9
$DIMBLK
  1

  9
$DIMASO
 70
     1
  9
$DIMSHO
 70
     1
  9
$DIMPOST
  1

  9
$DIMAPOST
  1

  9
$DIMALT
 70
     0
  9
$DIMALTD
 70
     2
  9
$DIMALTF
 40
25.4
  9
$DIMLFAC
 40
1.0
  9
$DIMTOFL
 70
     0
  9
$DIMTVP
 40
0.0
  9
$DIMTIX
 70
     0
  9
$DIMSOXD
 70
     0
  9
$DIMSAH
 70
     1
  9
$DIMBLK1
  1
_OPEN
  9
$DIMBLK2
  1
_OPEN
  9
$DIMSTYLE
  2
STANDARD
  9
$DIMCLRD
 70
     0
  9
$DIMCLRE
 70
     0
  9
$DIMCLRT
 70
     0
  9
$DIMTFAC
 40
1.0
  9
$DIMGAP
 40
0.625
  9
$DIMJUST
 70
     0
  9
$DIMSD1
 70
     0
  9
$DIMSD2
 70
     0
  9
$DIMTOLJ
 70
     1
  9
$DIMTZIN
 70
     0
  9
$DIMALTZ
 70
     0
  9
$DIMALTTZ
 70
     0
  9
$DIMFIT
 70
     0
  9
$DIMUPT
 70
     0
  9
$DIMUNIT
 70
     2
  9
$DIMDEC
 70
     0
  9
$DIMTDEC
 70
     4
  9
$DIMALTU
 70
     2
  9
$DIMALTTD
 70
     2
  9
$DIMTXSTY
  7
STANDARD
  9
$DIMAUNIT
 70
     0
  9
$LUNITS
 70
     2
  9
$LUPREC
 70
     4
  9
$SKETCHINC
 40
1.0
  9
$FILLETRAD
 40
15.0
  9
$AUNITS
 70
     0
  9
$AUPREC
 70
     0
  9
$MENU
  1
.
  9
$ELEVATION
 40
0.0
  9
$PELEVATION
 40
0.0
  9
$THICKNESS
 40
0.0
  9
$LIMCHECK
 70
     0
  9
$BLIPMODE
 70
     1
  9
$CHAMFERA
 40
10.0
  9
$CHAMFERB
 40
10.0
  9
$CHAMFERC
 40
20.0
  9
$CHAMFERD
 40
0.0
  9
$SKPOLY
 70
     0
  9
$TDCREATE
 40
2450763.421427893
  9
$TDUPDATE
 40
2452915.658046759
  9
$TDINDWG
 40
1.1549111111
  9
$TDUSRTIMER
 40
1.1549111111
  9
$USRTIMER
 70
     1
  9
$ANGBASE
 50
0.0
  9
$ANGDIR
 70
     0
  9
$PDMODE
 70
     3
  9
$PDSIZE
 40
20.0
  9
$PLINEWID
 40
0.0
  9
$COORDS
 70
     2
  9
$SPLFRAME
 70
     0
  9
$SPLINETYPE
 70
     6
  9
$SPLINESEGS
 70
     8
  9
$ATTDIA
 70
     0
  9
$ATTREQ
 70
     1
  9
$HANDLING
 70
     1
  9
$HANDSEED
  5
2417
  9
$SURFTAB1
 70
     6
  9
$SURFTAB2
 70
     6
  9
$SURFTYPE
 70
     6
  9
$SURFU
 70
     6
  9
$SURFV
 70
     6
  9
$UCSNAME
  2

  9
$UCSORG
 10
0.0
 20
0.0
 30
0.0
  9
$UCSXDIR
 10
1.0
 20
0.0
 30
0.0
  9
$UCSYDIR
 10
0.0
 20
1.0
 30
0.0
  9
$PUCSNAME
  2

  9
$PUCSORG
 10
0.0
 20
0.0
 30
0.0
  9
$PUCSXDIR
 10
1.0
 20
0.0
 30
0.0
  9
$PUCSYDIR
 10
0.0
 20
1.0
 30
0.0
  9
$USERI1
 70
     0
  9
$USERI2
 70
     0
  9
$USERI3
 70
     0
  9
$USERI4
 70
     0
  9
$USERI5
 70
     0
  9
$USERR1
 40
0.0
  9
$USERR2
 40
0.0
  9
$USERR3
 40
0.0
  9
$USERR4
 40
0.0
  9
$USERR5
 40
0.0
  9
$WORLDVIEW
 70
     1
  9
$SHADEDGE
 70
     3
  9
$SHADEDIF
 70
    70
  9
$TILEMODE
 70
     1
  9
$MAXACTVP
 70
    16
  9
$PINSBASE
 10
0.0
 20
0.0
 30
0.0
  9
$PLIMCHECK
 70
     0
  9
$PEXTMIN
 10
1.000000E+20
 20
1.000000E+20
 30
1.000000E+20
  9
$PEXTMAX
 10
-1.000000E+20
 20
-1.000000E+20
 30
-1.000000E+20
  9
$PLIMMIN
 10
0.0
 20
0.0
  9
$PLIMMAX
 10
420.0
 20
297.0
  9
$UNITMODE
 70
     0
  9
$VISRETAIN
 70
     0
  9
$PLINEGEN
 70
     0
  9
$PSLTSCALE
 70
     0
  9
$TREEDEPTH
 70
  3020
  9
$PICKSTYLE
 70
     1
  9
$CMLSTYLE
  2
STANDARD
  9
$CMLJUST
 70
     0
  9
$CMLSCALE
 40
1.0
  9
$PROXYGRAPHICS
 70
     1
  9
$MEASUREMENT
 70
     1
  0
ENDSEC
  0
SECTION
  2
CLASSES
  0
CLASS
  1
LWPOLYLINE
  2
AcDbPolyline
  3
"AutoCAD"
 90
        0
280
     0
281
     1
  0
CLASS
  1
DICTIONARYVAR
  2
AcDbDictionaryVar
  3
"AutoCAD"
 90
        0
280
     0
281
     0
  0
CLASS
  1
HATCH
  2
AcDbHatch
  3
"ACAD_SEDONA"
 90
        0
280
     0
281
     1
  0
ENDSEC
  0
SECTION
  2
TABLES
  0
TABLE
  2
VPORT
  5
8
100
AcDbSymbolTable
 70
     3
  0
VPORT
  5
2416
100
AcDbSymbolTableRecord
100
AcDbViewportTableRecord
  2
*ACTIVE
 70
     0
 10
0.0
 20
0.0
 11
1.0
 21
1.0
 12
15.795975
 22
78.415326
 13
0.0
 23
0.0
 14
10.0
 24
10.0
 15
50.0
 25
50.0
 16
0.0
 26
0.0
 36
1.0
 17
0.0
 27
0.0
 37
0.0
 40
1016.025269
 41
1.730469
 42
50.0
 43
0.0
 44
0.0
 50
0.0
 51
0.0
 71
     0
 72
   100
 73
     1
 74
     0
 75
     0
 76
     1
 77
     0
 78
     0
  0
ENDTAB
  0
TABLE
  2
LTYPE
  5
5
100
AcDbSymbolTable
 70
     2
  0
LTYPE
  5
14
100
AcDbSymbolTableRecord
100
AcDbLinetypeTableRecord
  2
BYBLOCK
 70
     0
  3

 72
    65
 73
     0
 40
0.0
  0
LTYPE
  5
15
100
AcDbSymbolTableRecord
100
AcDbLinetypeTableRecord
  2
BYLAYER
 70
     0
  3

 72
    65
 73
     0
 40
0.0
  0
LTYPE
  5
16
100
AcDbSymbolTableRecord
100
AcDbLinetypeTableRecord
  2
CONTINUOUS
 70
     0
  3
Solid line
 72
    65
 73
     0
 40
0.0
  0
LTYPE
  5
492
100
AcDbSymbolTableRecord
100
AcDbLinetypeTableRecord
  2
DASHDOT
 70
     0
  3
__ . __ . __ . __ . __ . __ . __ . __ . __ . __
 72
    65
 73
     4
 40
1.0
 49
0.5
 74
     0
 49
-0.25
 74
     0
 49
0.0
 74
     0
 49
-0.25
 74
     0
  0
ENDTAB
  0
TABLE
  2
LAYER
  5
2
100
AcDbSymbolTable
 70
     6
  0
LAYER
  5
F
100
AcDbSymbolTableRecord
100
AcDbLayerTableRecord
  2
0
 70
     0
 62
     7
  6
CONTINUOUS
  0
LAYER
  5
1A22
100
AcDbSymbolTableRecord
100
AcDbLayerTableRecord
  2
DEFPOINTS
 70
     0
 62
     7
  6
CONTINUOUS
  0
LAYER
  5
22B3
100
AcDbSymbolTableRecord
100
AcDbLayerTableRecord
  2
V0-OBRYS
 70
     0
 62
    90
  6
CONTINUOUS
  0
LAYER
  5
22B4
100
AcDbSymbolTableRecord
100
AcDbLayerTableRecord
  2
V0-VYPLNE
 70
     0
 62
    52
  6
CONTINUOUS
  0
LAYER
  5
22B5
100
AcDbSymbolTableRecord
100
AcDbLayerTableRecord
  2
V0-NAZVY
 70
     0
 62
   210
  6
CONTINUOUS
  0
LAYER
  5
22B6
100
AcDbSymbolTableRecord
100
AcDbLayerTableRecord
  2
V0-ZBYTEK
 70
     0
 62
    51
  6
CONTINUOUS
  0
ENDTAB
  0
TABLE
  2
STYLE
  5
3
100
AcDbSymbolTable
 70
     7
  0
STYLE
  5
10
100
AcDbSymbolTableRecord
100
AcDbTextStyleTableRecord
  2
STANDARD
 70
     0
 40
0.0
 41
1.0
 50
0.0
 71
     0
 42
15.0
  3
ISOCP
  4

  0
STYLE
  5
1CAF
100
AcDbSymbolTableRecord
100
AcDbTextStyleTableRecord
  2

 70
     1
 40
0.0
 41
1.0
 50
0.0
 71
     0
 42
0.2
  3
ltypeshp.shx
  4

  0
STYLE
  5
22B7
100
AcDbSymbolTableRecord
100
AcDbTextStyleTableRecord
  2
ED
 70
     0
 40
20.0
 41
1.0
 50
0.0
 71
     0
 42
2.5
  3
ISOCP.shx
  4

  0
STYLE
  5
22B8
100
AcDbSymbolTableRecord
100
AcDbTextStyleTableRecord
  2
EDVENT
 70
     0
 40
10.0
 41
1.0
 50
0.0
 71
     0
 42
2.5
  3
ISOCP.shx
  4

  0
STYLE
  5
22B9
100
AcDbSymbolTableRecord
100
AcDbTextStyleTableRecord
  2
E
 70
     0
 40
25.0
 41
1.0
 50
0.0
 71
     0
 42
2.5
  3
ISOCP.shx
  4

  0
STYLE
  5
22BA
100
AcDbSymbolTableRecord
100
AcDbTextStyleTableRecord
  2
ED-VENT
 70
     0
 40
25.0
 41
1.0
 50
0.0
 71
     0
 42
2.5
  3
ISOCP.shx
  4

  0
STYLE
  5
22BB
100
AcDbSymbolTableRecord
100
AcDbTextStyleTableRecord
  2
ED2
 70
     0
 40
25.0
 41
1.0
 50
0.0
 71
     0
 42
2.5
  3
ISOCP.shx
  4

  0
ENDTAB
  0
TABLE
  2
VIEW
  5
6
100
AcDbSymbolTable
 70
     0
  0
ENDTAB
  0
TABLE
  2
UCS
  5
7
100
AcDbSymbolTable
 70
     0
  0
ENDTAB
  0
TABLE
  2
APPID
  5
9
100
AcDbSymbolTable
 70
     4
  0
APPID
  5
11
100
AcDbSymbolTableRecord
100
AcDbRegAppTableRecord
  2
ACAD
 70
     0
  0
APPID
  5
906
100
AcDbSymbolTableRecord
100
AcDbRegAppTableRecord
  2
CONTENTTABDATA
 70
     0
  0
APPID
  5
907
100
AcDbSymbolTableRecord
100
AcDbRegAppTableRecord
  2
CONTENTCURRENTTAB
 70
     0
  0
APPID
  5
908
100
AcDbSymbolTableRecord
100
AcDbRegAppTableRecord
  2
CONTENTBLOCKDESCRIPTION
 70
     0
  0
ENDTAB
  0
TABLE
  2
DIMSTYLE
  5
A
100
AcDbSymbolTable
 70
     3
  0
DIMSTYLE
105
1D
102
{ACAD_REACTORS
330
1D0A
330
1D0C
330
1D09
330
2265
330
1D0B
330
1D07
330
1D16
330
1F71
330
1D0F
330
1D0E
102
}
100
AcDbSymbolTableRecord
100
AcDbDimStyleTableRecord
  2
STANDARD
 70
     0
  3

  4

  5

  6
_OPEN
  7
_OPEN
 40
5.0
 41
3.5
 42
0.0625
 43
0.38
 44
0.18
 45
0.0
 46
0.0
 47
0.0
 48
0.0
140
3.5
141
0.0
142
0.0
143
25.4
144
1.0
145
0.0
146
1.0
147
0.625
 71
     0
 72
     0
 73
     0
 74
     0
 75
     0
 76
     0
 77
     1
 78
     0
170
     0
171
     2
172
     0
173
     1
174
     0
175
     0
176
     0
177
     0
178
     0
270
     2
271
     0
272
     4
273
     2
274
     2
340
10
275
     0
280
     0
281
     0
282
     0
283
     1
284
     0
285
     0
286
     0
287
     0
288
     0
  0
DIMSTYLE
105
22BC
100
AcDbSymbolTableRecord
100
AcDbDimStyleTableRecord
  2
ED
 70
     0
  3

  4

  5

  6
_OPEN
  7
_OPEN
 40
0.0
 41
15.0
 42
0.625
 43
3.75
 44
1.25
 45
0.0
 46
0.0
 47
0.0
 48
0.0
140
15.0
141
2.5
142
0.0
143
0.0394
144
1.0
145
0.0
146
1.0
147
3.0
 71
     0
 72
     0
 73
     0
 74
     0
 75
     0
 76
     0
 77
     1
 78
     8
170
     0
171
     4
172
     1
173
     1
174
     0
175
     0
176
     0
177
     0
178
     0
270
     2
271
     0
272
     1
273
     8
274
     4
340
22B7
275
     0
280
     0
281
     0
282
     0
283
     1
284
     8
285
     0
286
     0
287
     3
288
     0
  0
DIMSTYLE
105
22BD
100
AcDbSymbolTableRecord
100
AcDbDimStyleTableRecord
  2
ED2
 70
     0
  3

  4

  5

  6
_OPEN
  7
_OPEN
 40
0.0
 41
25.0
 42
0.625
 43
3.75
 44
1.25
 45
0.0
 46
0.0
 47
0.0
 48
0.0
140
30.0
141
2.5
142
0.0
143
0.0394
144
1.0
145
0.0
146
1.0
147
5.0
 71
     0
 72
     0
 73
     0
 74
     0
 75
     0
 76
     0
 77
     1
 78
     8
170
     0
171
     4
172
     1
173
     1
174
     0
175
     0
176
     0
177
     0
178
     0
270
     2
271
     0
272
     1
273
     8
274
     4
340
22B7
275
     0
280
     0
281
     0
282
     0
283
     1
284
     8
285
     0
286
     0
287
     3
288
     0
  0
ENDTAB
  0
TABLE
  2
BLOCK_RECORD
  5
1
100
AcDbSymbolTable
 70
    21
  0
BLOCK_RECORD
  5
1A
100
AcDbSymbolTableRecord
100
AcDbBlockTableRecord
  2
*MODEL_SPACE
  0
BLOCK_RECORD
  5
17
100
AcDbSymbolTableRecord
100
AcDbBlockTableRecord
  2
*PAPER_SPACE
  0
BLOCK_RECORD
  5
1A05
100
AcDbSymbolTableRecord
100
AcDbBlockTableRecord
  2
_OPEN
  0
BLOCK_RECORD
  5
230D
100
AcDbSymbolTableRecord
100
AcDbBlockTableRecord
  2
*D11
  0
BLOCK_RECORD
  5
2319
100
AcDbSymbolTableRecord
100
AcDbBlockTableRecord
  2
*D12
  0
BLOCK_RECORD
  5
2325
100
AcDbSymbolTableRecord
100
AcDbBlockTableRecord
  2
*D13
  0
BLOCK_RECORD
  5
2331
100
AcDbSymbolTableRecord
100
AcDbBlockTableRecord
  2
*D14
  0
BLOCK_RECORD
  5
233D
100
AcDbSymbolTableRecord
100
AcDbBlockTableRecord
  2
*D15
  0
BLOCK_RECORD
  5
2349
100
AcDbSymbolTableRecord
100
AcDbBlockTableRecord
  2
*D16
  0
BLOCK_RECORD
  5
23A8
100
AcDbSymbolTableRecord
100
AcDbBlockTableRecord
  2
*D17
  0
BLOCK_RECORD
  5
23B4
100
AcDbSymbolTableRecord
100
AcDbBlockTableRecord
  2
*D18
  0
BLOCK_RECORD
  5
23C0
100
AcDbSymbolTableRecord
100
AcDbBlockTableRecord
  2
*D19
  0
BLOCK_RECORD
  5
23CC
100
AcDbSymbolTableRecord
100
AcDbBlockTableRecord
  2
*D20
  0
ENDTAB
  0
ENDSEC
  0
SECTION
  2
BLOCKS
  0
BLOCK
  5
1B
100
AcDbEntity
  8
0
100
AcDbBlockBegin
  2
*MODEL_SPACE
 70
     0
 10
0.0
 20
0.0
 30
0.0
  3
*MODEL_SPACE
  1

  0
ENDBLK
  5
1C
100
AcDbEntity
  8
0
100
AcDbBlockEnd
  0
BLOCK
  5
18
100
AcDbEntity
 67
     1
  8
0
100
AcDbBlockBegin
  2
*PAPER_SPACE
 70
     0
 10
0.0
 20
0.0
 30
0.0
  3
*PAPER_SPACE
  1

  0
ENDBLK
  5
19
100
AcDbEntity
 67
     1
  8
0
100
AcDbBlockEnd
  0
BLOCK
  5
1A09
100
AcDbEntity
  8
0
100
AcDbBlockBegin
  2
_OPEN
 70
     0
 10
0.0
 20
0.0
 30
0.0
  3
_OPEN
  1

  0
LINE
  5
1A06
100
AcDbEntity
  8
0
  6
BYBLOCK
 62
     0
100
AcDbLine
 10
-1.0
 20
0.166667
 30
0.0
 11
0.0
 21
0.0
 31
0.0
  0
LINE
  5
1A07
100
AcDbEntity
  8
0
  6
BYBLOCK
 62
     0
100
AcDbLine
 10
0.0
 20
0.0
 30
0.0
 11
-1.0
 21
-0.166667
 31
0.0
  0
LINE
  5
1A08
100
AcDbEntity
  8
0
  6
BYBLOCK
 62
     0
100
AcDbLine
 10
0.0
 20
0.0
 30
0.0
 11
-1.0
 21
0.0
 31
0.0
  0
ENDBLK
  5
1A0A
100
AcDbEntity
  8
0
100
AcDbBlockEnd
  0
BLOCK
  5
230E
100
AcDbEntity
  8
0
 48
5.0
100
AcDbBlockBegin
  2
*D11
 70
     1
 10
0.0
 20
0.0
 30
0.0
  3
*D11
  1

  0
LINE
  5
230F
100
AcDbEntity
  8
0
  6
BYBLOCK
 62
     0
 48
5.0
100
AcDbLine
 10
-576.151944
 20
138.326261
 30
0.0
 11
-576.151944
 21
66.363761
 31
0.0
  0
LINE
  5
2310
100
AcDbEntity
  8
0
  6
BYBLOCK
 62
     0
 48
5.0
100
AcDbLine
 10
-126.151944
 20
138.326261
 30
0.0
 11
-126.151944
 21
66.363761
 31
0.0
  0
LINE
  5
2311
100
AcDbEntity
  8
0
  6
BYBLOCK
 62
     0
 48
5.0
100
AcDbLine
 10
-558.651944
 20
67.263761
 30
0.0
 11
-143.651944
 21
67.263761
 31
0.0
  0
INSERT
  5
2312
100
AcDbEntity
  8
0
  6
BYBLOCK
 62
     0
 48
5.0
100
AcDbBlockReference
  2
_OPEN
 10
-576.151944
 20
67.263761
 30
0.0
 41
17.5
 42
17.5
 43
17.5
 50
180.0
  0
INSERT
  5
2313
100
AcDbEntity
  8
0
  6
BYBLOCK
 62
     0
 48
5.0
100
AcDbBlockReference
  2
_OPEN
 10
-126.151944
 20
67.263761
 30
0.0
 41
17.5
 42
17.5
 43
17.5
  0
MTEXT
  5
2314
100
AcDbEntity
  8
0
  6
BYBLOCK
 62
     0
 48
5.0
100
AcDbMText
 10
-367.151944
 20
79.138761
 30
0.0
 40
17.5
 41
0.0
 71
     5
 72
     1
  1
\A1;450
  0
POINT
  5
2315
100
AcDbEntity
  8
DEFPOINTS
  6
BYBLOCK
 62
     0
 48
5.0
100
AcDbPoint
 10
-576.151944
 20
138.638761
 30
0.0
  0
POINT
  5
2316
100
AcDbEntity
  8
DEFPOINTS
  6
BYBLOCK
 62
     0
 48
5.0
100
AcDbPoint
 10
-126.151944
 20
138.638761
 30
0.0
  0
POINT
  5
2317
100
AcDbEntity
  8
DEFPOINTS
  6
BYBLOCK
 62
     0
 48
5.0
100
AcDbPoint
 10
-126.151944
 20
67.263761
 30
0.0
  0
ENDBLK
  5
2318
100
AcDbEntity
  8
0
 48
5.0
100
AcDbBlockEnd
  0
BLOCK
  5
231A
100
AcDbEntity
  8
0
 48
5.0
100
AcDbBlockBegin
  2
*D12
 70
     1
 10
0.0
 20
0.0
 30
0.0
  3
*D12
  1

  0
LINE
  5
231B
100
AcDbEntity
  8
0
  6
BYBLOCK
 62
     0
 48
5.0
100
AcDbLine
 10
-272.839444
 20
385.638761
 30
0.0
 11
-190.625097
 21
385.638761
 31
0.0
  0
LINE
  5
231C
100
AcDbEntity
  8
0
  6
BYBLOCK
 62
     0
 48
5.0
100
AcDbLine
 10
-272.839444
 20
203.638761
 30
0.0
 11
-190.625097
 21
203.638761
 31
0.0
  0
LINE
  5
231D
100
AcDbEntity
  8
0
  6
BYBLOCK
 62
     0
 48
5.0
100
AcDbLine
 10
-191.525097
 20
368.138761
 30
0.0
 11
-191.525097
 21
221.138761
 31
0.0
  0
INSERT
  5
231E
100
AcDbEntity
  8
0
  6
BYBLOCK
 62
     0
 48
5.0
100
AcDbBlockReference
  2
_OPEN
 10
-191.525097
 20
385.638761
 30
0.0
 41
17.5
 42
17.5
 43
17.5
 50
90.0
  0
INSERT
  5
231F
100
AcDbEntity
  8
0
  6
BYBLOCK
 62
     0
 48
5.0
100
AcDbBlockReference
  2
_OPEN
 10
-191.525097
 20
203.638761
 30
0.0
 41
17.5
 42
17.5
 43
17.5
 50
270.0
  0
MTEXT
  5
2320
100
AcDbEntity
  8
0
  6
BYBLOCK
 62
     0
 48
5.0
100
AcDbMText
 10
-203.401819
 20
294.276047
 30
0.0
 40
17.5
 41
0.0
 71
     5
 72
     1
  1
\A1;182
 11
0.0
 21
1.0
 31
0.0
  0
POINT
  5
2321
100
AcDbEntity
  8
DEFPOINTS
  6
BYBLOCK
 62
     0
 48
5.0
100
AcDbPoint
 10
-273.151944
 20
385.638761
 30
0.0
  0
POINT
  5
2322
100
AcDbEntity
  8
DEFPOINTS
  6
BYBLOCK
 62
     0
 48
5.0
100
AcDbPoint
 10
-273.151944
 20
203.638761
 30
0.0
  0
POINT
  5
2323
100
AcDbEntity
  8
DEFPOINTS
  6
BYBLOCK
 62
     0
 48
5.0
100
AcDbPoint
 10
-191.525097
 20
203.638761
 30
0.0
  0
ENDBLK
  5
2324
100
AcDbEntity
  8
0
 48
5.0
100
AcDbBlockEnd
  0
BLOCK
  5
2326
100
AcDbEntity
  8
0
 48
5.0
100
AcDbBlockBegin
  2
*D13
 70
     1
 10
0.0
 20
0.0
 30
0.0
  3
*D13
  1

  0
LINE
  5
2327
100
AcDbEntity
  8
0
  6
BYBLOCK
 62
     0
 48
5.0
100
AcDbLine
 10
-225.839444
 20
465.638761
 30
0.0
 11
-56.251944
 21
465.638761
 31
0.0
  0
LINE
  5
2328
100
AcDbEntity
  8
0
  6
BYBLOCK
 62
     0
 48
5.0
100
AcDbLine
 10
-225.839444
 20
123.638761
 30
0.0
 11
-56.251944
 21
123.638761
 31
0.0
  0
LINE
  5
2329
100
AcDbEntity
  8
0
  6
BYBLOCK
 62
     0
 48
5.0
100
AcDbLine
 10
-57.151944
 20
448.138761
 30
0.0
 11
-57.151944
 21
141.138761
 31
0.0
  0
INSERT
  5
232A
100
AcDbEntity
  8
0
  6
BYBLOCK
 62
     0
 48
5.0
100
AcDbBlockReference
  2
_OPEN
 10
-57.151944
 20
465.638761
 30
0.0
 41
17.5
 42
17.5
 43
17.5
 50
90.0
  0
INSERT
  5
232B
100
AcDbEntity
  8
0
  6
BYBLOCK
 62
     0
 48
5.0
100
AcDbBlockReference
  2
_OPEN
 10
-57.151944
 20
123.638761
 30
0.0
 41
17.5
 42
17.5
 43
17.5
 50
270.0
  0
MTEXT
  5
232C
100
AcDbEntity
  8
0
  6
BYBLOCK
 62
     0
 48
5.0
100
AcDbMText
 10
-69.026944
 20
294.638761
 30
0.0
 40
17.5
 41
0.0
 71
     5
 72
     1
  1
\A1;\U+2205336
 11
0.0
 21
1.0
 31
0.0
  0
POINT
  5
232D
100
AcDbEntity
  8
DEFPOINTS
  6
BYBLOCK
 62
     0
 48
5.0
100
AcDbPoint
 10
-226.151944
 20
465.638761
 30
0.0
  0
POINT
  5
232E
100
AcDbEntity
  8
DEFPOINTS
  6
BYBLOCK
 62
     0
 48
5.0
100
AcDbPoint
 10
-226.151944
 20
123.638761
 30
0.0
  0
POINT
  5
232F
100
AcDbEntity
  8
DEFPOINTS
  6
BYBLOCK
 62
     0
 48
5.0
100
AcDbPoint
 10
-57.151944
 20
123.638761
 30
0.0
  0
ENDBLK
  5
2330
100
AcDbEntity
  8
0
 48
5.0
100
AcDbBlockEnd
  0
BLOCK
  5
2332
100
AcDbEntity
  8
0
 48
5.0
100
AcDbBlockBegin
  2
*D14
 70
     1
 10
0.0
 20
0.0
 30
0.0
  3
*D14
  1

  0
LINE
  5
2333
100
AcDbEntity
  8
0
  6
BYBLOCK
 62
     0
 48
5.0
100
AcDbLine
 10
-576.151944
 20
138.013761
 30
0.0
 11
-576.151944
 21
98.022259
 31
0.0
  0
LINE
  5
2334
100
AcDbEntity
  8
0
  6
BYBLOCK
 62
     0
 48
5.0
100
AcDbLine
 10
-526.151944
 20
138.013761
 30
0.0
 11
-526.151944
 21
98.022259
 31
0.0
  0
LINE
  5
2335
100
AcDbEntity
  8
0
  6
BYBLOCK
 62
     0
 48
5.0
100
AcDbLine
 10
-558.651944
 20
98.922259
 30
0.0
 11
-543.651944
 21
98.922259
 31
0.0
  0
INSERT
  5
2336
100
AcDbEntity
  8
0
  6
BYBLOCK
 62
     0
 48
5.0
100
AcDbBlockReference
  2
_OPEN
 10
-576.151944
 20
98.922259
 30
0.0
 41
17.5
 42
17.5
 43
17.5
 50
180.0
  0
INSERT
  5
2337
100
AcDbEntity
  8
0
  6
BYBLOCK
 62
     0
 48
5.0
100
AcDbBlockReference
  2
_OPEN
 10
-526.151944
 20
98.922259
 30
0.0
 41
17.5
 42
17.5
 43
17.5
  0
MTEXT
  5
2338
100
AcDbEntity
  8
0
  6
BYBLOCK
 62
     0
 48
5.0
100
AcDbMText
 10
-548.954872
 20
110.797259
 30
0.0
 40
17.5
 41
0.0
 71
     5
 72
     1
  1
\A1;50
  0
POINT
  5
2339
100
AcDbEntity
  8
DEFPOINTS
  6
BYBLOCK
 62
     0
 48
5.0
100
AcDbPoint
 10
-576.151944
 20
138.326261
 30
0.0
  0
POINT
  5
233A
100
AcDbEntity
  8
DEFPOINTS
  6
BYBLOCK
 62
     0
 48
5.0
100
AcDbPoint
 10
-526.151944
 20
138.326261
 30
0.0
  0
POINT
  5
233B
100
AcDbEntity
  8
DEFPOINTS
  6
BYBLOCK
 62
     0
 48
5.0
100
AcDbPoint
 10
-526.151944
 20
98.922259
 30
0.0
  0
ENDBLK
  5
233C
100
AcDbEntity
  8
0
 48
5.0
100
AcDbBlockEnd
  0
BLOCK
  5
233E
100
AcDbEntity
  8
0
 48
5.0
100
AcDbBlockBegin
  2
*D15
 70
     1
 10
0.0
 20
0.0
 30
0.0
  3
*D15
  1

  0
LINE
  5
233F
100
AcDbEntity
  8
0
  6
BYBLOCK
 62
     0
 48
5.0
100
AcDbLine
 10
-442.151944
 20
194.326261
 30
0.0
 11
-442.151944
 21
164.738761
 31
0.0
  0
LINE
  5
2340
100
AcDbEntity
  8
0
  6
BYBLOCK
 62
     0
 48
5.0
100
AcDbLine
 10
-260.151944
 20
194.326261
 30
0.0
 11
-260.151944
 21
164.738761
 31
0.0
  0
LINE
  5
2341
100
AcDbEntity
  8
0
  6
BYBLOCK
 62
     0
 48
5.0
100
AcDbLine
 10
-424.651944
 20
165.638761
 30
0.0
 11
-277.651944
 21
165.638761
 31
0.0
  0
INSERT
  5
2342
100
AcDbEntity
  8
0
  6
BYBLOCK
 62
     0
 48
5.0
100
AcDbBlockReference
  2
_OPEN
 10
-442.151944
 20
165.638761
 30
0.0
 41
17.5
 42
17.5
 43
17.5
 50
180.0
  0
INSERT
  5
2343
100
AcDbEntity
  8
0
  6
BYBLOCK
 62
     0
 48
5.0
100
AcDbBlockReference
  2
_OPEN
 10
-260.151944
 20
165.638761
 30
0.0
 41
17.5
 42
17.5
 43
17.5
  0
MTEXT
  5
2344
100
AcDbEntity
  8
0
  6
BYBLOCK
 62
     0
 48
5.0
100
AcDbMText
 10
-351.151944
 20
177.515483
 30
0.0
 40
17.5
 41
0.0
 71
     5
 72
     1
  1
\A1;182
  0
POINT
  5
2345
100
AcDbEntity
  8
DEFPOINTS
  6
BYBLOCK
 62
     0
 48
5.0
100
AcDbPoint
 10
-442.151944
 20
194.638761
 30
0.0
  0
POINT
  5
2346
100
AcDbEntity
  8
DEFPOINTS
  6
BYBLOCK
 62
     0
 48
5.0
100
AcDbPoint
 10
-260.151944
 20
194.638761
 30
0.0
  0
POINT
  5
2347
100
AcDbEntity
  8
DEFPOINTS
  6
BYBLOCK
 62
     0
 48
5.0
100
AcDbPoint
 10
-260.151944
 20
165.638761
 30
0.0
  0
ENDBLK
  5
2348
100
AcDbEntity
  8
0
 48
5.0
100
AcDbBlockEnd
  0
BLOCK
  5
234A
100
AcDbEntity
  8
0
 48
5.0
100
AcDbBlockBegin
  2
*D16
 70
     1
 10
0.0
 20
0.0
 30
0.0
  3
*D16
  1

  0
LINE
  5
234B
100
AcDbEntity
  8
0
  6
BYBLOCK
 62
     0
 48
5.0
100
AcDbLine
 10
-125.839444
 20
450.638761
 30
0.0
 11
-91.251944
 21
450.638761
 31
0.0
  0
LINE
  5
234C
100
AcDbEntity
  8
0
  6
BYBLOCK
 62
     0
 48
5.0
100
AcDbLine
 10
-125.839444
 20
138.638761
 30
0.0
 11
-91.251944
 21
138.638761
 31
0.0
  0
LINE
  5
234D
100
AcDbEntity
  8
0
  6
BYBLOCK
 62
     0
 48
5.0
100
AcDbLine
 10
-92.151944
 20
433.138761
 30
0.0
 11
-92.151944
 21
156.138761
 31
0.0
  0
INSERT
  5
234E
100
AcDbEntity
  8
0
  6
BYBLOCK
 62
     0
 48
5.0
100
AcDbBlockReference
  2
_OPEN
 10
-92.151944
 20
450.638761
 30
0.0
 41
17.5
 42
17.5
 43
17.5
 50
90.0
  0
INSERT
  5
234F
100
AcDbEntity
  8
0
  6
BYBLOCK
 62
     0
 48
5.0
100
AcDbBlockReference
  2
_OPEN
 10
-92.151944
 20
138.638761
 30
0.0
 41
17.5
 42
17.5
 43
17.5
 50
270.0
  0
MTEXT
  5
2350
100
AcDbEntity
  8
0
  6
BYBLOCK
 62
     0
 48
5.0
100
AcDbMText
 10
-104.028666
 20
294.638761
 30
0.0
 40
17.5
 41
0.0
 71
     5
 72
     1
  1
\A1;\U+2205312
 11
0.0
 21
1.0
 31
0.0
  0
POINT
  5
2351
100
AcDbEntity
  8
DEFPOINTS
  6
BYBLOCK
 62
     0
 48
5.0
100
AcDbPoint
 10
-126.151944
 20
450.638761
 30
0.0
  0
POINT
  5
2352
100
AcDbEntity
  8
DEFPOINTS
  6
BYBLOCK
 62
     0
 48
5.0
100
AcDbPoint
 10
-126.151944
 20
138.638761
 30
0.0
  0
POINT
  5
2353
100
AcDbEntity
  8
DEFPOINTS
  6
BYBLOCK
 62
     0
 48
5.0
100
AcDbPoint
 10
-92.151944
 20
138.638761
 30
0.0
  0
ENDBLK
  5
2354
100
AcDbEntity
  8
0
 48
5.0
100
AcDbBlockEnd
  0
BLOCK
  5
23A9
100
AcDbEntity
  8
0
 48
5.0
100
AcDbBlockBegin
  2
*D17
 70
     1
 10
0.0
 20
0.0
 30
0.0
  3
*D17
  1

  0
LINE
  5
23AA
100
AcDbEntity
  8
0
  6
BYBLOCK
 62
     0
 48
5.0
100
AcDbLine
 10
80.848056
 20
294.326261
 30
0.0
 11
80.848056
 21
89.738761
 31
0.0
  0
LINE
  5
23AB
100
AcDbEntity
  8
0
  6
BYBLOCK
 62
     0
 48
5.0
100
AcDbLine
 10
429.848056
 20
189.326261
 30
0.0
 11
429.848056
 21
89.738761
 31
0.0
  0
LINE
  5
23AC
100
AcDbEntity
  8
0
  6
BYBLOCK
 62
     0
 48
5.0
100
AcDbLine
 10
98.348056
 20
90.638761
 30
0.0
 11
412.348056
 21
90.638761
 31
0.0
  0
INSERT
  5
23AD
100
AcDbEntity
  8
0
  6
BYBLOCK
 62
     0
 48
5.0
100
AcDbBlockReference
  2
_OPEN
 10
80.848056
 20
90.638761
 30
0.0
 41
17.5
 42
17.5
 43
17.5
 50
180.0
  0
INSERT
  5
23AE
100
AcDbEntity
  8
0
  6
BYBLOCK
 62
     0
 48
5.0
100
AcDbBlockReference
  2
_OPEN
 10
429.848056
 20
90.638761
 30
0.0
 41
17.5
 42
17.5
 43
17.5
  0
MTEXT
  5
23AF
100
AcDbEntity
  8
0
  6
BYBLOCK
 62
     0
 48
5.0
100
AcDbMText
 10
255.348056
 20
102.513761
 30
0.0
 40
17.5
 41
0.0
 71
     5
 72
     1
  1
\A1;349
  0
POINT
  5
23B0
100
AcDbEntity
  8
DEFPOINTS
  6
BYBLOCK
 62
     0
 48
5.0
100
AcDbPoint
 10
80.848056
 20
294.638761
 30
0.0
  0
POINT
  5
23B1
100
AcDbEntity
  8
DEFPOINTS
  6
BYBLOCK
 62
     0
 48
5.0
100
AcDbPoint
 10
429.848056
 20
189.638761
 30
0.0
  0
POINT
  5
23B2
100
AcDbEntity
  8
DEFPOINTS
  6
BYBLOCK
 62
     0
 48
5.0
100
AcDbPoint
 10
429.848056
 20
90.638761
 30
0.0
  0
ENDBLK
  5
23B3
100
AcDbEntity
  8
0
 48
5.0
100
AcDbBlockEnd
  0
BLOCK
  5
23B5
100
AcDbEntity
  8
0
 48
5.0
100
AcDbBlockBegin
  2
*D18
 70
     1
 10
0.0
 20
0.0
 30
0.0
  3
*D18
  1

  0
LINE
  5
23B6
100
AcDbEntity
  8
0
  6
BYBLOCK
 62
     0
 48
5.0
100
AcDbLine
 10
248.848056
 20
496.451261
 30
0.0
 11
248.848056
 21
544.616936
 31
0.0
  0
LINE
  5
23B7
100
AcDbEntity
  8
0
  6
BYBLOCK
 62
     0
 48
5.0
100
AcDbLine
 10
429.848056
 20
399.951261
 30
0.0
 11
429.848056
 21
544.616936
 31
0.0
  0
LINE
  5
23B8
100
AcDbEntity
  8
0
  6
BYBLOCK
 62
     0
 48
5.0
100
AcDbLine
 10
266.348056
 20
543.716936
 30
0.0
 11
412.348056
 21
543.716936
 31
0.0
  0
INSERT
  5
23B9
100
AcDbEntity
  8
0
  6
BYBLOCK
 62
     0
 48
5.0
100
AcDbBlockReference
  2
_OPEN
 10
248.848056
 20
543.716936
 30
0.0
 41
17.5
 42
17.5
 43
17.5
 50
180.0
  0
INSERT
  5
23BA
100
AcDbEntity
  8
0
  6
BYBLOCK
 62
     0
 48
5.0
100
AcDbBlockReference
  2
_OPEN
 10
429.848056
 20
543.716936
 30
0.0
 41
17.5
 42
17.5
 43
17.5
  0
MTEXT
  5
23BB
100
AcDbEntity
  8
0
  6
BYBLOCK
 62
     0
 48
5.0
100
AcDbMText
 10
339.348056
 20
555.591936
 30
0.0
 40
17.5
 41
0.0
 71
     5
 72
     1
  1
\A1;181
  0
POINT
  5
23BC
100
AcDbEntity
  8
DEFPOINTS
  6
BYBLOCK
 62
     0
 48
5.0
100
AcDbPoint
 10
248.848056
 20
496.138761
 30
0.0
  0
POINT
  5
23BD
100
AcDbEntity
  8
DEFPOINTS
  6
BYBLOCK
 62
     0
 48
5.0
100
AcDbPoint
 10
429.848056
 20
399.638761
 30
0.0
  0
POINT
  5
23BE
100
AcDbEntity
  8
DEFPOINTS
  6
BYBLOCK
 62
     0
 48
5.0
100
AcDbPoint
 10
429.848056
 20
543.716936
 30
0.0
  0
ENDBLK
  5
23BF
100
AcDbEntity
  8
0
 48
5.0
100
AcDbBlockEnd
  0
BLOCK
  5
23C1
100
AcDbEntity
  8
0
 48
5.0
100
AcDbBlockBegin
  2
*D19
 70
     1
 10
0.0
 20
0.0
 30
0.0
  3
*D19
  1

  0
LINE
  5
23C2
100
AcDbEntity
  8
0
  6
BYBLOCK
 62
     0
 48
5.0
100
AcDbLine
 10
188.535556
 20
518.638761
 30
0.0
 11
43.948056
 21
518.638761
 31
0.0
  0
LINE
  5
23C3
100
AcDbEntity
  8
0
  6
BYBLOCK
 62
     0
 48
5.0
100
AcDbLine
 10
74.535556
 20
294.638761
 30
0.0
 11
43.948056
 21
294.638761
 31
0.0
  0
LINE
  5
23C4
100
AcDbEntity
  8
0
  6
BYBLOCK
 62
     0
 48
5.0
100
AcDbLine
 10
44.848056
 20
501.138761
 30
0.0
 11
44.848056
 21
312.138761
 31
0.0
  0
INSERT
  5
23C5
100
AcDbEntity
  8
0
  6
BYBLOCK
 62
     0
 48
5.0
100
AcDbBlockReference
  2
_OPEN
 10
44.848056
 20
518.638761
 30
0.0
 41
17.5
 42
17.5
 43
17.5
 50
90.0
  0
INSERT
  5
23C6
100
AcDbEntity
  8
0
  6
BYBLOCK
 62
     0
 48
5.0
100
AcDbBlockReference
  2
_OPEN
 10
44.848056
 20
294.638761
 30
0.0
 41
17.5
 42
17.5
 43
17.5
 50
270.0
  0
MTEXT
  5
23C7
100
AcDbEntity
  8
0
  6
BYBLOCK
 62
     0
 48
5.0
100
AcDbMText
 10
32.971334
 20
406.638761
 30
0.0
 40
17.5
 41
0.0
 71
     5
 72
     1
  1
\A1;224
 11
0.0
 21
1.0
 31
0.0
  0
POINT
  5
23C8
100
AcDbEntity
  8
DEFPOINTS
  6
BYBLOCK
 62
     0
 48
5.0
100
AcDbPoint
 10
188.848056
 20
518.638761
 30
0.0
  0
POINT
  5
23C9
100
AcDbEntity
  8
DEFPOINTS
  6
BYBLOCK
 62
     0
 48
5.0
100
AcDbPoint
 10
74.848056
 20
294.638761
 30
0.0
  0
POINT
  5
23CA
100
AcDbEntity
  8
DEFPOINTS
  6
BYBLOCK
 62
     0
 48
5.0
100
AcDbPoint
 10
44.848056
 20
294.638761
 30
0.0
  0
ENDBLK
  5
23CB
100
AcDbEntity
  8
0
 48
5.0
100
AcDbBlockEnd
  0
BLOCK
  5
23CD
100
AcDbEntity
  8
0
 48
5.0
100
AcDbBlockBegin
  2
*D20
 70
     1
 10
0.0
 20
0.0
 30
0.0
  3
*D20
  1

  0
LINE
  5
23CE
100
AcDbEntity
  8
0
  6
BYBLOCK
 62
     0
 48
5.0
100
AcDbLine
 10
430.160556
 20
399.638761
 30
0.0
 11
468.748056
 21
399.638761
 31
0.0
  0
LINE
  5
23CF
100
AcDbEntity
  8
0
  6
BYBLOCK
 62
     0
 48
5.0
100
AcDbLine
 10
430.160556
 20
189.638761
 30
0.0
 11
468.748056
 21
189.638761
 31
0.0
  0
LINE
  5
23D0
100
AcDbEntity
  8
0
  6
BYBLOCK
 62
     0
 48
5.0
100
AcDbLine
 10
467.848056
 20
382.138761
 30
0.0
 11
467.848056
 21
207.138761
 31
0.0
  0
INSERT
  5
23D1
100
AcDbEntity
  8
0
  6
BYBLOCK
 62
     0
 48
5.0
100
AcDbBlockReference
  2
_OPEN
 10
467.848056
 20
399.638761
 30
0.0
 41
17.5
 42
17.5
 43
17.5
 50
90.0
  0
INSERT
  5
23D2
100
AcDbEntity
  8
0
  6
BYBLOCK
 62
     0
 48
5.0
100
AcDbBlockReference
  2
_OPEN
 10
467.848056
 20
189.638761
 30
0.0
 41
17.5
 42
17.5
 43
17.5
 50
270.0
  0
MTEXT
  5
23D3
100
AcDbEntity
  8
0
  6
BYBLOCK
 62
     0
 48
5.0
100
AcDbMText
 10
455.971334
 20
294.638761
 30
0.0
 40
17.5
 41
0.0
 71
     5
 72
     1
  1
\A1;210
 11
0.0
 21
1.0
 31
0.0
  0
POINT
  5
23D4
100
AcDbEntity
  8
DEFPOINTS
  6
BYBLOCK
 62
     0
 48
5.0
100
AcDbPoint
 10
429.848056
 20
399.638761
 30
0.0
  0
POINT
  5
23D5
100
AcDbEntity
  8
DEFPOINTS
  6
BYBLOCK
 62
     0
 48
5.0
100
AcDbPoint
 10
429.848056
 20
189.638761
 30
0.0
  0
POINT
  5
23D6
100
AcDbEntity
  8
DEFPOINTS
  6
BYBLOCK
 62
     0
 48
5.0
100
AcDbPoint
 10
467.848056
 20
189.638761
 30
0.0
  0
ENDBLK
  5
23D7
100
AcDbEntity
  8
0
 48
5.0
100
AcDbBlockEnd
  0
ENDSEC
  0
SECTION
  2
ENTITIES
  0
LINE
  5
1CB0
100
AcDbEntity
  8
V0-OBRYS
  6
CONTINUOUS
 62
    90
100
AcDbLine
 10
-476.151944
 20
465.638761
 30
0.0
 11
-471.151944
 21
465.638761
 31
0.0
  0
LINE
  5
1CB1
100
AcDbEntity
  8
V0-OBRYS
  6
CONTINUOUS
 62
    90
100
AcDbLine
 10
-471.151944
 20
465.638761
 30
0.0
 11
-471.151944
 21
294.638761
 31
0.0
  0
LINE
  5
1CB2
100
AcDbEntity
  8
V0-OBRYS
  6
CONTINUOUS
 62
    90
100
AcDbLine
 10
-476.151944
 20
462.638761
 30
0.0
 11
-526.151944
 21
450.638761
 31
0.0
  0
LINE
  5
1CB3
100
AcDbEntity
  8
V0-OBRYS
  6
CONTINUOUS
 62
    90
100
AcDbLine
 10
-476.151944
 20
465.638761
 30
0.0
 11
-476.151944
 21
294.638761
 31
0.0
  0
LINE
  5
1CB4
100
AcDbEntity
  8
V0-OBRYS
  6
CONTINUOUS
 62
    90
100
AcDbLine
 10
-471.151944
 20
462.638761
 30
0.0
 11
-411.151944
 21
462.638761
 31
0.0
  0
LINE
  5
1CB5
100
AcDbEntity
  8
V0-OBRYS
  6
CONTINUOUS
 62
    90
100
AcDbLine
 10
-526.151944
 20
450.638761
 30
0.0
 11
-526.151944
 21
294.638761
 31
0.0
  0
LINE
  5
1CB6
100
AcDbEntity
  8
V0-OBRYS
  6
CONTINUOUS
 62
    90
100
AcDbLine
 10
-291.151944
 20
518.638761
 30
0.0
 11
-291.151944
 21
450.138761
 31
0.0
  0
LINE
  5
1CB7
100
AcDbEntity
  8
V0-OBRYS
  6
CONTINUOUS
 62
    90
100
AcDbLine
 10
-291.151944
 20
450.138761
 30
0.0
 11
-411.151944
 21
450.138761
 31
0.0
  0
LINE
  5
1CB8
100
AcDbEntity
  8
V0-OBRYS
  6
CONTINUOUS
 62
    90
100
AcDbLine
 10
-411.151944
 20
450.138761
 30
0.0
 11
-411.151944
 21
518.638761
 31
0.0
  0
LINE
  5
1CB9
100
AcDbEntity
  8
V0-OBRYS
  6
CONTINUOUS
 62
    90
100
AcDbLine
 10
-411.151944
 20
508.638761
 30
0.0
 11
-291.151944
 21
508.638761
 31
0.0
  0
LINE
  5
1CBA
100
AcDbEntity
  8
V0-OBRYS
  6
CONTINUOUS
 62
    90
100
AcDbLine
 10
-411.151944
 20
518.638761
 30
0.0
 11
-291.151944
 21
518.638761
 31
0.0
  0
LINE
  5
1CBB
100
AcDbEntity
  8
V0-VYPLNE
  6
DASHDOT
 62
    63
 48
3.0
100
AcDbLine
 10
-452.651944
 20
385.638761
 30
0.0
 11
-429.151944
 21
385.638761
 31
0.0
  0
LINE
  5
1CBC
100
AcDbEntity
  8
V0-VYPLNE
  6
DASHDOT
 62
    63
 48
3.0
100
AcDbLine
 10
-442.151944
 20
394.638761
 30
0.0
 11
-442.151944
 21
376.138761
 31
0.0
  0
LINE
  5
1CBD
100
AcDbEntity
  8
V0-OBRYS
  6
CONTINUOUS
 62
    90
100
AcDbLine
 10
-351.151944
 20
399.638761
 30
0.0
 11
-451.651944
 21
399.638761
 31
0.0
  0
ARC
  5
1CBE
100
AcDbEntity
  8
V0-OBRYS
  6
CONTINUOUS
 62
    90
100
AcDbCircle
 10
2156.170696
 20
160.597858
 30
0.0
 40
2618.755329
100
AcDbArc
 50
174.762731
 51
177.066035
  0
CIRCLE
  5
1CBF
100
AcDbEntity
  8
V0-OBRYS
  6
CONTINUOUS
 62
    90
100
AcDbCircle
 10
-442.151944
 20
385.638761
 30
0.0
 40
2.25
  0
LINE
  5
1CC0
100
AcDbEntity
  8
V0-OBRYS
  6
CONTINUOUS
 62
    90
100
AcDbLine
 10
-351.151944
 20
189.638761
 30
0.0
 11
-451.651944
 21
189.638761
 31
0.0
  0
LINE
  5
1CC1
100
AcDbEntity
  8
V0-OBRYS
  6
CONTINUOUS
 62
    90
100
AcDbLine
 10
-526.151944
 20
138.638761
 30
0.0
 11
-526.151944
 21
294.638761
 31
0.0
  0
LINE
  5
1CC2
100
AcDbEntity
  8
V0-OBRYS
  6
CONTINUOUS
 62
    90
100
AcDbLine
 10
-476.151944
 20
123.638761
 30
0.0
 11
-476.151944
 21
294.638761
 31
0.0
  0
LINE
  5
1CC3
100
AcDbEntity
  8
V0-OBRYS
  6
CONTINUOUS
 62
    90
100
AcDbLine
 10
-471.151944
 20
123.638761
 30
0.0
 11
-471.151944
 21
294.638761
 31
0.0
  0
ARC
  5
1CC4
100
AcDbEntity
  8
V0-OBRYS
  6
CONTINUOUS
 62
    90
100
AcDbCircle
 10
2156.170696
 20
428.679664
 30
0.0
 40
2618.755329
100
AcDbArc
 50
182.933965
 51
185.237269
  0
LINE
  5
1CC5
100
AcDbEntity
  8
V0-VYPLNE
  6
DASHDOT
 62
    63
 48
3.0
100
AcDbLine
 10
-442.151944
 20
194.638761
 30
0.0
 11
-442.151944
 21
213.138761
 31
0.0
  0
CIRCLE
  5
1CC6
100
AcDbEntity
  8
V0-OBRYS
  6
CONTINUOUS
 62
    90
100
AcDbCircle
 10
-442.151944
 20
203.638761
 30
0.0
 40
2.25
  0
LINE
  5
1CC7
100
AcDbEntity
  8
V0-VYPLNE
  6
DASHDOT
 62
    63
 48
3.0
100
AcDbLine
 10
-452.651944
 20
203.638761
 30
0.0
 11
-429.151944
 21
203.638761
 31
0.0
  0
LINE
  5
1CC8
100
AcDbEntity
  8
V0-OBRYS
  6
CONTINUOUS
 62
    90
100
AcDbLine
 10
-476.151944
 20
126.638761
 30
0.0
 11
-526.151944
 21
138.638761
 31
0.0
  0
LINE
  5
1CC9
100
AcDbEntity
  8
V0-OBRYS
  6
CONTINUOUS
 62
    90
100
AcDbLine
 10
-471.151944
 20
126.638761
 30
0.0
 11
-231.151944
 21
126.638761
 31
0.0
  0
LINE
  5
1CCA
100
AcDbEntity
  8
V0-OBRYS
  6
CONTINUOUS
 62
    90
100
AcDbLine
 10
-476.151944
 20
123.638761
 30
0.0
 11
-471.151944
 21
123.638761
 31
0.0
  0
LINE
  5
1CCB
100
AcDbEntity
  8
V0-OBRYS
  6
CONTINUOUS
 62
    90
100
AcDbLine
 10
-351.151944
 20
189.638761
 30
0.0
 11
-250.651944
 21
189.638761
 31
0.0
  0
LINE
  5
1CCC
100
AcDbEntity
  8
V0-OBRYS
  6
CONTINUOUS
 62
    90
100
AcDbLine
 10
-351.151944
 20
399.638761
 30
0.0
 11
-250.651944
 21
399.638761
 31
0.0
  0
LINE
  5
1CCD
100
AcDbEntity
  8
V0-VYPLNE
  6
DASHDOT
 62
    63
 48
3.0
100
AcDbLine
 10
435.348056
 20
294.638761
 30
0.0
 11
74.848056
 21
294.638761
 31
0.0
  0
LINE
  5
1CCE
100
AcDbEntity
  8
V0-OBRYS
  6
CONTINUOUS
 62
    90
100
AcDbLine
 10
-176.151944
 20
450.638761
 30
0.0
 11
-176.151944
 21
294.638761
 31
0.0
  0
LINE
  5
1CCF
100
AcDbEntity
  8
V0-OBRYS
  6
CONTINUOUS
 62
    90
100
AcDbLine
 10
-226.151944
 20
465.638761
 30
0.0
 11
-226.151944
 21
294.638761
 31
0.0
  0
LINE
  5
1CD0
100
AcDbEntity
  8
V0-OBRYS
  6
CONTINUOUS
 62
    90
100
AcDbLine
 10
-231.151944
 20
465.638761
 30
0.0
 11
-231.151944
 21
294.638761
 31
0.0
  0
ARC
  5
1CD1
100
AcDbEntity
  8
V0-OBRYS
  6
CONTINUOUS
 62
    90
100
AcDbCircle
 10
-2858.474584
 20
428.679664
 30
0.0
 40
2618.755329
100
AcDbArc
 50
354.762731
 51
357.066035
  0
LINE
  5
1CD2
100
AcDbEntity
  8
V0-OBRYS
  6
CONTINUOUS
 62
    90
100
AcDbLine
 10
-231.151944
 20
123.638761
 30
0.0
 11
-231.151944
 21
294.638761
 31
0.0
  0
LINE
  5
1CD3
100
AcDbEntity
  8
V0-OBRYS
  6
CONTINUOUS
 62
    90
100
AcDbLine
 10
-226.151944
 20
123.638761
 30
0.0
 11
-226.151944
 21
294.638761
 31
0.0
  0
LINE
  5
1CD4
100
AcDbEntity
  8
V0-OBRYS
  6
CONTINUOUS
 62
    90
100
AcDbLine
 10
-176.151944
 20
138.638761
 30
0.0
 11
-176.151944
 21
294.638761
 31
0.0
  0
LINE
  5
1CD5
100
AcDbEntity
  8
V0-OBRYS
  6
CONTINUOUS
 62
    90
100
AcDbLine
 10
-226.151944
 20
126.638761
 30
0.0
 11
-176.151944
 21
138.638761
 31
0.0
  0
LINE
  5
1CD6
100
AcDbEntity
  8
V0-OBRYS
  6
CONTINUOUS
 62
    90
100
AcDbLine
 10
-226.151944
 20
123.638761
 30
0.0
 11
-231.151944
 21
123.638761
 31
0.0
  0
LINE
  5
1CD7
100
AcDbEntity
  8
V0-VYPLNE
  6
DASHDOT
 62
    63
 48
3.0
100
AcDbLine
 10
-260.151944
 20
194.638761
 30
0.0
 11
-260.151944
 21
213.138761
 31
0.0
  0
LINE
  5
1CD8
100
AcDbEntity
  8
V0-VYPLNE
  6
DASHDOT
 62
    63
 48
3.0
100
AcDbLine
 10
-249.651944
 20
203.638761
 30
0.0
 11
-273.151944
 21
203.638761
 31
0.0
  0
CIRCLE
  5
1CD9
100
AcDbEntity
  8
V0-OBRYS
  6
CONTINUOUS
 62
    90
100
AcDbCircle
 10
-260.151944
 20
203.638761
 30
0.0
 40
2.25
  0
ARC
  5
1CDA
100
AcDbEntity
  8
V0-OBRYS
  6
CONTINUOUS
 62
    90
100
AcDbCircle
 10
-2858.474584
 20
160.597858
 30
0.0
 40
2618.755329
100
AcDbArc
 50
2.933965
 51
5.237269
  0
LINE
  5
1CDB
100
AcDbEntity
  8
V0-VYPLNE
  6
DASHDOT
 62
    63
 48
3.0
100
AcDbLine
 10
-260.151944
 20
394.638761
 30
0.0
 11
-260.151944
 21
376.138761
 31
0.0
  0
CIRCLE
  5
1CDC
100
AcDbEntity
  8
V0-OBRYS
  6
CONTINUOUS
 62
    90
100
AcDbCircle
 10
-260.151944
 20
385.638761
 30
0.0
 40
2.25
  0
LINE
  5
1CDD
100
AcDbEntity
  8
V0-VYPLNE
  6
DASHDOT
 62
    63
 48
3.0
100
AcDbLine
 10
-249.651944
 20
385.638761
 30
0.0
 11
-273.151944
 21
385.638761
 31
0.0
  0
LINE
  5
1CDE
100
AcDbEntity
  8
V0-OBRYS
  6
CONTINUOUS
 62
    90
100
AcDbLine
 10
-226.151944
 20
462.638761
 30
0.0
 11
-176.151944
 21
450.638761
 31
0.0
  0
LINE
  5
1CDF
100
AcDbEntity
  8
V0-OBRYS
  6
CONTINUOUS
 62
    90
100
AcDbLine
 10
-231.151944
 20
462.638761
 30
0.0
 11
-291.151944
 21
462.638761
 31
0.0
  0
LINE
  5
1CE0
100
AcDbEntity
  8
V0-OBRYS
  6
CONTINUOUS
 62
    90
100
AcDbLine
 10
-226.151944
 20
465.638761
 30
0.0
 11
-231.151944
 21
465.638761
 31
0.0
  0
LINE
  5
1CE1
100
AcDbEntity
  8
V0-VYPLNE
  6
DASHDOT
 62
    63
 48
3.0
100
AcDbLine
 10
248.848056
 20
496.138761
 30
0.0
 11
248.848056
 21
115.638761
 31
0.0
  0
CIRCLE
  5
1CE2
100
AcDbEntity
  8
V0-OBRYS
  6
CONTINUOUS
 62
    90
100
AcDbCircle
 10
248.848056
 20
294.638761
 30
0.0
 40
168.0
  0
LINE
  5
1CE3
100
AcDbEntity
  8
V0-OBRYS
  6
CONTINUOUS
 62
    90
100
AcDbLine
 10
188.848056
 20
454.224944
 30
0.0
 11
188.848056
 21
518.638761
 31
0.0
  0
LINE
  5
1CE4
100
AcDbEntity
  8
V0-OBRYS
  6
CONTINUOUS
 62
    90
100
AcDbLine
 10
308.848056
 20
518.638761
 30
0.0
 11
308.848056
 21
454.224944
 31
0.0
  0
LINE
  5
1CE5
100
AcDbEntity
  8
V0-OBRYS
  6
CONTINUOUS
 62
    90
100
AcDbLine
 10
188.848056
 20
518.638761
 30
0.0
 11
308.848056
 21
518.638761
 31
0.0
  0
LINE
  5
1CE6
100
AcDbEntity
  8
V0-OBRYS
  6
CONTINUOUS
 62
    90
100
AcDbLine
 10
188.848056
 20
511.138761
 30
0.0
 11
308.848056
 21
511.138761
 31
0.0
  0
LINE
  5
1CE7
100
AcDbEntity
  8
V0-OBRYS
  6
CONTINUOUS
 62
    90
100
AcDbLine
 10
429.848056
 20
399.638761
 30
0.0
 11
429.848056
 21
339.18011
 31
0.0
  0
LINE
  5
1CE8
100
AcDbEntity
  8
V0-OBRYS
  6
CONTINUOUS
 62
    90
100
AcDbLine
 10
429.848056
 20
399.638761
 30
0.0
 11
378.848056
 21
399.638761
 31
0.0
  0
CIRCLE
  5
1CEE
100
AcDbEntity
  8
V0-OBRYS
  6
CONTINUOUS
 62
    90
100
AcDbCircle
 10
248.848056
 20
294.638761
 30
0.0
 40
150.0
  0
LINE
  5
1D03
100
AcDbEntity
  8
V0-OBRYS
  6
CONTINUOUS
 62
    90
100
AcDbLine
 10
429.848056
 20
189.638761
 30
0.0
 11
378.848056
 21
189.638761
 31
0.0
  0
LINE
  5
1D04
100
AcDbEntity
  8
V0-OBRYS
  6
CONTINUOUS
 62
    90
100
AcDbLine
 10
429.848056
 20
189.638761
 30
0.0
 11
429.848056
 21
250.097412
 31
0.0
  0
LINE
  5
1D05
100
AcDbEntity
  8
V0-VYPLNE
  6
DASHDOT
 62
    63
 48
3.0
100
AcDbLine
 10
413.848056
 20
385.638761
 30
0.0
 11
445.848056
 21
385.638761
 31
0.0
  0
LINE
  5
1D06
100
AcDbEntity
  8
V0-VYPLNE
  6
DASHDOT
 62
    63
 48
3.0
100
AcDbLine
 10
413.848056
 20
203.638761
 30
0.0
 11
445.848056
 21
203.638761
 31
0.0
  0
DIMENSION
  5
1D07
100
AcDbEntity
  8
V0-VYPLNE
  6
CONTINUOUS
 62
    41
100
AcDbDimension
  2
*D16
 10
-92.151944
 20
138.638761
 30
0.0
 11
-104.028666
 21
294.638761
 31
0.0
 70
    32
  1
%%C312
  3
STANDARD
100
AcDbAlignedDimension
 13
-126.151944
 23
450.638761
 33
0.0
 14
-126.151944
 24
138.638761
 34
0.0
 50
90.0
100
AcDbRotatedDimension
  0
LINE
  5
1D08
100
AcDbEntity
  8
V0-VYPLNE
  6
DASHDOT
 62
    63
 48
3.0
100
AcDbLine
 10
-116.151944
 20
294.638761
 30
0.0
 11
-184.866096
 21
294.638761
 31
0.0
  0
DIMENSION
  5
1D09
100
AcDbEntity
  8
V0-VYPLNE
  6
CONTINUOUS
 62
    41
100
AcDbDimension
  2
*D13
 10
-57.151944
 20
123.638761
 30
0.0
 11
-69.026944
 21
294.638761
 31
0.0
 70
    32
  1
%%C336
  3
STANDARD
100
AcDbAlignedDimension
 13
-226.151944
 23
465.638761
 33
0.0
 14
-226.151944
 24
123.638761
 34
0.0
 50
90.0
100
AcDbRotatedDimension
  0
DIMENSION
  5
1D0A
100
AcDbEntity
  8
V0-VYPLNE
  6
CONTINUOUS
 62
    41
100
AcDbDimension
  2
*D11
 10
-126.151944
 20
67.263761
 30
0.0
 11
-367.151944
 21
67.263761
 31
0.0
 70
   160
  3
STANDARD
100
AcDbAlignedDimension
 13
-576.151944
 23
138.638761
 33
0.0
 14
-126.151944
 24
138.638761
 34
0.0
100
AcDbRotatedDimension
  0
DIMENSION
  5
1D0B
100
AcDbEntity
  8
V0-VYPLNE
  6
CONTINUOUS
 62
    41
100
AcDbDimension
  2
*D15
 10
-260.151944
 20
165.638761
 30
0.0
 11
-351.151944
 21
165.638761
 31
0.0
 70
   160
  3
STANDARD
100
AcDbAlignedDimension
 13
-442.151944
 23
194.638761
 33
0.0
 14
-260.151944
 24
194.638761
 34
0.0
100
AcDbRotatedDimension
  0
DIMENSION
  5
1D0C
100
AcDbEntity
  8
V0-VYPLNE
  6
CONTINUOUS
 62
    41
100
AcDbDimension
  2
*D12
 10
-191.525097
 20
203.638761
 30
0.0
 11
-191.525097
 21
294.276047
 31
0.0
 70
   160
  3
STANDARD
100
AcDbAlignedDimension
 13
-273.151944
 23
385.638761
 33
0.0
 14
-273.151944
 24
203.638761
 34
0.0
 50
90.0
100
AcDbRotatedDimension
  0
DIMENSION
  5
1D0E
100
AcDbEntity
  8
V0-VYPLNE
  6
CONTINUOUS
 62
    41
100
AcDbDimension
  2
*D20
 10
467.848056
 20
189.638761
 30
0.0
 11
455.971334
 21
294.638761
 31
0.0
 70
    32
  3
STANDARD
100
AcDbAlignedDimension
 13
429.848056
 23
399.638761
 33
0.0
 14
429.848056
 24
189.638761
 34
0.0
 50
90.0
100
AcDbRotatedDimension
  0
DIMENSION
  5
1D0F
100
AcDbEntity
  8
V0-VYPLNE
  6
CONTINUOUS
 62
    41
100
AcDbDimension
  2
*D19
 10
44.848056
 20
294.638761
 30
0.0
 11
32.971334
 21
406.638761
 31
0.0
 70
    32
  3
STANDARD
100
AcDbAlignedDimension
 13
188.848056
 23
518.638761
 33
0.0
 14
74.848056
 24
294.638761
 34
0.0
 50
90.0
100
AcDbRotatedDimension
  0
LINE
  5
1D12
100
AcDbEntity
  8
V0-VYPLNE
  6
DASHDOT
 62
    63
 48
3.0
100
AcDbLine
 10
-243.151944
 20
294.638761
 30
0.0
 11
-592.651944
 21
294.638761
 31
0.0
  0
DIMENSION
  5
1D16
100
AcDbEntity
  8
V0-VYPLNE
  6
CONTINUOUS
 62
    41
100
AcDbDimension
  2
*D17
 10
429.848056
 20
90.638761
 30
0.0
 11
255.348056
 21
102.513761
 31
0.0
 70
    32
  3
STANDARD
100
AcDbAlignedDimension
 13
80.848056
 23
294.638761
 33
0.0
 14
429.848056
 24
189.638761
 34
0.0
100
AcDbRotatedDimension
  0
CIRCLE
  5
1D17
100
AcDbEntity
  8
V0-OBRYS
  6
CONTINUOUS
 62
    90
100
AcDbCircle
 10
248.848056
 20
294.638761
 30
0.0
 40
162.5
  0
LINE
  5
1D18
100
AcDbEntity
  8
V0-OBRYS
  6
CONTINUOUS
 62
    90
100
AcDbLine
 10
-526.151944
 20
-49.361239
 30
0.0
 11
-526.151944
 21
-205.361239
 31
0.0
  0
LINE
  5
1D19
100
AcDbEntity
  8
V0-OBRYS
  6
CONTINUOUS
 62
    90
100
AcDbLine
 10
-476.151944
 20
-34.361239
 30
0.0
 11
-476.151944
 21
-205.361239
 31
0.0
  0
LINE
  5
1D1A
100
AcDbEntity
  8
V0-OBRYS
  6
CONTINUOUS
 62
    90
100
AcDbLine
 10
-471.151944
 20
-34.361239
 30
0.0
 11
-471.151944
 21
-205.361239
 31
0.0
  0
LINE
  5
1D1B
100
AcDbEntity
  8
V0-OBRYS
  6
CONTINUOUS
 62
    90
100
AcDbLine
 10
-471.151944
 20
-376.361239
 30
0.0
 11
-471.151944
 21
-205.361239
 31
0.0
  0
LINE
  5
1D1C
100
AcDbEntity
  8
V0-OBRYS
  6
CONTINUOUS
 62
    90
100
AcDbLine
 10
-476.151944
 20
-376.361239
 30
0.0
 11
-476.151944
 21
-205.361239
 31
0.0
  0
LINE
  5
1D1D
100
AcDbEntity
  8
V0-OBRYS
  6
CONTINUOUS
 62
    90
100
AcDbLine
 10
-526.151944
 20
-361.361239
 30
0.0
 11
-526.151944
 21
-205.361239
 31
0.0
  0
LINE
  5
1D1E
100
AcDbEntity
  8
V0-OBRYS
  6
CONTINUOUS
 62
    90
100
AcDbLine
 10
-476.151944
 20
-373.361239
 30
0.0
 11
-526.151944
 21
-361.361239
 31
0.0
  0
LINE
  5
1D1F
100
AcDbEntity
  8
V0-OBRYS
  6
CONTINUOUS
 62
    90
100
AcDbLine
 10
-476.151944
 20
-376.361239
 30
0.0
 11
-471.151944
 21
-376.361239
 31
0.0
  0
LINE
  5
1D20
100
AcDbEntity
  8
V0-OBRYS
  6
CONTINUOUS
 62
    90
100
AcDbLine
 10
-476.151944
 20
-37.361239
 30
0.0
 11
-526.151944
 21
-49.361239
 31
0.0
  0
LINE
  5
1D21
100
AcDbEntity
  8
V0-OBRYS
  6
CONTINUOUS
 62
    90
100
AcDbLine
 10
-476.151944
 20
-34.361239
 30
0.0
 11
-471.151944
 21
-34.361239
 31
0.0
  0
LINE
  5
1D22
100
AcDbEntity
  8
V0-OBRYS
  6
CONTINUOUS
 62
    90
100
AcDbLine
 10
-471.151944
 20
-37.361239
 30
0.0
 11
-231.151944
 21
-37.361239
 31
0.0
  0
LINE
  5
1D23
100
AcDbEntity
  8
V0-OBRYS
  6
CONTINUOUS
 62
    90
100
AcDbLine
 10
-471.151944
 20
-373.361239
 30
0.0
 11
-231.151944
 21
-373.361239
 31
0.0
  0
LINE
  5
1D24
100
AcDbEntity
  8
V0-OBRYS
  6
CONTINUOUS
 62
    90
100
AcDbLine
 10
-231.151944
 20
-34.361239
 30
0.0
 11
-231.151944
 21
-205.361239
 31
0.0
  0
LINE
  5
1D25
100
AcDbEntity
  8
V0-OBRYS
  6
CONTINUOUS
 62
    90
100
AcDbLine
 10
-226.151944
 20
-34.361239
 30
0.0
 11
-226.151944
 21
-205.361239
 31
0.0
  0
LINE
  5
1D26
100
AcDbEntity
  8
V0-OBRYS
  6
CONTINUOUS
 62
    90
100
AcDbLine
 10
-176.151944
 20
-49.361239
 30
0.0
 11
-176.151944
 21
-205.361239
 31
0.0
  0
LINE
  5
1D27
100
AcDbEntity
  8
V0-OBRYS
  6
CONTINUOUS
 62
    90
100
AcDbLine
 10
-176.151944
 20
-361.361239
 30
0.0
 11
-176.151944
 21
-205.361239
 31
0.0
  0
LINE
  5
1D28
100
AcDbEntity
  8
V0-OBRYS
  6
CONTINUOUS
 62
    90
100
AcDbLine
 10
-226.151944
 20
-376.361239
 30
0.0
 11
-226.151944
 21
-205.361239
 31
0.0
  0
LINE
  5
1D29
100
AcDbEntity
  8
V0-OBRYS
  6
CONTINUOUS
 62
    90
100
AcDbLine
 10
-231.151944
 20
-376.361239
 30
0.0
 11
-231.151944
 21
-205.361239
 31
0.0
  0
LINE
  5
1D2A
100
AcDbEntity
  8
V0-OBRYS
  6
CONTINUOUS
 62
    90
100
AcDbLine
 10
-226.151944
 20
-376.361239
 30
0.0
 11
-231.151944
 21
-376.361239
 31
0.0
  0
LINE
  5
1D2B
100
AcDbEntity
  8
V0-OBRYS
  6
CONTINUOUS
 62
    90
100
AcDbLine
 10
-226.151944
 20
-373.361239
 30
0.0
 11
-176.151944
 21
-361.361239
 31
0.0
  0
LINE
  5
1D2C
100
AcDbEntity
  8
V0-OBRYS
  6
CONTINUOUS
 62
    90
100
AcDbLine
 10
-226.151944
 20
-34.361239
 30
0.0
 11
-231.151944
 21
-34.361239
 31
0.0
  0
LINE
  5
1D2D
100
AcDbEntity
  8
V0-OBRYS
  6
CONTINUOUS
 62
    90
100
AcDbLine
 10
-226.151944
 20
-37.361239
 30
0.0
 11
-176.151944
 21
-49.361239
 31
0.0
  0
LINE
  5
1D30
100
AcDbEntity
  8
V0-OBRYS
  6
CONTINUOUS
 62
    90
100
AcDbLine
 10
-451.151944
 20
-350.361239
 30
0.0
 11
-451.151944
 21
-386.361239
 31
0.0
  0
LINE
  5
1D31
100
AcDbEntity
  8
V0-OBRYS
  6
CONTINUOUS
 62
    90
100
AcDbLine
 10
-451.151944
 20
-386.361239
 30
0.0
 11
-351.151944
 21
-386.361239
 31
0.0
  0
LINE
  5
1D32
100
AcDbEntity
  8
V0-VYPLNE
  6
DASHDOT
 62
    63
 48
3.0
100
AcDbLine
 10
-442.151944
 20
-375.361239
 30
0.0
 11
-442.151944
 21
-404.361239
 31
0.0
  0
LINE
  5
1D33
100
AcDbEntity
  8
V0-OBRYS
  6
CONTINUOUS
 62
    90
100
AcDbLine
 10
-251.151944
 20
-350.361239
 30
0.0
 11
-251.151944
 21
-386.361239
 31
0.0
  0
LINE
  5
1D34
100
AcDbEntity
  8
V0-VYPLNE
  6
DASHDOT
 62
    63
 48
3.0
100
AcDbLine
 10
-260.151944
 20
-375.361239
 30
0.0
 11
-260.151944
 21
-404.361239
 31
0.0
  0
LINE
  5
1D35
100
AcDbEntity
  8
V0-OBRYS
  6
CONTINUOUS
 62
    90
100
AcDbLine
 10
-251.151944
 20
-386.361239
 30
0.0
 11
-351.151944
 21
-386.361239
 31
0.0
  0
LINE
  5
1D36
100
AcDbEntity
  8
V0-OBRYS
  6
CONTINUOUS
 62
    90
100
AcDbLine
 10
-411.151944
 20
-208.861239
 30
0.0
 11
-411.151944
 21
-155.361239
 31
0.0
  0
LINE
  5
1D37
100
AcDbEntity
  8
V0-OBRYS
  6
CONTINUOUS
 62
    90
100
AcDbLine
 10
-401.151944
 20
-145.361239
 30
0.0
 11
-301.151944
 21
-145.361239
 31
0.0
  0
LINE
  5
1D38
100
AcDbEntity
  8
V0-OBRYS
  6
CONTINUOUS
 62
    90
100
AcDbLine
 10
-291.151944
 20
-155.361239
 30
0.0
 11
-291.151944
 21
-208.861239
 31
0.0
  0
ARC
  5
1D3B
100
AcDbEntity
  8
V0-OBRYS
  6
CONTINUOUS
 62
    90
100
AcDbCircle
 10
-401.151944
 20
-155.361239
 30
0.0
 40
10.0
100
AcDbArc
 50
90.0
 51
180.0
  0
ARC
  5
1D3C
100
AcDbEntity
  8
V0-OBRYS
  6
CONTINUOUS
 62
    90
100
AcDbCircle
 10
-301.151944
 20
-155.361239
 30
0.0
 40
10.0
100
AcDbArc
 50
0.0
 51
90.0
  0
LINE
  5
1D3D
100
AcDbEntity
  8
V0-OBRYS
  6
CONTINUOUS
 62
    90
100
AcDbLine
 10
-401.151944
 20
-265.361239
 30
0.0
 11
-301.151944
 21
-265.361239
 31
0.0
  0
LINE
  5
1D3E
100
AcDbEntity
  8
V0-OBRYS
  6
CONTINUOUS
 62
    90
100
AcDbLine
 10
-411.151944
 20
-201.861239
 30
0.0
 11
-411.151944
 21
-255.361239
 31
0.0
  0
ARC
  5
1D3F
100
AcDbEntity
  8
V0-OBRYS
  6
CONTINUOUS
 62
    90
100
AcDbCircle
 10
-401.151944
 20
-255.361239
 30
0.0
 40
10.0
100
AcDbArc
 50
180.0
 51
270.0
  0
LINE
  5
1D41
100
AcDbEntity
  8
V0-OBRYS
  6
CONTINUOUS
 62
    90
100
AcDbLine
 10
-291.151944
 20
-255.361239
 30
0.0
 11
-291.151944
 21
-201.861239
 31
0.0
  0
ARC
  5
1D42
100
AcDbEntity
  8
V0-OBRYS
  6
CONTINUOUS
 62
    90
100
AcDbCircle
 10
-301.151944
 20
-255.361239
 30
0.0
 40
10.0
100
AcDbArc
 50
270.0
 51
0.0
  0
LINE
  5
1E6C
100
AcDbEntity
  8
V0-OBRYS
  6
CONTINUOUS
 62
    90
100
AcDbLine
 10
336.405802
 20
367.188773
 30
0.0
 11
359.171408
 21
384.007917
 31
0.0
  0
LINE
  5
1E6D
100
AcDbEntity
  8
V0-OBRYS
  6
CONTINUOUS
 62
    90
100
AcDbLine
 10
248.84721
 20
391.227284
 30
0.0
 11
248.841086
 21
320.682738
 31
0.0
  0
ARC
  5
1E6E
100
AcDbEntity
  8
V0-OBRYS
  6
CONTINUOUS
 62
    90
100
AcDbCircle
 10
299.864802
 20
263.534431
 30
0.0
 40
76.611673
100
AcDbArc
 50
94.288647
 51
131.759431
  0
ARC
  5
1E6F
100
AcDbEntity
  8
V0-OBRYS
  6
CONTINUOUS
 62
    90
100
AcDbCircle
 10
298.843683
 20
315.26792
 30
0.0
 40
100.624282
100
AcDbArc
 50
53.133515
 51
112.631049
  0
ARC
  5
1E70
100
AcDbEntity
  8
V0-OBRYS
  6
CONTINUOUS
 62
    90
100
AcDbCircle
 10
267.17721
 20
391.225692
 30
0.0
 40
18.33
100
AcDbArc
 50
112.631049
 51
179.995026
  0
ARC
  5
1E71
100
AcDbEntity
  8
V0-OBRYS
  6
CONTINUOUS
 62
    90
100
AcDbCircle
 10
354.814608
 20
389.905079
 30
0.0
 40
7.332
100
AcDbArc
 50
306.456849
 51
53.133515
  0
ARC
  5
1E72
100
AcDbEntity
  8
V0-OBRYS
  6
CONTINUOUS
 62
    90
100
AcDbCircle
 10
256.414264
 20
436.931887
 30
0.0
 40
7.332
100
AcDbArc
 50
351.456849
 51
98.133515
  0
ARC
  5
1E73
100
AcDbEntity
  8
V0-OBRYS
  6
CONTINUOUS
 62
    90
100
AcDbCircle
 10
269.613285
 20
344.578026
 30
0.0
 40
100.624282
100
AcDbArc
 50
98.133515
 51
157.631049
  0
ARC
  5
1E74
100
AcDbEntity
  8
V0-OBRYS
  6
CONTINUOUS
 62
    90
100
AcDbCircle
 10
193.511451
 20
375.896704
 30
0.0
 40
18.33
100
AcDbArc
 50
157.631049
 51
224.995026
  0
LINE
  5
1E75
100
AcDbEntity
  8
V0-OBRYS
  6
CONTINUOUS
 62
    90
100
AcDbLine
 10
180.549058
 20
362.936562
 30
0.0
 11
230.427255
 21
313.049705
 31
0.0
  0
ARC
  5
1E76
100
AcDbEntity
  8
V0-OBRYS
  6
CONTINUOUS
 62
    90
100
AcDbCircle
 10
306.916425
 20
308.718965
 30
0.0
 40
76.611673
100
AcDbArc
 50
139.288647
 51
176.759431
  0
LINE
  5
1E77
100
AcDbEntity
  8
V0-OBRYS
  6
CONTINUOUS
 62
    90
100
AcDbLine
 10
259.367719
 20
407.236897
 30
0.0
 11
263.66491
 21
435.842688
 31
0.0
  0
ARC
  5
1E78
100
AcDbEntity
  8
V0-OBRYS
  6
CONTINUOUS
 62
    90
100
AcDbCircle
 10
234.767852
 20
352.70713
 30
0.0
 40
76.611673
100
AcDbArc
 50
229.288647
 51
266.759431
  0
LINE
  5
1E79
100
AcDbEntity
  8
V0-OBRYS
  6
CONTINUOUS
 62
    90
100
AcDbLine
 10
180.550255
 20
226.339763
 30
0.0
 11
230.437113
 21
276.21796
 31
0.0
  0
LINE
  5
1E7A
100
AcDbEntity
  8
V0-OBRYS
  6
CONTINUOUS
 62
    90
100
AcDbLine
 10
152.259533
 20
294.637914
 30
0.0
 11
222.80408
 21
294.63179
 31
0.0
  0
LINE
  5
1E7B
100
AcDbEntity
  8
V0-OBRYS
  6
CONTINUOUS
 62
    90
100
AcDbLine
 10
176.298044
 20
382.196507
 30
0.0
 11
159.4789
 21
404.962113
 31
0.0
  0
ARC
  5
1E7C
100
AcDbEntity
  8
V0-OBRYS
  6
CONTINUOUS
 62
    90
100
AcDbCircle
 10
279.952386
 20
345.655506
 30
0.0
 40
76.611673
100
AcDbArc
 50
184.288647
 51
221.759431
  0
ARC
  5
1E7D
100
AcDbEntity
  8
V0-OBRYS
  6
CONTINUOUS
 62
    90
100
AcDbCircle
 10
228.218897
 20
344.634388
 30
0.0
 40
100.624282
100
AcDbArc
 50
143.133515
 51
202.631049
  0
ARC
  5
1E7E
100
AcDbEntity
  8
V0-OBRYS
  6
CONTINUOUS
 62
    90
100
AcDbCircle
 10
106.55493
 20
302.204969
 30
0.0
 40
7.332
100
AcDbArc
 50
81.456849
 51
188.133515
  0
ARC
  5
1E7F
100
AcDbEntity
  8
V0-OBRYS
  6
CONTINUOUS
 62
    90
100
AcDbCircle
 10
198.908791
 20
315.40399
 30
0.0
 40
100.624282
100
AcDbArc
 50
188.133515
 51
247.631049
  0
ARC
  5
1E80
100
AcDbEntity
  8
V0-OBRYS
  6
CONTINUOUS
 62
    90
100
AcDbCircle
 10
167.590113
 20
239.302155
 30
0.0
 40
18.33
100
AcDbArc
 50
247.631049
 51
314.995026
  0
ARC
  5
1E81
100
AcDbEntity
  8
V0-OBRYS
  6
CONTINUOUS
 62
    90
100
AcDbCircle
 10
152.261125
 20
312.967914
 30
0.0
 40
18.33
100
AcDbArc
 50
202.631049
 51
269.995026
  0
LINE
  5
1E82
100
AcDbEntity
  8
V0-OBRYS
  6
CONTINUOUS
 62
    90
100
AcDbLine
 10
136.24992
 20
305.158423
 30
0.0
 11
107.64413
 21
309.455615
 31
0.0
  0
ARC
  5
1E83
100
AcDbEntity
  8
V0-OBRYS
  6
CONTINUOUS
 62
    90
100
AcDbCircle
 10
153.581739
 20
400.605312
 30
0.0
 40
7.332
100
AcDbArc
 50
36.456849
 51
143.133515
  0
ARC
  5
1E84
100
AcDbEntity
  8
V0-OBRYS
  6
CONTINUOUS
 62
    90
100
AcDbCircle
 10
190.779687
 20
280.558557
 30
0.0
 40
76.611673
100
AcDbArc
 50
319.288647
 51
356.759431
  0
LINE
  5
1E85
100
AcDbEntity
  8
V0-OBRYS
  6
CONTINUOUS
 62
    90
100
AcDbLine
 10
317.147054
 20
226.34096
 30
0.0
 11
267.268858
 21
276.227817
 31
0.0
  0
LINE
  5
1E86
100
AcDbEntity
  8
V0-OBRYS
  6
CONTINUOUS
 62
    90
100
AcDbLine
 10
248.848903
 20
198.050238
 30
0.0
 11
248.855027
 21
268.594784
 31
0.0
  0
LINE
  5
1E87
100
AcDbEntity
  8
V0-OBRYS
  6
CONTINUOUS
 62
    90
100
AcDbLine
 10
161.29031
 20
222.088748
 30
0.0
 11
138.524704
 21
205.269605
 31
0.0
  0
ARC
  5
1E88
100
AcDbEntity
  8
V0-OBRYS
  6
CONTINUOUS
 62
    90
100
AcDbCircle
 10
197.831311
 20
325.743091
 30
0.0
 40
76.611673
100
AcDbArc
 50
274.288647
 51
311.759431
  0
ARC
  5
1E89
100
AcDbEntity
  8
V0-OBRYS
  6
CONTINUOUS
 62
    90
100
AcDbCircle
 10
198.852429
 20
274.009602
 30
0.0
 40
100.624282
100
AcDbArc
 50
233.133515
 51
292.631049
  0
ARC
  5
1E8A
100
AcDbEntity
  8
V0-OBRYS
  6
CONTINUOUS
 62
    90
100
AcDbCircle
 10
241.281849
 20
152.345635
 30
0.0
 40
7.332
100
AcDbArc
 50
171.456849
 51
278.133515
  0
ARC
  5
1E8B
100
AcDbEntity
  8
V0-OBRYS
  6
CONTINUOUS
 62
    90
100
AcDbCircle
 10
228.082827
 20
244.699496
 30
0.0
 40
100.624282
100
AcDbArc
 50
278.133515
 51
337.631049
  0
ARC
  5
1E8C
100
AcDbEntity
  8
V0-OBRYS
  6
CONTINUOUS
 62
    90
100
AcDbCircle
 10
304.184662
 20
213.380818
 30
0.0
 40
18.33
100
AcDbArc
 50
337.631049
 51
44.995026
  0
ARC
  5
1E8D
100
AcDbEntity
  8
V0-OBRYS
  6
CONTINUOUS
 62
    90
100
AcDbCircle
 10
230.518903
 20
198.051829
 30
0.0
 40
18.33
100
AcDbArc
 50
292.631049
 51
359.995026
  0
LINE
  5
1E8E
100
AcDbEntity
  8
V0-OBRYS
  6
CONTINUOUS
 62
    90
100
AcDbLine
 10
238.328394
 20
182.040625
 30
0.0
 11
234.031202
 21
153.434834
 31
0.0
  0
ARC
  5
1E8F
100
AcDbEntity
  8
V0-OBRYS
  6
CONTINUOUS
 62
    90
100
AcDbCircle
 10
142.881505
 20
199.372443
 30
0.0
 40
7.332
100
AcDbArc
 50
126.456849
 51
233.133515
  0
ARC
  5
1E90
100
AcDbEntity
  8
V0-OBRYS
  6
CONTINUOUS
 62
    90
100
AcDbCircle
 10
262.92826
 20
236.570392
 30
0.0
 40
76.611673
100
AcDbArc
 50
49.288647
 51
86.759431
  0
LINE
  5
1E91
100
AcDbEntity
  8
V0-OBRYS
  6
CONTINUOUS
 62
    90
100
AcDbLine
 10
317.145857
 20
362.937759
 30
0.0
 11
267.259
 21
313.059562
 31
0.0
  0
LINE
  5
1E92
100
AcDbEntity
  8
V0-OBRYS
  6
CONTINUOUS
 62
    90
100
AcDbLine
 10
345.436579
 20
294.639607
 30
0.0
 11
274.892033
 21
294.645731
 31
0.0
  0
LINE
  5
1E93
100
AcDbEntity
  8
V0-OBRYS
  6
CONTINUOUS
 62
    90
100
AcDbLine
 10
321.398069
 20
207.081015
 30
0.0
 11
338.217213
 21
184.315409
 31
0.0
  0
ARC
  5
1E94
100
AcDbEntity
  8
V0-OBRYS
  6
CONTINUOUS
 62
    90
100
AcDbCircle
 10
217.743726
 20
243.622016
 30
0.0
 40
76.611673
100
AcDbArc
 50
4.288647
 51
41.759431
  0
ARC
  5
1E95
100
AcDbEntity
  8
V0-OBRYS
  6
CONTINUOUS
 62
    90
100
AcDbCircle
 10
269.477215
 20
244.643134
 30
0.0
 40
100.624282
100
AcDbArc
 50
323.133515
 51
22.631049
  0
ARC
  5
1E96
100
AcDbEntity
  8
V0-OBRYS
  6
CONTINUOUS
 62
    90
100
AcDbCircle
 10
391.141183
 20
287.072553
 30
0.0
 40
7.332
100
AcDbArc
 50
261.456849
 51
8.133515
  0
ARC
  5
1E97
100
AcDbEntity
  8
V0-OBRYS
  6
CONTINUOUS
 62
    90
100
AcDbCircle
 10
298.787321
 20
273.873532
 30
0.0
 40
100.624282
100
AcDbArc
 50
8.133515
 51
67.631049
  0
ARC
  5
1E98
100
AcDbEntity
  8
V0-OBRYS
  6
CONTINUOUS
 62
    90
100
AcDbCircle
 10
330.105999
 20
349.975367
 30
0.0
 40
18.33
100
AcDbArc
 50
67.631049
 51
134.995026
  0
ARC
  5
1E99
100
AcDbEntity
  8
V0-OBRYS
  6
CONTINUOUS
 62
    90
100
AcDbCircle
 10
345.434988
 20
276.309607
 30
0.0
 40
18.33
100
AcDbArc
 50
22.631049
 51
89.995026
  0
LINE
  5
1E9A
100
AcDbEntity
  8
V0-OBRYS
  6
CONTINUOUS
 62
    90
100
AcDbLine
 10
361.446192
 20
284.119099
 30
0.0
 11
390.051983
 21
279.821907
 31
0.0
  0
ARC
  5
1E9B
100
AcDbEntity
  8
V0-OBRYS
  6
CONTINUOUS
 62
    90
100
AcDbCircle
 10
344.114374
 20
188.67221
 30
0.0
 40
7.332
100
AcDbArc
 50
216.456849
 51
323.133515
  0
CIRCLE
  5
1E9C
100
AcDbEntity
  8
V0-OBRYS
  6
CONTINUOUS
 62
    90
100
AcDbCircle
 10
248.848056
 20
294.638761
 30
0.0
 40
20.437533
  0
LINE
  5
1EA8
100
AcDbEntity
  8
V0-OBRYS
  6
CONTINUOUS
 62
    90
100
AcDbLine
 10
-526.151944
 20
450.638761
 30
0.0
 11
-576.151944
 21
450.638761
 31
0.0
  0
LINE
  5
1EA9
100
AcDbEntity
  8
V0-OBRYS
  6
CONTINUOUS
 62
    90
100
AcDbLine
 10
-526.151944
 20
138.326261
 30
0.0
 11
-576.151944
 21
138.638761
 31
0.0
  0
LINE
  5
1EAA
100
AcDbEntity
  8
V0-OBRYS
  6
CONTINUOUS
 62
    90
100
AcDbLine
 10
-176.151944
 20
138.638761
 30
0.0
 11
-126.151944
 21
138.326261
 31
0.0
  0
LINE
  5
1EAB
100
AcDbEntity
  8
V0-OBRYS
  6
CONTINUOUS
 62
    90
100
AcDbLine
 10
-176.151944
 20
450.638761
 30
0.0
 11
-126.151944
 21
450.638761
 31
0.0
  0
LINE
  5
1EAC
100
AcDbEntity
  8
V0-OBRYS
  6
CONTINUOUS
 62
    90
100
AcDbLine
 10
-576.151944
 20
450.638761
 30
0.0
 11
-576.151944
 21
138.638761
 31
0.0
  0
LINE
  5
1EAE
100
AcDbEntity
  8
V0-OBRYS
  6
CONTINUOUS
 62
    90
100
AcDbLine
 10
-126.151944
 20
450.638761
 30
0.0
 11
-125.839444
 21
138.638761
 31
0.0
  0
LINE
  5
1EAF
100
AcDbEntity
  8
V0-OBRYS
  6
CONTINUOUS
 62
    90
100
AcDbLine
 10
-576.151944
 20
-49.361239
 30
0.0
 11
-526.151944
 21
-49.361239
 31
0.0
  0
LINE
  5
1EB0
100
AcDbEntity
  8
V0-OBRYS
  6
CONTINUOUS
 62
    90
100
AcDbLine
 10
-576.151944
 20
-361.361239
 30
0.0
 11
-526.151944
 21
-361.361239
 31
0.0
  0
LINE
  5
1EB1
100
AcDbEntity
  8
V0-OBRYS
  6
CONTINUOUS
 62
    90
100
AcDbLine
 10
-176.151944
 20
-361.361239
 30
0.0
 11
-126.151944
 21
-361.361239
 31
0.0
  0
LINE
  5
1EB2
100
AcDbEntity
  8
V0-OBRYS
  6
CONTINUOUS
 62
    90
100
AcDbLine
 10
-176.151944
 20
-49.361239
 30
0.0
 11
-126.151944
 21
-49.361239
 31
0.0
  0
LINE
  5
1EB3
100
AcDbEntity
  8
V0-OBRYS
  6
CONTINUOUS
 62
    90
100
AcDbLine
 10
-576.151944
 20
-49.361239
 30
0.0
 11
-576.151944
 21
-361.361239
 31
0.0
  0
LINE
  5
1EB4
100
AcDbEntity
  8
V0-OBRYS
  6
CONTINUOUS
 62
    90
100
AcDbLine
 10
-126.151944
 20
-49.361239
 30
0.0
 11
-126.151944
 21
-361.361239
 31
0.0
  0
TEXT
  5
1F47
100
AcDbEntity
  8
V0-NAZVY
  6
CONTINUOUS
 62
   210
100
AcDbText
 10
19.015942
 20
-116.607092
 30
0.0
 40
30.0
  1
MIXVENT-TD-2000/315
100
AcDbText
  0
LINE
  5
1F48
100
AcDbEntity
  8
V0-ZBYTEK
  6
CONTINUOUS
 62
    51
100
AcDbLine
 10
17.546118
 20
-221.972217
 30
0.0
 11
369.844581
 21
-221.972217
 31
0.0
  0
MTEXT
  5
1F49
100
AcDbEntity
  8
V0-ZBYTEK
  6
CONTINUOUS
 62
    51
100
AcDbMText
 10
18.162596
 20
-176.888933
 30
0.0
 40
15.0
 41
456.2164
 71
     1
 72
     5
  1
otacky      prikon      prutok    hmotnost
  0
TEXT
  5
1F4A
100
AcDbEntity
  8
V0-ZBYTEK
  6
CONTINUOUS
 62
   130
100
AcDbText
 10
19.731991
 20
-153.050062
 30
0.0
 40
15.0
  1
DIAGONALNI VENTILATOR DO KRUHOVEHO 
100
AcDbText
  0
TEXT
  5
1F4B
100
AcDbEntity
  8
V0-ZBYTEK
  6
CONTINUOUS
 62
    51
100
AcDbText
 10
10.894486
 20
-272.654208
 30
0.0
 40
15.0
  1
  2510           200         1850         14
100
AcDbText
  0
TEXT
  5
1F4C
100
AcDbEntity
  8
V0-ZBYTEK
  6
CONTINUOUS
 62
    51
100
AcDbText
 10
25.144761
 20
-247.651255
 30
0.0
 40
15.0
  1
2760          350         1050         14
100
AcDbText
  0
MTEXT
  5
1F4D
100
AcDbEntity
  8
V0-ZBYTEK
  6
CONTINUOUS
 62
    51
100
AcDbMText
 10
11.21266
 20
-198.247585
 30
0.0
 40
15.0
 41
363.382
 71
     1
 72
     5
  1
   min             W          m /h          kg\P  
  0
TEXT
  5
1F4E
100
AcDbEntity
  8
V0-ZBYTEK
  6
CONTINUOUS
 62
   130
100
AcDbText
 10
396.804833
 20
-153.200778
 30
0.0
 40
15.0
  1
POTRUBI
100
AcDbText
  0
LINE
  5
1F56
100
AcDbEntity
  8
V0-OBRYS
  6
CONTINUOUS
 62
    90
100
AcDbLine
 10
429.911558
 20
339.18011
 30
0.0
 11
423.264545
 21
339.18011
 31
0.0
  0
LINE
  5
1F57
100
AcDbEntity
  8
V0-OBRYS
  6
CONTINUOUS
 62
    90
100
AcDbLine
 10
423.264545
 20
339.18011
 30
0.0
 11
423.264545
 21
294.744625
 31
0.0
  0
LINE
  5
1F58
100
AcDbEntity
  8
V0-OBRYS
  6
CONTINUOUS
 62
    90
100
AcDbLine
 10
429.911558
 20
250.097412
 30
0.0
 11
423.264545
 21
250.097412
 31
0.0
  0
LINE
  5
1F59
100
AcDbEntity
  8
V0-OBRYS
  6
CONTINUOUS
 62
    90
100
AcDbLine
 10
423.264545
 20
250.097412
 30
0.0
 11
423.264545
 21
294.532896
 31
0.0
  0
DIMENSION
  5
1F71
100
AcDbEntity
  8
V0-VYPLNE
  6
CONTINUOUS
 62
    41
 48
5.0
100
AcDbDimension
  2
*D18
 10
429.848056
 20
543.716936
 30
0.0
 11
339.348056
 21
555.591936
 31
0.0
 70
    32
  3
STANDARD
100
AcDbAlignedDimension
 13
248.848056
 23
496.138761
 33
0.0
 14
429.848056
 24
399.638761
 34
0.0
100
AcDbRotatedDimension
  0
LEADER
  5
1F99
100
AcDbEntity
  8
V0-VYPLNE
  6
CONTINUOUS
 62
    41
 48
5.0
100
AcDbLeader
  3
STANDARD
 73
     0
 75
     1
 40
20.125
 41
41.849874
 76
     3
 10
-444.239809
 20
387.400645
 30
0.0
 10
-501.320581
 20
467.802041
 30
0.0
 10
-518.820581
 20
467.802041
 30
0.0
 77
    41
340
1F9A
  0
MTEXT
  5
1F9A
102
{ACAD_REACTORS
330
1F99
102
}
100
AcDbEntity
  8
V0-VYPLNE
  6
CONTINUOUS
 62
    41
 48
5.0
100
AcDbMText
 10
-521.945581
 20
480.989541
 30
0.0
 40
17.5
 41
0.0
 71
     6
 72
     1
  1
\A1;%%c5,5
  0
TEXT
  5
1FA3
100
AcDbEntity
  8
V0-NAZVY
  6
CONTINUOUS
 62
   210
100
AcDbText
 10
-454.171108
 20
322.395778
 30
0.0
 40
15.0
  1
MIXVENT-TD-2000/315
 72
     1
 11
-351.110447
 21
322.395778
 31
0.0
100
AcDbText
  0
TEXT
  5
1FA4
100
AcDbEntity
  8
V0-NAZVY
  6
CONTINUOUS
 62
   210
100
AcDbText
 10
-454.171108
 20
-106.066659
 30
0.0
 40
15.0
  1
MIXVENT-TD-2000/315
 72
     1
 11
-351.110447
 21
-106.066659
 31
0.0
100
AcDbText
  0
DIMENSION
  5
2265
100
AcDbEntity
  8
V0-VYPLNE
  6
CONTINUOUS
 62
    41
 48
5.0
100
AcDbDimension
  2
*D14
 10
-526.151944
 20
98.922259
 30
0.0
 11
-548.954872
 21
98.922259
 31
0.0
 70
   160
  3
STANDARD
100
AcDbAlignedDimension
 13
-576.151944
 23
138.326261
 33
0.0
 14
-526.151944
 24
138.326261
 34
0.0
100
AcDbRotatedDimension
  0
LINE
  5
22BE
100
AcDbEntity
  8
V0-VYPLNE
  6
CONTINUOUS
 62
    52
100
AcDbLine
 10
-355.709649
 20
314.276047
 30
0.0
 11
-355.709649
 21
274.276047
 31
0.0
  0
LINE
  5
22BF
100
AcDbEntity
  8
V0-VYPLNE
  6
CONTINUOUS
 62
    52
100
AcDbLine
 10
-355.709649
 20
274.276047
 30
0.0
 11
-325.709649
 21
294.276047
 31
0.0
  0
LINE
  5
22C0
100
AcDbEntity
  8
V0-VYPLNE
  6
CONTINUOUS
 62
    52
100
AcDbLine
 10
-325.709649
 20
294.276047
 30
0.0
 11
-355.709649
 21
314.276047
 31
0.0
  0
LINE
  5
22C1
100
AcDbEntity
  8
V0-VYPLNE
  6
CONTINUOUS
 62
    52
100
AcDbLine
 10
-356.044835
 20
-183.601266
 30
0.0
 11
-356.044835
 21
-223.601266
 31
0.0
  0
LINE
  5
22C2
100
AcDbEntity
  8
V0-VYPLNE
  6
CONTINUOUS
 62
    52
100
AcDbLine
 10
-356.044835
 20
-223.601266
 30
0.0
 11
-326.044835
 21
-203.601266
 31
0.0
  0
LINE
  5
22C3
100
AcDbEntity
  8
V0-VYPLNE
  6
CONTINUOUS
 62
    52
100
AcDbLine
 10
-326.044835
 20
-203.601266
 30
0.0
 11
-356.044835
 21
-183.601266
 31
0.0
  0
TEXT
  5
22C4
100
AcDbEntity
  8
V0-NAZVY
  6
CONTINUOUS
 62
   210
100
AcDbText
 10
100.516333
 20
46.722795
 30
0.0
 40
22.5
  1
MIXVENT-TD-2000/315
 72
     1
 11
255.107323
 21
46.722795
 31
0.0
100
AcDbText
  0
POINT
  5
2355
100
AcDbEntity
  8
V0-VYPLNE
 48
5.0
100
AcDbPoint
 10
-526.151944
 20
294.638761
 30
0.0
  0
POINT
  5
2356
100
AcDbEntity
  8
V0-VYPLNE
 48
5.0
100
AcDbPoint
 10
-526.151944
 20
-205.361239
 30
0.0
  0
POINT
  5
2357
100
AcDbEntity
  8
V0-VYPLNE
 48
5.0
100
AcDbPoint
 10
248.848056
 20
294.638761
 30
0.0
  0
LINE
  5
235A
100
AcDbEntity
  8
V0-VYPLNE
  6
DASHDOT
 62
    63
 48
5.0
100
AcDbLine
 10
-576.151944
 20
-205.361239
 30
0.0
 11
-106.813943
 21
-205.361239
 31
0.0
  0
VIEWPORT
  5
22
100
AcDbEntity
 67
     1
  8
0
100
AcDbViewport
 10
261.517699
 20
154.724298
 30
0.0
 40
523.035398
 41
309.448596
 68
    -1
 69
     1
1001
ACAD
1000
MVIEW
1002
{
1070
    16
1010
0.0
1020
0.0
1030
0.0
1010
0.0
1020
0.0
1030
1.0
1040
0.0
1040
309.448596
1040
261.517699
1040
154.724298
1040
50.0
1040
0.0
1040
0.0
1070
     0
1070
   100
1070
     1
1070
     0
1070
     0
1070
     0
1070
     0
1070
     0
1040
0.0
1040
0.0
1040
0.0
1040
1.0
1040
1.0
1040
10.0
1040
10.0
1070
     0
1002
{
1002
}
1002
}
  0
ENDSEC
  0
SECTION
  2
OBJECTS
  0
DICTIONARY
  5
C
100
AcDbDictionary
  3
ACAD_GROUP
350
D
  3
ACAD_MLINESTYLE
350
E
  3
ACDBVARIABLEDICTIONARY
350
86C
  3
CONTENTDICTIONARY
350
905
  0
DICTIONARY
  5
D
102
{ACAD_REACTORS
330
C
102
}
100
AcDbDictionary
  0
DICTIONARY
  5
E
102
{ACAD_REACTORS
330
C
102
}
100
AcDbDictionary
  3
STANDARD
350
13
  0
DICTIONARY
  5
86C
102
{ACAD_REACTORS
330
C
102
}
100
AcDbDictionary
  3
SORTENTS
350
86D
  0
DICTIONARY
  5
905
102
{ACAD_REACTORS
330
C
102
}
100
AcDbDictionary
  0
MLINESTYLE
  5
13
102
{ACAD_REACTORS
330
E
102
}
100
AcDbMlineStyle
  2
STANDARD
 70
     0
  3

 62
     0
 51
90.0
 52
90.0
 71
     2
 49
0.5
 62
   256
  6
BYLAYER
 49
-0.5
 62
   256
  6
BYLAYER
  0
DICTIONARYVAR
  5
86D
102
{ACAD_REACTORS
330
86C
102
}
100
DictionaryVariables
280
     0
  1
96
  0
ENDSEC
  0
EOF
