  0
SECTION
  2
HEADER
  9
$ACADVER
  1
AC1014
  9
$ACADMAINTVER
 70
     0
  9
$DWGCODEPAGE
  3
ANSI_1250
  9
$INSBASE
 10
0.0
 20
0.0
 30
0.0
  9
$EXTMIN
 10
-566.615596
 20
-326.220771
 30
0.0
  9
$EXTMAX
 10
410.120607
 20
480.756131
 30
0.0
  9
$LIMMIN
 10
-1040.805314
 20
-347.068924
  9
$LIMMAX
 10
643.686187
 20
495.293187
  9
$ORTHOMODE
 70
     0
  9
$REGENMODE
 70
     1
  9
$FILLMODE
 70
     1
  9
$QTEXTMODE
 70
     0
  9
$MIRRTEXT
 70
     1
  9
$DRAGMODE
 70
     2
  9
$LTSCALE
 40
1.0
  9
$OSMODE
 70
  1023
  9
$ATTMODE
 70
     1
  9
$TEXTSIZE
 40
15.0
  9
$TRACEWID
 40
1.0
  9
$TEXTSTYLE
  7
STANDARD
  9
$CLAYER
  8
V0-VYPLNE
  9
$CELTYPE
  6
BYLAYER
  9
$CECOLOR
 62
   256
  9
$CELTSCALE
 40
1.0
  9
$DELOBJ
 70
     1
  9
$DISPSILH
 70
     0
  9
$DIMSCALE
 40
5.0
  9
$DIMASZ
 40
3.5
  9
$DIMEXO
 40
0.0625
  9
$DIMDLI
 40
0.38
  9
$DIMRND
 40
0.0
  9
$DIMDLE
 40
0.0
  9
$DIMEXE
 40
0.18
  9
$DIMTP
 40
0.0
  9
$DIMTM
 40
0.0
  9
$DIMTXT
 40
3.5
  9
$DIMCEN
 40
0.0
  9
$DIMTSZ
 40
0.0
  9
$DIMTOL
 70
     0
  9
$DIMLIM
 70
     0
  9
$DIMTIH
 70
     0
  9
$DIMTOH
 70
     0
  9
$DIMSE1
 70
     0
  9
$DIMSE2
 70
     0
  9
$DIMTAD
 70
     1
  9
$DIMZIN
 70
     0
  9
$DIMBLK
  1

  9
$DIMASO
 70
     1
  9
$DIMSHO
 70
     1
  9
$DIMPOST
  1

  9
$DIMAPOST
  1

  9
$DIMALT
 70
     0
  9
$DIMALTD
 70
     2
  9
$DIMALTF
 40
25.4
  9
$DIMLFAC
 40
1.0
  9
$DIMTOFL
 70
     0
  9
$DIMTVP
 40
0.0
  9
$DIMTIX
 70
     0
  9
$DIMSOXD
 70
     0
  9
$DIMSAH
 70
     1
  9
$DIMBLK1
  1
_OPEN
  9
$DIMBLK2
  1
_OPEN
  9
$DIMSTYLE
  2
STANDARD
  9
$DIMCLRD
 70
     0
  9
$DIMCLRE
 70
     0
  9
$DIMCLRT
 70
     0
  9
$DIMTFAC
 40
1.0
  9
$DIMGAP
 40
0.625
  9
$DIMJUST
 70
     0
  9
$DIMSD1
 70
     0
  9
$DIMSD2
 70
     0
  9
$DIMTOLJ
 70
     1
  9
$DIMTZIN
 70
     0
  9
$DIMALTZ
 70
     0
  9
$DIMALTTZ
 70
     0
  9
$DIMFIT
 70
     0
  9
$DIMUPT
 70
     0
  9
$DIMUNIT
 70
     2
  9
$DIMDEC
 70
     0
  9
$DIMTDEC
 70
     4
  9
$DIMALTU
 70
     2
  9
$DIMALTTD
 70
     2
  9
$DIMTXSTY
  7
STANDARD
  9
$DIMAUNIT
 70
     0
  9
$LUNITS
 70
     2
  9
$LUPREC
 70
     4
  9
$SKETCHINC
 40
1.0
  9
$FILLETRAD
 40
5.0
  9
$AUNITS
 70
     0
  9
$AUPREC
 70
     0
  9
$MENU
  1
.
  9
$ELEVATION
 40
0.0
  9
$PELEVATION
 40
0.0
  9
$THICKNESS
 40
0.0
  9
$LIMCHECK
 70
     0
  9
$BLIPMODE
 70
     1
  9
$CHAMFERA
 40
10.0
  9
$CHAMFERB
 40
10.0
  9
$CHAMFERC
 40
20.0
  9
$CHAMFERD
 40
0.0
  9
$SKPOLY
 70
     0
  9
$TDCREATE
 40
2450763.421427893
  9
$TDUPDATE
 40
2452915.662283796
  9
$TDINDWG
 40
1.2933660880
  9
$TDUSRTIMER
 40
1.2933660880
  9
$USRTIMER
 70
     1
  9
$ANGBASE
 50
0.0
  9
$ANGDIR
 70
     0
  9
$PDMODE
 70
     3
  9
$PDSIZE
 40
15.0
  9
$PLINEWID
 40
0.0
  9
$COORDS
 70
     1
  9
$SPLFRAME
 70
     0
  9
$SPLINETYPE
 70
     6
  9
$SPLINESEGS
 70
     8
  9
$ATTDIA
 70
     0
  9
$ATTREQ
 70
     1
  9
$HANDLING
 70
     1
  9
$HANDSEED
  5
2E5C
  9
$SURFTAB1
 70
     6
  9
$SURFTAB2
 70
     6
  9
$SURFTYPE
 70
     6
  9
$SURFU
 70
     6
  9
$SURFV
 70
     6
  9
$UCSNAME
  2

  9
$UCSORG
 10
173.5490281277909
 20
244.8193804338766
 30
0.0
  9
$UCSXDIR
 10
1.0
 20
0.0
 30
0.0
  9
$UCSYDIR
 10
0.0
 20
1.0
 30
0.0
  9
$PUCSNAME
  2

  9
$PUCSORG
 10
0.0
 20
0.0
 30
0.0
  9
$PUCSXDIR
 10
1.0
 20
0.0
 30
0.0
  9
$PUCSYDIR
 10
0.0
 20
1.0
 30
0.0
  9
$USERI1
 70
     0
  9
$USERI2
 70
     0
  9
$USERI3
 70
     0
  9
$USERI4
 70
     0
  9
$USERI5
 70
     0
  9
$USERR1
 40
0.0
  9
$USERR2
 40
0.0
  9
$USERR3
 40
0.0
  9
$USERR4
 40
0.0
  9
$USERR5
 40
0.0
  9
$WORLDVIEW
 70
     1
  9
$SHADEDGE
 70
     3
  9
$SHADEDIF
 70
    70
  9
$TILEMODE
 70
     1
  9
$MAXACTVP
 70
    16
  9
$PINSBASE
 10
0.0
 20
0.0
 30
0.0
  9
$PLIMCHECK
 70
     0
  9
$PEXTMIN
 10
1.000000E+20
 20
1.000000E+20
 30
1.000000E+20
  9
$PEXTMAX
 10
-1.000000E+20
 20
-1.000000E+20
 30
-1.000000E+20
  9
$PLIMMIN
 10
0.0
 20
0.0
  9
$PLIMMAX
 10
420.0
 20
297.0
  9
$UNITMODE
 70
     0
  9
$VISRETAIN
 70
     0
  9
$PLINEGEN
 70
     0
  9
$PSLTSCALE
 70
     0
  9
$TREEDEPTH
 70
  3020
  9
$PICKSTYLE
 70
     1
  9
$CMLSTYLE
  2
STANDARD
  9
$CMLJUST
 70
     0
  9
$CMLSCALE
 40
1.0
  9
$PROXYGRAPHICS
 70
     1
  9
$MEASUREMENT
 70
     1
  0
ENDSEC
  0
SECTION
  2
CLASSES
  0
CLASS
  1
LWPOLYLINE
  2
AcDbPolyline
  3
"AutoCAD"
 90
        0
280
     0
281
     1
  0
CLASS
  1
DICTIONARYVAR
  2
AcDbDictionaryVar
  3
"AutoCAD"
 90
        0
280
     0
281
     0
  0
CLASS
  1
HATCH
  2
AcDbHatch
  3
"ACAD_SEDONA"
 90
        0
280
     0
281
     1
  0
ENDSEC
  0
SECTION
  2
TABLES
  0
TABLE
  2
VPORT
  5
8
100
AcDbSymbolTable
 70
     2
  0
VPORT
  5
2E5B
100
AcDbSymbolTableRecord
100
AcDbViewportTableRecord
  2
*ACTIVE
 70
     0
 10
0.0
 20
0.0
 11
1.0
 21
1.0
 12
-3.010344
 22
78.027808
 13
0.0
 23
0.0
 14
5.0
 24
5.0
 15
5.0
 25
5.0
 16
0.0
 26
0.0
 36
1.0
 17
0.0
 27
0.0
 37
0.0
 40
839.239279
 41
1.730469
 42
50.0
 43
0.0
 44
0.0
 50
0.0
 51
0.0
 71
     0
 72
   100
 73
     1
 74
     0
 75
     0
 76
     0
 77
     0
 78
     0
  0
ENDTAB
  0
TABLE
  2
LTYPE
  5
5
100
AcDbSymbolTable
 70
     2
  0
LTYPE
  5
14
100
AcDbSymbolTableRecord
100
AcDbLinetypeTableRecord
  2
BYBLOCK
 70
     0
  3

 72
    65
 73
     0
 40
0.0
  0
LTYPE
  5
15
100
AcDbSymbolTableRecord
100
AcDbLinetypeTableRecord
  2
BYLAYER
 70
     0
  3

 72
    65
 73
     0
 40
0.0
  0
LTYPE
  5
16
100
AcDbSymbolTableRecord
100
AcDbLinetypeTableRecord
  2
CONTINUOUS
 70
     0
  3
Solid line
 72
    65
 73
     0
 40
0.0
  0
LTYPE
  5
2D04
100
AcDbSymbolTableRecord
100
AcDbLinetypeTableRecord
  2
DASHDOT
 70
     0
  3
Dash dot __ . __ . __ . __ . __ . __ . __ . __
 72
    65
 73
     4
 40
25.4
 49
12.7
 74
     0
 49
-6.35
 74
     0
 49
0.0
 74
     0
 49
-6.35
 74
     0
  0
ENDTAB
  0
TABLE
  2
LAYER
  5
2
100
AcDbSymbolTable
 70
     6
  0
LAYER
  5
F
100
AcDbSymbolTableRecord
100
AcDbLayerTableRecord
  2
0
 70
     0
 62
     7
  6
CONTINUOUS
  0
LAYER
  5
1A22
100
AcDbSymbolTableRecord
100
AcDbLayerTableRecord
  2
DEFPOINTS
 70
     0
 62
     7
  6
CONTINUOUS
  0
LAYER
  5
2CA8
100
AcDbSymbolTableRecord
100
AcDbLayerTableRecord
  2
V0-OBRYS
 70
     0
 62
    90
  6
CONTINUOUS
  0
LAYER
  5
2CA9
100
AcDbSymbolTableRecord
100
AcDbLayerTableRecord
  2
V0-VYPLNE
 70
     0
 62
    52
  6
CONTINUOUS
  0
LAYER
  5
2CAA
100
AcDbSymbolTableRecord
100
AcDbLayerTableRecord
  2
V0-NAZVY
 70
     0
 62
   210
  6
CONTINUOUS
  0
LAYER
  5
2CAB
100
AcDbSymbolTableRecord
100
AcDbLayerTableRecord
  2
V0-ZBYTEK
 70
     0
 62
    51
  6
CONTINUOUS
  0
ENDTAB
  0
TABLE
  2
STYLE
  5
3
100
AcDbSymbolTable
 70
     8
  0
STYLE
  5
10
100
AcDbSymbolTableRecord
100
AcDbTextStyleTableRecord
  2
STANDARD
 70
     0
 40
0.0
 41
1.0
 50
0.0
 71
     0
 42
15.0
  3
ISOCP
  4

  0
STYLE
  5
1CAF
100
AcDbSymbolTableRecord
100
AcDbTextStyleTableRecord
  2

 70
     1
 40
0.0
 41
1.0
 50
0.0
 71
     0
 42
0.2
  3
ltypeshp.shx
  4

  0
STYLE
  5
2259
100
AcDbSymbolTableRecord
100
AcDbTextStyleTableRecord
  2
SIMPLCS
 70
     0
 40
0.0
 41
1.0
 50
0.0
 71
     0
 42
0.2
  3
SIMPLCS
  4

  0
STYLE
  5
2CAC
100
AcDbSymbolTableRecord
100
AcDbTextStyleTableRecord
  2
ED
 70
     0
 40
20.0
 41
1.0
 50
0.0
 71
     0
 42
2.5
  3
ISOCP.shx
  4

  0
STYLE
  5
2CAD
100
AcDbSymbolTableRecord
100
AcDbTextStyleTableRecord
  2
EDVENT
 70
     0
 40
10.0
 41
1.0
 50
0.0
 71
     0
 42
2.5
  3
ISOCP.shx
  4

  0
STYLE
  5
2CAE
100
AcDbSymbolTableRecord
100
AcDbTextStyleTableRecord
  2
E
 70
     0
 40
25.0
 41
1.0
 50
0.0
 71
     0
 42
2.5
  3
ISOCP.shx
  4

  0
STYLE
  5
2CAF
100
AcDbSymbolTableRecord
100
AcDbTextStyleTableRecord
  2
ED-VENT
 70
     0
 40
25.0
 41
1.0
 50
0.0
 71
     0
 42
2.5
  3
ISOCP.shx
  4

  0
STYLE
  5
2CB0
100
AcDbSymbolTableRecord
100
AcDbTextStyleTableRecord
  2
ED2
 70
     0
 40
25.0
 41
1.0
 50
0.0
 71
     0
 42
2.5
  3
ISOCP.shx
  4

  0
ENDTAB
  0
TABLE
  2
VIEW
  5
6
100
AcDbSymbolTable
 70
     0
  0
ENDTAB
  0
TABLE
  2
UCS
  5
7
100
AcDbSymbolTable
 70
     0
  0
ENDTAB
  0
TABLE
  2
APPID
  5
9
100
AcDbSymbolTable
 70
     4
  0
APPID
  5
11
100
AcDbSymbolTableRecord
100
AcDbRegAppTableRecord
  2
ACAD
 70
     0
  0
APPID
  5
906
100
AcDbSymbolTableRecord
100
AcDbRegAppTableRecord
  2
CONTENTTABDATA
 70
     0
  0
APPID
  5
907
100
AcDbSymbolTableRecord
100
AcDbRegAppTableRecord
  2
CONTENTCURRENTTAB
 70
     0
  0
APPID
  5
908
100
AcDbSymbolTableRecord
100
AcDbRegAppTableRecord
  2
CONTENTBLOCKDESCRIPTION
 70
     0
  0
ENDTAB
  0
TABLE
  2
DIMSTYLE
  5
A
100
AcDbSymbolTable
 70
     3
  0
DIMSTYLE
105
1D
102
{ACAD_REACTORS
330
292D
330
2B44
330
292B
330
292F
330
2CD7
330
2951
330
292C
330
28CB
330
2AF7
330
28D5
102
}
100
AcDbSymbolTableRecord
100
AcDbDimStyleTableRecord
  2
STANDARD
 70
     0
  3

  4

  5

  6
_OPEN
  7
_OPEN
 40
5.0
 41
3.5
 42
0.0625
 43
0.38
 44
0.18
 45
0.0
 46
0.0
 47
0.0
 48
0.0
140
3.5
141
0.0
142
0.0
143
25.4
144
1.0
145
0.0
146
1.0
147
0.625
 71
     0
 72
     0
 73
     0
 74
     0
 75
     0
 76
     0
 77
     1
 78
     0
170
     0
171
     2
172
     0
173
     1
174
     0
175
     0
176
     0
177
     0
178
     0
270
     2
271
     0
272
     4
273
     2
274
     2
340
10
275
     0
280
     0
281
     0
282
     0
283
     1
284
     0
285
     0
286
     0
287
     0
288
     0
  0
DIMSTYLE
105
2CB1
100
AcDbSymbolTableRecord
100
AcDbDimStyleTableRecord
  2
ED
 70
     0
  3

  4

  5

  6
_OPEN
  7
_OPEN
 40
0.0
 41
15.0
 42
0.625
 43
3.75
 44
1.25
 45
0.0
 46
0.0
 47
0.0
 48
0.0
140
15.0
141
2.5
142
0.0
143
0.0394
144
1.0
145
0.0
146
1.0
147
3.0
 71
     0
 72
     0
 73
     0
 74
     0
 75
     0
 76
     0
 77
     1
 78
     8
170
     0
171
     4
172
     1
173
     1
174
     0
175
     0
176
     0
177
     0
178
     0
270
     2
271
     0
272
     1
273
     8
274
     4
340
2CAC
275
     0
280
     0
281
     0
282
     0
283
     1
284
     8
285
     0
286
     0
287
     3
288
     0
  0
DIMSTYLE
105
2CB2
100
AcDbSymbolTableRecord
100
AcDbDimStyleTableRecord
  2
ED2
 70
     0
  3

  4

  5

  6
_OPEN
  7
_OPEN
 40
0.0
 41
25.0
 42
0.625
 43
3.75
 44
1.25
 45
0.0
 46
0.0
 47
0.0
 48
0.0
140
30.0
141
2.5
142
0.0
143
0.0394
144
1.0
145
0.0
146
1.0
147
5.0
 71
     0
 72
     0
 73
     0
 74
     0
 75
     0
 76
     0
 77
     1
 78
     8
170
     0
171
     4
172
     1
173
     1
174
     0
175
     0
176
     0
177
     0
178
     0
270
     2
271
     0
272
     1
273
     8
274
     4
340
2CAC
275
     0
280
     0
281
     0
282
     0
283
     1
284
     8
285
     0
286
     0
287
     3
288
     0
  0
ENDTAB
  0
TABLE
  2
BLOCK_RECORD
  5
1
100
AcDbSymbolTable
 70
    21
  0
BLOCK_RECORD
  5
1A
100
AcDbSymbolTableRecord
100
AcDbBlockTableRecord
  2
*MODEL_SPACE
  0
BLOCK_RECORD
  5
17
100
AcDbSymbolTableRecord
100
AcDbBlockTableRecord
  2
*PAPER_SPACE
  0
BLOCK_RECORD
  5
1A05
100
AcDbSymbolTableRecord
100
AcDbBlockTableRecord
  2
_OPEN
  0
BLOCK_RECORD
  5
2D58
100
AcDbSymbolTableRecord
100
AcDbBlockTableRecord
  2
*D11
  0
BLOCK_RECORD
  5
2D64
100
AcDbSymbolTableRecord
100
AcDbBlockTableRecord
  2
*D12
  0
BLOCK_RECORD
  5
2D70
100
AcDbSymbolTableRecord
100
AcDbBlockTableRecord
  2
*D13
  0
BLOCK_RECORD
  5
2D7C
100
AcDbSymbolTableRecord
100
AcDbBlockTableRecord
  2
*D14
  0
BLOCK_RECORD
  5
2D88
100
AcDbSymbolTableRecord
100
AcDbBlockTableRecord
  2
*D15
  0
BLOCK_RECORD
  5
2D94
100
AcDbSymbolTableRecord
100
AcDbBlockTableRecord
  2
*D16
  0
BLOCK_RECORD
  5
2DA0
100
AcDbSymbolTableRecord
100
AcDbBlockTableRecord
  2
*D17
  0
BLOCK_RECORD
  5
2DFF
100
AcDbSymbolTableRecord
100
AcDbBlockTableRecord
  2
*D18
  0
BLOCK_RECORD
  5
2E0B
100
AcDbSymbolTableRecord
100
AcDbBlockTableRecord
  2
*D19
  0
BLOCK_RECORD
  5
2E17
100
AcDbSymbolTableRecord
100
AcDbBlockTableRecord
  2
*D20
  0
ENDTAB
  0
ENDSEC
  0
SECTION
  2
BLOCKS
  0
BLOCK
  5
1B
100
AcDbEntity
  8
0
100
AcDbBlockBegin
  2
*MODEL_SPACE
 70
     0
 10
0.0
 20
0.0
 30
0.0
  3
*MODEL_SPACE
  1

  0
ENDBLK
  5
1C
100
AcDbEntity
  8
0
100
AcDbBlockEnd
  0
BLOCK
  5
18
100
AcDbEntity
 67
     1
  8
0
100
AcDbBlockBegin
  2
*PAPER_SPACE
 70
     0
 10
0.0
 20
0.0
 30
0.0
  3
*PAPER_SPACE
  1

  0
ENDBLK
  5
19
100
AcDbEntity
 67
     1
  8
0
100
AcDbBlockEnd
  0
BLOCK
  5
1A09
100
AcDbEntity
  8
0
100
AcDbBlockBegin
  2
_OPEN
 70
     0
 10
0.0
 20
0.0
 30
0.0
  3
_OPEN
  1

  0
LINE
  5
1A06
100
AcDbEntity
  8
0
  6
BYBLOCK
 62
     0
100
AcDbLine
 10
-1.0
 20
0.166667
 30
0.0
 11
0.0
 21
0.0
 31
0.0
  0
LINE
  5
1A07
100
AcDbEntity
  8
0
  6
BYBLOCK
 62
     0
100
AcDbLine
 10
0.0
 20
0.0
 30
0.0
 11
-1.0
 21
-0.166667
 31
0.0
  0
LINE
  5
1A08
100
AcDbEntity
  8
0
  6
BYBLOCK
 62
     0
100
AcDbLine
 10
0.0
 20
0.0
 30
0.0
 11
-1.0
 21
0.0
 31
0.0
  0
ENDBLK
  5
1A0A
100
AcDbEntity
  8
0
100
AcDbBlockEnd
  0
BLOCK
  5
2D59
100
AcDbEntity
  8
0
100
AcDbBlockBegin
  2
*D11
 70
     1
 10
0.0
 20
0.0
 30
0.0
  3
*D11
  1

  0
LINE
  5
2D5A
100
AcDbEntity
  8
0
  6
BYBLOCK
 62
     0
100
AcDbLine
 10
-519.450972
 20
120.50688
 30
0.0
 11
-519.450972
 21
61.723668
 31
0.0
  0
LINE
  5
2D5B
100
AcDbEntity
  8
0
  6
BYBLOCK
 62
     0
100
AcDbLine
 10
-133.450972
 20
120.50688
 30
0.0
 11
-133.450972
 21
61.723668
 31
0.0
  0
LINE
  5
2D5C
100
AcDbEntity
  8
0
  6
BYBLOCK
 62
     0
100
AcDbLine
 10
-501.950972
 20
62.623668
 30
0.0
 11
-150.950972
 21
62.623668
 31
0.0
  0
INSERT
  5
2D5D
100
AcDbEntity
  8
0
  6
BYBLOCK
 62
     0
100
AcDbBlockReference
  2
_OPEN
 10
-519.450972
 20
62.623668
 30
0.0
 41
17.5
 42
17.5
 43
17.5
 50
180.0
  0
INSERT
  5
2D5E
100
AcDbEntity
  8
0
  6
BYBLOCK
 62
     0
100
AcDbBlockReference
  2
_OPEN
 10
-133.450972
 20
62.623668
 30
0.0
 41
17.5
 42
17.5
 43
17.5
  0
MTEXT
  5
2D5F
100
AcDbEntity
  8
0
  6
BYBLOCK
 62
     0
100
AcDbMText
 10
-326.450972
 20
74.498668
 30
0.0
 40
17.5
 41
0.0
 71
     5
 72
     1
  1
\A1;386
  0
POINT
  5
2D60
100
AcDbEntity
  8
DEFPOINTS
  6
BYBLOCK
 62
     0
100
AcDbPoint
 10
-519.450972
 20
120.81938
 30
0.0
  0
POINT
  5
2D61
100
AcDbEntity
  8
DEFPOINTS
  6
BYBLOCK
 62
     0
100
AcDbPoint
 10
-133.450972
 20
120.81938
 30
0.0
  0
POINT
  5
2D62
100
AcDbEntity
  8
DEFPOINTS
  6
BYBLOCK
 62
     0
100
AcDbPoint
 10
-133.450972
 20
62.623668
 30
0.0
  0
ENDBLK
  5
2D63
100
AcDbEntity
  8
0
100
AcDbBlockEnd
  0
BLOCK
  5
2D65
100
AcDbEntity
  8
0
100
AcDbBlockBegin
  2
*D12
 70
     1
 10
0.0
 20
0.0
 30
0.0
  3
*D12
  1

  0
LINE
  5
2D66
100
AcDbEntity
  8
0
  6
BYBLOCK
 62
     0
100
AcDbLine
 10
-245.269972
 20
317.31938
 30
0.0
 11
-145.105335
 21
317.31938
 31
0.0
  0
LINE
  5
2D67
100
AcDbEntity
  8
0
  6
BYBLOCK
 62
     0
100
AcDbLine
 10
-245.269972
 20
172.31938
 30
0.0
 11
-145.105335
 21
172.31938
 31
0.0
  0
LINE
  5
2D68
100
AcDbEntity
  8
0
  6
BYBLOCK
 62
     0
100
AcDbLine
 10
-146.005335
 20
299.81938
 30
0.0
 11
-146.005335
 21
189.81938
 31
0.0
  0
INSERT
  5
2D69
100
AcDbEntity
  8
0
  6
BYBLOCK
 62
     0
100
AcDbBlockReference
  2
_OPEN
 10
-146.005335
 20
317.31938
 30
0.0
 41
17.5
 42
17.5
 43
17.5
 50
90.0
  0
INSERT
  5
2D6A
100
AcDbEntity
  8
0
  6
BYBLOCK
 62
     0
100
AcDbBlockReference
  2
_OPEN
 10
-146.005335
 20
172.31938
 30
0.0
 41
17.5
 42
17.5
 43
17.5
 50
270.0
  0
MTEXT
  5
2D6B
100
AcDbEntity
  8
0
  6
BYBLOCK
 62
     0
100
AcDbMText
 10
-157.880335
 20
244.81938
 30
0.0
 40
17.5
 41
0.0
 71
     5
 72
     1
  1
\A1;145
 11
0.0
 21
1.0
 31
0.0
  0
POINT
  5
2D6C
100
AcDbEntity
  8
DEFPOINTS
  6
BYBLOCK
 62
     0
100
AcDbPoint
 10
-245.582472
 20
317.31938
 30
0.0
  0
POINT
  5
2D6D
100
AcDbEntity
  8
DEFPOINTS
  6
BYBLOCK
 62
     0
100
AcDbPoint
 10
-245.582472
 20
172.31938
 30
0.0
  0
POINT
  5
2D6E
100
AcDbEntity
  8
DEFPOINTS
  6
BYBLOCK
 62
     0
100
AcDbPoint
 10
-146.005335
 20
172.31938
 30
0.0
  0
ENDBLK
  5
2D6F
100
AcDbEntity
  8
0
100
AcDbBlockEnd
  0
BLOCK
  5
2D71
100
AcDbEntity
  8
0
100
AcDbBlockBegin
  2
*D13
 70
     1
 10
0.0
 20
0.0
 30
0.0
  3
*D13
  1

  0
LINE
  5
2D72
100
AcDbEntity
  8
0
  6
BYBLOCK
 62
     0
100
AcDbLine
 10
-221.138472
 20
380.81938
 30
0.0
 11
-69.876248
 21
380.81938
 31
0.0
  0
LINE
  5
2D73
100
AcDbEntity
  8
0
  6
BYBLOCK
 62
     0
100
AcDbLine
 10
-221.138472
 20
108.81938
 30
0.0
 11
-69.876248
 21
108.81938
 31
0.0
  0
LINE
  5
2D74
100
AcDbEntity
  8
0
  6
BYBLOCK
 62
     0
100
AcDbLine
 10
-70.776248
 20
363.31938
 30
0.0
 11
-70.776248
 21
126.31938
 31
0.0
  0
INSERT
  5
2D75
100
AcDbEntity
  8
0
  6
BYBLOCK
 62
     0
100
AcDbBlockReference
  2
_OPEN
 10
-70.776248
 20
380.81938
 30
0.0
 41
17.5
 42
17.5
 43
17.5
 50
90.0
  0
INSERT
  5
2D76
100
AcDbEntity
  8
0
  6
BYBLOCK
 62
     0
100
AcDbBlockReference
  2
_OPEN
 10
-70.776248
 20
108.81938
 30
0.0
 41
17.5
 42
17.5
 43
17.5
 50
270.0
  0
MTEXT
  5
2D77
100
AcDbEntity
  8
0
  6
BYBLOCK
 62
     0
100
AcDbMText
 10
-82.652971
 20
244.81938
 30
0.0
 40
17.5
 41
0.0
 71
     5
 72
     1
  1
\A1;\U+2205272
 11
0.0
 21
1.0
 31
0.0
  0
POINT
  5
2D78
100
AcDbEntity
  8
DEFPOINTS
  6
BYBLOCK
 62
     0
100
AcDbPoint
 10
-221.450972
 20
380.81938
 30
0.0
  0
POINT
  5
2D79
100
AcDbEntity
  8
DEFPOINTS
  6
BYBLOCK
 62
     0
100
AcDbPoint
 10
-221.450972
 20
108.81938
 30
0.0
  0
POINT
  5
2D7A
100
AcDbEntity
  8
DEFPOINTS
  6
BYBLOCK
 62
     0
100
AcDbPoint
 10
-70.776248
 20
108.81938
 30
0.0
  0
ENDBLK
  5
2D7B
100
AcDbEntity
  8
0
100
AcDbBlockEnd
  0
BLOCK
  5
2D7D
100
AcDbEntity
  8
0
100
AcDbBlockBegin
  2
*D14
 70
     1
 10
0.0
 20
0.0
 30
0.0
  3
*D14
  1

  0
LINE
  5
2D7E
100
AcDbEntity
  8
0
  6
BYBLOCK
 62
     0
100
AcDbLine
 10
-386.763472
 20
436.81938
 30
0.0
 11
-546.872741
 21
436.81938
 31
0.0
  0
LINE
  5
2D7F
100
AcDbEntity
  8
0
  6
BYBLOCK
 62
     0
100
AcDbLine
 10
-519.763472
 20
244.81938
 30
0.0
 11
-546.872741
 21
244.81938
 31
0.0
  0
LINE
  5
2D80
100
AcDbEntity
  8
0
  6
BYBLOCK
 62
     0
100
AcDbLine
 10
-545.972741
 20
419.31938
 30
0.0
 11
-545.972741
 21
262.31938
 31
0.0
  0
INSERT
  5
2D81
100
AcDbEntity
  8
0
  6
BYBLOCK
 62
     0
100
AcDbBlockReference
  2
_OPEN
 10
-545.972741
 20
436.81938
 30
0.0
 41
17.5
 42
17.5
 43
17.5
 50
90.0
  0
INSERT
  5
2D82
100
AcDbEntity
  8
0
  6
BYBLOCK
 62
     0
100
AcDbBlockReference
  2
_OPEN
 10
-545.972741
 20
244.81938
 30
0.0
 41
17.5
 42
17.5
 43
17.5
 50
270.0
  0
MTEXT
  5
2D83
100
AcDbEntity
  8
0
  6
BYBLOCK
 62
     0
100
AcDbMText
 10
-557.853692
 20
340.81938
 30
0.0
 40
17.5
 41
0.0
 71
     5
 72
     1
  1
\A1;192
 11
0.0
 21
1.0
 31
0.0
  0
POINT
  5
2D84
100
AcDbEntity
  8
DEFPOINTS
  6
BYBLOCK
 62
     0
100
AcDbPoint
 10
-386.450972
 20
436.81938
 30
0.0
  0
POINT
  5
2D85
100
AcDbEntity
  8
DEFPOINTS
  6
BYBLOCK
 62
     0
100
AcDbPoint
 10
-519.450972
 20
244.81938
 30
0.0
  0
POINT
  5
2D86
100
AcDbEntity
  8
DEFPOINTS
  6
BYBLOCK
 62
     0
100
AcDbPoint
 10
-545.972741
 20
244.81938
 30
0.0
  0
ENDBLK
  5
2D87
100
AcDbEntity
  8
0
100
AcDbBlockEnd
  0
BLOCK
  5
2D89
100
AcDbEntity
  8
0
100
AcDbBlockBegin
  2
*D15
 70
     1
 10
0.0
 20
0.0
 30
0.0
  3
*D15
  1

  0
LINE
  5
2D8A
100
AcDbEntity
  8
0
  6
BYBLOCK
 62
     0
100
AcDbLine
 10
-519.450972
 20
119.6875
 30
0.0
 11
-519.450972
 21
83.287362
 31
0.0
  0
LINE
  5
2D8B
100
AcDbEntity
  8
0
  6
BYBLOCK
 62
     0
100
AcDbLine
 10
-469.950972
 20
119.6875
 30
0.0
 11
-469.950972
 21
83.287362
 31
0.0
  0
LINE
  5
2D8C
100
AcDbEntity
  8
0
  6
BYBLOCK
 62
     0
100
AcDbLine
 10
-501.950972
 20
84.187362
 30
0.0
 11
-487.450972
 21
84.187362
 31
0.0
  0
INSERT
  5
2D8D
100
AcDbEntity
  8
0
  6
BYBLOCK
 62
     0
100
AcDbBlockReference
  2
_OPEN
 10
-519.450972
 20
84.187362
 30
0.0
 41
17.5
 42
17.5
 43
17.5
 50
180.0
  0
INSERT
  5
2D8E
100
AcDbEntity
  8
0
  6
BYBLOCK
 62
     0
100
AcDbBlockReference
  2
_OPEN
 10
-469.950972
 20
84.187362
 30
0.0
 41
17.5
 42
17.5
 43
17.5
  0
MTEXT
  5
2D8F
100
AcDbEntity
  8
0
  6
BYBLOCK
 62
     0
100
AcDbMText
 10
-494.700972
 20
96.062362
 30
0.0
 40
17.5
 41
0.0
 71
     5
 72
     1
  1
\A1;50
  0
POINT
  5
2D90
100
AcDbEntity
  8
DEFPOINTS
  6
BYBLOCK
 62
     0
100
AcDbPoint
 10
-519.450972
 20
120.0
 30
0.0
  0
POINT
  5
2D91
100
AcDbEntity
  8
DEFPOINTS
  6
BYBLOCK
 62
     0
100
AcDbPoint
 10
-469.950972
 20
120.0
 30
0.0
  0
POINT
  5
2D92
100
AcDbEntity
  8
DEFPOINTS
  6
BYBLOCK
 62
     0
100
AcDbPoint
 10
-469.950972
 20
84.187362
 30
0.0
  0
ENDBLK
  5
2D93
100
AcDbEntity
  8
0
100
AcDbBlockEnd
  0
BLOCK
  5
2D95
100
AcDbEntity
  8
0
100
AcDbBlockBegin
  2
*D16
 70
     1
 10
0.0
 20
0.0
 30
0.0
  3
*D16
  1

  0
LINE
  5
2D96
100
AcDbEntity
  8
0
  6
BYBLOCK
 62
     0
100
AcDbLine
 10
-398.950972
 20
164.83388
 30
0.0
 11
-398.950972
 21
134.539609
 31
0.0
  0
LINE
  5
2D97
100
AcDbEntity
  8
0
  6
BYBLOCK
 62
     0
100
AcDbLine
 10
-253.950972
 20
164.83388
 30
0.0
 11
-253.950972
 21
134.539609
 31
0.0
  0
LINE
  5
2D98
100
AcDbEntity
  8
0
  6
BYBLOCK
 62
     0
100
AcDbLine
 10
-381.450972
 20
135.439609
 30
0.0
 11
-271.450972
 21
135.439609
 31
0.0
  0
INSERT
  5
2D99
100
AcDbEntity
  8
0
  6
BYBLOCK
 62
     0
100
AcDbBlockReference
  2
_OPEN
 10
-398.950972
 20
135.439609
 30
0.0
 41
17.5
 42
17.5
 43
17.5
 50
180.0
  0
INSERT
  5
2D9A
100
AcDbEntity
  8
0
  6
BYBLOCK
 62
     0
100
AcDbBlockReference
  2
_OPEN
 10
-253.950972
 20
135.439609
 30
0.0
 41
17.5
 42
17.5
 43
17.5
  0
MTEXT
  5
2D9B
100
AcDbEntity
  8
0
  6
BYBLOCK
 62
     0
100
AcDbMText
 10
-326.450972
 20
147.314609
 30
0.0
 40
17.5
 41
0.0
 71
     5
 72
     1
  1
\A1;145
  0
POINT
  5
2D9C
100
AcDbEntity
  8
DEFPOINTS
  6
BYBLOCK
 62
     0
100
AcDbPoint
 10
-398.950972
 20
165.14638
 30
0.0
  0
POINT
  5
2D9D
100
AcDbEntity
  8
DEFPOINTS
  6
BYBLOCK
 62
     0
100
AcDbPoint
 10
-253.950972
 20
165.14638
 30
0.0
  0
POINT
  5
2D9E
100
AcDbEntity
  8
DEFPOINTS
  6
BYBLOCK
 62
     0
100
AcDbPoint
 10
-253.950972
 20
135.439609
 30
0.0
  0
ENDBLK
  5
2D9F
100
AcDbEntity
  8
0
100
AcDbBlockEnd
  0
BLOCK
  5
2DA1
100
AcDbEntity
  8
0
100
AcDbBlockBegin
  2
*D17
 70
     1
 10
0.0
 20
0.0
 30
0.0
  3
*D17
  1

  0
LINE
  5
2DA2
100
AcDbEntity
  8
0
  6
BYBLOCK
 62
     0
100
AcDbLine
 10
-133.138472
 20
368.81938
 30
0.0
 11
-97.557598
 21
368.81938
 31
0.0
  0
LINE
  5
2DA3
100
AcDbEntity
  8
0
  6
BYBLOCK
 62
     0
100
AcDbLine
 10
-133.138472
 20
120.81938
 30
0.0
 11
-97.557598
 21
120.81938
 31
0.0
  0
LINE
  5
2DA4
100
AcDbEntity
  8
0
  6
BYBLOCK
 62
     0
100
AcDbLine
 10
-98.457598
 20
351.31938
 30
0.0
 11
-98.457598
 21
138.31938
 31
0.0
  0
INSERT
  5
2DA5
100
AcDbEntity
  8
0
  6
BYBLOCK
 62
     0
100
AcDbBlockReference
  2
_OPEN
 10
-98.457598
 20
368.81938
 30
0.0
 41
17.5
 42
17.5
 43
17.5
 50
90.0
  0
INSERT
  5
2DA6
100
AcDbEntity
  8
0
  6
BYBLOCK
 62
     0
100
AcDbBlockReference
  2
_OPEN
 10
-98.457598
 20
120.81938
 30
0.0
 41
17.5
 42
17.5
 43
17.5
 50
270.0
  0
MTEXT
  5
2DA7
100
AcDbEntity
  8
0
  6
BYBLOCK
 62
     0
100
AcDbMText
 10
-110.33432
 20
244.81938
 30
0.0
 40
17.5
 41
0.0
 71
     5
 72
     1
  1
\A1;\U+2205248
 11
0.0
 21
1.0
 31
0.0
  0
POINT
  5
2DA8
100
AcDbEntity
  8
DEFPOINTS
  6
BYBLOCK
 62
     0
100
AcDbPoint
 10
-133.450972
 20
368.81938
 30
0.0
  0
POINT
  5
2DA9
100
AcDbEntity
  8
DEFPOINTS
  6
BYBLOCK
 62
     0
100
AcDbPoint
 10
-133.450972
 20
120.81938
 30
0.0
  0
POINT
  5
2DAA
100
AcDbEntity
  8
DEFPOINTS
  6
BYBLOCK
 62
     0
100
AcDbPoint
 10
-98.457598
 20
120.81938
 30
0.0
  0
ENDBLK
  5
2DAB
100
AcDbEntity
  8
0
100
AcDbBlockEnd
  0
BLOCK
  5
2E00
100
AcDbEntity
  8
0
100
AcDbBlockBegin
  2
*D18
 70
     1
 10
0.0
 20
0.0
 30
0.0
  3
*D18
  1

  0
LINE
  5
2E01
100
AcDbEntity
  8
0
  6
BYBLOCK
 62
     0
100
AcDbLine
 10
173.549028
 20
108.50688
 30
0.0
 11
173.549028
 21
82.198738
 31
0.0
  0
LINE
  5
2E02
100
AcDbEntity
  8
0
  6
BYBLOCK
 62
     0
100
AcDbLine
 10
328.549028
 20
160.50688
 30
0.0
 11
328.549028
 21
82.198738
 31
0.0
  0
LINE
  5
2E03
100
AcDbEntity
  8
0
  6
BYBLOCK
 62
     0
100
AcDbLine
 10
191.049028
 20
83.098738
 30
0.0
 11
311.049028
 21
83.098738
 31
0.0
  0
INSERT
  5
2E04
100
AcDbEntity
  8
0
  6
BYBLOCK
 62
     0
100
AcDbBlockReference
  2
_OPEN
 10
173.549028
 20
83.098738
 30
0.0
 41
17.5
 42
17.5
 43
17.5
 50
180.0
  0
INSERT
  5
2E05
100
AcDbEntity
  8
0
  6
BYBLOCK
 62
     0
100
AcDbBlockReference
  2
_OPEN
 10
328.549028
 20
83.098738
 30
0.0
 41
17.5
 42
17.5
 43
17.5
  0
MTEXT
  5
2E06
100
AcDbEntity
  8
0
  6
BYBLOCK
 62
     0
100
AcDbMText
 10
251.049028
 20
94.973738
 30
0.0
 40
17.5
 41
0.0
 71
     5
 72
     1
  1
\A1;155
  0
POINT
  5
2E07
100
AcDbEntity
  8
DEFPOINTS
  6
BYBLOCK
 62
     0
100
AcDbPoint
 10
173.549028
 20
108.81938
 30
0.0
  0
POINT
  5
2E08
100
AcDbEntity
  8
DEFPOINTS
  6
BYBLOCK
 62
     0
100
AcDbPoint
 10
328.549028
 20
160.81938
 30
0.0
  0
POINT
  5
2E09
100
AcDbEntity
  8
DEFPOINTS
  6
BYBLOCK
 62
     0
100
AcDbPoint
 10
328.549028
 20
83.098738
 30
0.0
  0
ENDBLK
  5
2E0A
100
AcDbEntity
  8
0
100
AcDbBlockEnd
  0
BLOCK
  5
2E0C
100
AcDbEntity
  8
0
100
AcDbBlockBegin
  2
*D19
 70
     1
 10
0.0
 20
0.0
 30
0.0
  3
*D19
  1

  0
LINE
  5
2E0D
100
AcDbEntity
  8
0
  6
BYBLOCK
 62
     0
100
AcDbLine
 10
37.549028
 20
245.13188
 30
0.0
 11
37.549028
 21
461.025963
 31
0.0
  0
LINE
  5
2E0E
100
AcDbEntity
  8
0
  6
BYBLOCK
 62
     0
100
AcDbLine
 10
328.549028
 20
329.13188
 30
0.0
 11
328.549028
 21
461.025963
 31
0.0
  0
LINE
  5
2E0F
100
AcDbEntity
  8
0
  6
BYBLOCK
 62
     0
100
AcDbLine
 10
55.049028
 20
460.125963
 30
0.0
 11
311.049028
 21
460.125963
 31
0.0
  0
INSERT
  5
2E10
100
AcDbEntity
  8
0
  6
BYBLOCK
 62
     0
100
AcDbBlockReference
  2
_OPEN
 10
37.549028
 20
460.125963
 30
0.0
 41
17.5
 42
17.5
 43
17.5
 50
180.0
  0
INSERT
  5
2E11
100
AcDbEntity
  8
0
  6
BYBLOCK
 62
     0
100
AcDbBlockReference
  2
_OPEN
 10
328.549028
 20
460.125963
 30
0.0
 41
17.5
 42
17.5
 43
17.5
  0
MTEXT
  5
2E12
100
AcDbEntity
  8
0
  6
BYBLOCK
 62
     0
100
AcDbMText
 10
183.049028
 20
472.002686
 30
0.0
 40
17.5
 41
0.0
 71
     5
 72
     1
  1
\A1;291
  0
POINT
  5
2E13
100
AcDbEntity
  8
DEFPOINTS
  6
BYBLOCK
 62
     0
100
AcDbPoint
 10
37.549028
 20
244.81938
 30
0.0
  0
POINT
  5
2E14
100
AcDbEntity
  8
DEFPOINTS
  6
BYBLOCK
 62
     0
100
AcDbPoint
 10
328.549028
 20
328.81938
 30
0.0
  0
POINT
  5
2E15
100
AcDbEntity
  8
DEFPOINTS
  6
BYBLOCK
 62
     0
100
AcDbPoint
 10
328.549028
 20
460.125963
 30
0.0
  0
ENDBLK
  5
2E16
100
AcDbEntity
  8
0
100
AcDbBlockEnd
  0
BLOCK
  5
2E18
100
AcDbEntity
  8
0
100
AcDbBlockBegin
  2
*D20
 70
     1
 10
0.0
 20
0.0
 30
0.0
  3
*D20
  1

  0
LINE
  5
2E19
100
AcDbEntity
  8
0
  6
BYBLOCK
 62
     0
100
AcDbLine
 10
328.861528
 20
328.81938
 30
0.0
 11
362.559607
 21
328.81938
 31
0.0
  0
LINE
  5
2E1A
100
AcDbEntity
  8
0
  6
BYBLOCK
 62
     0
100
AcDbLine
 10
328.861528
 20
160.81938
 30
0.0
 11
362.559607
 21
160.81938
 31
0.0
  0
LINE
  5
2E1B
100
AcDbEntity
  8
0
  6
BYBLOCK
 62
     0
100
AcDbLine
 10
361.659607
 20
311.31938
 30
0.0
 11
361.659607
 21
178.31938
 31
0.0
  0
INSERT
  5
2E1C
100
AcDbEntity
  8
0
  6
BYBLOCK
 62
     0
100
AcDbBlockReference
  2
_OPEN
 10
361.659607
 20
328.81938
 30
0.0
 41
17.5
 42
17.5
 43
17.5
 50
90.0
  0
INSERT
  5
2E1D
100
AcDbEntity
  8
0
  6
BYBLOCK
 62
     0
100
AcDbBlockReference
  2
_OPEN
 10
361.659607
 20
160.81938
 30
0.0
 41
17.5
 42
17.5
 43
17.5
 50
270.0
  0
MTEXT
  5
2E1E
100
AcDbEntity
  8
0
  6
BYBLOCK
 62
     0
100
AcDbMText
 10
349.784607
 20
244.81938
 30
0.0
 40
17.5
 41
0.0
 71
     5
 72
     1
  1
\A1;168
 11
0.0
 21
1.0
 31
0.0
  0
POINT
  5
2E1F
100
AcDbEntity
  8
DEFPOINTS
  6
BYBLOCK
 62
     0
100
AcDbPoint
 10
328.549028
 20
328.81938
 30
0.0
  0
POINT
  5
2E20
100
AcDbEntity
  8
DEFPOINTS
  6
BYBLOCK
 62
     0
100
AcDbPoint
 10
328.549028
 20
160.81938
 30
0.0
  0
POINT
  5
2E21
100
AcDbEntity
  8
DEFPOINTS
  6
BYBLOCK
 62
     0
100
AcDbPoint
 10
361.659607
 20
160.81938
 30
0.0
  0
ENDBLK
  5
2E22
100
AcDbEntity
  8
0
100
AcDbBlockEnd
  0
ENDSEC
  0
SECTION
  2
ENTITIES
  0
DIMENSION
  5
28CB
100
AcDbEntity
  8
V0-VYPLNE
  6
CONTINUOUS
 62
    41
100
AcDbDimension
  2
*D18
 10
328.549028
 20
83.098738
 30
0.0
 11
251.049028
 21
94.973738
 31
0.0
 70
    32
  3
STANDARD
100
AcDbAlignedDimension
 13
173.549028
 23
108.81938
 33
0.0
 14
328.549028
 24
160.81938
 34
0.0
100
AcDbRotatedDimension
  0
ARC
  5
28CC
100
AcDbEntity
  8
V0-OBRYS
  6
CONTINUOUS
 62
    90
100
AcDbCircle
 10
173.549028
 20
244.81938
 30
0.0
 40
136.0
100
AcDbArc
 50
38.144513
 51
322.223107
  0
LINE
  5
28CD
100
AcDbEntity
  8
V0-VYPLNE
  6
DASHDOT
 62
    63
 48
3.0
100
AcDbLine
 10
19.14999
 20
244.81938
 30
0.0
 11
328.549028
 21
244.81938
 31
0.0
  0
LINE
  5
28CF
100
AcDbEntity
  8
V0-OBRYS
  6
CONTINUOUS
 62
    90
100
AcDbLine
 10
113.549028
 20
436.81938
 30
0.0
 11
233.549028
 21
436.81938
 31
0.0
  0
LINE
  5
28D0
100
AcDbEntity
  8
V0-OBRYS
  6
CONTINUOUS
 62
    90
100
AcDbLine
 10
113.549028
 20
426.81938
 30
0.0
 11
233.549028
 21
426.81938
 31
0.0
  0
LINE
  5
28D4
100
AcDbEntity
  8
V0-OBRYS
  6
CONTINUOUS
 62
    90
100
AcDbLine
 10
113.549028
 20
366.868551
 30
0.0
 11
113.549028
 21
436.81938
 31
0.0
  0
DIMENSION
  5
28D5
100
AcDbEntity
  8
V0-VYPLNE
  6
CONTINUOUS
 62
    41
100
AcDbDimension
  2
*D20
 10
361.659607
 20
160.81938
 30
0.0
 11
349.784607
 21
244.81938
 31
0.0
 70
    32
  3
STANDARD
100
AcDbAlignedDimension
 13
328.549028
 23
328.81938
 33
0.0
 14
328.549028
 24
160.81938
 34
0.0
 50
90.0
100
AcDbRotatedDimension
  0
LINE
  5
28D6
100
AcDbEntity
  8
V0-VYPLNE
  6
DASHDOT
 62
    63
 48
30.0
100
AcDbLine
 10
309.549028
 20
172.31938
 30
0.0
 11
342.549028
 21
172.31938
 31
0.0
  0
LINE
  5
28D7
100
AcDbEntity
  8
V0-VYPLNE
  6
DASHDOT
 62
    63
 48
30.0
100
AcDbLine
 10
309.549028
 20
317.31938
 30
0.0
 11
342.549028
 21
317.31938
 31
0.0
  0
LINE
  5
28D9
100
AcDbEntity
  8
V0-OBRYS
  6
CONTINUOUS
 62
    90
100
AcDbLine
 10
328.549028
 20
160.81938
 30
0.0
 11
328.549028
 21
224.81938
 31
0.0
  0
LINE
  5
28DA
100
AcDbEntity
  8
V0-OBRYS
  6
CONTINUOUS
 62
    90
100
AcDbLine
 10
280.506964
 20
160.81938
 30
0.0
 11
275.127894
 21
164.980907
 31
0.0
  0
LINE
  5
28DB
100
AcDbEntity
  8
V0-OBRYS
  6
CONTINUOUS
 62
    90
100
AcDbLine
 10
328.549028
 20
160.81938
 30
0.0
 11
280.506964
 21
160.81938
 31
0.0
  0
LINE
  5
28DC
100
AcDbEntity
  8
V0-OBRYS
  6
CONTINUOUS
 62
    90
100
AcDbLine
 10
280.506964
 20
328.81938
 30
0.0
 11
275.127894
 21
324.657854
 31
0.0
  0
LINE
  5
28DE
100
AcDbEntity
  8
V0-OBRYS
  6
CONTINUOUS
 62
    90
100
AcDbLine
 10
328.549028
 20
328.81938
 30
0.0
 11
328.549028
 21
264.81938
 31
0.0
  0
LINE
  5
28DF
100
AcDbEntity
  8
V0-OBRYS
  6
CONTINUOUS
 62
    90
100
AcDbLine
 10
323.549028
 20
224.81938
 30
0.0
 11
323.549028
 21
244.81938
 31
0.0
  0
LINE
  5
28E0
100
AcDbEntity
  8
V0-OBRYS
  6
CONTINUOUS
 62
    90
100
AcDbLine
 10
328.549028
 20
224.81938
 30
0.0
 11
323.549028
 21
224.81938
 31
0.0
  0
LINE
  5
28E1
100
AcDbEntity
  8
V0-OBRYS
  6
CONTINUOUS
 62
    90
100
AcDbLine
 10
323.549028
 20
264.81938
 30
0.0
 11
323.549028
 21
244.81938
 31
0.0
  0
LINE
  5
28E2
100
AcDbEntity
  8
V0-OBRYS
  6
CONTINUOUS
 62
    90
100
AcDbLine
 10
328.549028
 20
264.81938
 30
0.0
 11
323.549028
 21
264.81938
 31
0.0
  0
LINE
  5
28E3
100
AcDbEntity
  8
V0-OBRYS
  6
CONTINUOUS
 62
    90
100
AcDbLine
 10
328.549028
 20
328.81938
 30
0.0
 11
280.506964
 21
328.81938
 31
0.0
  0
LINE
  5
28E4
100
AcDbEntity
  8
V0-OBRYS
  6
CONTINUOUS
 62
    90
100
AcDbLine
 10
233.549028
 20
436.81938
 30
0.0
 11
233.549028
 21
366.868551
 31
0.0
  0
DIMENSION
  5
292B
100
AcDbEntity
  8
V0-VYPLNE
  6
CONTINUOUS
 62
    41
100
AcDbDimension
  2
*D13
 10
-70.776248
 20
108.81938
 30
0.0
 11
-82.652971
 21
244.81938
 31
0.0
 70
    32
  1
%%c272
  3
STANDARD
100
AcDbAlignedDimension
 13
-221.450972
 23
380.81938
 33
0.0
 14
-221.450972
 24
108.81938
 34
0.0
 50
90.0
100
AcDbRotatedDimension
  0
DIMENSION
  5
292C
100
AcDbEntity
  8
V0-VYPLNE
  6
CONTINUOUS
 62
    41
100
AcDbDimension
  2
*D17
 10
-98.457598
 20
120.81938
 30
0.0
 11
-110.33432
 21
244.81938
 31
0.0
 70
    32
  1
%%c248
  3
STANDARD
100
AcDbAlignedDimension
 13
-133.450972
 23
368.81938
 33
0.0
 14
-133.450972
 24
120.81938
 34
0.0
 50
90.0
100
AcDbRotatedDimension
  0
DIMENSION
  5
292D
100
AcDbEntity
  8
V0-VYPLNE
  6
CONTINUOUS
 62
    41
100
AcDbDimension
  2
*D11
 10
-133.450972
 20
62.623668
 30
0.0
 11
-326.450972
 21
74.498668
 31
0.0
 70
    32
  3
STANDARD
100
AcDbAlignedDimension
 13
-519.450972
 23
120.81938
 33
0.0
 14
-133.450972
 24
120.81938
 34
0.0
100
AcDbRotatedDimension
  0
DIMENSION
  5
292F
100
AcDbEntity
  8
V0-VYPLNE
  6
CONTINUOUS
 62
    41
100
AcDbDimension
  2
*D14
 10
-545.972741
 20
244.81938
 30
0.0
 11
-557.853692
 21
340.81938
 31
0.0
 70
    32
  3
STANDARD
100
AcDbAlignedDimension
 13
-386.450972
 23
436.81938
 33
0.0
 14
-519.450972
 24
244.81938
 34
0.0
 50
90.0
100
AcDbRotatedDimension
  0
LINE
  5
2930
100
AcDbEntity
  8
V0-VYPLNE
  6
DASHDOT
 62
    63
 48
3.0
100
AcDbLine
 10
-519.450972
 20
244.81938
 30
0.0
 11
-179.793869
 21
244.81938
 31
0.0
  0
CIRCLE
  5
2931
100
AcDbEntity
  8
V0-OBRYS
  6
CONTINUOUS
 62
    90
100
AcDbCircle
 10
-398.950972
 20
172.31938
 30
0.0
 40
2.25
  0
CIRCLE
  5
2932
100
AcDbEntity
  8
V0-OBRYS
  6
CONTINUOUS
 62
    90
100
AcDbCircle
 10
-398.950972
 20
317.31938
 30
0.0
 40
2.25
  0
LINE
  5
2933
100
AcDbEntity
  8
V0-VYPLNE
  6
DASHDOT
 62
    63
 48
30.0
100
AcDbLine
 10
-407.319472
 20
317.31938
 30
0.0
 11
-388.589972
 21
317.31938
 31
0.0
  0
LINE
  5
2934
100
AcDbEntity
  8
V0-VYPLNE
  6
DASHDOT
 62
    63
 48
30.0
100
AcDbLine
 10
-407.319472
 20
172.31938
 30
0.0
 11
-388.589972
 21
172.31938
 31
0.0
  0
LINE
  5
2935
100
AcDbEntity
  8
V0-OBRYS
  6
CONTINUOUS
 62
    90
100
AcDbLine
 10
-326.450972
 20
163.41138
 30
0.0
 11
-437.331038
 21
163.41138
 31
0.0
  0
LINE
  5
2936
100
AcDbEntity
  8
V0-OBRYS
  6
CONTINUOUS
 62
    90
100
AcDbLine
 10
-326.450972
 20
330.78138
 30
0.0
 11
-437.331038
 21
330.78138
 31
0.0
  0
LINE
  5
2937
100
AcDbEntity
  8
V0-OBRYS
  6
CONTINUOUS
 62
    90
100
AcDbLine
 10
-421.450972
 20
114.81938
 30
0.0
 11
-231.450972
 21
114.81938
 31
0.0
  0
LINE
  5
2938
100
AcDbEntity
  8
V0-OBRYS
  6
CONTINUOUS
 62
    90
100
AcDbLine
 10
-421.450972
 20
374.81938
 30
0.0
 11
-386.450972
 21
374.81938
 31
0.0
  0
LINE
  5
293A
100
AcDbEntity
  8
V0-OBRYS
  6
CONTINUOUS
 62
    90
100
AcDbLine
 10
-421.450972
 20
380.81938
 30
0.0
 11
-421.450972
 21
330.78138
 31
0.0
  0
LINE
  5
293B
100
AcDbEntity
  8
V0-OBRYS
  6
CONTINUOUS
 62
    90
100
AcDbLine
 10
-431.450972
 20
330.78138
 30
0.0
 11
-431.450972
 21
380.81938
 31
0.0
  0
LINE
  5
293C
100
AcDbEntity
  8
V0-OBRYS
  6
CONTINUOUS
 62
    90
100
AcDbLine
 10
-469.950972
 20
368.81938
 30
0.0
 11
-469.950972
 21
244.81938
 31
0.0
  0
ARC
  5
293D
100
AcDbEntity
  8
V0-OBRYS
  6
CONTINUOUS
 62
    90
100
AcDbCircle
 10
1631.958193
 20
353.92698
 30
0.0
 40
2087.147997
100
AcDbArc
 50
182.933965
 51
184.985608
  0
LINE
  5
293E
100
AcDbEntity
  8
V0-OBRYS
  6
CONTINUOUS
 62
    90
100
AcDbLine
 10
-469.950972
 20
120.81938
 30
0.0
 11
-469.950972
 21
244.81938
 31
0.0
  0
LINE
  5
293F
100
AcDbEntity
  8
V0-OBRYS
  6
CONTINUOUS
 62
    90
100
AcDbLine
 10
-469.950972
 20
120.81938
 30
0.0
 11
-429.950972
 21
114.31938
 31
0.0
  0
LINE
  5
2941
100
AcDbEntity
  8
V0-OBRYS
  6
CONTINUOUS
 62
    90
100
AcDbLine
 10
-431.450972
 20
163.41138
 30
0.0
 11
-431.450972
 21
108.81938
 31
0.0
  0
LINE
  5
2942
100
AcDbEntity
  8
V0-OBRYS
  6
CONTINUOUS
 62
    90
100
AcDbLine
 10
-421.450972
 20
108.81938
 30
0.0
 11
-421.450972
 21
163.41138
 31
0.0
  0
LINE
  5
2943
100
AcDbEntity
  8
V0-OBRYS
  6
CONTINUOUS
 62
    90
100
AcDbLine
 10
-431.450972
 20
108.81938
 30
0.0
 11
-421.450972
 21
108.81938
 31
0.0
  0
ARC
  5
2944
100
AcDbEntity
  8
V0-OBRYS
  6
CONTINUOUS
 62
    90
100
AcDbCircle
 10
-437.331038
 20
173.41138
 30
0.0
 40
10.0
100
AcDbArc
 50
184.985608
 51
270.0
  0
ARC
  5
2945
100
AcDbEntity
  8
V0-OBRYS
  6
CONTINUOUS
 62
    90
100
AcDbCircle
 10
1631.958193
 20
140.265781
 30
0.0
 40
2087.147997
100
AcDbArc
 50
175.014392
 51
177.066035
  0
ARC
  5
2946
100
AcDbEntity
  8
V0-OBRYS
  6
CONTINUOUS
 62
    90
100
AcDbCircle
 10
-437.331038
 20
320.78138
 30
0.0
 40
10.0
100
AcDbArc
 50
90.0
 51
175.014392
  0
LINE
  5
2947
100
AcDbEntity
  8
V0-OBRYS
  6
CONTINUOUS
 62
    90
100
AcDbLine
 10
-469.950972
 20
368.81938
 30
0.0
 11
-429.950972
 21
375.31938
 31
0.0
  0
LINE
  5
2949
100
AcDbEntity
  8
V0-OBRYS
  6
CONTINUOUS
 62
    90
100
AcDbLine
 10
-431.450972
 20
380.81938
 30
0.0
 11
-421.450972
 21
380.81938
 31
0.0
  0
LINE
  5
294C
100
AcDbEntity
  8
V0-OBRYS
  6
CONTINUOUS
 62
    90
100
AcDbLine
 10
-184.950972
 20
368.81938
 30
0.0
 11
-184.950972
 21
244.81938
 31
0.0
  0
LINE
  5
294D
100
AcDbEntity
  8
V0-OBRYS
  6
CONTINUOUS
 62
    90
100
AcDbLine
 10
-221.450972
 20
330.78138
 30
0.0
 11
-221.450972
 21
380.81938
 31
0.0
  0
LINE
  5
294E
100
AcDbEntity
  8
V0-OBRYS
  6
CONTINUOUS
 62
    90
100
AcDbLine
 10
-231.450972
 20
380.81938
 30
0.0
 11
-231.450972
 21
330.78138
 31
0.0
  0
LINE
  5
294F
100
AcDbEntity
  8
V0-OBRYS
  6
CONTINUOUS
 62
    90
100
AcDbLine
 10
-326.450972
 20
163.41138
 30
0.0
 11
-215.570905
 21
163.41138
 31
0.0
  0
LINE
  5
2950
100
AcDbEntity
  8
V0-OBRYS
  6
CONTINUOUS
 62
    90
100
AcDbLine
 10
-326.450972
 20
330.78138
 30
0.0
 11
-215.570905
 21
330.78138
 31
0.0
  0
DIMENSION
  5
2951
100
AcDbEntity
  8
V0-VYPLNE
  6
CONTINUOUS
 62
    41
100
AcDbDimension
  2
*D16
 10
-253.950972
 20
135.439609
 30
0.0
 11
-326.450972
 21
147.314609
 31
0.0
 70
    32
  3
STANDARD
100
AcDbAlignedDimension
 13
-398.950972
 23
165.14638
 33
0.0
 14
-253.950972
 24
165.14638
 34
0.0
100
AcDbRotatedDimension
  0
LINE
  5
2952
100
AcDbEntity
  8
V0-VYPLNE
  6
DASHDOT
 62
    63
 48
30.0
100
AcDbLine
 10
-245.582472
 20
317.31938
 30
0.0
 11
-264.311972
 21
317.31938
 31
0.0
  0
LINE
  5
2953
100
AcDbEntity
  8
V0-VYPLNE
  6
DASHDOT
 62
    63
 48
30.0
100
AcDbLine
 10
-245.582472
 20
172.31938
 30
0.0
 11
-264.311972
 21
172.31938
 31
0.0
  0
LINE
  5
2956
100
AcDbEntity
  8
V0-VYPLNE
  6
DASHDOT
 62
    63
 48
30.0
100
AcDbLine
 10
-398.950972
 20
165.14638
 30
0.0
 11
-398.950972
 21
179.89088
 31
0.0
  0
LINE
  5
295A
100
AcDbEntity
  8
V0-VYPLNE
  6
DASHDOT
 62
    63
 48
30.0
100
AcDbLine
 10
-398.950972
 20
324.49238
 30
0.0
 11
-398.950972
 21
309.74788
 31
0.0
  0
ARC
  5
295B
100
AcDbEntity
  8
V0-OBRYS
  6
CONTINUOUS
 62
    90
100
AcDbCircle
 10
-2284.860136
 20
353.92698
 30
0.0
 40
2087.147997
100
AcDbArc
 50
355.014392
 51
357.066035
  0
LINE
  5
295C
100
AcDbEntity
  8
V0-OBRYS
  6
CONTINUOUS
 62
    90
100
AcDbLine
 10
-184.950972
 20
120.81938
 30
0.0
 11
-184.950972
 21
244.81938
 31
0.0
  0
LINE
  5
295D
100
AcDbEntity
  8
V0-OBRYS
  6
CONTINUOUS
 62
    90
100
AcDbLine
 10
-184.950972
 20
120.81938
 30
0.0
 11
-222.950972
 21
114.31938
 31
0.0
  0
LINE
  5
295E
100
AcDbEntity
  8
V0-OBRYS
  6
CONTINUOUS
 62
    90
100
AcDbLine
 10
-231.450972
 20
108.81938
 30
0.0
 11
-231.450972
 21
163.41138
 31
0.0
  0
LINE
  5
295F
100
AcDbEntity
  8
V0-OBRYS
  6
CONTINUOUS
 62
    90
100
AcDbLine
 10
-221.450972
 20
163.41138
 30
0.0
 11
-221.450972
 21
108.81938
 31
0.0
  0
LINE
  5
2960
100
AcDbEntity
  8
V0-OBRYS
  6
CONTINUOUS
 62
    90
100
AcDbLine
 10
-221.450972
 20
108.81938
 30
0.0
 11
-231.450972
 21
108.81938
 31
0.0
  0
LINE
  5
2961
100
AcDbEntity
  8
V0-VYPLNE
  6
DASHDOT
 62
    63
 48
30.0
100
AcDbLine
 10
-253.950972
 20
165.14638
 30
0.0
 11
-253.950972
 21
179.89088
 31
0.0
  0
CIRCLE
  5
2962
100
AcDbEntity
  8
V0-OBRYS
  6
CONTINUOUS
 62
    90
100
AcDbCircle
 10
-253.950972
 20
172.31938
 30
0.0
 40
2.25
  0
ARC
  5
2963
100
AcDbEntity
  8
V0-OBRYS
  6
CONTINUOUS
 62
    90
100
AcDbCircle
 10
-215.570905
 20
173.41138
 30
0.0
 40
10.0
100
AcDbArc
 50
270.0
 51
355.014392
  0
ARC
  5
2965
100
AcDbEntity
  8
V0-OBRYS
  6
CONTINUOUS
 62
    90
100
AcDbCircle
 10
-2284.860136
 20
140.265781
 30
0.0
 40
2087.147997
100
AcDbArc
 50
2.933965
 51
4.985608
  0
LINE
  5
2966
100
AcDbEntity
  8
V0-VYPLNE
  6
DASHDOT
 62
    63
 48
30.0
100
AcDbLine
 10
-253.950972
 20
324.49238
 30
0.0
 11
-253.950972
 21
309.74788
 31
0.0
  0
CIRCLE
  5
2967
100
AcDbEntity
  8
V0-OBRYS
  6
CONTINUOUS
 62
    90
100
AcDbCircle
 10
-253.950972
 20
317.31938
 30
0.0
 40
2.25
  0
ARC
  5
2968
100
AcDbEntity
  8
V0-OBRYS
  6
CONTINUOUS
 62
    90
100
AcDbCircle
 10
-215.570905
 20
320.78138
 30
0.0
 40
10.0
100
AcDbArc
 50
4.985608
 51
90.0
  0
LINE
  5
2969
100
AcDbEntity
  8
V0-OBRYS
  6
CONTINUOUS
 62
    90
100
AcDbLine
 10
-266.450972
 20
368.31938
 30
0.0
 11
-386.450972
 21
368.31938
 31
0.0
  0
LINE
  5
296A
100
AcDbEntity
  8
V0-OBRYS
  6
CONTINUOUS
 62
    90
100
AcDbLine
 10
-386.450972
 20
426.81938
 30
0.0
 11
-266.450972
 21
426.81938
 31
0.0
  0
LINE
  5
296B
100
AcDbEntity
  8
V0-OBRYS
  6
CONTINUOUS
 62
    90
100
AcDbLine
 10
-386.450972
 20
436.81938
 30
0.0
 11
-266.450972
 21
436.81938
 31
0.0
  0
LINE
  5
296D
100
AcDbEntity
  8
V0-OBRYS
  6
CONTINUOUS
 62
    90
100
AcDbLine
 10
-386.450972
 20
368.31938
 30
0.0
 11
-386.450972
 21
436.81938
 31
0.0
  0
LINE
  5
296E
100
AcDbEntity
  8
V0-OBRYS
  6
CONTINUOUS
 62
    90
100
AcDbLine
 10
-184.950972
 20
368.81938
 30
0.0
 11
-222.950972
 21
375.31938
 31
0.0
  0
LINE
  5
296F
100
AcDbEntity
  8
V0-OBRYS
  6
CONTINUOUS
 62
    90
100
AcDbLine
 10
-266.450972
 20
436.81938
 30
0.0
 11
-266.450972
 21
368.31938
 31
0.0
  0
LINE
  5
2970
100
AcDbEntity
  8
V0-OBRYS
  6
CONTINUOUS
 62
    90
100
AcDbLine
 10
-221.450972
 20
380.81938
 30
0.0
 11
-231.450972
 21
380.81938
 31
0.0
  0
LINE
  5
2971
100
AcDbEntity
  8
V0-OBRYS
  6
CONTINUOUS
 62
    90
100
AcDbLine
 10
-231.450972
 20
374.81938
 30
0.0
 11
-266.450972
 21
374.81938
 31
0.0
  0
LINE
  5
2A2D
100
AcDbEntity
  8
V0-OBRYS
  6
CONTINUOUS
 62
    90
100
AcDbLine
 10
-451.450972
 20
-310.18062
 30
0.0
 11
-201.450972
 21
-310.18062
 31
0.0
  0
LINE
  5
2A2E
100
AcDbEntity
  8
V0-OBRYS
  6
CONTINUOUS
 62
    90
100
AcDbLine
 10
-421.450972
 20
-25.18062
 30
0.0
 11
-231.450972
 21
-25.18062
 31
0.0
  0
LINE
  5
2A2F
100
AcDbEntity
  8
V0-VYPLNE
  6
DASHDOT
 62
    63
 48
3.0
100
AcDbLine
 10
-519.450972
 20
-155.18062
 30
0.0
 11
-133.450972
 21
-155.18062
 31
0.0
  0
LINE
  5
2A30
100
AcDbEntity
  8
V0-OBRYS
  6
CONTINUOUS
 62
    90
100
AcDbLine
 10
-421.450972
 20
-285.18062
 30
0.0
 11
-231.450972
 21
-285.18062
 31
0.0
  0
LINE
  5
2A32
100
AcDbEntity
  8
V0-OBRYS
  6
CONTINUOUS
 62
    90
100
AcDbLine
 10
-421.450972
 20
-291.18062
 30
0.0
 11
-421.450972
 21
-155.18062
 31
0.0
  0
LINE
  5
2A33
100
AcDbEntity
  8
V0-OBRYS
  6
CONTINUOUS
 62
    90
100
AcDbLine
 10
-431.450972
 20
-155.18062
 30
0.0
 11
-431.450972
 21
-291.18062
 31
0.0
  0
LINE
  5
2A34
100
AcDbEntity
  8
V0-OBRYS
  6
CONTINUOUS
 62
    90
100
AcDbLine
 10
-467.950972
 20
-279.18062
 30
0.0
 11
-467.950972
 21
-155.18062
 31
0.0
  0
LINE
  5
2A35
100
AcDbEntity
  8
V0-OBRYS
  6
CONTINUOUS
 62
    90
100
AcDbLine
 10
-451.450972
 20
-310.18062
 30
0.0
 11
-451.450972
 21
-256.1477
 31
0.0
  0
LINE
  5
2A36
100
AcDbEntity
  8
V0-OBRYS
  6
CONTINUOUS
 62
    90
100
AcDbLine
 10
-467.950972
 20
-279.18062
 30
0.0
 11
-429.950972
 21
-285.68062
 31
0.0
  0
LINE
  5
2A38
100
AcDbEntity
  8
V0-OBRYS
  6
CONTINUOUS
 62
    90
100
AcDbLine
 10
-431.450972
 20
-291.18062
 30
0.0
 11
-421.450972
 21
-291.18062
 31
0.0
  0
LINE
  5
2A39
100
AcDbEntity
  8
V0-OBRYS
  6
CONTINUOUS
 62
    90
100
AcDbLine
 10
-431.450972
 20
-155.18062
 30
0.0
 11
-431.450972
 21
-19.18062
 31
0.0
  0
LINE
  5
2A3A
100
AcDbEntity
  8
V0-OBRYS
  6
CONTINUOUS
 62
    90
100
AcDbLine
 10
-421.450972
 20
-19.18062
 30
0.0
 11
-421.450972
 21
-155.18062
 31
0.0
  0
LINE
  5
2A3B
100
AcDbEntity
  8
V0-OBRYS
  6
CONTINUOUS
 62
    90
100
AcDbLine
 10
-467.950972
 20
-31.18062
 30
0.0
 11
-467.950972
 21
-155.18062
 31
0.0
  0
LINE
  5
2A3C
100
AcDbEntity
  8
V0-OBRYS
  6
CONTINUOUS
 62
    90
100
AcDbLine
 10
-467.950972
 20
-31.18062
 30
0.0
 11
-429.950972
 21
-24.68062
 31
0.0
  0
LINE
  5
2A3E
100
AcDbEntity
  8
V0-OBRYS
  6
CONTINUOUS
 62
    90
100
AcDbLine
 10
-431.450972
 20
-19.18062
 30
0.0
 11
-421.450972
 21
-19.18062
 31
0.0
  0
LINE
  5
2A40
100
AcDbEntity
  8
V0-OBRYS
  6
CONTINUOUS
 62
    90
100
AcDbLine
 10
-256.450972
 20
-97.390598
 30
0.0
 11
-256.450972
 21
-213.646747
 31
0.0
  0
LINE
  5
2A41
100
AcDbEntity
  8
V0-OBRYS
  6
CONTINUOUS
 62
    90
100
AcDbLine
 10
-386.450972
 20
-213.646747
 30
0.0
 11
-386.450972
 21
-97.390598
 31
0.0
  0
LINE
  5
2A43
100
AcDbEntity
  8
V0-OBRYS
  6
CONTINUOUS
 62
    90
100
AcDbLine
 10
-184.950972
 20
-279.18062
 30
0.0
 11
-184.950972
 21
-155.18062
 31
0.0
  0
LINE
  5
2A44
100
AcDbEntity
  8
V0-OBRYS
  6
CONTINUOUS
 62
    90
100
AcDbLine
 10
-221.450972
 20
-155.18062
 30
0.0
 11
-221.450972
 21
-291.18062
 31
0.0
  0
LINE
  5
2A45
100
AcDbEntity
  8
V0-OBRYS
  6
CONTINUOUS
 62
    90
100
AcDbLine
 10
-231.450972
 20
-291.18062
 30
0.0
 11
-231.450972
 21
-155.18062
 31
0.0
  0
LINE
  5
2A46
100
AcDbEntity
  8
V0-OBRYS
  6
CONTINUOUS
 62
    90
100
AcDbLine
 10
-256.450972
 20
-213.646747
 30
0.0
 11
-386.450972
 21
-213.646747
 31
0.0
  0
LINE
  5
2A47
100
AcDbEntity
  8
V0-VYPLNE
  6
DASHDOT
 62
    63
 48
30.0
100
AcDbLine
 10
-398.950972
 20
-326.220771
 30
0.0
 11
-398.950972
 21
-295.375966
 31
0.0
  0
LINE
  5
2A48
100
AcDbEntity
  8
V0-VYPLNE
  6
DASHDOT
 62
    63
 48
30.0
100
AcDbLine
 10
-253.950972
 20
-326.220771
 30
0.0
 11
-253.950972
 21
-295.375966
 31
0.0
  0
LINE
  5
2A49
100
AcDbEntity
  8
V0-OBRYS
  6
CONTINUOUS
 62
    90
100
AcDbLine
 10
-201.450972
 20
-310.18062
 30
0.0
 11
-201.450972
 21
-256.1477
 31
0.0
  0
LINE
  5
2A4A
100
AcDbEntity
  8
V0-OBRYS
  6
CONTINUOUS
 62
    90
100
AcDbLine
 10
-184.950972
 20
-279.18062
 30
0.0
 11
-222.950972
 21
-285.68062
 31
0.0
  0
LINE
  5
2A4B
100
AcDbEntity
  8
V0-OBRYS
  6
CONTINUOUS
 62
    90
100
AcDbLine
 10
-221.450972
 20
-291.18062
 30
0.0
 11
-231.450972
 21
-291.18062
 31
0.0
  0
LINE
  5
2A4D
100
AcDbEntity
  8
V0-OBRYS
  6
CONTINUOUS
 62
    90
100
AcDbLine
 10
-386.450972
 20
-97.390598
 30
0.0
 11
-256.450972
 21
-97.390598
 31
0.0
  0
LINE
  5
2A4E
100
AcDbEntity
  8
V0-OBRYS
  6
CONTINUOUS
 62
    90
100
AcDbLine
 10
-231.450972
 20
-19.18062
 30
0.0
 11
-231.450972
 21
-155.18062
 31
0.0
  0
LINE
  5
2A4F
100
AcDbEntity
  8
V0-OBRYS
  6
CONTINUOUS
 62
    90
100
AcDbLine
 10
-221.450972
 20
-155.18062
 30
0.0
 11
-221.450972
 21
-19.18062
 31
0.0
  0
LINE
  5
2A50
100
AcDbEntity
  8
V0-OBRYS
  6
CONTINUOUS
 62
    90
100
AcDbLine
 10
-184.950972
 20
-31.18062
 30
0.0
 11
-184.950972
 21
-155.18062
 31
0.0
  0
LINE
  5
2A51
100
AcDbEntity
  8
V0-OBRYS
  6
CONTINUOUS
 62
    90
100
AcDbLine
 10
-184.950972
 20
-31.18062
 30
0.0
 11
-222.950972
 21
-24.68062
 31
0.0
  0
LINE
  5
2A52
100
AcDbEntity
  8
V0-OBRYS
  6
CONTINUOUS
 62
    90
100
AcDbLine
 10
-221.450972
 20
-19.18062
 30
0.0
 11
-231.450972
 21
-19.18062
 31
0.0
  0
LINE
  5
2A55
100
AcDbEntity
  8
V0-OBRYS
  6
CONTINUOUS
 62
    90
100
AcDbLine
 10
-519.450972
 20
368.81938
 30
0.0
 11
-469.950972
 21
368.81938
 31
0.0
  0
LINE
  5
2A56
100
AcDbEntity
  8
V0-OBRYS
  6
CONTINUOUS
 62
    90
100
AcDbLine
 10
-184.950972
 20
368.81938
 30
0.0
 11
-133.450972
 21
368.81938
 31
0.0
  0
LINE
  5
2A57
100
AcDbEntity
  8
V0-OBRYS
  6
CONTINUOUS
 62
    90
100
AcDbLine
 10
-184.950972
 20
120.81938
 30
0.0
 11
-133.450972
 21
120.81938
 31
0.0
  0
LINE
  5
2A5A
100
AcDbEntity
  8
V0-OBRYS
  6
CONTINUOUS
 62
    90
100
AcDbLine
 10
-519.450972
 20
368.81938
 30
0.0
 11
-519.450972
 21
120.0
 31
0.0
  0
LINE
  5
2A5B
100
AcDbEntity
  8
V0-OBRYS
  6
CONTINUOUS
 62
    90
100
AcDbLine
 10
-133.138472
 20
368.81938
 30
0.0
 11
-133.138472
 21
120.0
 31
0.0
  0
LINE
  5
2A5C
100
AcDbEntity
  8
V0-OBRYS
  6
CONTINUOUS
 62
    90
100
AcDbLine
 10
-469.950972
 20
120.81938
 30
0.0
 11
-519.423077
 21
120.81938
 31
0.0
  0
LINE
  5
2A5E
100
AcDbEntity
  8
V0-OBRYS
  6
CONTINUOUS
 62
    90
100
AcDbLine
 10
-467.950972
 20
-31.18062
 30
0.0
 11
-518.917178
 21
-31.18062
 31
0.0
  0
LINE
  5
2A5F
100
AcDbEntity
  8
V0-OBRYS
  6
CONTINUOUS
 62
    90
100
AcDbLine
 10
-467.950972
 20
-279.18062
 30
0.0
 11
-518.917178
 21
-279.18062
 31
0.0
  0
LINE
  5
2A60
100
AcDbEntity
  8
V0-OBRYS
  6
CONTINUOUS
 62
    90
100
AcDbLine
 10
-518.917178
 20
-31.18062
 30
0.0
 11
-518.917178
 21
-279.263637
 31
0.0
  0
LINE
  5
2A61
100
AcDbEntity
  8
V0-OBRYS
  6
CONTINUOUS
 62
    90
100
AcDbLine
 10
-184.950972
 20
-31.18062
 30
0.0
 11
-134.045642
 21
-31.18062
 31
0.0
  0
LINE
  5
2A62
100
AcDbEntity
  8
V0-OBRYS
  6
CONTINUOUS
 62
    90
100
AcDbLine
 10
-184.950972
 20
-279.18062
 30
0.0
 11
-134.045642
 21
-279.18062
 31
0.0
  0
LINE
  5
2A63
100
AcDbEntity
  8
V0-OBRYS
  6
CONTINUOUS
 62
    90
100
AcDbLine
 10
-134.045642
 20
-31.18062
 30
0.0
 11
-134.045642
 21
-279.263637
 31
0.0
  0
LINE
  5
2A9D
100
AcDbEntity
  8
V0-VYPLNE
  6
DASHDOT
 62
    63
 48
3.0
100
AcDbLine
 10
60.749028
 20
244.81938
 30
0.0
 11
286.349028
 21
244.81938
 31
0.0
  0
LINE
  5
2A9E
100
AcDbEntity
  8
V0-VYPLNE
  6
DASHDOT
 62
    63
 48
3.0
100
AcDbLine
 10
173.549028
 20
364.980605
 30
0.0
 11
173.549028
 21
132.01938
 31
0.0
  0
LINE
  5
2A9F
100
AcDbEntity
  8
V0-OBRYS
  6
CONTINUOUS
 62
    90
100
AcDbLine
 10
240.901141
 20
300.627082
 30
0.0
 11
258.413145
 21
313.564885
 31
0.0
  0
LINE
  5
2AA0
100
AcDbEntity
  8
V0-OBRYS
  6
CONTINUOUS
 62
    90
100
AcDbLine
 10
173.548377
 20
319.118244
 30
0.0
 11
173.543666
 21
264.853209
 31
0.0
  0
ARC
  5
2AA1
100
AcDbEntity
  8
V0-OBRYS
  6
CONTINUOUS
 62
    90
100
AcDbCircle
 10
212.792678
 20
220.892973
 30
0.0
 40
58.932056
100
AcDbArc
 50
94.288647
 51
131.759431
  0
ARC
  5
2AA2
100
AcDbEntity
  8
V0-OBRYS
  6
CONTINUOUS
 62
    90
100
AcDbCircle
 10
212.007203
 20
260.687964
 30
0.0
 40
77.403294
100
AcDbArc
 50
53.133515
 51
112.631049
  0
ARC
  5
2AA3
100
AcDbEntity
  8
V0-OBRYS
  6
CONTINUOUS
 62
    90
100
AcDbCircle
 10
187.648377
 20
319.11702
 30
0.0
 40
14.1
100
AcDbArc
 50
112.631049
 51
179.995026
  0
ARC
  5
2AA4
100
AcDbEntity
  8
V0-OBRYS
  6
CONTINUOUS
 62
    90
100
AcDbCircle
 10
255.06176
 20
318.101163
 30
0.0
 40
5.64
100
AcDbArc
 50
306.456849
 51
53.133515
  0
ARC
  5
2AA5
100
AcDbEntity
  8
V0-OBRYS
  6
CONTINUOUS
 62
    90
100
AcDbCircle
 10
179.369188
 20
354.275631
 30
0.0
 40
5.64
100
AcDbArc
 50
351.456849
 51
98.133515
  0
ARC
  5
2AA6
100
AcDbEntity
  8
V0-OBRYS
  6
CONTINUOUS
 62
    90
100
AcDbCircle
 10
189.522281
 20
283.2342
 30
0.0
 40
77.403294
100
AcDbArc
 50
98.133515
 51
157.631049
  0
ARC
  5
2AA7
100
AcDbEntity
  8
V0-OBRYS
  6
CONTINUOUS
 62
    90
100
AcDbCircle
 10
130.982408
 20
307.32549
 30
0.0
 40
14.1
100
AcDbArc
 50
157.631049
 51
224.995026
  0
LINE
  5
2AA8
100
AcDbEntity
  8
V0-OBRYS
  6
CONTINUOUS
 62
    90
100
AcDbLine
 10
121.011337
 20
297.35615
 30
0.0
 11
159.379181
 21
258.981645
 31
0.0
  0
ARC
  5
2AA9
100
AcDbEntity
  8
V0-OBRYS
  6
CONTINUOUS
 62
    90
100
AcDbCircle
 10
218.217004
 20
255.650307
 30
0.0
 40
58.932056
100
AcDbArc
 50
139.288647
 51
176.759431
  0
LINE
  5
2AAA
100
AcDbEntity
  8
V0-OBRYS
  6
CONTINUOUS
 62
    90
100
AcDbLine
 10
181.641076
 20
331.433331
 30
0.0
 11
184.946608
 21
353.437786
 31
0.0
  0
ARC
  5
2AAB
100
AcDbEntity
  8
V0-OBRYS
  6
CONTINUOUS
 62
    90
100
AcDbCircle
 10
162.718102
 20
289.487357
 30
0.0
 40
58.932056
100
AcDbArc
 50
229.288647
 51
266.759431
  0
LINE
  5
2AAC
100
AcDbEntity
  8
V0-OBRYS
  6
CONTINUOUS
 62
    90
100
AcDbLine
 10
121.012258
 20
192.28169
 30
0.0
 11
159.386764
 21
230.649533
 31
0.0
  0
LINE
  5
2AAD
100
AcDbEntity
  8
V0-OBRYS
  6
CONTINUOUS
 62
    90
100
AcDbLine
 10
99.250164
 20
244.818729
 30
0.0
 11
153.5152
 21
244.814019
 31
0.0
  0
LINE
  5
2AAE
100
AcDbEntity
  8
V0-OBRYS
  6
CONTINUOUS
 62
    90
100
AcDbLine
 10
117.741326
 20
312.171493
 30
0.0
 11
104.803523
 21
329.683497
 31
0.0
  0
ARC
  5
2AAF
100
AcDbEntity
  8
V0-OBRYS
  6
CONTINUOUS
 62
    90
100
AcDbCircle
 10
197.475436
 20
284.063031
 30
0.0
 40
58.932056
100
AcDbArc
 50
184.288647
 51
221.759431
  0
ARC
  5
2AB0
100
AcDbEntity
  8
V0-OBRYS
  6
CONTINUOUS
 62
    90
100
AcDbCircle
 10
157.680444
 20
283.277555
 30
0.0
 40
77.403294
100
AcDbArc
 50
143.133515
 51
202.631049
  0
ARC
  5
2AB1
100
AcDbEntity
  8
V0-OBRYS
  6
CONTINUOUS
 62
    90
100
AcDbCircle
 10
64.092777
 20
250.63954
 30
0.0
 40
5.64
100
AcDbArc
 50
81.456849
 51
188.133515
  0
ARC
  5
2AB2
100
AcDbEntity
  8
V0-OBRYS
  6
CONTINUOUS
 62
    90
100
AcDbCircle
 10
135.134209
 20
260.792633
 30
0.0
 40
77.403294
100
AcDbArc
 50
188.133515
 51
247.631049
  0
ARC
  5
2AB3
100
AcDbEntity
  8
V0-OBRYS
  6
CONTINUOUS
 62
    90
100
AcDbCircle
 10
111.042918
 20
202.252761
 30
0.0
 40
14.1
100
AcDbArc
 50
247.631049
 51
314.995026
  0
ARC
  5
2AB4
100
AcDbEntity
  8
V0-OBRYS
  6
CONTINUOUS
 62
    90
100
AcDbCircle
 10
99.251388
 20
258.918729
 30
0.0
 40
14.1
100
AcDbArc
 50
202.631049
 51
269.995026
  0
LINE
  5
2AB5
100
AcDbEntity
  8
V0-OBRYS
  6
CONTINUOUS
 62
    90
100
AcDbLine
 10
86.935077
 20
252.911428
 30
0.0
 11
64.930623
 21
256.21696
 31
0.0
  0
ARC
  5
2AB6
100
AcDbEntity
  8
V0-OBRYS
  6
CONTINUOUS
 62
    90
100
AcDbCircle
 10
100.267245
 20
326.332112
 30
0.0
 40
5.64
100
AcDbArc
 50
36.456849
 51
143.133515
  0
ARC
  5
2AB7
100
AcDbEntity
  8
V0-OBRYS
  6
CONTINUOUS
 62
    90
100
AcDbCircle
 10
128.881052
 20
233.988454
 30
0.0
 40
58.932056
100
AcDbArc
 50
319.288647
 51
356.759431
  0
LINE
  5
2AB8
100
AcDbEntity
  8
V0-OBRYS
  6
CONTINUOUS
 62
    90
100
AcDbLine
 10
226.086719
 20
192.282611
 30
0.0
 11
187.718875
 21
230.657116
 31
0.0
  0
LINE
  5
2AB9
100
AcDbEntity
  8
V0-OBRYS
  6
CONTINUOUS
 62
    90
100
AcDbLine
 10
173.549679
 20
170.520517
 30
0.0
 11
173.55439
 21
224.785552
 31
0.0
  0
LINE
  5
2ABA
100
AcDbEntity
  8
V0-OBRYS
  6
CONTINUOUS
 62
    90
100
AcDbLine
 10
106.196916
 20
189.011678
 30
0.0
 11
88.684911
 21
176.073876
 31
0.0
  0
ARC
  5
2ABB
100
AcDbEntity
  8
V0-OBRYS
  6
CONTINUOUS
 62
    90
100
AcDbCircle
 10
134.305378
 20
268.745788
 30
0.0
 40
58.932056
100
AcDbArc
 50
274.288647
 51
311.759431
  0
ARC
  5
2ABC
100
AcDbEntity
  8
V0-OBRYS
  6
CONTINUOUS
 62
    90
100
AcDbCircle
 10
135.090853
 20
228.950797
 30
0.0
 40
77.403294
100
AcDbArc
 50
233.133515
 51
292.631049
  0
ARC
  5
2ABD
100
AcDbEntity
  8
V0-OBRYS
  6
CONTINUOUS
 62
    90
100
AcDbCircle
 10
167.728868
 20
135.363129
 30
0.0
 40
5.64
100
AcDbArc
 50
171.456849
 51
278.133515
  0
ARC
  5
2ABE
100
AcDbEntity
  8
V0-OBRYS
  6
CONTINUOUS
 62
    90
100
AcDbCircle
 10
157.575775
 20
206.404561
 30
0.0
 40
77.403294
100
AcDbArc
 50
278.133515
 51
337.631049
  0
ARC
  5
2ABF
100
AcDbEntity
  8
V0-OBRYS
  6
CONTINUOUS
 62
    90
100
AcDbCircle
 10
216.115648
 20
182.31327
 30
0.0
 40
14.1
100
AcDbArc
 50
337.631049
 51
44.995026
  0
ARC
  5
2AC0
100
AcDbEntity
  8
V0-OBRYS
  6
CONTINUOUS
 62
    90
100
AcDbCircle
 10
159.449679
 20
170.521741
 30
0.0
 40
14.1
100
AcDbArc
 50
292.631049
 51
359.995026
  0
LINE
  5
2AC1
100
AcDbEntity
  8
V0-OBRYS
  6
CONTINUOUS
 62
    90
100
AcDbLine
 10
165.45698
 20
158.20543
 30
0.0
 11
162.151448
 21
136.200975
 31
0.0
  0
ARC
  5
2AC2
100
AcDbEntity
  8
V0-OBRYS
  6
CONTINUOUS
 62
    90
100
AcDbCircle
 10
92.036296
 20
171.537598
 30
0.0
 40
5.64
100
AcDbArc
 50
126.456849
 51
233.133515
  0
ARC
  5
2AC3
100
AcDbEntity
  8
V0-OBRYS
  6
CONTINUOUS
 62
    90
100
AcDbCircle
 10
184.379954
 20
200.151404
 30
0.0
 40
58.932056
100
AcDbArc
 50
49.288647
 51
86.759431
  0
LINE
  5
2AC4
100
AcDbEntity
  8
V0-OBRYS
  6
CONTINUOUS
 62
    90
100
AcDbLine
 10
226.085798
 20
297.357071
 30
0.0
 11
187.711292
 21
258.989228
 31
0.0
  0
LINE
  5
2AC5
100
AcDbEntity
  8
V0-OBRYS
  6
CONTINUOUS
 62
    90
100
AcDbLine
 10
247.847892
 20
244.820032
 30
0.0
 11
193.582856
 21
244.824742
 31
0.0
  0
LINE
  5
2AC6
100
AcDbEntity
  8
V0-OBRYS
  6
CONTINUOUS
 62
    90
100
AcDbLine
 10
229.35673
 20
177.467268
 30
0.0
 11
242.294533
 21
159.955264
 31
0.0
  0
ARC
  5
2AC7
100
AcDbEntity
  8
V0-OBRYS
  6
CONTINUOUS
 62
    90
100
AcDbCircle
 10
149.622621
 20
205.57573
 30
0.0
 40
58.932056
100
AcDbArc
 50
4.288647
 51
41.759431
  0
ARC
  5
2AC8
100
AcDbEntity
  8
V0-OBRYS
  6
CONTINUOUS
 62
    90
100
AcDbCircle
 10
189.417612
 20
206.361206
 30
0.0
 40
77.403294
100
AcDbArc
 50
323.133515
 51
22.631049
  0
ARC
  5
2AC9
100
AcDbEntity
  8
V0-OBRYS
  6
CONTINUOUS
 62
    90
100
AcDbCircle
 10
283.005279
 20
238.999221
 30
0.0
 40
5.64
100
AcDbArc
 50
261.456849
 51
8.133515
  0
ARC
  5
2ACA
100
AcDbEntity
  8
V0-OBRYS
  6
CONTINUOUS
 62
    90
100
AcDbCircle
 10
211.963847
 20
228.846127
 30
0.0
 40
77.403294
100
AcDbArc
 50
8.133515
 51
67.631049
  0
ARC
  5
2ACB
100
AcDbEntity
  8
V0-OBRYS
  6
CONTINUOUS
 62
    90
100
AcDbCircle
 10
236.055138
 20
287.386
 30
0.0
 40
14.1
100
AcDbArc
 50
67.631049
 51
134.995026
  0
ARC
  5
2ACC
100
AcDbEntity
  8
V0-OBRYS
  6
CONTINUOUS
 62
    90
100
AcDbCircle
 10
247.846668
 20
230.720032
 30
0.0
 40
14.1
100
AcDbArc
 50
22.631049
 51
89.995026
  0
LINE
  5
2ACD
100
AcDbEntity
  8
V0-OBRYS
  6
CONTINUOUS
 62
    90
100
AcDbLine
 10
260.162979
 20
236.727332
 30
0.0
 11
282.167433
 21
233.421801
 31
0.0
  0
ARC
  5
2ACE
100
AcDbEntity
  8
V0-OBRYS
  6
CONTINUOUS
 62
    90
100
AcDbCircle
 10
246.830811
 20
163.306649
 30
0.0
 40
5.64
100
AcDbArc
 50
216.456849
 51
323.133515
  0
CIRCLE
  5
2ACF
100
AcDbEntity
  8
V0-OBRYS
  6
CONTINUOUS
 62
    90
100
AcDbCircle
 10
173.549028
 20
244.81938
 30
0.0
 40
15.72118
  0
TEXT
  5
2AD6
100
AcDbEntity
  8
V0-NAZVY
  6
CONTINUOUS
 62
   210
100
AcDbText
 10
-37.89515
 20
-38.506251
 30
0.0
 40
30.0
  1
MIXVENT-TD-1300/250
100
AcDbText
  0
TEXT
  5
2AD7
100
AcDbEntity
  8
V0-ZBYTEK
  6
CONTINUOUS
 62
   130
100
AcDbText
 10
335.870607
 20
-119.306291
 30
0.0
 40
15.0
  1
POTRUBI
100
AcDbText
  0
MTEXT
  5
2AD8
100
AcDbEntity
  8
V0-ZBYTEK
  6
CONTINUOUS
 62
    51
100
AcDbMText
 10
-49.721567
 20
-164.353098
 30
0.0
 40
15.0
 41
363.382
 71
     1
 72
     5
  1
   min             W          m /h          kg\P  
  0
LINE
  5
2AD9
100
AcDbEntity
  8
V0-ZBYTEK
  6
CONTINUOUS
 62
    51
100
AcDbLine
 10
-43.388109
 20
-188.07773
 30
0.0
 11
308.910354
 21
-188.07773
 31
0.0
  0
TEXT
  5
2ADA
100
AcDbEntity
  8
V0-ZBYTEK
  6
CONTINUOUS
 62
    51
100
AcDbText
 10
-50.03974
 20
-238.759721
 30
0.0
 40
15.0
  1
  1990           110           1025         9,4
100
AcDbText
  0
TEXT
  5
2ADB
100
AcDbEntity
  8
V0-ZBYTEK
  6
CONTINUOUS
 62
    51
100
AcDbText
 10
-35.789465
 20
-213.756768
 30
0.0
 40
15.0
  1
2520          170           1375         9,4
100
AcDbText
  0
MTEXT
  5
2ADC
100
AcDbEntity
  8
V0-ZBYTEK
  6
CONTINUOUS
 62
    51
100
AcDbMText
 10
-42.771631
 20
-142.994446
 30
0.0
 40
15.0
 41
456.2164
 71
     1
 72
     5
  1
otacky      prikon      prutok    hmotnost
  0
TEXT
  5
2ADD
100
AcDbEntity
  8
V0-ZBYTEK
  6
CONTINUOUS
 62
   130
100
AcDbText
 10
-41.202235
 20
-119.155576
 30
0.0
 40
15.0
  1
DIAGONALNI VENTILATOR DO KRUHOVEHO 
100
AcDbText
  0
DIMENSION
  5
2AF7
100
AcDbEntity
  8
V0-VYPLNE
  6
CONTINUOUS
 62
    41
 48
5.0
100
AcDbDimension
  2
*D19
 10
328.549028
 20
460.125963
 30
0.0
 11
183.049028
 21
472.002686
 31
0.0
 70
    32
  3
STANDARD
100
AcDbAlignedDimension
 13
37.549028
 23
244.81938
 33
0.0
 14
328.549028
 24
328.81938
 34
0.0
100
AcDbRotatedDimension
  0
ARC
  5
2AFD
100
AcDbEntity
  8
V0-OBRYS
  6
CONTINUOUS
 62
    90
100
AcDbCircle
 10
173.840623
 20
245.326401
 30
0.0
 40
129.284608
100
AcDbArc
 50
321.45913
 51
0.0
  0
ARC
  5
2AFE
100
AcDbEntity
  8
V0-OBRYS
  6
CONTINUOUS
 62
    90
100
AcDbCircle
 10
173.840623
 20
244.31236
 30
0.0
 40
129.284608
100
AcDbArc
 50
0.0
 51
38.54087
  0
CIRCLE
  5
2B01
100
AcDbEntity
  8
V0-OBRYS
  6
CONTINUOUS
 62
    90
100
AcDbCircle
 10
173.549028
 20
244.81938
 30
0.0
 40
124.0
  0
DIMENSION
  5
2B44
100
AcDbEntity
  8
V0-VYPLNE
  6
CONTINUOUS
 62
    41
 48
5.0
100
AcDbDimension
  2
*D12
 10
-146.005335
 20
172.31938
 30
0.0
 11
-157.880335
 21
244.81938
 31
0.0
 70
    32
  3
STANDARD
100
AcDbAlignedDimension
 13
-245.582472
 23
317.31938
 33
0.0
 14
-245.582472
 24
172.31938
 34
0.0
 50
90.0
100
AcDbRotatedDimension
  0
LEADER
  5
2B46
100
AcDbEntity
  8
V0-VYPLNE
  6
CONTINUOUS
 62
    41
 48
5.0
100
AcDbLeader
  3
STANDARD
 73
     0
 75
     1
 40
20.125
 41
41.849874
 76
     3
 10
-400.591682
 20
319.01468
 30
0.0
 10
-421.61932
 20
385.923667
 30
0.0
 10
-439.11932
 20
385.923667
 30
0.0
 77
    41
340
2B47
  0
MTEXT
  5
2B47
102
{ACAD_REACTORS
330
2B46
102
}
100
AcDbEntity
  8
V0-VYPLNE
  6
CONTINUOUS
 62
    41
 48
5.0
100
AcDbMText
 10
-442.24432
 20
399.111167
 30
0.0
 40
17.5
 41
0.0
 71
     6
 72
     1
  1
\A1;%%C5,5
  0
TEXT
  5
2B48
100
AcDbEntity
  8
V0-NAZVY
  6
CONTINUOUS
 62
   210
100
AcDbText
 10
-431.319185
 20
276.2628
 30
0.0
 40
15.0
  1
MIXVENT-TD-1300/250
100
AcDbText
  0
TEXT
  5
2B4B
100
AcDbEntity
  8
V0-NAZVY
  6
CONTINUOUS
 62
   210
100
AcDbText
 10
-380.925877
 20
-54.12547
 30
0.0
 40
15.0
  1
MIXVENT-TD
100
AcDbText
  0
TEXT
  5
2B4C
100
AcDbEntity
  8
V0-NAZVY
  6
CONTINUOUS
 62
   210
100
AcDbText
 10
-361.816382
 20
-81.432424
 30
0.0
 40
15.0
  1
1300/250
100
AcDbText
  0
DIMENSION
  5
2CD7
100
AcDbEntity
  8
V0-VYPLNE
  6
CONTINUOUS
 62
    41
 48
5.0
100
AcDbDimension
  2
*D15
 10
-469.950972
 20
84.187362
 30
0.0
 11
-494.700972
 21
96.062362
 31
0.0
 70
    32
  3
STANDARD
100
AcDbAlignedDimension
 13
-519.450972
 23
120.0
 33
0.0
 14
-469.950972
 24
120.0
 34
0.0
100
AcDbRotatedDimension
  0
LINE
  5
2D06
100
AcDbEntity
  8
V0-VYPLNE
  6
CONTINUOUS
 62
    52
100
AcDbLine
 10
-336.336451
 20
-135.592546
 30
0.0
 11
-336.336451
 21
-175.592546
 31
0.0
  0
LINE
  5
2D07
100
AcDbEntity
  8
V0-VYPLNE
  6
CONTINUOUS
 62
    52
100
AcDbLine
 10
-336.336451
 20
-175.592546
 30
0.0
 11
-306.336451
 21
-155.592546
 31
0.0
  0
LINE
  5
2D08
100
AcDbEntity
  8
V0-VYPLNE
  6
CONTINUOUS
 62
    52
100
AcDbLine
 10
-306.336451
 20
-155.592546
 30
0.0
 11
-336.336451
 21
-135.592546
 31
0.0
  0
LINE
  5
2D09
100
AcDbEntity
  8
V0-VYPLNE
  6
CONTINUOUS
 62
    52
100
AcDbLine
 10
-328.374684
 20
264.228208
 30
0.0
 11
-328.374684
 21
224.228208
 31
0.0
  0
LINE
  5
2D0A
100
AcDbEntity
  8
V0-VYPLNE
  6
CONTINUOUS
 62
    52
100
AcDbLine
 10
-328.374684
 20
224.228208
 30
0.0
 11
-298.374684
 21
244.228208
 31
0.0
  0
LINE
  5
2D0B
100
AcDbEntity
  8
V0-VYPLNE
  6
CONTINUOUS
 62
    52
100
AcDbLine
 10
-298.374684
 20
244.228208
 30
0.0
 11
-328.374684
 21
264.228208
 31
0.0
  0
TEXT
  5
2D0C
100
AcDbEntity
  8
V0-NAZVY
  6
CONTINUOUS
 62
   210
100
AcDbText
 10
71.383943
 20
42.610369
 30
0.0
 40
15.0
  1
MIXVENT-TD-1300/250
100
AcDbText
  0
POINT
  5
2DAC
100
AcDbEntity
  8
V0-VYPLNE
100
AcDbPoint
 10
-469.950972
 20
244.81938
 30
0.0
  0
POINT
  5
2DAD
100
AcDbEntity
  8
V0-VYPLNE
100
AcDbPoint
 10
-469.950972
 20
-155.18062
 30
0.0
  0
POINT
  5
2DAE
100
AcDbEntity
  8
V0-VYPLNE
100
AcDbPoint
 10
173.549028
 20
244.81938
 30
0.0
  0
VIEWPORT
  5
22
100
AcDbEntity
 67
     1
  8
0
100
AcDbViewport
 10
261.517699
 20
154.724298
 30
0.0
 40
523.035398
 41
309.448596
 68
    -1
 69
     1
1001
ACAD
1000
MVIEW
1002
{
1070
    16
1010
0.0
1020
0.0
1030
0.0
1010
0.0
1020
0.0
1030
1.0
1040
0.0
1040
309.448596
1040
261.517699
1040
154.724298
1040
50.0
1040
0.0
1040
0.0
1070
     0
1070
   100
1070
     1
1070
     0
1070
     0
1070
     0
1070
     0
1070
     0
1040
0.0
1040
0.0
1040
0.0
1040
1.0
1040
1.0
1040
10.0
1040
10.0
1070
     0
1002
{
1002
}
1002
}
  0
ENDSEC
  0
SECTION
  2
OBJECTS
  0
DICTIONARY
  5
C
100
AcDbDictionary
  3
ACAD_GROUP
350
D
  3
ACAD_MLINESTYLE
350
E
  3
ACDBVARIABLEDICTIONARY
350
86C
  3
CONTENTDICTIONARY
350
905
  0
DICTIONARY
  5
D
102
{ACAD_REACTORS
330
C
102
}
100
AcDbDictionary
  0
DICTIONARY
  5
E
102
{ACAD_REACTORS
330
C
102
}
100
AcDbDictionary
  3
STANDARD
350
13
  0
DICTIONARY
  5
86C
102
{ACAD_REACTORS
330
C
102
}
100
AcDbDictionary
  3
SORTENTS
350
86D
  0
DICTIONARY
  5
905
102
{ACAD_REACTORS
330
C
102
}
100
AcDbDictionary
  0
MLINESTYLE
  5
13
102
{ACAD_REACTORS
330
E
102
}
100
AcDbMlineStyle
  2
STANDARD
 70
     0
  3

 62
     0
 51
90.0
 52
90.0
 71
     2
 49
0.5
 62
   256
  6
BYLAYER
 49
-0.5
 62
   256
  6
BYLAYER
  0
DICTIONARYVAR
  5
86D
102
{ACAD_REACTORS
330
86C
102
}
100
DictionaryVariables
280
     0
  1
96
  0
ENDSEC
  0
EOF
