  0
SECTION
  2
HEADER
  9
$ACADVER
  1
AC1014
  9
$ACADMAINTVER
 70
     0
  9
$DWGCODEPAGE
  3
ANSI_1250
  9
$INSBASE
 10
0.0
 20
0.0
 30
0.0
  9
$EXTMIN
 10
11.770822
 20
-866.968848
 30
0.0
  9
$EXTMAX
 10
967.672375
 20
16.362107
 30
0.0
  9
$LIMMIN
 10
-1040.805314
 20
-347.068924
  9
$LIMMAX
 10
643.686187
 20
495.293187
  9
$ORTHOMODE
 70
     0
  9
$REGENMODE
 70
     1
  9
$FILLMODE
 70
     1
  9
$QTEXTMODE
 70
     0
  9
$MIRRTEXT
 70
     1
  9
$DRAGMODE
 70
     2
  9
$LTSCALE
 40
15.0
  9
$OSMODE
 70
  1023
  9
$ATTMODE
 70
     1
  9
$TEXTSIZE
 40
15.0
  9
$TRACEWID
 40
1.0
  9
$TEXTSTYLE
  7
STANDARD
  9
$CLAYER
  8
0
  9
$CELTYPE
  6
BYLAYER
  9
$CECOLOR
 62
   256
  9
$CELTSCALE
 40
5.0
  9
$DELOBJ
 70
     1
  9
$DISPSILH
 70
     0
  9
$DIMSCALE
 40
5.0
  9
$DIMASZ
 40
3.5
  9
$DIMEXO
 40
0.0625
  9
$DIMDLI
 40
0.38
  9
$DIMRND
 40
0.0
  9
$DIMDLE
 40
0.0
  9
$DIMEXE
 40
0.18
  9
$DIMTP
 40
0.0
  9
$DIMTM
 40
0.0
  9
$DIMTXT
 40
3.5
  9
$DIMCEN
 40
0.0
  9
$DIMTSZ
 40
0.0
  9
$DIMTOL
 70
     0
  9
$DIMLIM
 70
     0
  9
$DIMTIH
 70
     0
  9
$DIMTOH
 70
     0
  9
$DIMSE1
 70
     0
  9
$DIMSE2
 70
     0
  9
$DIMTAD
 70
     1
  9
$DIMZIN
 70
     0
  9
$DIMBLK
  1

  9
$DIMASO
 70
     1
  9
$DIMSHO
 70
     1
  9
$DIMPOST
  1

  9
$DIMAPOST
  1

  9
$DIMALT
 70
     0
  9
$DIMALTD
 70
     2
  9
$DIMALTF
 40
25.4
  9
$DIMLFAC
 40
1.0
  9
$DIMTOFL
 70
     0
  9
$DIMTVP
 40
0.0
  9
$DIMTIX
 70
     0
  9
$DIMSOXD
 70
     0
  9
$DIMSAH
 70
     1
  9
$DIMBLK1
  1
_OPEN
  9
$DIMBLK2
  1
_OPEN
  9
$DIMSTYLE
  2
STANDARD
  9
$DIMCLRD
 70
     0
  9
$DIMCLRE
 70
     0
  9
$DIMCLRT
 70
     0
  9
$DIMTFAC
 40
1.0
  9
$DIMGAP
 40
0.625
  9
$DIMJUST
 70
     0
  9
$DIMSD1
 70
     0
  9
$DIMSD2
 70
     0
  9
$DIMTOLJ
 70
     1
  9
$DIMTZIN
 70
     0
  9
$DIMALTZ
 70
     0
  9
$DIMALTTZ
 70
     0
  9
$DIMFIT
 70
     0
  9
$DIMUPT
 70
     0
  9
$DIMUNIT
 70
     2
  9
$DIMDEC
 70
     0
  9
$DIMTDEC
 70
     4
  9
$DIMALTU
 70
     2
  9
$DIMALTTD
 70
     2
  9
$DIMTXSTY
  7
STANDARD
  9
$DIMAUNIT
 70
     0
  9
$LUNITS
 70
     2
  9
$LUPREC
 70
     4
  9
$SKETCHINC
 40
1.0
  9
$FILLETRAD
 40
5.0
  9
$AUNITS
 70
     0
  9
$AUPREC
 70
     0
  9
$MENU
  1
.
  9
$ELEVATION
 40
0.0
  9
$PELEVATION
 40
0.0
  9
$THICKNESS
 40
0.0
  9
$LIMCHECK
 70
     0
  9
$BLIPMODE
 70
     1
  9
$CHAMFERA
 40
10.0
  9
$CHAMFERB
 40
10.0
  9
$CHAMFERC
 40
20.0
  9
$CHAMFERD
 40
0.0
  9
$SKPOLY
 70
     0
  9
$TDCREATE
 40
2450763.421427893
  9
$TDUPDATE
 40
2452915.661910648
  9
$TDINDWG
 40
1.2272938657
  9
$TDUSRTIMER
 40
1.2272938657
  9
$USRTIMER
 70
     1
  9
$ANGBASE
 50
0.0
  9
$ANGDIR
 70
     0
  9
$PDMODE
 70
     3
  9
$PDSIZE
 40
15.0
  9
$PLINEWID
 40
0.0
  9
$COORDS
 70
     1
  9
$SPLFRAME
 70
     0
  9
$SPLINETYPE
 70
     6
  9
$SPLINESEGS
 70
     8
  9
$ATTDIA
 70
     0
  9
$ATTREQ
 70
     1
  9
$HANDLING
 70
     1
  9
$HANDSEED
  5
195
  9
$SURFTAB1
 70
     6
  9
$SURFTAB2
 70
     6
  9
$SURFTYPE
 70
     6
  9
$SURFU
 70
     6
  9
$SURFV
 70
     6
  9
$UCSNAME
  2

  9
$UCSORG
 10
0.0
 20
0.0
 30
0.0
  9
$UCSXDIR
 10
1.0
 20
0.0
 30
0.0
  9
$UCSYDIR
 10
0.0
 20
1.0
 30
0.0
  9
$PUCSNAME
  2

  9
$PUCSORG
 10
0.0
 20
0.0
 30
0.0
  9
$PUCSXDIR
 10
1.0
 20
0.0
 30
0.0
  9
$PUCSYDIR
 10
0.0
 20
1.0
 30
0.0
  9
$USERI1
 70
     0
  9
$USERI2
 70
     0
  9
$USERI3
 70
     0
  9
$USERI4
 70
     0
  9
$USERI5
 70
     0
  9
$USERR1
 40
0.0
  9
$USERR2
 40
0.0
  9
$USERR3
 40
0.0
  9
$USERR4
 40
0.0
  9
$USERR5
 40
0.0
  9
$WORLDVIEW
 70
     1
  9
$SHADEDGE
 70
     3
  9
$SHADEDIF
 70
    70
  9
$TILEMODE
 70
     1
  9
$MAXACTVP
 70
    16
  9
$PINSBASE
 10
0.0
 20
0.0
 30
0.0
  9
$PLIMCHECK
 70
     0
  9
$PEXTMIN
 10
1.000000E+20
 20
1.000000E+20
 30
1.000000E+20
  9
$PEXTMAX
 10
-1.000000E+20
 20
-1.000000E+20
 30
-1.000000E+20
  9
$PLIMMIN
 10
0.0
 20
0.0
  9
$PLIMMAX
 10
420.0
 20
297.0
  9
$UNITMODE
 70
     0
  9
$VISRETAIN
 70
     0
  9
$PLINEGEN
 70
     0
  9
$PSLTSCALE
 70
     0
  9
$TREEDEPTH
 70
  3020
  9
$PICKSTYLE
 70
     1
  9
$CMLSTYLE
  2
STANDARD
  9
$CMLJUST
 70
     0
  9
$CMLSCALE
 40
1.0
  9
$PROXYGRAPHICS
 70
     1
  9
$MEASUREMENT
 70
     0
  0
ENDSEC
  0
SECTION
  2
CLASSES
  0
CLASS
  1
LWPOLYLINE
  2
AcDbPolyline
  3
"AutoCAD"
 90
        0
280
     0
281
     1
  0
CLASS
  1
DICTIONARYVAR
  2
AcDbDictionaryVar
  3
"AutoCAD"
 90
        0
280
     0
281
     0
  0
CLASS
  1
HATCH
  2
AcDbHatch
  3
"ACAD_SEDONA"
 90
        0
280
     0
281
     1
  0
ENDSEC
  0
SECTION
  2
TABLES
  0
TABLE
  2
VPORT
  5
12
100
AcDbSymbolTable
 70
     2
  0
VPORT
  5
194
100
AcDbSymbolTableRecord
100
AcDbViewportTableRecord
  2
*ACTIVE
 70
     0
 10
0.0
 20
0.0
 11
1.0
 21
1.0
 12
548.246164
 22
-428.847307
 13
0.0
 23
0.0
 14
5.0
 24
5.0
 15
5.0
 25
5.0
 16
0.0
 26
0.0
 36
1.0
 17
0.0
 27
0.0
 37
0.0
 40
915.0
 41
1.730469
 42
50.0
 43
0.0
 44
0.0
 50
0.0
 51
0.0
 71
     0
 72
   100
 73
     1
 74
     0
 75
     0
 76
     1
 77
     0
 78
     0
  0
ENDTAB
  0
TABLE
  2
LTYPE
  5
D
100
AcDbSymbolTable
 70
     2
  0
LTYPE
  5
E
100
AcDbSymbolTableRecord
100
AcDbLinetypeTableRecord
  2
BYBLOCK
 70
     0
  3

 72
    65
 73
     0
 40
0.0
  0
LTYPE
  5
F
100
AcDbSymbolTableRecord
100
AcDbLinetypeTableRecord
  2
BYLAYER
 70
     0
  3

 72
    65
 73
     0
 40
0.0
  0
LTYPE
  5
5
100
AcDbSymbolTableRecord
100
AcDbLinetypeTableRecord
  2
CONTINUOUS
 70
     0
  3
Solid line
 72
    65
 73
     0
 40
0.0
  0
LTYPE
  5
50
100
AcDbSymbolTableRecord
100
AcDbLinetypeTableRecord
  2
DASHDOT
 70
     0
  3
__ . __ . __ . __ . __ . __ . __ . __ . __ . __
 72
    65
 73
     4
 40
1.0
 49
0.5
 74
     0
 49
-0.25
 74
     0
 49
0.0
 74
     0
 49
-0.25
 74
     0
  0
ENDTAB
  0
TABLE
  2
LAYER
  5
A
100
AcDbSymbolTable
 70
     6
  0
LAYER
  5
4
100
AcDbSymbolTableRecord
100
AcDbLayerTableRecord
  2
0
 70
     0
 62
     7
  6
CONTINUOUS
  0
LAYER
  5
2E
100
AcDbSymbolTableRecord
100
AcDbLayerTableRecord
  2
DEFPOINTS
 70
     0
 62
     7
  6
CONTINUOUS
  0
LAYER
  5
4E
100
AcDbSymbolTableRecord
100
AcDbLayerTableRecord
  2
V0-OBRYS
 70
     0
 62
    90
  6
CONTINUOUS
  0
LAYER
  5
24
100
AcDbSymbolTableRecord
100
AcDbLayerTableRecord
  2
V0-VYPLNE
 70
     0
 62
    52
  6
CONTINUOUS
  0
LAYER
  5
91
100
AcDbSymbolTableRecord
100
AcDbLayerTableRecord
  2
V0-NAZVY
 70
     0
 62
   210
  6
CONTINUOUS
  0
LAYER
  5
FE
100
AcDbSymbolTableRecord
100
AcDbLayerTableRecord
  2
V0-ZBYTEK
 70
     0
 62
    51
  6
CONTINUOUS
  0
ENDTAB
  0
TABLE
  2
STYLE
  5
B
100
AcDbSymbolTable
 70
     1
  0
STYLE
  5
C
100
AcDbSymbolTableRecord
100
AcDbTextStyleTableRecord
  2
STANDARD
 70
     0
 40
0.0
 41
1.0
 50
0.0
 71
     0
 42
15.0
  3
ISOCP
  4

  0
ENDTAB
  0
TABLE
  2
VIEW
  5
10
100
AcDbSymbolTable
 70
     0
  0
ENDTAB
  0
TABLE
  2
UCS
  5
11
100
AcDbSymbolTable
 70
     0
  0
ENDTAB
  0
TABLE
  2
APPID
  5
14
100
AcDbSymbolTable
 70
     1
  0
APPID
  5
15
100
AcDbSymbolTableRecord
100
AcDbRegAppTableRecord
  2
ACAD
 70
     0
  0
ENDTAB
  0
TABLE
  2
DIMSTYLE
  5
16
100
AcDbSymbolTable
 70
     1
  0
DIMSTYLE
105
1C
102
{ACAD_REACTORS
330
134
330
40
330
9F
330
33
330
25
330
65
330
11A
330
182
330
10C
330
58
330
E4
102
}
100
AcDbSymbolTableRecord
100
AcDbDimStyleTableRecord
  2
STANDARD
 70
     0
  3

  4

  5

  6
_OPEN
  7
_OPEN
 40
5.0
 41
3.5
 42
0.0625
 43
0.38
 44
0.18
 45
0.0
 46
0.0
 47
0.0
 48
0.0
140
3.5
141
0.0
142
0.0
143
25.4
144
1.0
145
0.0
146
1.0
147
0.625
 71
     0
 72
     0
 73
     0
 74
     0
 75
     0
 76
     0
 77
     1
 78
     0
170
     0
171
     2
172
     0
173
     1
174
     0
175
     0
176
     0
177
     0
178
     0
270
     2
271
     0
272
     4
273
     2
274
     2
340
C
275
     0
280
     0
281
     0
282
     0
283
     1
284
     0
285
     0
286
     0
287
     0
288
     0
  0
ENDTAB
  0
TABLE
  2
BLOCK_RECORD
  5
1
100
AcDbSymbolTable
 70
    12
  0
BLOCK_RECORD
  5
2
100
AcDbSymbolTableRecord
100
AcDbBlockTableRecord
  2
*MODEL_SPACE
  0
BLOCK_RECORD
  5
7
100
AcDbSymbolTableRecord
100
AcDbBlockTableRecord
  2
*PAPER_SPACE
  0
BLOCK_RECORD
  5
1D
100
AcDbSymbolTableRecord
100
AcDbBlockTableRecord
  2
_OPEN
  0
BLOCK_RECORD
  5
26
100
AcDbSymbolTableRecord
100
AcDbBlockTableRecord
  2
*D1
  0
BLOCK_RECORD
  5
34
100
AcDbSymbolTableRecord
100
AcDbBlockTableRecord
  2
*D2
  0
BLOCK_RECORD
  5
41
100
AcDbSymbolTableRecord
100
AcDbBlockTableRecord
  2
*D3
  0
BLOCK_RECORD
  5
66
100
AcDbSymbolTableRecord
100
AcDbBlockTableRecord
  2
*D4
  0
BLOCK_RECORD
  5
59
100
AcDbSymbolTableRecord
100
AcDbBlockTableRecord
  2
*D5
  0
BLOCK_RECORD
  5
A0
100
AcDbSymbolTableRecord
100
AcDbBlockTableRecord
  2
*D6
  0
BLOCK_RECORD
  5
E5
100
AcDbSymbolTableRecord
100
AcDbBlockTableRecord
  2
*D7
  0
BLOCK_RECORD
  5
135
100
AcDbSymbolTableRecord
100
AcDbBlockTableRecord
  2
*D8
  0
BLOCK_RECORD
  5
11B
100
AcDbSymbolTableRecord
100
AcDbBlockTableRecord
  2
*D9
  0
BLOCK_RECORD
  5
10D
100
AcDbSymbolTableRecord
100
AcDbBlockTableRecord
  2
*D10
  0
BLOCK_RECORD
  5
183
100
AcDbSymbolTableRecord
100
AcDbBlockTableRecord
  2
*D11
  0
ENDTAB
  0
ENDSEC
  0
SECTION
  2
BLOCKS
  0
BLOCK
  5
3
100
AcDbEntity
  8
0
100
AcDbBlockBegin
  2
*MODEL_SPACE
 70
     0
 10
0.0
 20
0.0
 30
0.0
  3
*MODEL_SPACE
  1

  0
ENDBLK
  5
6
100
AcDbEntity
  8
0
100
AcDbBlockEnd
  0
BLOCK
  5
8
100
AcDbEntity
 67
     1
  8
0
100
AcDbBlockBegin
  2
*PAPER_SPACE
 70
     0
 10
0.0
 20
0.0
 30
0.0
  3
*PAPER_SPACE
  1

  0
ENDBLK
  5
9
100
AcDbEntity
 67
     1
  8
0
100
AcDbBlockEnd
  0
BLOCK
  5
21
100
AcDbEntity
  8
0
100
AcDbBlockBegin
  2
_OPEN
 70
     0
 10
0.0
 20
0.0
 30
0.0
  3
_OPEN
  1

  0
LINE
  5
1E
100
AcDbEntity
  8
0
  6
BYBLOCK
 62
     0
100
AcDbLine
 10
-1.0
 20
0.166667
 30
0.0
 11
0.0
 21
0.0
 31
0.0
  0
LINE
  5
1F
100
AcDbEntity
  8
0
  6
BYBLOCK
 62
     0
100
AcDbLine
 10
0.0
 20
0.0
 30
0.0
 11
-1.0
 21
-0.166667
 31
0.0
  0
LINE
  5
20
100
AcDbEntity
  8
0
  6
BYBLOCK
 62
     0
100
AcDbLine
 10
0.0
 20
0.0
 30
0.0
 11
-1.0
 21
0.0
 31
0.0
  0
ENDBLK
  5
22
100
AcDbEntity
  8
0
100
AcDbBlockEnd
  0
BLOCK
  5
31
100
AcDbEntity
  8
0
 48
5.0
100
AcDbBlockBegin
  2
*D1
 70
     1
 10
0.0
 20
0.0
 30
0.0
  3
*D1
  1

  0
LINE
  5
27
100
AcDbEntity
  8
0
  6
BYBLOCK
 62
     0
 48
5.0
100
AcDbLine
 10
-508.0
 20
60.6875
 30
0.0
 11
-508.0
 21
-25.9
 31
0.0
  0
LINE
  5
28
100
AcDbEntity
  8
0
  6
BYBLOCK
 62
     0
 48
5.0
100
AcDbLine
 10
-122.0
 20
60.6875
 30
0.0
 11
-122.0
 21
-25.9
 31
0.0
  0
LINE
  5
29
100
AcDbEntity
  8
0
  6
BYBLOCK
 62
     0
 48
5.0
100
AcDbLine
 10
-490.5
 20
-25.0
 30
0.0
 11
-139.5
 21
-25.0
 31
0.0
  0
INSERT
  5
2A
100
AcDbEntity
  8
0
  6
BYBLOCK
 62
     0
 48
5.0
100
AcDbBlockReference
  2
_OPEN
 10
-508.0
 20
-25.0
 30
0.0
 41
17.5
 42
17.5
 43
17.5
 50
180.0
  0
INSERT
  5
2B
100
AcDbEntity
  8
0
  6
BYBLOCK
 62
     0
 48
5.0
100
AcDbBlockReference
  2
_OPEN
 10
-122.0
 20
-25.0
 30
0.0
 41
17.5
 42
17.5
 43
17.5
  0
MTEXT
  5
2C
100
AcDbEntity
  8
0
  6
BYBLOCK
 62
     0
 48
5.0
100
AcDbMText
 10
-315.0
 20
-13.125
 30
0.0
 40
17.5
 41
0.0
 71
     5
 72
     1
  1
\A1;386
  0
POINT
  5
2D
100
AcDbEntity
  8
DEFPOINTS
  6
BYBLOCK
 62
     0
 48
5.0
100
AcDbPoint
 10
-508.0
 20
61.0
 30
0.0
  0
POINT
  5
2F
100
AcDbEntity
  8
DEFPOINTS
  6
BYBLOCK
 62
     0
 48
5.0
100
AcDbPoint
 10
-122.0
 20
61.0
 30
0.0
  0
POINT
  5
30
100
AcDbEntity
  8
DEFPOINTS
  6
BYBLOCK
 62
     0
 48
5.0
100
AcDbPoint
 10
-122.0
 20
-25.0
 30
0.0
  0
ENDBLK
  5
32
100
AcDbEntity
  8
0
 48
5.0
100
AcDbBlockEnd
  0
BLOCK
  5
3E
100
AcDbEntity
  8
0
 48
5.0
100
AcDbBlockBegin
  2
*D2
 70
     1
 10
0.0
 20
0.0
 30
0.0
  3
*D2
  1

  0
LINE
  5
35
100
AcDbEntity
  8
0
  6
BYBLOCK
 62
     0
 48
5.0
100
AcDbLine
 10
-234.6875
 20
257.5
 30
0.0
 11
-145.277662
 21
257.5
 31
0.0
  0
LINE
  5
36
100
AcDbEntity
  8
0
  6
BYBLOCK
 62
     0
 48
5.0
100
AcDbLine
 10
-234.6875
 20
112.5
 30
0.0
 11
-145.277662
 21
112.5
 31
0.0
  0
LINE
  5
37
100
AcDbEntity
  8
0
  6
BYBLOCK
 62
     0
 48
5.0
100
AcDbLine
 10
-146.177662
 20
240.0
 30
0.0
 11
-146.177662
 21
130.0
 31
0.0
  0
INSERT
  5
38
100
AcDbEntity
  8
0
  6
BYBLOCK
 62
     0
 48
5.0
100
AcDbBlockReference
  2
_OPEN
 10
-146.177662
 20
257.5
 30
0.0
 41
17.5
 42
17.5
 43
17.5
 50
90.0
  0
INSERT
  5
39
100
AcDbEntity
  8
0
  6
BYBLOCK
 62
     0
 48
5.0
100
AcDbBlockReference
  2
_OPEN
 10
-146.177662
 20
112.5
 30
0.0
 41
17.5
 42
17.5
 43
17.5
 50
270.0
  0
MTEXT
  5
3A
100
AcDbEntity
  8
0
  6
BYBLOCK
 62
     0
 48
5.0
100
AcDbMText
 10
-158.052662
 20
184.70738
 30
0.0
 40
17.5
 41
0.0
 71
     5
 72
     1
  1
\A1;145
 11
0.0
 21
1.0
 31
0.0
  0
POINT
  5
3B
100
AcDbEntity
  8
DEFPOINTS
  6
BYBLOCK
 62
     0
 48
5.0
100
AcDbPoint
 10
-235.0
 20
257.5
 30
0.0
  0
POINT
  5
3C
100
AcDbEntity
  8
DEFPOINTS
  6
BYBLOCK
 62
     0
 48
5.0
100
AcDbPoint
 10
-235.0
 20
112.5
 30
0.0
  0
POINT
  5
3D
100
AcDbEntity
  8
DEFPOINTS
  6
BYBLOCK
 62
     0
 48
5.0
100
AcDbPoint
 10
-146.177662
 20
112.5
 30
0.0
  0
ENDBLK
  5
3F
100
AcDbEntity
  8
0
 48
5.0
100
AcDbBlockEnd
  0
BLOCK
  5
4B
100
AcDbEntity
  8
0
 48
5.0
100
AcDbBlockBegin
  2
*D3
 70
     1
 10
0.0
 20
0.0
 30
0.0
  3
*D3
  1

  0
LINE
  5
42
100
AcDbEntity
  8
0
  6
BYBLOCK
 62
     0
 48
5.0
100
AcDbLine
 10
-214.6875
 20
321.0
 30
0.0
 11
-54.1
 21
321.0
 31
0.0
  0
LINE
  5
43
100
AcDbEntity
  8
0
  6
BYBLOCK
 62
     0
 48
5.0
100
AcDbLine
 10
-214.6875
 20
49.0
 30
0.0
 11
-54.1
 21
49.0
 31
0.0
  0
LINE
  5
44
100
AcDbEntity
  8
0
  6
BYBLOCK
 62
     0
 48
5.0
100
AcDbLine
 10
-55.0
 20
303.5
 30
0.0
 11
-55.0
 21
66.5
 31
0.0
  0
INSERT
  5
45
100
AcDbEntity
  8
0
  6
BYBLOCK
 62
     0
 48
5.0
100
AcDbBlockReference
  2
_OPEN
 10
-55.0
 20
321.0
 30
0.0
 41
17.5
 42
17.5
 43
17.5
 50
90.0
  0
INSERT
  5
46
100
AcDbEntity
  8
0
  6
BYBLOCK
 62
     0
 48
5.0
100
AcDbBlockReference
  2
_OPEN
 10
-55.0
 20
49.0
 30
0.0
 41
17.5
 42
17.5
 43
17.5
 50
270.0
  0
MTEXT
  5
47
100
AcDbEntity
  8
0
  6
BYBLOCK
 62
     0
 48
5.0
100
AcDbMText
 10
-66.876722
 20
185.0
 30
0.0
 40
17.5
 41
0.0
 71
     5
 72
     1
  1
\A1;\U+2205272
 11
0.0
 21
1.0
 31
0.0
  0
POINT
  5
48
100
AcDbEntity
  8
DEFPOINTS
  6
BYBLOCK
 62
     0
 48
5.0
100
AcDbPoint
 10
-215.0
 20
321.0
 30
0.0
  0
POINT
  5
49
100
AcDbEntity
  8
DEFPOINTS
  6
BYBLOCK
 62
     0
 48
5.0
100
AcDbPoint
 10
-215.0
 20
49.0
 30
0.0
  0
POINT
  5
4A
100
AcDbEntity
  8
DEFPOINTS
  6
BYBLOCK
 62
     0
 48
5.0
100
AcDbPoint
 10
-55.0
 20
49.0
 30
0.0
  0
ENDBLK
  5
4C
100
AcDbEntity
  8
0
 48
5.0
100
AcDbBlockEnd
  0
BLOCK
  5
70
100
AcDbEntity
  8
0
 48
5.0
100
AcDbBlockBegin
  2
*D4
 70
     1
 10
0.0
 20
0.0
 30
0.0
  3
*D4
  1

  0
LINE
  5
67
100
AcDbEntity
  8
0
  6
BYBLOCK
 62
     0
 48
5.0
100
AcDbLine
 10
-387.5
 20
104.6875
 30
0.0
 11
-387.5
 21
4.1
 31
0.0
  0
LINE
  5
68
100
AcDbEntity
  8
0
  6
BYBLOCK
 62
     0
 48
5.0
100
AcDbLine
 10
-242.5
 20
104.6875
 30
0.0
 11
-242.5
 21
4.1
 31
0.0
  0
LINE
  5
69
100
AcDbEntity
  8
0
  6
BYBLOCK
 62
     0
 48
5.0
100
AcDbLine
 10
-370.0
 20
5.0
 30
0.0
 11
-260.0
 21
5.0
 31
0.0
  0
INSERT
  5
6A
100
AcDbEntity
  8
0
  6
BYBLOCK
 62
     0
 48
5.0
100
AcDbBlockReference
  2
_OPEN
 10
-387.5
 20
5.0
 30
0.0
 41
17.5
 42
17.5
 43
17.5
 50
180.0
  0
INSERT
  5
6B
100
AcDbEntity
  8
0
  6
BYBLOCK
 62
     0
 48
5.0
100
AcDbBlockReference
  2
_OPEN
 10
-242.5
 20
5.0
 30
0.0
 41
17.5
 42
17.5
 43
17.5
  0
MTEXT
  5
6C
100
AcDbEntity
  8
0
  6
BYBLOCK
 62
     0
 48
5.0
100
AcDbMText
 10
-315.0
 20
16.875
 30
0.0
 40
17.5
 41
0.0
 71
     5
 72
     1
  1
\A1;145
  0
POINT
  5
6D
100
AcDbEntity
  8
DEFPOINTS
  6
BYBLOCK
 62
     0
 48
5.0
100
AcDbPoint
 10
-387.5
 20
105.0
 30
0.0
  0
POINT
  5
6E
100
AcDbEntity
  8
DEFPOINTS
  6
BYBLOCK
 62
     0
 48
5.0
100
AcDbPoint
 10
-242.5
 20
105.0
 30
0.0
  0
POINT
  5
6F
100
AcDbEntity
  8
DEFPOINTS
  6
BYBLOCK
 62
     0
 48
5.0
100
AcDbPoint
 10
-242.5
 20
5.0
 30
0.0
  0
ENDBLK
  5
71
100
AcDbEntity
  8
0
 48
5.0
100
AcDbBlockEnd
  0
BLOCK
  5
63
100
AcDbEntity
  8
0
 48
5.0
100
AcDbBlockBegin
  2
*D5
 70
     1
 10
0.0
 20
0.0
 30
0.0
  3
*D5
  1

  0
LINE
  5
5A
100
AcDbEntity
  8
0
  6
BYBLOCK
 62
     0
 48
5.0
100
AcDbLine
 10
-508.0
 20
60.375
 30
0.0
 11
-508.0
 21
8.80738
 31
0.0
  0
LINE
  5
5B
100
AcDbEntity
  8
0
  6
BYBLOCK
 62
     0
 48
5.0
100
AcDbLine
 10
-458.0
 20
60.375
 30
0.0
 11
-458.0
 21
8.80738
 31
0.0
  0
LINE
  5
5C
100
AcDbEntity
  8
0
  6
BYBLOCK
 62
     0
 48
5.0
100
AcDbLine
 10
-490.5
 20
9.70738
 30
0.0
 11
-475.5
 21
9.70738
 31
0.0
  0
INSERT
  5
5D
100
AcDbEntity
  8
0
  6
BYBLOCK
 62
     0
 48
5.0
100
AcDbBlockReference
  2
_OPEN
 10
-508.0
 20
9.70738
 30
0.0
 41
17.5
 42
17.5
 43
17.5
 50
180.0
  0
INSERT
  5
5E
100
AcDbEntity
  8
0
  6
BYBLOCK
 62
     0
 48
5.0
100
AcDbBlockReference
  2
_OPEN
 10
-458.0
 20
9.70738
 30
0.0
 41
17.5
 42
17.5
 43
17.5
  0
MTEXT
  5
5F
100
AcDbEntity
  8
0
  6
BYBLOCK
 62
     0
 48
5.0
100
AcDbMText
 10
-483.0
 20
21.58238
 30
0.0
 40
17.5
 41
0.0
 71
     5
 72
     1
  1
\A1;50
  0
POINT
  5
60
100
AcDbEntity
  8
DEFPOINTS
  6
BYBLOCK
 62
     0
 48
5.0
100
AcDbPoint
 10
-508.0
 20
60.6875
 30
0.0
  0
POINT
  5
61
100
AcDbEntity
  8
DEFPOINTS
  6
BYBLOCK
 62
     0
 48
5.0
100
AcDbPoint
 10
-458.0
 20
60.6875
 30
0.0
  0
POINT
  5
62
100
AcDbEntity
  8
DEFPOINTS
  6
BYBLOCK
 62
     0
 48
5.0
100
AcDbPoint
 10
-458.0
 20
9.70738
 30
0.0
  0
ENDBLK
  5
64
100
AcDbEntity
  8
0
 48
5.0
100
AcDbBlockEnd
  0
BLOCK
  5
AA
100
AcDbEntity
  8
0
 48
5.0
100
AcDbBlockBegin
  2
*D6
 70
     1
 10
0.0
 20
0.0
 30
0.0
  3
*D6
  1

  0
LINE
  5
A1
100
AcDbEntity
  8
0
  6
BYBLOCK
 62
     0
 48
5.0
100
AcDbLine
 10
-375.3125
 20
377.0
 30
0.0
 11
-550.9
 21
377.0
 31
0.0
  0
LINE
  5
A2
100
AcDbEntity
  8
0
  6
BYBLOCK
 62
     0
 48
5.0
100
AcDbLine
 10
-515.3125
 20
185.0
 30
0.0
 11
-550.9
 21
185.0
 31
0.0
  0
LINE
  5
A3
100
AcDbEntity
  8
0
  6
BYBLOCK
 62
     0
 48
5.0
100
AcDbLine
 10
-550.0
 20
359.5
 30
0.0
 11
-550.0
 21
202.5
 31
0.0
  0
INSERT
  5
A4
100
AcDbEntity
  8
0
  6
BYBLOCK
 62
     0
 48
5.0
100
AcDbBlockReference
  2
_OPEN
 10
-550.0
 20
377.0
 30
0.0
 41
17.5
 42
17.5
 43
17.5
 50
90.0
  0
INSERT
  5
A5
100
AcDbEntity
  8
0
  6
BYBLOCK
 62
     0
 48
5.0
100
AcDbBlockReference
  2
_OPEN
 10
-550.0
 20
185.0
 30
0.0
 41
17.5
 42
17.5
 43
17.5
 50
270.0
  0
MTEXT
  5
A6
100
AcDbEntity
  8
0
  6
BYBLOCK
 62
     0
 48
5.0
100
AcDbMText
 10
-561.880952
 20
281.0
 30
0.0
 40
17.5
 41
0.0
 71
     5
 72
     1
  1
\A1;192
 11
0.0
 21
1.0
 31
0.0
  0
POINT
  5
A7
100
AcDbEntity
  8
DEFPOINTS
  6
BYBLOCK
 62
     0
 48
5.0
100
AcDbPoint
 10
-375.0
 20
377.0
 30
0.0
  0
POINT
  5
A8
100
AcDbEntity
  8
DEFPOINTS
  6
BYBLOCK
 62
     0
 48
5.0
100
AcDbPoint
 10
-515.0
 20
185.0
 30
0.0
  0
POINT
  5
A9
100
AcDbEntity
  8
DEFPOINTS
  6
BYBLOCK
 62
     0
 48
5.0
100
AcDbPoint
 10
-550.0
 20
185.0
 30
0.0
  0
ENDBLK
  5
AB
100
AcDbEntity
  8
0
 48
5.0
100
AcDbBlockEnd
  0
BLOCK
  5
EF
100
AcDbEntity
  8
0
 48
5.0
100
AcDbBlockBegin
  2
*D7
 70
     1
 10
0.0
 20
0.0
 30
0.0
  3
*D7
  1

  0
LINE
  5
E6
100
AcDbEntity
  8
0
  6
BYBLOCK
 62
     0
 48
5.0
100
AcDbLine
 10
-375.3125
 20
377.3125
 30
0.0
 11
-375.3125
 21
405.60738
 31
0.0
  0
LINE
  5
E7
100
AcDbEntity
  8
0
  6
BYBLOCK
 62
     0
 48
5.0
100
AcDbLine
 10
-255.0
 20
377.3125
 30
0.0
 11
-255.0
 21
405.60738
 31
0.0
  0
LINE
  5
E8
100
AcDbEntity
  8
0
  6
BYBLOCK
 62
     0
 48
5.0
100
AcDbLine
 10
-357.8125
 20
404.70738
 30
0.0
 11
-272.5
 21
404.70738
 31
0.0
  0
INSERT
  5
E9
100
AcDbEntity
  8
0
  6
BYBLOCK
 62
     0
 48
5.0
100
AcDbBlockReference
  2
_OPEN
 10
-375.3125
 20
404.70738
 30
0.0
 41
17.5
 42
17.5
 43
17.5
 50
180.0
  0
INSERT
  5
EA
100
AcDbEntity
  8
0
  6
BYBLOCK
 62
     0
 48
5.0
100
AcDbBlockReference
  2
_OPEN
 10
-255.0
 20
404.70738
 30
0.0
 41
17.5
 42
17.5
 43
17.5
  0
MTEXT
  5
EB
100
AcDbEntity
  8
0
  6
BYBLOCK
 62
     0
 48
5.0
100
AcDbMText
 10
-315.15625
 20
416.584103
 30
0.0
 40
17.5
 41
0.0
 71
     5
 72
     1
  1
\A1;120
  0
POINT
  5
EC
100
AcDbEntity
  8
DEFPOINTS
  6
BYBLOCK
 62
     0
 48
5.0
100
AcDbPoint
 10
-375.3125
 20
377.0
 30
0.0
  0
POINT
  5
ED
100
AcDbEntity
  8
DEFPOINTS
  6
BYBLOCK
 62
     0
 48
5.0
100
AcDbPoint
 10
-255.0
 20
377.0
 30
0.0
  0
POINT
  5
EE
100
AcDbEntity
  8
DEFPOINTS
  6
BYBLOCK
 62
     0
 48
5.0
100
AcDbPoint
 10
-255.0
 20
404.70738
 30
0.0
  0
ENDBLK
  5
F0
100
AcDbEntity
  8
0
 48
5.0
100
AcDbBlockEnd
  0
BLOCK
  5
13F
100
AcDbEntity
  8
0
 48
5.0
100
AcDbBlockBegin
  2
*D8
 70
     1
 10
0.0
 20
0.0
 30
0.0
  3
*D8
  1

  0
LINE
  5
136
100
AcDbEntity
  8
0
  6
BYBLOCK
 62
     0
 48
5.0
100
AcDbLine
 10
-121.6875
 20
309.0
 30
0.0
 11
-89.1
 21
309.0
 31
0.0
  0
LINE
  5
137
100
AcDbEntity
  8
0
  6
BYBLOCK
 62
     0
 48
5.0
100
AcDbLine
 10
-121.6875
 20
61.0
 30
0.0
 11
-89.1
 21
61.0
 31
0.0
  0
LINE
  5
138
100
AcDbEntity
  8
0
  6
BYBLOCK
 62
     0
 48
5.0
100
AcDbLine
 10
-90.0
 20
291.5
 30
0.0
 11
-90.0
 21
78.5
 31
0.0
  0
INSERT
  5
139
100
AcDbEntity
  8
0
  6
BYBLOCK
 62
     0
 48
5.0
100
AcDbBlockReference
  2
_OPEN
 10
-90.0
 20
309.0
 30
0.0
 41
17.5
 42
17.5
 43
17.5
 50
90.0
  0
INSERT
  5
13A
100
AcDbEntity
  8
0
  6
BYBLOCK
 62
     0
 48
5.0
100
AcDbBlockReference
  2
_OPEN
 10
-90.0
 20
61.0
 30
0.0
 41
17.5
 42
17.5
 43
17.5
 50
270.0
  0
MTEXT
  5
13B
100
AcDbEntity
  8
0
  6
BYBLOCK
 62
     0
 48
5.0
100
AcDbMText
 10
-101.876722
 20
185.0
 30
0.0
 40
17.5
 41
0.0
 71
     5
 72
     1
  1
\A1;\U+2205248
 11
0.0
 21
1.0
 31
0.0
  0
POINT
  5
13C
100
AcDbEntity
  8
DEFPOINTS
  6
BYBLOCK
 62
     0
 48
5.0
100
AcDbPoint
 10
-122.0
 20
309.0
 30
0.0
  0
POINT
  5
13D
100
AcDbEntity
  8
DEFPOINTS
  6
BYBLOCK
 62
     0
 48
5.0
100
AcDbPoint
 10
-122.0
 20
61.0
 30
0.0
  0
POINT
  5
13E
100
AcDbEntity
  8
DEFPOINTS
  6
BYBLOCK
 62
     0
 48
5.0
100
AcDbPoint
 10
-90.0
 20
61.0
 30
0.0
  0
ENDBLK
  5
140
100
AcDbEntity
  8
0
 48
5.0
100
AcDbBlockEnd
  0
BLOCK
  5
125
100
AcDbEntity
  8
0
 48
5.0
100
AcDbBlockBegin
  2
*D9
 70
     1
 10
0.0
 20
0.0
 30
0.0
  3
*D9
  1

  0
LINE
  5
11C
100
AcDbEntity
  8
0
  6
BYBLOCK
 62
     0
 48
5.0
100
AcDbLine
 10
183.822338
 20
376.86223
 30
0.0
 11
183.822338
 21
398.235379
 31
0.0
  0
LINE
  5
11D
100
AcDbEntity
  8
0
  6
BYBLOCK
 62
     0
 48
5.0
100
AcDbLine
 10
338.829657
 20
275.3125
 30
0.0
 11
338.829657
 21
398.235379
 31
0.0
  0
LINE
  5
11E
100
AcDbEntity
  8
0
  6
BYBLOCK
 62
     0
 48
5.0
100
AcDbLine
 10
201.322338
 20
397.335379
 30
0.0
 11
321.329657
 21
397.335379
 31
0.0
  0
INSERT
  5
11F
100
AcDbEntity
  8
0
  6
BYBLOCK
 62
     0
 48
5.0
100
AcDbBlockReference
  2
_OPEN
 10
183.822338
 20
397.335379
 30
0.0
 41
17.5
 42
17.5
 43
17.5
 50
180.0
  0
INSERT
  5
120
100
AcDbEntity
  8
0
  6
BYBLOCK
 62
     0
 48
5.0
100
AcDbBlockReference
  2
_OPEN
 10
338.829657
 20
397.335379
 30
0.0
 41
17.5
 42
17.5
 43
17.5
  0
MTEXT
  5
121
100
AcDbEntity
  8
0
  6
BYBLOCK
 62
     0
 48
5.0
100
AcDbMText
 10
261.325998
 20
409.210379
 30
0.0
 40
17.5
 41
0.0
 71
     5
 72
     1
  1
\A1;155
  0
POINT
  5
122
100
AcDbEntity
  8
DEFPOINTS
  6
BYBLOCK
 62
     0
 48
5.0
100
AcDbPoint
 10
183.822338
 20
376.54973
 30
0.0
  0
POINT
  5
123
100
AcDbEntity
  8
DEFPOINTS
  6
BYBLOCK
 62
     0
 48
5.0
100
AcDbPoint
 10
338.829657
 20
275.0
 30
0.0
  0
POINT
  5
124
100
AcDbEntity
  8
DEFPOINTS
  6
BYBLOCK
 62
     0
 48
5.0
100
AcDbPoint
 10
338.829657
 20
397.335379
 30
0.0
  0
ENDBLK
  5
126
100
AcDbEntity
  8
0
 48
5.0
100
AcDbBlockEnd
  0
BLOCK
  5
117
100
AcDbEntity
  8
0
 48
5.0
100
AcDbBlockBegin
  2
*D10
 70
     1
 10
0.0
 20
0.0
 30
0.0
  3
*D10
  1

  0
LINE
  5
10E
100
AcDbEntity
  8
0
  6
BYBLOCK
 62
     0
 48
5.0
100
AcDbLine
 10
47.822338
 20
185.01988
 30
0.0
 11
47.822338
 21
428.600788
 31
0.0
  0
LINE
  5
10F
100
AcDbEntity
  8
0
  6
BYBLOCK
 62
     0
 48
5.0
100
AcDbLine
 10
338.822338
 20
269.01988
 30
0.0
 11
338.822338
 21
428.600788
 31
0.0
  0
LINE
  5
110
100
AcDbEntity
  8
0
  6
BYBLOCK
 62
     0
 48
5.0
100
AcDbLine
 10
65.322338
 20
427.700788
 30
0.0
 11
321.322338
 21
427.700788
 31
0.0
  0
INSERT
  5
111
100
AcDbEntity
  8
0
  6
BYBLOCK
 62
     0
 48
5.0
100
AcDbBlockReference
  2
_OPEN
 10
47.822338
 20
427.700788
 30
0.0
 41
17.5
 42
17.5
 43
17.5
 50
180.0
  0
INSERT
  5
112
100
AcDbEntity
  8
0
  6
BYBLOCK
 62
     0
 48
5.0
100
AcDbBlockReference
  2
_OPEN
 10
338.822338
 20
427.700788
 30
0.0
 41
17.5
 42
17.5
 43
17.5
  0
MTEXT
  5
113
100
AcDbEntity
  8
0
  6
BYBLOCK
 62
     0
 48
5.0
100
AcDbMText
 10
193.322338
 20
439.57751
 30
0.0
 40
17.5
 41
0.0
 71
     5
 72
     1
  1
\A1;291
  0
POINT
  5
114
100
AcDbEntity
  8
DEFPOINTS
  6
BYBLOCK
 62
     0
 48
5.0
100
AcDbPoint
 10
47.822338
 20
184.70738
 30
0.0
  0
POINT
  5
115
100
AcDbEntity
  8
DEFPOINTS
  6
BYBLOCK
 62
     0
 48
5.0
100
AcDbPoint
 10
338.822338
 20
268.70738
 30
0.0
  0
POINT
  5
116
100
AcDbEntity
  8
DEFPOINTS
  6
BYBLOCK
 62
     0
 48
5.0
100
AcDbPoint
 10
338.822338
 20
427.700788
 30
0.0
  0
ENDBLK
  5
118
100
AcDbEntity
  8
0
 48
5.0
100
AcDbBlockEnd
  0
BLOCK
  5
18D
100
AcDbEntity
  8
0
 48
5.0
100
AcDbBlockBegin
  2
*D11
 70
     1
 10
0.0
 20
0.0
 30
0.0
  3
*D11
  1

  0
LINE
  5
184
100
AcDbEntity
  8
0
  6
BYBLOCK
 62
     0
 48
5.0
100
AcDbLine
 10
339.134838
 20
268.70738
 30
0.0
 11
369.98406
 21
268.70738
 31
0.0
  0
LINE
  5
185
100
AcDbEntity
  8
0
  6
BYBLOCK
 62
     0
 48
5.0
100
AcDbLine
 10
339.134838
 20
100.350201
 30
0.0
 11
369.98406
 21
100.350201
 31
0.0
  0
LINE
  5
186
100
AcDbEntity
  8
0
  6
BYBLOCK
 62
     0
 48
5.0
100
AcDbLine
 10
369.08406
 20
251.20738
 30
0.0
 11
369.08406
 21
117.850201
 31
0.0
  0
INSERT
  5
187
100
AcDbEntity
  8
0
  6
BYBLOCK
 62
     0
 48
5.0
100
AcDbBlockReference
  2
_OPEN
 10
369.08406
 20
268.70738
 30
0.0
 41
17.5
 42
17.5
 43
17.5
 50
90.0
  0
INSERT
  5
188
100
AcDbEntity
  8
0
  6
BYBLOCK
 62
     0
 48
5.0
100
AcDbBlockReference
  2
_OPEN
 10
369.08406
 20
100.350201
 30
0.0
 41
17.5
 42
17.5
 43
17.5
 50
270.0
  0
MTEXT
  5
189
100
AcDbEntity
  8
0
  6
BYBLOCK
 62
     0
 48
5.0
100
AcDbMText
 10
357.20906
 20
184.528791
 30
0.0
 40
17.5
 41
0.0
 71
     5
 72
     1
  1
\A1;168
 11
0.0
 21
1.0
 31
0.0
  0
POINT
  5
18A
100
AcDbEntity
  8
DEFPOINTS
  6
BYBLOCK
 62
     0
 48
5.0
100
AcDbPoint
 10
338.822338
 20
268.70738
 30
0.0
  0
POINT
  5
18B
100
AcDbEntity
  8
DEFPOINTS
  6
BYBLOCK
 62
     0
 48
5.0
100
AcDbPoint
 10
338.822338
 20
100.350201
 30
0.0
  0
POINT
  5
18C
100
AcDbEntity
  8
DEFPOINTS
  6
BYBLOCK
 62
     0
 48
5.0
100
AcDbPoint
 10
369.08406
 20
100.350201
 30
0.0
  0
ENDBLK
  5
18E
100
AcDbEntity
  8
0
 48
5.0
100
AcDbBlockEnd
  0
ENDSEC
  0
SECTION
  2
ENTITIES
  0
LEADER
  5
23
100
AcDbEntity
  8
V0-VYPLNE
  6
CONTINUOUS
 62
    41
100
AcDbLeader
  3
STANDARD
 74
     0
 40
17.5
 76
     2
 10
342.276646
 20
-171.698256
 30
0.0
 10
474.893491
 20
-84.944724
 30
0.0
 77
    41
  0
DIMENSION
  5
25
100
AcDbEntity
  8
V0-VYPLNE
  6
CONTINUOUS
 62
    41
100
AcDbDimension
  2
*D1
 10
460.413677
 20
-456.968848
 30
0.0
 11
267.413677
 21
-456.968848
 31
0.0
 12
582.413677
 22
-431.968848
 32
0.0
 70
   128
  3
STANDARD
100
AcDbAlignedDimension
 13
74.413677
 23
-370.968848
 33
0.0
 14
460.413677
 24
-370.968848
 34
0.0
100
AcDbRotatedDimension
  0
DIMENSION
  5
33
100
AcDbEntity
  8
V0-VYPLNE
  6
CONTINUOUS
 62
    41
100
AcDbDimension
  2
*D2
 10
436.236016
 20
-319.468848
 30
0.0
 11
436.236016
 21
-247.261468
 31
0.0
 12
582.413677
 22
-431.968848
 32
0.0
 70
   128
  3
STANDARD
100
AcDbAlignedDimension
 13
347.413677
 23
-174.468848
 33
0.0
 14
347.413677
 24
-319.468848
 34
0.0
 50
90.0
100
AcDbRotatedDimension
  0
DIMENSION
  5
40
100
AcDbEntity
  8
V0-VYPLNE
  6
CONTINUOUS
 62
    41
100
AcDbDimension
  2
*D3
 10
527.413677
 20
-382.968848
 30
0.0
 11
527.413677
 21
-246.968848
 31
0.0
 12
582.413677
 22
-431.968848
 32
0.0
 70
   128
  1
%%c272
  3
STANDARD
100
AcDbAlignedDimension
 13
367.413677
 23
-110.968848
 33
0.0
 14
367.413677
 24
-382.968848
 34
0.0
 50
90.0
100
AcDbRotatedDimension
  0
LINE
  5
4D
100
AcDbEntity
  8
V0-OBRYS
  6
CONTINUOUS
 62
    90
100
AcDbLine
 10
267.413677
 20
-846.968848
 30
0.0
 11
392.413677
 21
-846.968848
 31
0.0
  0
LINE
  5
4F
100
AcDbEntity
  8
V0-VYPLNE
  6
DASHDOT
 62
    63
 48
3.0
100
AcDbLine
 10
67.413677
 20
-691.968848
 30
0.0
 11
487.348845
 21
-691.968848
 31
0.0
  0
LINE
  5
51
100
AcDbEntity
  8
V0-OBRYS
  6
CONTINUOUS
 62
    90
100
AcDbLine
 10
410.413677
 20
-567.968848
 30
0.0
 11
367.413677
 21
-555.968848
 31
0.0
  0
LINE
  5
52
100
AcDbEntity
  8
V0-OBRYS
  6
CONTINUOUS
 62
    90
100
AcDbLine
 10
410.413677
 20
-815.968848
 30
0.0
 11
367.413677
 21
-827.968848
 31
0.0
  0
LINE
  5
53
100
AcDbEntity
  8
V0-OBRYS
  6
CONTINUOUS
 62
    90
100
AcDbLine
 10
410.413677
 20
-370.968848
 30
0.0
 11
367.413677
 21
-382.968848
 31
0.0
  0
ARC
  5
54
100
AcDbEntity
  8
V0-OBRYS
  6
CONTINUOUS
 62
    90
100
AcDbCircle
 10
132.60217
 20
-249.91693
 30
0.0
 40
259.828233
100
AcDbArc
 50
342.884685
 51
0.650108
  0
ARC
  5
55
100
AcDbEntity
  8
V0-OBRYS
  6
CONTINUOUS
 62
    90
100
AcDbCircle
 10
132.60217
 20
-244.020766
 30
0.0
 40
259.828233
100
AcDbArc
 50
359.349892
 51
17.115315
  0
LINE
  5
56
100
AcDbEntity
  8
V0-OBRYS
  6
CONTINUOUS
 62
    90
100
AcDbLine
 10
410.413677
 20
-122.968848
 30
0.0
 11
367.413677
 21
-110.968848
 31
0.0
  0
LINE
  5
57
100
AcDbEntity
  8
V0-VYPLNE
  6
DASHDOT
 62
    63
 48
3.0
100
AcDbLine
 10
67.413677
 20
-246.968848
 30
0.0
 11
392.413677
 21
-246.968848
 31
0.0
  0
DIMENSION
  5
58
100
AcDbEntity
  8
V0-VYPLNE
  6
CONTINUOUS
 62
    41
100
AcDbDimension
  2
*D5
 10
124.413677
 20
-422.261468
 30
0.0
 11
99.413677
 21
-410.386468
 31
0.0
 12
582.413677
 22
-431.968848
 32
0.0
  3
STANDARD
100
AcDbAlignedDimension
 13
74.413677
 23
-371.281348
 33
0.0
 14
124.413677
 24
-371.281348
 34
0.0
100
AcDbRotatedDimension
  0
DIMENSION
  5
65
100
AcDbEntity
  8
V0-VYPLNE
  6
CONTINUOUS
 62
    41
100
AcDbDimension
  2
*D4
 10
339.913677
 20
-426.968848
 30
0.0
 11
267.413677
 21
-415.093848
 31
0.0
 12
582.413677
 22
-431.968848
 32
0.0
  3
STANDARD
100
AcDbAlignedDimension
 13
194.913677
 23
-326.968848
 33
0.0
 14
339.913677
 24
-326.968848
 34
0.0
100
AcDbRotatedDimension
  0
POINT
  5
72
100
AcDbEntity
  8
V0-VYPLNE
 48
5.0
100
AcDbPoint
 10
124.413677
 20
-691.968848
 30
0.0
  0
LINE
  5
73
100
AcDbEntity
  8
V0-VYPLNE
  6
CONTINUOUS
 62
    52
100
AcDbLine
 10
256.236016
 20
-712.261468
 30
0.0
 11
286.236016
 21
-692.261468
 31
0.0
  0
LINE
  5
74
100
AcDbEntity
  8
V0-VYPLNE
  6
CONTINUOUS
 62
    52
100
AcDbLine
 10
256.236016
 20
-672.261468
 30
0.0
 11
256.236016
 21
-712.261468
 31
0.0
  0
LINE
  5
75
100
AcDbEntity
  8
V0-OBRYS
  6
CONTINUOUS
 62
    90
100
AcDbLine
 10
327.413677
 20
-738.837128
 30
0.0
 11
327.413677
 21
-645.100568
 31
0.0
  0
LINE
  5
76
100
AcDbEntity
  8
V0-OBRYS
  6
CONTINUOUS
 62
    90
100
AcDbLine
 10
207.413677
 20
-738.837128
 30
0.0
 11
207.413677
 21
-645.100568
 31
0.0
  0
LINE
  5
77
100
AcDbEntity
  8
V0-OBRYS
  6
CONTINUOUS
 62
    90
100
AcDbLine
 10
367.413677
 20
-827.968848
 30
0.0
 11
367.413677
 21
-555.968848
 31
0.0
  0
LINE
  5
78
100
AcDbEntity
  8
V0-OBRYS
  6
CONTINUOUS
 62
    90
100
AcDbLine
 10
357.413677
 20
-551.968848
 30
0.0
 11
357.413677
 21
-831.968848
 31
0.0
  0
LINE
  5
79
100
AcDbEntity
  8
V0-OBRYS
  6
CONTINUOUS
 62
    90
100
AcDbLine
 10
352.413677
 20
-551.968848
 30
0.0
 11
352.413677
 21
-831.968848
 31
0.0
  0
LINE
  5
7A
100
AcDbEntity
  8
V0-OBRYS
  6
CONTINUOUS
 62
    90
100
AcDbLine
 10
167.413677
 20
-827.968848
 30
0.0
 11
167.413677
 21
-555.968848
 31
0.0
  0
LINE
  5
7B
100
AcDbEntity
  8
V0-OBRYS
  6
CONTINUOUS
 62
    90
100
AcDbLine
 10
177.413677
 20
-551.968848
 30
0.0
 11
177.413677
 21
-831.968848
 31
0.0
  0
LINE
  5
7C
100
AcDbEntity
  8
V0-OBRYS
  6
CONTINUOUS
 62
    90
100
AcDbLine
 10
182.413677
 20
-551.968848
 30
0.0
 11
182.413677
 21
-831.968848
 31
0.0
  0
LINE
  5
7D
100
AcDbEntity
  8
V0-OBRYS
  6
CONTINUOUS
 62
    90
100
AcDbLine
 10
124.413677
 20
-815.968848
 30
0.0
 11
124.413677
 21
-691.968848
 31
0.0
  0
LINE
  5
7E
100
AcDbEntity
  8
V0-OBRYS
  6
CONTINUOUS
 62
    90
100
AcDbLine
 10
74.413677
 20
-691.968848
 30
0.0
 11
74.413677
 21
-815.968848
 31
0.0
  0
LINE
  5
7F
100
AcDbEntity
  8
V0-OBRYS
  6
CONTINUOUS
 62
    90
100
AcDbLine
 10
74.413677
 20
-815.968848
 30
0.0
 11
124.413677
 21
-815.968848
 31
0.0
  0
LINE
  5
80
100
AcDbEntity
  8
V0-OBRYS
  6
CONTINUOUS
 62
    90
100
AcDbLine
 10
142.413677
 20
-846.968848
 30
0.0
 11
142.413677
 21
-812.569642
 31
0.0
  0
LINE
  5
81
100
AcDbEntity
  8
V0-OBRYS
  6
CONTINUOUS
 62
    90
100
AcDbLine
 10
267.413677
 20
-846.968848
 30
0.0
 11
142.413677
 21
-846.968848
 31
0.0
  0
LINE
  5
82
100
AcDbEntity
  8
V0-VYPLNE
  6
DASHDOT
 62
    63
 48
3.0
100
AcDbLine
 10
194.913677
 20
-866.968848
 30
0.0
 11
194.913677
 21
-838.629121
 31
0.0
  0
LINE
  5
83
100
AcDbEntity
  8
V0-VYPLNE
  6
DASHDOT
 62
    63
 48
3.0
100
AcDbLine
 10
339.913677
 20
-866.968848
 30
0.0
 11
339.913677
 21
-838.629121
 31
0.0
  0
LINE
  5
84
100
AcDbEntity
  8
V0-OBRYS
  6
CONTINUOUS
 62
    90
100
AcDbLine
 10
212.413677
 20
-743.837128
 30
0.0
 11
267.350332
 21
-743.837128
 31
0.0
  0
LINE
  5
85
100
AcDbEntity
  8
V0-OBRYS
  6
CONTINUOUS
 62
    90
100
AcDbLine
 10
182.413677
 20
-827.968848
 30
0.0
 11
352.413677
 21
-827.968848
 31
0.0
  0
LINE
  5
86
100
AcDbEntity
  8
V0-OBRYS
  6
CONTINUOUS
 62
    90
100
AcDbLine
 10
124.413677
 20
-815.968848
 30
0.0
 11
167.413677
 21
-827.968848
 31
0.0
  0
LINE
  5
87
100
AcDbEntity
  8
V0-OBRYS
  6
CONTINUOUS
 62
    90
100
AcDbLine
 10
167.413677
 20
-827.968848
 30
0.0
 11
177.413677
 21
-827.968848
 31
0.0
  0
LINE
  5
88
100
AcDbEntity
  8
V0-OBRYS
  6
CONTINUOUS
 62
    90
100
AcDbLine
 10
177.413677
 20
-831.968848
 30
0.0
 11
182.413677
 21
-831.968848
 31
0.0
  0
ARC
  5
89
100
AcDbEntity
  8
V0-OBRYS
  6
CONTINUOUS
 62
    90
100
AcDbCircle
 10
212.413677
 20
-738.837128
 30
0.0
 40
5.0
100
AcDbArc
 50
180.0
 51
270.0
  0
LINE
  5
8A
100
AcDbEntity
  8
V0-OBRYS
  6
CONTINUOUS
 62
    90
100
AcDbLine
 10
367.413677
 20
-827.968848
 30
0.0
 11
357.413677
 21
-827.968848
 31
0.0
  0
LINE
  5
8B
100
AcDbEntity
  8
V0-OBRYS
  6
CONTINUOUS
 62
    90
100
AcDbLine
 10
357.413677
 20
-831.968848
 30
0.0
 11
352.413677
 21
-831.968848
 31
0.0
  0
LINE
  5
8C
100
AcDbEntity
  8
V0-OBRYS
  6
CONTINUOUS
 62
    90
100
AcDbLine
 10
322.413677
 20
-743.837128
 30
0.0
 11
267.477023
 21
-743.837128
 31
0.0
  0
ARC
  5
8D
100
AcDbEntity
  8
V0-OBRYS
  6
CONTINUOUS
 62
    90
100
AcDbCircle
 10
322.413677
 20
-738.837128
 30
0.0
 40
5.0
100
AcDbArc
 50
270.0
 51
0.0
  0
LINE
  5
8E
100
AcDbEntity
  8
V0-OBRYS
  6
CONTINUOUS
 62
    90
100
AcDbLine
 10
74.413677
 20
-567.968848
 30
0.0
 11
124.413677
 21
-567.968848
 31
0.0
  0
LINE
  5
8F
100
AcDbEntity
  8
V0-OBRYS
  6
CONTINUOUS
 62
    90
100
AcDbLine
 10
74.413677
 20
-691.968848
 30
0.0
 11
74.413677
 21
-567.968848
 31
0.0
  0
TEXT
  5
90
100
AcDbEntity
  8
V0-NAZVY
  6
CONTINUOUS
 62
   210
100
AcDbText
 10
226.236016
 20
-625.761468
 30
0.0
 40
15.0
  1
1000/250
100
AcDbText
  0
TEXT
  5
92
100
AcDbEntity
  8
V0-NAZVY
  6
CONTINUOUS
 62
   210
100
AcDbText
 10
211.236016
 20
-597.261468
 30
0.0
 40
15.0
  1
MIXVENT-TD
100
AcDbText
  0
LINE
  5
93
100
AcDbEntity
  8
V0-OBRYS
  6
CONTINUOUS
 62
    90
100
AcDbLine
 10
212.413677
 20
-640.100568
 30
0.0
 11
267.350332
 21
-640.100568
 31
0.0
  0
LINE
  5
94
100
AcDbEntity
  8
V0-OBRYS
  6
CONTINUOUS
 62
    90
100
AcDbLine
 10
182.413677
 20
-555.968848
 30
0.0
 11
352.413677
 21
-555.968848
 31
0.0
  0
LINE
  5
95
100
AcDbEntity
  8
V0-OBRYS
  6
CONTINUOUS
 62
    90
100
AcDbLine
 10
124.413677
 20
-567.968848
 30
0.0
 11
124.413677
 21
-691.968848
 31
0.0
  0
ARC
  5
96
100
AcDbEntity
  8
V0-OBRYS
  6
CONTINUOUS
 62
    90
100
AcDbCircle
 10
212.413677
 20
-645.100568
 30
0.0
 40
5.0
100
AcDbArc
 50
90.0
 51
180.0
  0
LINE
  5
97
100
AcDbEntity
  8
V0-OBRYS
  6
CONTINUOUS
 62
    90
100
AcDbLine
 10
124.413677
 20
-567.968848
 30
0.0
 11
167.413677
 21
-555.968848
 31
0.0
  0
LINE
  5
98
100
AcDbEntity
  8
V0-OBRYS
  6
CONTINUOUS
 62
    90
100
AcDbLine
 10
167.413677
 20
-555.968848
 30
0.0
 11
177.413677
 21
-555.968848
 31
0.0
  0
LINE
  5
99
100
AcDbEntity
  8
V0-OBRYS
  6
CONTINUOUS
 62
    90
100
AcDbLine
 10
177.413677
 20
-551.968848
 30
0.0
 11
182.413677
 21
-551.968848
 31
0.0
  0
LINE
  5
9A
100
AcDbEntity
  8
V0-OBRYS
  6
CONTINUOUS
 62
    90
100
AcDbLine
 10
322.413677
 20
-640.100568
 30
0.0
 11
267.477023
 21
-640.100568
 31
0.0
  0
LINE
  5
9B
100
AcDbEntity
  8
V0-VYPLNE
  6
CONTINUOUS
 62
    52
100
AcDbLine
 10
286.236016
 20
-692.261468
 30
0.0
 11
256.236016
 21
-672.261468
 31
0.0
  0
ARC
  5
9C
100
AcDbEntity
  8
V0-OBRYS
  6
CONTINUOUS
 62
    90
100
AcDbCircle
 10
322.413677
 20
-645.100568
 30
0.0
 40
5.0
100
AcDbArc
 50
0.0
 51
90.0
  0
LINE
  5
9D
100
AcDbEntity
  8
V0-OBRYS
  6
CONTINUOUS
 62
    90
100
AcDbLine
 10
367.413677
 20
-555.968848
 30
0.0
 11
357.413677
 21
-555.968848
 31
0.0
  0
LINE
  5
9E
100
AcDbEntity
  8
V0-OBRYS
  6
CONTINUOUS
 62
    90
100
AcDbLine
 10
357.413677
 20
-551.968848
 30
0.0
 11
352.413677
 21
-551.968848
 31
0.0
  0
DIMENSION
  5
9F
100
AcDbEntity
  8
V0-VYPLNE
  6
CONTINUOUS
 62
    41
100
AcDbDimension
  2
*D6
 10
32.413677
 20
-246.968848
 30
0.0
 11
20.532726
 21
-150.968848
 31
0.0
 12
582.413677
 22
-431.968848
 32
0.0
  3
STANDARD
100
AcDbAlignedDimension
 13
207.413677
 23
-54.968848
 33
0.0
 14
67.413677
 24
-246.968848
 34
0.0
 50
90.0
100
AcDbRotatedDimension
  0
LINE
  5
AC
100
AcDbEntity
  8
V0-OBRYS
  6
CONTINUOUS
 62
    90
100
AcDbLine
 10
327.413677
 20
-128.837128
 30
0.0
 11
327.413677
 21
-54.968848
 31
0.0
  0
LINE
  5
AD
100
AcDbEntity
  8
V0-OBRYS
  6
CONTINUOUS
 62
    90
100
AcDbLine
 10
352.413677
 20
-106.968848
 30
0.0
 11
352.413677
 21
-156.968848
 31
0.0
  0
LINE
  5
AE
100
AcDbEntity
  8
V0-OBRYS
  6
CONTINUOUS
 62
    90
100
AcDbLine
 10
367.413677
 20
-156.991588
 30
0.0
 11
367.413677
 21
-110.968848
 31
0.0
  0
LINE
  5
AF
100
AcDbEntity
  8
V0-OBRYS
  6
CONTINUOUS
 62
    90
100
AcDbLine
 10
357.413677
 20
-106.968848
 30
0.0
 11
357.413677
 21
-156.968848
 31
0.0
  0
LINE
  5
B0
100
AcDbEntity
  8
V0-OBRYS
  6
CONTINUOUS
 62
    90
100
AcDbLine
 10
207.413677
 20
-128.837128
 30
0.0
 11
207.413677
 21
-54.968848
 31
0.0
  0
LINE
  5
B1
100
AcDbEntity
  8
V0-OBRYS
  6
CONTINUOUS
 62
    90
100
AcDbLine
 10
182.413677
 20
-106.968848
 30
0.0
 11
182.413677
 21
-156.968848
 31
0.0
  0
LINE
  5
B2
100
AcDbEntity
  8
V0-OBRYS
  6
CONTINUOUS
 62
    90
100
AcDbLine
 10
177.413677
 20
-106.968848
 30
0.0
 11
177.413677
 21
-156.968848
 31
0.0
  0
LINE
  5
B3
100
AcDbEntity
  8
V0-OBRYS
  6
CONTINUOUS
 62
    90
100
AcDbLine
 10
124.413677
 20
-122.968848
 30
0.0
 11
167.413677
 21
-110.968848
 31
0.0
  0
LINE
  5
B4
100
AcDbEntity
  8
V0-OBRYS
  6
CONTINUOUS
 62
    90
100
AcDbLine
 10
167.413677
 20
-156.991588
 30
0.0
 11
167.413677
 21
-110.968848
 31
0.0
  0
POINT
  5
B5
100
AcDbEntity
  8
V0-VYPLNE
 48
5.0
100
AcDbPoint
 10
124.413677
 20
-246.968848
 30
0.0
  0
LINE
  5
B6
100
AcDbEntity
  8
V0-OBRYS
  6
CONTINUOUS
 62
    90
100
AcDbLine
 10
74.413677
 20
-370.968848
 30
0.0
 11
124.413677
 21
-370.968848
 31
0.0
  0
LINE
  5
B7
100
AcDbEntity
  8
V0-OBRYS
  6
CONTINUOUS
 62
    90
100
AcDbLine
 10
74.413677
 20
-122.968848
 30
0.0
 11
124.413677
 21
-122.968848
 31
0.0
  0
LINE
  5
B8
100
AcDbEntity
  8
V0-OBRYS
  6
CONTINUOUS
 62
    90
100
AcDbLine
 10
74.413677
 20
-246.968848
 30
0.0
 11
74.413677
 21
-370.968848
 31
0.0
  0
LINE
  5
B9
100
AcDbEntity
  8
V0-OBRYS
  6
CONTINUOUS
 62
    90
100
AcDbLine
 10
74.413677
 20
-246.968848
 30
0.0
 11
74.413677
 21
-122.968848
 31
0.0
  0
LINE
  5
BA
100
AcDbEntity
  8
V0-VYPLNE
  6
CONTINUOUS
 62
    52
100
AcDbLine
 10
261.236016
 20
-267.261468
 30
0.0
 11
291.236016
 21
-247.261468
 31
0.0
  0
LINE
  5
BB
100
AcDbEntity
  8
V0-VYPLNE
  6
CONTINUOUS
 62
    52
100
AcDbLine
 10
261.236016
 20
-227.261468
 30
0.0
 11
261.236016
 21
-267.261468
 31
0.0
  0
LINE
  5
BC
100
AcDbEntity
  8
V0-OBRYS
  6
CONTINUOUS
 62
    90
100
AcDbLine
 10
124.413677
 20
-370.968848
 30
0.0
 11
124.413677
 21
-246.968848
 31
0.0
  0
ARC
  5
BD
100
AcDbEntity
  8
V0-OBRYS
  6
CONTINUOUS
 62
    90
100
AcDbCircle
 10
402.225185
 20
-249.91693
 30
0.0
 40
259.828233
100
AcDbArc
 50
179.349892
 51
197.115315
  0
LINE
  5
BE
100
AcDbEntity
  8
V0-OBRYS
  6
CONTINUOUS
 62
    90
100
AcDbLine
 10
182.413677
 20
-382.968848
 30
0.0
 11
352.413677
 21
-382.968848
 31
0.0
  0
LINE
  5
BF
100
AcDbEntity
  8
V0-OBRYS
  6
CONTINUOUS
 62
    90
100
AcDbLine
 10
168.239321
 20
-336.968848
 30
0.0
 11
267.413677
 21
-336.968848
 31
0.0
  0
ARC
  5
C0
100
AcDbEntity
  8
V0-OBRYS
  6
CONTINUOUS
 62
    90
100
AcDbCircle
 10
168.239321
 20
-321.968848
 30
0.0
 40
15.0
100
AcDbArc
 50
197.115315
 51
270.0
  0
LINE
  5
C1
100
AcDbEntity
  8
V0-OBRYS
  6
CONTINUOUS
 62
    90
100
AcDbLine
 10
182.413677
 20
-386.968848
 30
0.0
 11
182.413677
 21
-336.968848
 31
0.0
  0
LINE
  5
C2
100
AcDbEntity
  8
V0-OBRYS
  6
CONTINUOUS
 62
    90
100
AcDbLine
 10
167.413677
 20
-336.946108
 30
0.0
 11
167.413677
 21
-382.968848
 31
0.0
  0
LINE
  5
C3
100
AcDbEntity
  8
V0-OBRYS
  6
CONTINUOUS
 62
    90
100
AcDbLine
 10
177.413677
 20
-386.968848
 30
0.0
 11
177.413677
 21
-336.968848
 31
0.0
  0
LINE
  5
C4
100
AcDbEntity
  8
V0-OBRYS
  6
CONTINUOUS
 62
    90
100
AcDbLine
 10
124.413677
 20
-370.968848
 30
0.0
 11
167.413677
 21
-382.968848
 31
0.0
  0
LINE
  5
C5
100
AcDbEntity
  8
V0-OBRYS
  6
CONTINUOUS
 62
    90
100
AcDbLine
 10
177.413677
 20
-386.968848
 30
0.0
 11
182.413677
 21
-386.968848
 31
0.0
  0
LINE
  5
C6
100
AcDbEntity
  8
V0-OBRYS
  6
CONTINUOUS
 62
    90
100
AcDbLine
 10
167.413677
 20
-382.968848
 30
0.0
 11
177.413677
 21
-382.968848
 31
0.0
  0
LINE
  5
C7
100
AcDbEntity
  8
V0-VYPLNE
  6
DASHDOT
 62
    63
 48
3.0
100
AcDbLine
 10
194.913677
 20
-326.968848
 30
0.0
 11
194.913677
 21
-310.691966
 31
0.0
  0
LINE
  5
C8
100
AcDbEntity
  8
V0-VYPLNE
  6
DASHDOT
 62
    63
 48
3.0
100
AcDbLine
 10
187.413677
 20
-319.468848
 30
0.0
 11
204.836118
 21
-319.468848
 31
0.0
  0
CIRCLE
  5
C9
100
AcDbEntity
  8
V0-OBRYS
  6
CONTINUOUS
 62
    90
100
AcDbCircle
 10
194.913677
 20
-319.468848
 30
0.0
 40
2.75
  0
ARC
  5
CA
100
AcDbEntity
  8
V0-OBRYS
  6
CONTINUOUS
 62
    90
100
AcDbCircle
 10
366.588034
 20
-321.968848
 30
0.0
 40
15.0
100
AcDbArc
 50
270.0
 51
342.884685
  0
LINE
  5
CB
100
AcDbEntity
  8
V0-OBRYS
  6
CONTINUOUS
 62
    90
100
AcDbLine
 10
366.588034
 20
-336.968848
 30
0.0
 11
267.413677
 21
-336.968848
 31
0.0
  0
LINE
  5
CC
100
AcDbEntity
  8
V0-OBRYS
  6
CONTINUOUS
 62
    90
100
AcDbLine
 10
367.413677
 20
-336.946108
 30
0.0
 11
367.413677
 21
-382.968848
 31
0.0
  0
LINE
  5
CD
100
AcDbEntity
  8
V0-OBRYS
  6
CONTINUOUS
 62
    90
100
AcDbLine
 10
357.413677
 20
-386.968848
 30
0.0
 11
357.413677
 21
-336.968848
 31
0.0
  0
LINE
  5
CE
100
AcDbEntity
  8
V0-OBRYS
  6
CONTINUOUS
 62
    90
100
AcDbLine
 10
352.413677
 20
-386.968848
 30
0.0
 11
352.413677
 21
-336.968848
 31
0.0
  0
LINE
  5
CF
100
AcDbEntity
  8
V0-OBRYS
  6
CONTINUOUS
 62
    90
100
AcDbLine
 10
357.413677
 20
-386.968848
 30
0.0
 11
352.413677
 21
-386.968848
 31
0.0
  0
LINE
  5
D0
100
AcDbEntity
  8
V0-OBRYS
  6
CONTINUOUS
 62
    90
100
AcDbLine
 10
367.413677
 20
-382.968848
 30
0.0
 11
357.413677
 21
-382.968848
 31
0.0
  0
LINE
  5
D1
100
AcDbEntity
  8
V0-VYPLNE
  6
DASHDOT
 62
    63
 48
3.0
100
AcDbLine
 10
339.913677
 20
-326.968848
 30
0.0
 11
339.913677
 21
-310.691966
 31
0.0
  0
LINE
  5
D2
100
AcDbEntity
  8
V0-VYPLNE
  6
DASHDOT
 62
    63
 48
3.0
100
AcDbLine
 10
347.413677
 20
-319.468848
 30
0.0
 11
329.991237
 21
-319.468848
 31
0.0
  0
CIRCLE
  5
D3
100
AcDbEntity
  8
V0-OBRYS
  6
CONTINUOUS
 62
    90
100
AcDbCircle
 10
339.913677
 20
-319.468848
 30
0.0
 40
2.75
  0
TEXT
  5
D4
100
AcDbEntity
  8
V0-NAZVY
  6
CONTINUOUS
 62
   210
100
AcDbText
 10
161.236016
 20
-217.261468
 30
0.0
 40
15.0
  1
MIXVENT-TD-1000/250
100
AcDbText
  0
LINE
  5
D5
100
AcDbEntity
  8
V0-OBRYS
  6
CONTINUOUS
 62
    90
100
AcDbLine
 10
168.239321
 20
-156.968848
 30
0.0
 11
267.413677
 21
-156.968848
 31
0.0
  0
LINE
  5
D6
100
AcDbEntity
  8
V0-OBRYS
  6
CONTINUOUS
 62
    90
100
AcDbLine
 10
207.21517
 20
-128.837128
 30
0.0
 11
267.350332
 21
-128.837128
 31
0.0
  0
ARC
  5
D7
100
AcDbEntity
  8
V0-OBRYS
  6
CONTINUOUS
 62
    90
100
AcDbCircle
 10
402.225185
 20
-244.020766
 30
0.0
 40
259.828233
100
AcDbArc
 50
162.884685
 51
180.650108
  0
LINE
  5
D8
100
AcDbEntity
  8
V0-OBRYS
  6
CONTINUOUS
 62
    90
100
AcDbLine
 10
124.413677
 20
-122.968848
 30
0.0
 11
124.413677
 21
-246.968848
 31
0.0
  0
ARC
  5
D9
100
AcDbEntity
  8
V0-OBRYS
  6
CONTINUOUS
 62
    90
100
AcDbCircle
 10
168.239321
 20
-171.968848
 30
0.0
 40
15.0
100
AcDbArc
 50
90.0
 51
162.884685
  0
LINE
  5
DA
100
AcDbEntity
  8
V0-VYPLNE
  6
DASHDOT
 62
    63
 48
3.0
100
AcDbLine
 10
187.413677
 20
-174.468848
 30
0.0
 11
204.836118
 21
-174.468848
 31
0.0
  0
CIRCLE
  5
DB
100
AcDbEntity
  8
V0-OBRYS
  6
CONTINUOUS
 62
    90
100
AcDbCircle
 10
194.913677
 20
-174.468848
 30
0.0
 40
2.75
  0
LINE
  5
DC
100
AcDbEntity
  8
V0-VYPLNE
  6
DASHDOT
 62
    63
 48
3.0
100
AcDbLine
 10
194.913677
 20
-166.968848
 30
0.0
 11
194.913677
 21
-183.245731
 31
0.0
  0
LINE
  5
DD
100
AcDbEntity
  8
V0-VYPLNE
  6
CONTINUOUS
 62
    52
100
AcDbLine
 10
291.236016
 20
-247.261468
 30
0.0
 11
261.236016
 21
-227.261468
 31
0.0
  0
LINE
  5
DE
100
AcDbEntity
  8
V0-OBRYS
  6
CONTINUOUS
 62
    90
100
AcDbLine
 10
366.588034
 20
-156.968848
 30
0.0
 11
267.413677
 21
-156.968848
 31
0.0
  0
LINE
  5
DF
100
AcDbEntity
  8
V0-OBRYS
  6
CONTINUOUS
 62
    90
100
AcDbLine
 10
327.612185
 20
-128.837128
 30
0.0
 11
267.477023
 21
-128.837128
 31
0.0
  0
LINE
  5
E0
100
AcDbEntity
  8
V0-VYPLNE
  6
DASHDOT
 62
    63
 48
3.0
100
AcDbLine
 10
347.413677
 20
-174.468848
 30
0.0
 11
329.991237
 21
-174.468848
 31
0.0
  0
LINE
  5
E1
100
AcDbEntity
  8
V0-VYPLNE
  6
DASHDOT
 62
    63
 48
3.0
100
AcDbLine
 10
339.913677
 20
-166.968848
 30
0.0
 11
339.913677
 21
-183.245731
 31
0.0
  0
CIRCLE
  5
E2
100
AcDbEntity
  8
V0-OBRYS
  6
CONTINUOUS
 62
    90
100
AcDbCircle
 10
339.913677
 20
-174.468848
 30
0.0
 40
2.75
  0
ARC
  5
E3
100
AcDbEntity
  8
V0-OBRYS
  6
CONTINUOUS
 62
    90
100
AcDbCircle
 10
366.588034
 20
-171.968848
 30
0.0
 40
15.0
100
AcDbArc
 50
17.115315
 51
90.0
  0
DIMENSION
  5
E4
100
AcDbEntity
  8
V0-VYPLNE
  6
CONTINUOUS
 62
    41
100
AcDbDimension
  2
*D7
 10
327.413677
 20
-27.261468
 30
0.0
 11
267.257427
 21
-15.384746
 31
0.0
 12
582.413677
 22
-431.968848
 32
0.0
  3
STANDARD
100
AcDbAlignedDimension
 13
207.101177
 23
-54.968848
 33
0.0
 14
327.413677
 24
-54.968848
 34
0.0
100
AcDbRotatedDimension
  0
LINE
  5
F1
100
AcDbEntity
  8
V0-OBRYS
  6
CONTINUOUS
 62
    90
100
AcDbLine
 10
207.834121
 20
-62.062934
 30
0.0
 11
266.731375
 21
-62.062934
 31
0.0
  0
LINE
  5
F2
100
AcDbEntity
  8
V0-OBRYS
  6
CONTINUOUS
 62
    90
100
AcDbLine
 10
207.413677
 20
-54.968848
 30
0.0
 11
267.413677
 21
-54.968848
 31
0.0
  0
LINE
  5
F3
100
AcDbEntity
  8
V0-OBRYS
  6
CONTINUOUS
 62
    90
100
AcDbLine
 10
182.413677
 20
-110.968848
 30
0.0
 11
207.104362
 21
-110.968848
 31
0.0
  0
LINE
  5
F4
100
AcDbEntity
  8
V0-OBRYS
  6
CONTINUOUS
 62
    90
100
AcDbLine
 10
167.413677
 20
-110.968848
 30
0.0
 11
177.413677
 21
-110.968848
 31
0.0
  0
LINE
  5
F5
100
AcDbEntity
  8
V0-OBRYS
  6
CONTINUOUS
 62
    90
100
AcDbLine
 10
177.413677
 20
-106.968848
 30
0.0
 11
182.413677
 21
-106.968848
 31
0.0
  0
LINE
  5
F6
100
AcDbEntity
  8
V0-OBRYS
  6
CONTINUOUS
 62
    90
100
AcDbLine
 10
327.413677
 20
-54.968848
 30
0.0
 11
267.413677
 21
-54.968848
 31
0.0
  0
LINE
  5
F7
100
AcDbEntity
  8
V0-OBRYS
  6
CONTINUOUS
 62
    90
100
AcDbLine
 10
326.993234
 20
-62.062934
 30
0.0
 11
268.09598
 21
-62.062934
 31
0.0
  0
LINE
  5
F8
100
AcDbEntity
  8
V0-OBRYS
  6
CONTINUOUS
 62
    90
100
AcDbLine
 10
352.413677
 20
-110.968848
 30
0.0
 11
327.722993
 21
-110.968848
 31
0.0
  0
LINE
  5
F9
100
AcDbEntity
  8
V0-OBRYS
  6
CONTINUOUS
 62
    90
100
AcDbLine
 10
367.413677
 20
-110.968848
 30
0.0
 11
357.413677
 21
-110.968848
 31
0.0
  0
LINE
  5
FA
100
AcDbEntity
  8
V0-OBRYS
  6
CONTINUOUS
 62
    90
100
AcDbLine
 10
357.413677
 20
-106.968848
 30
0.0
 11
352.413677
 21
-106.968848
 31
0.0
  0
TEXT
  5
FB
100
AcDbEntity
  8
V0-NAZVY
  6
CONTINUOUS
 62
   210
100
AcDbText
 10
670.350371
 20
-414.688073
 30
0.0
 40
15.0
  1
MIXVENT-TD-1000/250
100
AcDbText
  0
TEXT
  5
FC
100
AcDbEntity
  8
V0-NAZVY
  6
CONTINUOUS
 62
   210
100
AcDbText
 10
519.656619
 20
-549.653308
 30
0.0
 40
30.0
  1
MIXVENT-TD-1000/250
100
AcDbText
  0
TEXT
  5
FD
100
AcDbEntity
  8
V0-ZBYTEK
  6
CONTINUOUS
 62
   130
100
AcDbText
 10
893.422375
 20
-630.453348
 30
0.0
 40
15.0
  1
POTRUBI
100
AcDbText
  0
MTEXT
  5
FF
100
AcDbEntity
  8
V0-ZBYTEK
  6
CONTINUOUS
 62
    51
100
AcDbMText
 10
507.830202
 20
-675.500155
 30
0.0
 40
15.0
 41
363.382
 71
     1
 72
     5
  1
   min             W          m /h          kg\P  
  0
LINE
  5
100
100
AcDbEntity
  8
V0-OBRYS
  6
CONTINUOUS
 62
    90
100
AcDbLine
 10
460.413677
 20
-691.968848
 30
0.0
 11
460.413677
 21
-815.968848
 31
0.0
  0
LINE
  5
101
100
AcDbEntity
  8
V0-OBRYS
  6
CONTINUOUS
 62
    90
100
AcDbLine
 10
410.413677
 20
-815.968848
 30
0.0
 11
410.413677
 21
-691.968848
 31
0.0
  0
LINE
  5
102
100
AcDbEntity
  8
V0-ZBYTEK
  6
CONTINUOUS
 62
    51
100
AcDbLine
 10
514.16366
 20
-699.224787
 30
0.0
 11
866.462123
 21
-699.224787
 31
0.0
  0
TEXT
  5
103
100
AcDbEntity
  8
V0-ZBYTEK
  6
CONTINUOUS
 62
    51
100
AcDbText
 10
507.512028
 20
-749.906778
 30
0.0
 40
15.0
  1
  2100            85            750         9,4
100
AcDbText
  0
TEXT
  5
104
100
AcDbEntity
  8
V0-ZBYTEK
  6
CONTINUOUS
 62
    51
100
AcDbText
 10
521.762303
 20
-724.903825
 30
0.0
 40
15.0
  1
2800          155           1010         9,4
100
AcDbText
  0
LINE
  5
105
100
AcDbEntity
  8
V0-OBRYS
  6
CONTINUOUS
 62
    90
100
AcDbLine
 10
392.413677
 20
-846.968848
 30
0.0
 11
392.413677
 21
-812.569642
 31
0.0
  0
LINE
  5
106
100
AcDbEntity
  8
V0-OBRYS
  6
CONTINUOUS
 62
    90
100
AcDbLine
 10
460.413677
 20
-815.968848
 30
0.0
 11
410.413677
 21
-815.968848
 31
0.0
  0
MTEXT
  5
107
100
AcDbEntity
  8
V0-ZBYTEK
  6
CONTINUOUS
 62
    51
100
AcDbMText
 10
514.780138
 20
-654.141503
 30
0.0
 40
15.0
 41
456.2164
 71
     1
 72
     5
  1
otacky      prikon      prutok    hmotnost
  0
TEXT
  5
108
100
AcDbEntity
  8
V0-ZBYTEK
  6
CONTINUOUS
 62
   130
100
AcDbText
 10
516.349534
 20
-630.302632
 30
0.0
 40
15.0
  1
DIAGONALNI VENTILATOR DO KRUHOVEHO 
100
AcDbText
  0
LINE
  5
109
100
AcDbEntity
  8
V0-OBRYS
  6
CONTINUOUS
 62
    90
100
AcDbLine
 10
410.413677
 20
-567.968848
 30
0.0
 11
410.413677
 21
-691.968848
 31
0.0
  0
LINE
  5
10A
100
AcDbEntity
  8
V0-OBRYS
  6
CONTINUOUS
 62
    90
100
AcDbLine
 10
460.413677
 20
-691.968848
 30
0.0
 11
460.413677
 21
-567.968848
 31
0.0
  0
LINE
  5
10B
100
AcDbEntity
  8
V0-OBRYS
  6
CONTINUOUS
 62
    90
100
AcDbLine
 10
460.413677
 20
-567.968848
 30
0.0
 11
410.413677
 21
-567.968848
 31
0.0
  0
DIMENSION
  5
10C
100
AcDbEntity
  8
V0-VYPLNE
  6
CONTINUOUS
 62
    41
100
AcDbDimension
  2
*D10
 10
921.236016
 20
-4.26806
 30
0.0
 11
775.736016
 21
7.608662
 31
0.0
 12
582.413677
 22
-431.968848
 32
0.0
  3
STANDARD
100
AcDbAlignedDimension
 13
630.236016
 23
-247.261468
 33
0.0
 14
921.236016
 24
-163.261468
 34
0.0
100
AcDbRotatedDimension
  0
LINE
  5
119
100
AcDbEntity
  8
V0-OBRYS
  6
CONTINUOUS
 62
    90
100
AcDbLine
 10
921.236016
 20
-331.261468
 30
0.0
 11
876.220157
 21
-331.261468
 31
0.0
  0
DIMENSION
  5
11A
100
AcDbEntity
  8
V0-VYPLNE
  6
CONTINUOUS
 62
    41
100
AcDbDimension
  2
*D9
 10
921.243334
 20
-34.633469
 30
0.0
 11
843.739675
 21
-22.758469
 31
0.0
 12
582.413677
 22
-431.968848
 32
0.0
  3
STANDARD
100
AcDbAlignedDimension
 13
766.236016
 23
-55.419118
 33
0.0
 14
921.243334
 24
-156.968848
 34
0.0
100
AcDbRotatedDimension
  0
LINE
  5
127
100
AcDbEntity
  8
V0-VYPLNE
  6
DASHDOT
 62
    63
 48
3.0
100
AcDbLine
 10
903.236016
 20
-322.236565
 30
0.0
 11
935.90304
 21
-322.236565
 31
0.0
  0
LINE
  5
128
100
AcDbEntity
  8
V0-VYPLNE
  6
DASHDOT
 62
    63
 48
3.0
100
AcDbLine
 10
903.236016
 20
-174.761468
 30
0.0
 11
935.90304
 21
-174.761468
 31
0.0
  0
LINE
  5
129
100
AcDbEntity
  8
V0-OBRYS
  6
CONTINUOUS
 62
    90
100
AcDbLine
 10
921.243334
 20
-276.52966
 30
0.0
 11
909.413677
 21
-276.52966
 31
0.0
  0
LINE
  5
12A
100
AcDbEntity
  8
V0-OBRYS
  6
CONTINUOUS
 62
    90
100
AcDbLine
 10
921.243334
 20
-216.968848
 30
0.0
 11
909.413677
 21
-216.968848
 31
0.0
  0
LINE
  5
12B
100
AcDbEntity
  8
V0-OBRYS
  6
CONTINUOUS
 62
    90
100
AcDbLine
 10
921.236016
 20
-163.261468
 30
0.0
 11
876.220157
 21
-163.261468
 31
0.0
  0
LINE
  5
12C
100
AcDbEntity
  8
V0-VYPLNE
  6
DASHDOT
 62
    63
 48
3.0
100
AcDbLine
 10
766.236016
 20
-55.419118
 30
0.0
 11
766.236016
 21
-364.761468
 31
0.0
  0
LINE
  5
12D
100
AcDbEntity
  8
V0-OBRYS
  6
CONTINUOUS
 62
    90
100
AcDbLine
 10
706.17872
 20
-125.240481
 30
0.0
 11
706.17872
 21
-55.419118
 31
0.0
  0
LINE
  5
12E
100
AcDbEntity
  8
V0-OBRYS
  6
CONTINUOUS
 62
    90
100
AcDbLine
 10
826.17872
 20
-125.184147
 30
0.0
 11
826.17872
 21
-55.419118
 31
0.0
  0
ARC
  5
12F
100
AcDbEntity
  8
V0-OBRYS
  6
CONTINUOUS
 62
    90
100
AcDbCircle
 10
726.220579
 20
-230.622663
 30
0.0
 40
80.628431
100
AcDbArc
 50
188.133515
 51
247.631049
  0
ARC
  5
130
100
AcDbEntity
  8
V0-OBRYS
  6
CONTINUOUS
 62
    90
100
AcDbCircle
 10
652.219088
 20
-241.198802
 30
0.0
 40
5.875
100
AcDbArc
 50
81.456849
 51
188.133515
  0
LINE
  5
131
100
AcDbEntity
  8
V0-VYPLNE
  6
DASHDOT
 62
    63
 48
3.0
100
AcDbLine
 10
630.236016
 20
-247.261468
 30
0.0
 11
895.330605
 21
-247.261468
 31
0.0
  0
CIRCLE
  5
132
100
AcDbEntity
  8
V0-OBRYS
  6
CONTINUOUS
 62
    90
100
AcDbCircle
 10
766.236016
 20
-247.261468
 30
0.0
 40
125.167942
  0
ARC
  5
133
100
AcDbEntity
  8
V0-OBRYS
  6
CONTINUOUS
 62
    90
100
AcDbCircle
 10
766.236016
 20
-247.261468
 30
0.0
 40
136.0
100
AcDbArc
 50
37.384046
 51
322.813884
  0
DIMENSION
  5
134
100
AcDbEntity
  8
V0-VYPLNE
  6
CONTINUOUS
 62
    41
100
AcDbDimension
  2
*D8
 10
492.413677
 20
-370.968848
 30
0.0
 11
480.536955
 21
-246.968848
 31
0.0
 12
582.413677
 22
-431.968848
 32
0.0
  1
%%c248
  3
STANDARD
100
AcDbAlignedDimension
 13
460.413677
 23
-122.968848
 33
0.0
 14
460.413677
 24
-370.968848
 34
0.0
 50
90.0
100
AcDbRotatedDimension
  0
LINE
  5
141
100
AcDbEntity
  8
V0-OBRYS
  6
CONTINUOUS
 62
    90
100
AcDbLine
 10
410.413677
 20
-370.968848
 30
0.0
 11
410.413677
 21
-246.968848
 31
0.0
  0
LINE
  5
142
100
AcDbEntity
  8
V0-OBRYS
  6
CONTINUOUS
 62
    90
100
AcDbLine
 10
460.413677
 20
-246.968848
 30
0.0
 11
460.413677
 21
-370.968848
 31
0.0
  0
LINE
  5
143
100
AcDbEntity
  8
V0-OBRYS
  6
CONTINUOUS
 62
    90
100
AcDbLine
 10
460.413677
 20
-370.968848
 30
0.0
 11
410.413677
 21
-370.968848
 31
0.0
  0
LINE
  5
144
100
AcDbEntity
  8
V0-OBRYS
  6
CONTINUOUS
 62
    90
100
AcDbLine
 10
460.413677
 20
-246.968848
 30
0.0
 11
460.413677
 21
-122.968848
 31
0.0
  0
LINE
  5
145
100
AcDbEntity
  8
V0-OBRYS
  6
CONTINUOUS
 62
    90
100
AcDbLine
 10
410.413677
 20
-122.968848
 30
0.0
 11
410.413677
 21
-246.968848
 31
0.0
  0
LINE
  5
146
100
AcDbEntity
  8
V0-OBRYS
  6
CONTINUOUS
 62
    90
100
AcDbLine
 10
460.413677
 20
-122.968848
 30
0.0
 11
410.413677
 21
-122.968848
 31
0.0
  0
POINT
  5
147
100
AcDbEntity
  8
V0-VYPLNE
 48
5.0
100
AcDbPoint
 10
766.236016
 20
-247.261468
 30
0.0
  0
CIRCLE
  5
148
100
AcDbEntity
  8
V0-OBRYS
  6
CONTINUOUS
 62
    90
100
AcDbCircle
 10
766.236016
 20
-247.261468
 30
0.0
 40
16.376229
  0
LINE
  5
149
100
AcDbEntity
  8
V0-OBRYS
  6
CONTINUOUS
 62
    90
100
AcDbLine
 10
856.458881
 20
-255.690685
 30
0.0
 11
879.380188
 21
-259.133947
 31
0.0
  0
ARC
  5
14A
100
AcDbEntity
  8
V0-OBRYS
  6
CONTINUOUS
 62
    90
100
AcDbCircle
 10
880.252944
 20
-253.324134
 30
0.0
 40
5.875
100
AcDbArc
 50
261.456849
 51
8.133515
  0
ARC
  5
14B
100
AcDbEntity
  8
V0-OBRYS
  6
CONTINUOUS
 62
    90
100
AcDbCircle
 10
782.765791
 20
-287.322067
 30
0.0
 40
80.628431
100
AcDbArc
 50
323.133515
 51
22.631049
  0
ARC
  5
14C
100
AcDbEntity
  8
V0-OBRYS
  6
CONTINUOUS
 62
    90
100
AcDbCircle
 10
741.312675
 20
-288.14027
 30
0.0
 40
61.387559
100
AcDbArc
 50
4.288647
 51
41.759431
  0
ARC
  5
14D
100
AcDbEntity
  8
V0-OBRYS
  6
CONTINUOUS
 62
    90
100
AcDbCircle
 10
754.953801
 20
-200.732326
 30
0.0
 40
61.387559
100
AcDbArc
 50
229.288647
 51
266.759431
  0
LINE
  5
14E
100
AcDbEntity
  8
V0-OBRYS
  6
CONTINUOUS
 62
    90
100
AcDbLine
 10
909.413677
 20
-276.52966
 30
0.0
 11
909.413677
 21
-246.52966
 31
0.0
  0
ARC
  5
14F
100
AcDbEntity
  8
V0-OBRYS
  6
CONTINUOUS
 62
    90
100
AcDbCircle
 10
766.236016
 20
-246.968848
 30
0.0
 40
132.942453
100
AcDbArc
 50
322.699382
 51
37.300618
  0
ARC
  5
150
100
AcDbEntity
  8
V0-OBRYS
  6
CONTINUOUS
 62
    90
100
AcDbCircle
 10
749.597211
 20
-287.276905
 30
0.0
 40
80.628431
100
AcDbArc
 50
278.133515
 51
337.631049
  0
ARC
  5
151
100
AcDbEntity
  8
V0-OBRYS
  6
CONTINUOUS
 62
    90
100
AcDbCircle
 10
719.706874
 20
-258.543683
 30
0.0
 40
61.387559
100
AcDbArc
 50
319.288647
 51
356.759431
  0
ARC
  5
152
100
AcDbEntity
  8
V0-OBRYS
  6
CONTINUOUS
 62
    90
100
AcDbCircle
 10
751.549194
 20
-324.654843
 30
0.0
 40
14.6875
100
AcDbArc
 50
292.631049
 51
359.995026
  0
ARC
  5
153
100
AcDbEntity
  8
V0-OBRYS
  6
CONTINUOUS
 62
    90
100
AcDbCircle
 10
726.175417
 20
-263.791243
 30
0.0
 40
80.628431
100
AcDbArc
 50
233.133515
 51
292.631049
  0
ARC
  5
154
100
AcDbEntity
  8
V0-OBRYS
  6
CONTINUOUS
 62
    90
100
AcDbCircle
 10
760.173349
 20
-361.278396
 30
0.0
 40
5.875
100
AcDbArc
 50
171.456849
 51
278.133515
  0
LINE
  5
155
100
AcDbEntity
  8
V0-OBRYS
  6
CONTINUOUS
 62
    90
100
AcDbLine
 10
757.806799
 20
-337.484333
 30
0.0
 11
754.363537
 21
-360.40564
 31
0.0
  0
LINE
  5
156
100
AcDbEntity
  8
V0-OBRYS
  6
CONTINUOUS
 62
    90
100
AcDbLine
 10
711.510214
 20
-301.988229
 30
0.0
 11
751.483657
 21
-262.021726
 31
0.0
  0
LINE
  5
157
100
AcDbEntity
  8
V0-OBRYS
  6
CONTINUOUS
 62
    90
100
AcDbLine
 10
696.077565
 20
-305.394491
 30
0.0
 11
677.835894
 21
-318.871369
 31
0.0
  0
ARC
  5
158
100
AcDbEntity
  8
V0-OBRYS
  6
CONTINUOUS
 62
    90
100
AcDbCircle
 10
681.32692
 20
-323.596659
 30
0.0
 40
5.875
100
AcDbArc
 50
126.456849
 51
233.133515
  0
ARC
  5
159
100
AcDbEntity
  8
V0-OBRYS
  6
CONTINUOUS
 62
    90
100
AcDbCircle
 10
701.125485
 20
-291.601697
 30
0.0
 40
14.6875
100
AcDbArc
 50
247.631049
 51
314.995026
  0
LINE
  5
15A
100
AcDbEntity
  8
V0-OBRYS
  6
CONTINUOUS
 62
    90
100
AcDbLine
 10
766.236694
 20
-324.656118
 30
0.0
 11
766.241601
 21
-268.130039
 31
0.0
  0
ARC
  5
15B
100
AcDbEntity
  8
V0-OBRYS
  6
CONTINUOUS
 62
    90
100
AcDbCircle
 10
725.357213
 20
-222.338127
 30
0.0
 40
61.387559
100
AcDbArc
 50
274.288647
 51
311.759431
  0
LINE
  5
15C
100
AcDbEntity
  8
V0-OBRYS
  6
CONTINUOUS
 62
    90
100
AcDbLine
 10
876.220157
 20
-330.676229
 30
0.0
 11
871.987342
 21
-327.531574
 31
0.0
  0
LINE
  5
15D
100
AcDbEntity
  8
V0-OBRYS
  6
CONTINUOUS
 62
    90
100
AcDbLine
 10
824.369039
 20
-317.419919
 30
0.0
 11
837.845917
 21
-335.66159
 31
0.0
  0
ARC
  5
15E
100
AcDbEntity
  8
V0-OBRYS
  6
CONTINUOUS
 62
    90
100
AcDbCircle
 10
842.571206
 20
-332.170564
 30
0.0
 40
5.875
100
AcDbArc
 50
216.456849
 51
323.133515
  0
LINE
  5
15F
100
AcDbEntity
  8
V0-OBRYS
  6
CONTINUOUS
 62
    90
100
AcDbLine
 10
820.962777
 20
-301.98727
 30
0.0
 11
780.996273
 21
-262.013827
 31
0.0
  0
ARC
  5
160
100
AcDbEntity
  8
V0-OBRYS
  6
CONTINUOUS
 62
    90
100
AcDbCircle
 10
810.576245
 20
-312.371999
 30
0.0
 40
14.6875
100
AcDbArc
 50
337.631049
 51
44.995026
  0
ARC
  5
161
100
AcDbEntity
  8
V0-OBRYS
  6
CONTINUOUS
 62
    90
100
AcDbCircle
 10
772.298682
 20
-133.24454
 30
0.0
 40
5.875
100
AcDbArc
 50
351.456849
 51
98.133515
  0
ARC
  5
162
100
AcDbEntity
  8
V0-OBRYS
  6
CONTINUOUS
 62
    90
100
AcDbCircle
 10
806.296615
 20
-230.731693
 30
0.0
 40
80.628431
100
AcDbArc
 50
53.133515
 51
112.631049
  0
ARC
  5
163
100
AcDbEntity
  8
V0-OBRYS
  6
CONTINUOUS
 62
    90
100
AcDbCircle
 10
807.114818
 20
-272.184809
 30
0.0
 40
61.387559
100
AcDbArc
 50
94.288647
 51
131.759431
  0
ARC
  5
164
100
AcDbEntity
  8
V0-OBRYS
  6
CONTINUOUS
 62
    90
100
AcDbCircle
 10
749.706241
 20
-207.200869
 30
0.0
 40
80.628431
100
AcDbArc
 50
143.133515
 51
202.631049
  0
ARC
  5
165
100
AcDbEntity
  8
V0-OBRYS
  6
CONTINUOUS
 62
    90
100
AcDbCircle
 10
721.895787
 20
-182.150937
 30
0.0
 40
14.6875
100
AcDbArc
 50
157.631049
 51
224.995026
  0
LINE
  5
166
100
AcDbEntity
  8
V0-OBRYS
  6
CONTINUOUS
 62
    90
100
AcDbLine
 10
766.235337
 20
-169.866818
 30
0.0
 11
766.230431
 21
-226.392897
 31
0.0
  0
LINE
  5
167
100
AcDbEntity
  8
V0-OBRYS
  6
CONTINUOUS
 62
    90
100
AcDbLine
 10
688.841366
 20
-247.262146
 30
0.0
 11
745.367445
 21
-247.267053
 31
0.0
  0
LINE
  5
168
100
AcDbEntity
  8
V0-OBRYS
  6
CONTINUOUS
 62
    90
100
AcDbLine
 10
711.509255
 20
-192.535666
 30
0.0
 11
751.475758
 21
-232.509109
 31
0.0
  0
ARC
  5
169
100
AcDbEntity
  8
V0-OBRYS
  6
CONTINUOUS
 62
    90
100
AcDbCircle
 10
688.842641
 20
-232.574646
 30
0.0
 40
14.6875
100
AcDbArc
 50
202.631049
 51
269.995026
  0
LINE
  5
16A
100
AcDbEntity
  8
V0-OBRYS
  6
CONTINUOUS
 62
    90
100
AcDbLine
 10
676.01315
 20
-238.832251
 30
0.0
 11
653.091844
 21
-235.388989
 31
0.0
  0
ARC
  5
16B
100
AcDbEntity
  8
V0-OBRYS
  6
CONTINUOUS
 62
    90
100
AcDbCircle
 10
791.159357
 20
-206.382666
 30
0.0
 40
61.387559
100
AcDbArc
 50
184.288647
 51
221.759431
  0
ARC
  5
16C
100
AcDbEntity
  8
V0-OBRYS
  6
CONTINUOUS
 62
    90
100
AcDbCircle
 10
812.765158
 20
-235.979253
 30
0.0
 40
61.387559
100
AcDbArc
 50
139.288647
 51
176.759431
  0
ARC
  5
16D
100
AcDbEntity
  8
V0-OBRYS
  6
CONTINUOUS
 62
    90
100
AcDbCircle
 10
782.874821
 20
-207.246031
 30
0.0
 40
80.628431
100
AcDbArc
 50
98.133515
 51
157.631049
  0
LINE
  5
16E
100
AcDbEntity
  8
V0-OBRYS
  6
CONTINUOUS
 62
    90
100
AcDbLine
 10
708.102993
 20
-177.103018
 30
0.0
 11
694.626115
 21
-158.861346
 31
0.0
  0
ARC
  5
16F
100
AcDbEntity
  8
V0-OBRYS
  6
CONTINUOUS
 62
    90
100
AcDbCircle
 10
689.900825
 20
-162.352372
 30
0.0
 40
5.875
100
AcDbArc
 50
36.456849
 51
143.133515
  0
LINE
  5
170
100
AcDbEntity
  8
V0-OBRYS
  6
CONTINUOUS
 62
    90
100
AcDbLine
 10
774.665232
 20
-157.038603
 30
0.0
 11
778.108495
 21
-134.117296
 31
0.0
  0
ARC
  5
171
100
AcDbEntity
  8
V0-OBRYS
  6
CONTINUOUS
 62
    90
100
AcDbCircle
 10
780.922837
 20
-169.868093
 30
0.0
 40
14.6875
100
AcDbArc
 50
112.631049
 51
179.995026
  0
ARC
  5
172
100
AcDbEntity
  8
V0-OBRYS
  6
CONTINUOUS
 62
    90
100
AcDbCircle
 10
806.251453
 20
-263.900273
 30
0.0
 40
80.628431
100
AcDbArc
 50
8.133515
 51
67.631049
  0
LINE
  5
173
100
AcDbEntity
  8
V0-OBRYS
  6
CONTINUOUS
 62
    90
100
AcDbLine
 10
836.394466
 20
-189.128445
 30
0.0
 11
854.636138
 21
-175.651567
 31
0.0
  0
ARC
  5
174
100
AcDbEntity
  8
V0-OBRYS
  6
CONTINUOUS
 62
    90
100
AcDbCircle
 10
843.62939
 20
-261.94829
 30
0.0
 40
14.6875
100
AcDbArc
 50
22.631049
 51
89.995026
  0
LINE
  5
175
100
AcDbEntity
  8
V0-OBRYS
  6
CONTINUOUS
 62
    90
100
AcDbLine
 10
820.961818
 20
-192.534707
 30
0.0
 11
780.988375
 21
-232.501211
 31
0.0
  0
LINE
  5
176
100
AcDbEntity
  8
V0-OBRYS
  6
CONTINUOUS
 62
    90
100
AcDbLine
 10
843.630665
 20
-247.26079
 30
0.0
 11
787.104587
 21
-247.255883
 31
0.0
  0
ARC
  5
177
100
AcDbEntity
  8
V0-OBRYS
  6
CONTINUOUS
 62
    90
100
AcDbCircle
 10
777.518231
 20
-293.79061
 30
0.0
 40
61.387559
100
AcDbArc
 50
49.288647
 51
86.759431
  0
ARC
  5
178
100
AcDbEntity
  8
V0-OBRYS
  6
CONTINUOUS
 62
    90
100
AcDbCircle
 10
831.346547
 20
-202.921239
 30
0.0
 40
14.6875
100
AcDbArc
 50
67.631049
 51
134.995026
  0
LINE
  5
179
100
AcDbEntity
  8
V0-OBRYS
  6
CONTINUOUS
 62
    90
100
AcDbLine
 10
909.413677
 20
-216.968848
 30
0.0
 11
909.413677
 21
-246.968848
 31
0.0
  0
LINE
  5
17A
100
AcDbEntity
  8
V0-OBRYS
  6
CONTINUOUS
 62
    90
100
AcDbLine
 10
876.220157
 20
-163.261468
 30
0.0
 11
871.987342
 21
-166.406123
 31
0.0
  0
ARC
  5
17B
100
AcDbEntity
  8
V0-OBRYS
  6
CONTINUOUS
 62
    90
100
AcDbCircle
 10
851.145111
 20
-170.926278
 30
0.0
 40
5.875
100
AcDbArc
 50
306.456849
 51
53.133515
  0
MTEXT
  5
17C
100
AcDbEntity
  8
V0-VYPLNE
  6
CONTINUOUS
 62
    41
100
AcDbMText
 10
457.819044
 20
-71.924607
 30
0.0
 40
17.5
 41
0.0
 71
     4
 72
     1
  1
\A1;%%c5,5
  0
LINE
  5
17D
100
AcDbEntity
  8
V0-VYPLNE
  6
CONTINUOUS
 62
    41
100
AcDbLine
 10
474.893491
 20
-84.944724
 30
0.0
 11
497.715924
 21
-84.944724
 31
0.0
  0
LINE
  5
17E
100
AcDbEntity
  8
V0-OBRYS
  6
CONTINUOUS
 62
    90
100
AcDbLine
 10
826.17872
 20
-55.419118
 30
0.0
 11
766.17872
 21
-55.419118
 31
0.0
  0
LINE
  5
17F
100
AcDbEntity
  8
V0-OBRYS
  6
CONTINUOUS
 62
    90
100
AcDbLine
 10
825.758276
 20
-62.513203
 30
0.0
 11
766.861022
 21
-62.513203
 31
0.0
  0
LINE
  5
180
100
AcDbEntity
  8
V0-OBRYS
  6
CONTINUOUS
 62
    90
100
AcDbLine
 10
706.599163
 20
-62.513203
 30
0.0
 11
765.496417
 21
-62.513203
 31
0.0
  0
LINE
  5
181
100
AcDbEntity
  8
V0-OBRYS
  6
CONTINUOUS
 62
    90
100
AcDbLine
 10
706.17872
 20
-55.419118
 30
0.0
 11
766.17872
 21
-55.419118
 31
0.0
  0
DIMENSION
  5
182
100
AcDbEntity
  8
V0-VYPLNE
  6
CONTINUOUS
 62
    41
100
AcDbDimension
  2
*D11
 10
951.497737
 20
-331.618647
 30
0.0
 11
939.622737
 21
-247.440058
 31
0.0
 12
582.413677
 22
-431.968848
 32
0.0
  3
STANDARD
100
AcDbAlignedDimension
 13
921.236016
 23
-163.261468
 33
0.0
 14
921.236016
 24
-331.618647
 34
0.0
 50
90.0
100
AcDbRotatedDimension
  0
LINE
  5
18F
100
AcDbEntity
  8
V0-OBRYS
  6
CONTINUOUS
 62
    90
100
AcDbLine
 10
921.243334
 20
-276.52966
 30
0.0
 11
921.243334
 21
-330.676229
 31
0.0
  0
LINE
  5
190
100
AcDbEntity
  8
V0-OBRYS
  6
CONTINUOUS
 62
    90
100
AcDbLine
 10
921.243334
 20
-216.968848
 30
0.0
 11
921.236016
 21
-163.261468
 31
0.0
  0
ENDSEC
  0
SECTION
  2
OBJECTS
  0
DICTIONARY
  5
1A
100
AcDbDictionary
  3
ACAD_GROUP
350
18
  3
ACAD_MLINESTYLE
350
19
  0
DICTIONARY
  5
18
102
{ACAD_REACTORS
330
1A
102
}
100
AcDbDictionary
  0
DICTIONARY
  5
19
102
{ACAD_REACTORS
330
1A
102
}
100
AcDbDictionary
  3
STANDARD
350
1B
  0
MLINESTYLE
  5
1B
102
{ACAD_REACTORS
330
19
102
}
100
AcDbMlineStyle
  2
STANDARD
 70
     0
  3

 62
     0
 51
90.0
 52
90.0
 71
     2
 49
0.5
 62
   256
  6
BYLAYER
 49
-0.5
 62
   256
  6
BYLAYER
  0
ENDSEC
  0
EOF
