  0
SECTION
  2
HEADER
  9
$ACADVER
  1
AC1015
  9
$ACADMAINTVER
 70
    13
  9
$DWGCODEPAGE
  3
ANSI_1250
  9
$INSBASE
 10
0.0
 20
0.0
 30
0.0
  9
$EXTMIN
 10
636.8432884697792
 20
270.8987229214976
 30
0.0
  9
$EXTMAX
 10
2172.243020336881
 20
1144.206500586216
 30
0.0
  9
$LIMMIN
 10
0.0
 20
0.0
  9
$LIMMAX
 10
420.0
 20
297.0
  9
$ORTHOMODE
 70
     0
  9
$REGENMODE
 70
     1
  9
$FILLMODE
 70
     1
  9
$QTEXTMODE
 70
     0
  9
$MIRRTEXT
 70
     1
  9
$LTSCALE
 40
1.0
  9
$ATTMODE
 70
     1
  9
$TEXTSIZE
 40
25.0
  9
$TRACEWID
 40
1.0
  9
$TEXTSTYLE
  7
Standard
  9
$CLAYER
  8
popis
  9
$CELTYPE
  6
ByLayer
  9
$CECOLOR
 62
   256
  9
$CELTSCALE
 40
1.0
  9
$DISPSILH
 70
     0
  9
$DIMSCALE
 40
10.0
  9
$DIMASZ
 40
2.0
  9
$DIMEXO
 40
0.625
  9
$DIMDLI
 40
3.75
  9
$DIMRND
 40
0.0
  9
$DIMDLE
 40
0.0
  9
$DIMEXE
 40
1.25
  9
$DIMTP
 40
0.0
  9
$DIMTM
 40
0.0
  9
$DIMTXT
 40
2.0
  9
$DIMCEN
 40
2.5
  9
$DIMTSZ
 40
0.0
  9
$DIMTOL
 70
     0
  9
$DIMLIM
 70
     0
  9
$DIMTIH
 70
     0
  9
$DIMTOH
 70
     0
  9
$DIMSE1
 70
     0
  9
$DIMSE2
 70
     0
  9
$DIMTAD
 70
     1
  9
$DIMZIN
 70
     8
  9
$DIMBLK
  1

  9
$DIMASO
 70
     1
  9
$DIMSHO
 70
     1
  9
$DIMPOST
  1

  9
$DIMAPOST
  1

  9
$DIMALT
 70
     0
  9
$DIMALTD
 70
     3
  9
$DIMALTF
 40
0.03937007874016
  9
$DIMLFAC
 40
1.0
  9
$DIMTOFL
 70
     1
  9
$DIMTVP
 40
0.0
  9
$DIMTIX
 70
     0
  9
$DIMSOXD
 70
     0
  9
$DIMSAH
 70
     0
  9
$DIMBLK1
  1

  9
$DIMBLK2
  1

  9
$DIMSTYLE
  2
ISO-25
  9
$DIMCLRD
 70
     0
  9
$DIMCLRE
 70
     0
  9
$DIMCLRT
 70
     0
  9
$DIMTFAC
 40
1.0
  9
$DIMGAP
 40
0.625
  9
$DIMJUST
 70
     0
  9
$DIMSD1
 70
     0
  9
$DIMSD2
 70
     0
  9
$DIMTOLJ
 70
     0
  9
$DIMTZIN
 70
     8
  9
$DIMALTZ
 70
     0
  9
$DIMALTTZ
 70
     0
  9
$DIMUPT
 70
     0
  9
$DIMDEC
 70
     2
  9
$DIMTDEC
 70
     2
  9
$DIMALTU
 70
     2
  9
$DIMALTTD
 70
     3
  9
$DIMTXSTY
  7
Standard
  9
$DIMAUNIT
 70
     0
  9
$DIMADEC
 70
     0
  9
$DIMALTRND
 40
0.0
  9
$DIMAZIN
 70
     0
  9
$DIMDSEP
 70
    44
  9
$DIMATFIT
 70
     3
  9
$DIMFRAC
 70
     0
  9
$DIMLDRBLK
  1

  9
$DIMLUNIT
 70
     2
  9
$DIMLWD
 70
    -2
  9
$DIMLWE
 70
    -2
  9
$DIMTMOVE
 70
     0
  9
$LUNITS
 70
     2
  9
$LUPREC
 70
     4
  9
$SKETCHINC
 40
1.0
  9
$FILLETRAD
 40
10.0
  9
$AUNITS
 70
     0
  9
$AUPREC
 70
     0
  9
$MENU
  1
.
  9
$ELEVATION
 40
0.0
  9
$PELEVATION
 40
0.0
  9
$THICKNESS
 40
0.0
  9
$LIMCHECK
 70
     0
  9
$CHAMFERA
 40
10.0
  9
$CHAMFERB
 40
10.0
  9
$CHAMFERC
 40
20.0
  9
$CHAMFERD
 40
0.0
  9
$SKPOLY
 70
     0
  9
$TDCREATE
 40
2453639.692351574
  9
$TDUCREATE
 40
2453639.650684907
  9
$TDUPDATE
 40
2454043.783387766
  9
$TDUUPDATE
 40
2454043.741721100
  9
$TDINDWG
 40
0.0963689120
  9
$TDUSRTIMER
 40
0.0963683333
  9
$USRTIMER
 70
     1
  9
$ANGBASE
 50
0.0
  9
$ANGDIR
 70
     0
  9
$PDMODE
 70
     0
  9
$PDSIZE
 40
0.0
  9
$PLINEWID
 40
0.0
  9
$SPLFRAME
 70
     0
  9
$SPLINETYPE
 70
     6
  9
$SPLINESEGS
 70
     8
  9
$HANDSEED
  5
2B4
  9
$SURFTAB1
 70
     6
  9
$SURFTAB2
 70
     6
  9
$SURFTYPE
 70
     6
  9
$SURFU
 70
     6
  9
$SURFV
 70
     6
  9
$UCSBASE
  2

  9
$UCSNAME
  2

  9
$UCSORG
 10
0.0
 20
0.0
 30
0.0
  9
$UCSXDIR
 10
1.0
 20
0.0
 30
0.0
  9
$UCSYDIR
 10
0.0
 20
1.0
 30
0.0
  9
$UCSORTHOREF
  2

  9
$UCSORTHOVIEW
 70
     1
  9
$UCSORGTOP
 10
0.0
 20
0.0
 30
0.0
  9
$UCSORGBOTTOM
 10
0.0
 20
0.0
 30
0.0
  9
$UCSORGLEFT
 10
0.0
 20
0.0
 30
0.0
  9
$UCSORGRIGHT
 10
0.0
 20
0.0
 30
0.0
  9
$UCSORGFRONT
 10
0.0
 20
0.0
 30
0.0
  9
$UCSORGBACK
 10
0.0
 20
0.0
 30
0.0
  9
$PUCSBASE
  2

  9
$PUCSNAME
  2

  9
$PUCSORG
 10
0.0
 20
0.0
 30
0.0
  9
$PUCSXDIR
 10
1.0
 20
0.0
 30
0.0
  9
$PUCSYDIR
 10
0.0
 20
1.0
 30
0.0
  9
$PUCSORTHOREF
  2

  9
$PUCSORTHOVIEW
 70
     0
  9
$PUCSORGTOP
 10
0.0
 20
0.0
 30
0.0
  9
$PUCSORGBOTTOM
 10
0.0
 20
0.0
 30
0.0
  9
$PUCSORGLEFT
 10
0.0
 20
0.0
 30
0.0
  9
$PUCSORGRIGHT
 10
0.0
 20
0.0
 30
0.0
  9
$PUCSORGFRONT
 10
0.0
 20
0.0
 30
0.0
  9
$PUCSORGBACK
 10
0.0
 20
0.0
 30
0.0
  9
$USERI1
 70
     0
  9
$USERI2
 70
     0
  9
$USERI3
 70
     0
  9
$USERI4
 70
     0
  9
$USERI5
 70
     0
  9
$USERR1
 40
0.0
  9
$USERR2
 40
0.0
  9
$USERR3
 40
0.0
  9
$USERR4
 40
0.0
  9
$USERR5
 40
0.0
  9
$WORLDVIEW
 70
     1
  9
$SHADEDGE
 70
     3
  9
$SHADEDIF
 70
    70
  9
$TILEMODE
 70
     1
  9
$MAXACTVP
 70
    64
  9
$PINSBASE
 10
0.0
 20
0.0
 30
0.0
  9
$PLIMCHECK
 70
     0
  9
$PEXTMIN
 10
1.000000000000000E+20
 20
1.000000000000000E+20
 30
1.000000000000000E+20
  9
$PEXTMAX
 10
-1.000000000000000E+20
 20
-1.000000000000000E+20
 30
-1.000000000000000E+20
  9
$PLIMMIN
 10
0.0
 20
0.0
  9
$PLIMMAX
 10
420.0
 20
297.0
  9
$UNITMODE
 70
     0
  9
$VISRETAIN
 70
     1
  9
$PLINEGEN
 70
     0
  9
$PSLTSCALE
 70
     1
  9
$TREEDEPTH
 70
  3020
  9
$CMLSTYLE
  2
Standard
  9
$CMLJUST
 70
     0
  9
$CMLSCALE
 40
20.0
  9
$PROXYGRAPHICS
 70
     1
  9
$MEASUREMENT
 70
     1
  9
$CELWEIGHT
370
    -1
  9
$ENDCAPS
280
     0
  9
$JOINSTYLE
280
     0
  9
$LWDISPLAY
290
     0
  9
$INSUNITS
 70
     4
  9
$HYPERLINKBASE
  1

  9
$STYLESHEET
  1

  9
$XEDIT
290
     1
  9
$CEPSNTYPE
380
     0
  9
$PSTYLEMODE
290
     1
  9
$FINGERPRINTGUID
  2
{9B47308E-04D6-42FB-BD32-F27AC533D1CD}
  9
$VERSIONGUID
  2
{C9BE0418-9867-4E88-9F3D-0198DC4BC88B}
  9
$EXTNAMES
290
     1
  9
$PSVPSCALE
 40
0.0
  9
$OLESTARTUP
290
     0
  0
ENDSEC
  0
SECTION
  2
CLASSES
  0
CLASS
  1
ACDBDICTIONARYWDFLT
  2
AcDbDictionaryWithDefault
  3
AutoCAD 2000
 90
        0
280
     0
281
     0
  0
CLASS
  1
ACDBPLACEHOLDER
  2
AcDbPlaceHolder
  3
AutoCAD 2000
 90
        0
280
     0
281
     0
  0
CLASS
  1
LAYOUT
  2
AcDbLayout
  3
AutoCAD 2000
 90
        0
280
     0
281
     0
  0
CLASS
  1
DICTIONARYVAR
  2
AcDbDictionaryVar
  3
AutoCAD 2000
 90
        0
280
     0
281
     0
  0
CLASS
  1
DIMASSOC
  2
AcDbDimAssoc
  3
"AcDbDimAssoc|Product Desc:     AcDim ARX App For Dimension|Company:          Autodesk, Inc.|WEB Address:      www.autodesk.com"
 90
        0
280
     0
281
     0
  0
ENDSEC
  0
SECTION
  2
TABLES
  0
TABLE
  2
VPORT
  5
8
330
0
100
AcDbSymbolTable
 70
     6
  0
VPORT
  5
2B3
330
8
100
AcDbSymbolTableRecord
100
AcDbViewportTableRecord
  2
*Active
 70
     0
 10
0.0
 20
0.0
 11
1.0
 21
1.0
 12
1404.54315440333
 22
707.5526117538568
 13
0.0
 23
0.0
 14
10.0
 24
10.0
 15
10.0
 25
10.0
 16
0.0
 26
0.0
 36
1.0
 17
0.0
 27
0.0
 37
0.0
 40
884.9260629551581
 41
2.226666666666666
 42
50.0
 43
0.0
 44
0.0
 50
0.0
 51
0.0
 71
     0
 72
   100
 73
     1
 74
     3
 75
     0
 76
     0
 77
     0
 78
     0
281
     0
 65
     1
110
0.0
120
0.0
130
0.0
111
1.0
121
0.0
131
0.0
112
0.0
122
1.0
132
0.0
 79
     1
146
0.0
  0
ENDTAB
  0
TABLE
  2
LTYPE
  5
5
330
0
100
AcDbSymbolTable
 70
     3
  0
LTYPE
  5
14
330
5
100
AcDbSymbolTableRecord
100
AcDbLinetypeTableRecord
  2
ByBlock
 70
     0
  3

 72
    65
 73
     0
 40
0.0
  0
LTYPE
  5
15
330
5
100
AcDbSymbolTableRecord
100
AcDbLinetypeTableRecord
  2
ByLayer
 70
     0
  3

 72
    65
 73
     0
 40
0.0
  0
LTYPE
  5
16
330
5
100
AcDbSymbolTableRecord
100
AcDbLinetypeTableRecord
  2
Continuous
 70
     0
  3
Solid line
 72
    65
 73
     0
 40
0.0
  0
LTYPE
  5
121
330
5
100
AcDbSymbolTableRecord
100
AcDbLinetypeTableRecord
  2
ACAD_ISO02W100
 70
     0
  3
ISO \U+00E8árkovaná __ __ __ __ __ __ __ __ __ __ __ 
 72
    65
 73
     2
 40
15.0
 49
12.0
 74
     0
 49
-3.0
 74
     0
  0
LTYPE
  5
122
330
5
100
AcDbSymbolTableRecord
100
AcDbLinetypeTableRecord
  2
ACAD_ISO03W100
 70
     0
  3
ISO p\U+00F8erušovaná __    __    __    __    __    _
 72
    65
 73
     2
 40
30.0
 49
12.0
 74
     0
 49
-18.0
 74
     0
  0
ENDTAB
  0
TABLE
  2
LAYER
  5
2
330
0
100
AcDbSymbolTable
 70
     5
  0
LAYER
  5
10
330
2
100
AcDbSymbolTableRecord
100
AcDbLayerTableRecord
  2
0
 70
     0
 62
    90
  6
Continuous
370
    -3
390
F
  0
LAYER
  5
2B
330
2
100
AcDbSymbolTableRecord
100
AcDbLayerTableRecord
  2
koty
 70
     0
 62
    41
  6
Continuous
370
    -3
390
F
  0
LAYER
  5
2C
330
2
100
AcDbSymbolTableRecord
100
AcDbLayerTableRecord
  2
popis
 70
     0
 62
   210
  6
Continuous
370
    -3
390
F
  0
LAYER
  5
4E
330
2
100
AcDbSymbolTableRecord
100
AcDbLayerTableRecord
  2
Defpoints
 70
     0
 62
    90
  6
Continuous
290
     0
370
    -3
390
F
  0
LAYER
  5
C4
330
2
100
AcDbSymbolTableRecord
100
AcDbLayerTableRecord
  2
srafy
 70
     0
 62
    90
  6
Continuous
370
    -3
390
F
  0
ENDTAB
  0
TABLE
  2
STYLE
  5
3
330
0
100
AcDbSymbolTable
 70
     2
  0
STYLE
  5
11
330
3
100
AcDbSymbolTableRecord
100
AcDbTextStyleTableRecord
  2
Standard
 70
     0
 40
0.0
 41
1.0
 50
0.0
 71
     0
 42
25.0
  3
txt
  4

  0
STYLE
  5
120
330
3
100
AcDbSymbolTableRecord
100
AcDbTextStyleTableRecord
  2

 70
     1
 40
0.0
 41
1.0
 50
0.0
 71
     0
 42
2.5
  3
ltypeshp.shx
  4

  0
ENDTAB
  0
TABLE
  2
VIEW
  5
6
330
0
100
AcDbSymbolTable
 70
     0
  0
ENDTAB
  0
TABLE
  2
UCS
  5
7
330
0
100
AcDbSymbolTable
 70
     0
  0
ENDTAB
  0
TABLE
  2
APPID
  5
9
330
0
100
AcDbSymbolTable
 70
     1
  0
APPID
  5
12
330
9
100
AcDbSymbolTableRecord
100
AcDbRegAppTableRecord
  2
ACAD
 70
     0
  0
ENDTAB
  0
TABLE
  2
DIMSTYLE
  5
A
330
0
100
AcDbSymbolTable
 70
     1
100
AcDbDimStyleTable
 71
     1
340
27
  0
DIMSTYLE
105
27
102
{ACAD_REACTORS
330
233
330
24B
330
263
330
27B
330
293
102
}
330
A
100
AcDbSymbolTableRecord
100
AcDbDimStyleTableRecord
  2
ISO-25
 70
     0
 40
10.0
 41
2.0
 42
0.625
 43
3.75
 44
1.25
 73
     0
 74
     0
 77
     1
 78
     8
140
2.0
141
2.5
143
0.03937007874016
147
0.625
171
     3
172
     1
271
     2
272
     2
274
     3
278
    44
283
     0
284
     8
340
11
  0
ENDTAB
  0
TABLE
  2
BLOCK_RECORD
  5
1
330
0
100
AcDbSymbolTable
 70
     6
  0
BLOCK_RECORD
  5
1F
330
1
100
AcDbSymbolTableRecord
100
AcDbBlockTableRecord
  2
*Model_Space
340
22
  0
BLOCK_RECORD
  5
1B
330
1
100
AcDbSymbolTableRecord
100
AcDbBlockTableRecord
  2
*Paper_Space
340
1E
  0
BLOCK_RECORD
  5
23
330
1
100
AcDbSymbolTableRecord
100
AcDbBlockTableRecord
  2
*Paper_Space0
340
26
  0
BLOCK_RECORD
  5
234
330
1
100
AcDbSymbolTableRecord
100
AcDbBlockTableRecord
  2
*D1
340
0
  0
BLOCK_RECORD
  5
24C
330
1
100
AcDbSymbolTableRecord
100
AcDbBlockTableRecord
  2
*D2
340
0
  0
BLOCK_RECORD
  5
264
330
1
100
AcDbSymbolTableRecord
100
AcDbBlockTableRecord
  2
*D3
340
0
  0
BLOCK_RECORD
  5
27C
330
1
100
AcDbSymbolTableRecord
100
AcDbBlockTableRecord
  2
*D4
340
0
  0
BLOCK_RECORD
  5
294
330
1
100
AcDbSymbolTableRecord
100
AcDbBlockTableRecord
  2
*D5
340
0
  0
ENDTAB
  0
ENDSEC
  0
SECTION
  2
BLOCKS
  0
BLOCK
  5
20
330
1F
100
AcDbEntity
  8
0
100
AcDbBlockBegin
  2
*Model_Space
 70
     0
 10
0.0
 20
0.0
 30
0.0
  3
*Model_Space
  1

  0
ENDBLK
  5
21
330
1F
100
AcDbEntity
  8
0
100
AcDbBlockEnd
  0
BLOCK
  5
1C
330
1B
100
AcDbEntity
 67
     1
  8
0
100
AcDbBlockBegin
  2
*Paper_Space
 70
     0
 10
0.0
 20
0.0
 30
0.0
  3
*Paper_Space
  1

  0
ENDBLK
  5
1D
330
1B
100
AcDbEntity
 67
     1
  8
0
100
AcDbBlockEnd
  0
BLOCK
  5
24
330
23
100
AcDbEntity
  8
0
100
AcDbBlockBegin
  2
*Paper_Space0
 70
     0
 10
0.0
 20
0.0
 30
0.0
  3
*Paper_Space0
  1

  0
ENDBLK
  5
25
330
23
100
AcDbEntity
  8
0
100
AcDbBlockEnd
  0
BLOCK
  5
23E
330
234
100
AcDbEntity
  8
0
100
AcDbBlockBegin
  2
*D1
 70
     1
 10
0.0
 20
0.0
 30
0.0
  3
*D1
  1

  0
LINE
  5
241
330
234
100
AcDbEntity
  8
koty
 62
     0
370
    -2
100
AcDbLine
 10
2004.802383502914
 20
360.7844150137584
 30
0.0
 11
2076.794052691746
 21
360.7844150137584
 31
0.0
  0
LINE
  5
242
330
234
100
AcDbEntity
  8
koty
 62
     0
370
    -2
100
AcDbLine
 10
2004.802383502914
 20
990.7844150137584
 30
0.0
 11
2076.794052691746
 21
990.7844150137584
 31
0.0
  0
LINE
  5
243
330
234
100
AcDbEntity
  8
koty
 62
     0
370
    -2
100
AcDbLine
 10
2064.294052691746
 20
380.7844150137584
 30
0.0
 11
2064.294052691746
 21
970.7844150137585
 31
0.0
  0
SOLID
  5
244
330
234
100
AcDbEntity
  8
koty
 62
     0
100
AcDbTrace
 10
2060.960719358412
 20
380.7844150137584
 30
0.0
 11
2067.627386025079
 21
380.7844150137584
 31
0.0
 12
2064.294052691746
 22
360.7844150137584
 32
0.0
 13
2064.294052691746
 23
360.7844150137584
 33
0.0
  0
SOLID
  5
245
330
234
100
AcDbEntity
  8
koty
 62
     0
100
AcDbTrace
 10
2060.960719358412
 20
970.7844150137585
 30
0.0
 11
2067.627386025079
 21
970.7844150137585
 31
0.0
 12
2064.294052691746
 22
990.7844150137584
 32
0.0
 13
2064.294052691746
 23
990.7844150137584
 33
0.0
  0
MTEXT
  5
246
330
234
100
AcDbEntity
  8
koty
 62
     0
100
AcDbMText
 10
2048.044052691746
 20
675.7844150137588
 30
0.0
 40
20.0
 41
0.0
 71
     5
 72
     1
  1
630
 11
0.0000000000000001
 21
1.0
 31
0.0
 73
     1
 44
1.0
  0
POINT
  5
247
330
234
100
AcDbEntity
  8
Defpoints
 62
     0
100
AcDbPoint
 10
1998.552383502914
 20
360.7844150137584
 30
0.0
  0
POINT
  5
248
330
234
100
AcDbEntity
  8
Defpoints
 62
     0
100
AcDbPoint
 10
1998.552383502914
 20
990.7844150137584
 30
0.0
  0
POINT
  5
249
330
234
100
AcDbEntity
  8
Defpoints
 62
     0
100
AcDbPoint
 10
2064.294052691746
 20
990.7844150137584
 30
0.0
  0
ENDBLK
  5
23F
330
234
100
AcDbEntity
  8
0
100
AcDbBlockEnd
  0
BLOCK
  5
256
330
24C
100
AcDbEntity
  8
0
100
AcDbBlockBegin
  2
*D2
 70
     1
 10
0.0
 20
0.0
 30
0.0
  3
*D2
  1

  0
LINE
  5
259
330
24C
100
AcDbEntity
  8
koty
 62
     0
370
    -2
100
AcDbLine
 10
2004.802383502914
 20
330.7844150137585
 30
0.0
 11
2122.388921385238
 21
330.7844150137585
 31
0.0
  0
LINE
  5
25A
330
24C
100
AcDbEntity
  8
koty
 62
     0
370
    -2
100
AcDbLine
 10
2004.802383502914
 20
1020.784415013758
 30
0.0
 11
2122.388921385238
 21
1020.784415013758
 31
0.0
  0
LINE
  5
25B
330
24C
100
AcDbEntity
  8
koty
 62
     0
370
    -2
100
AcDbLine
 10
2109.888921385238
 20
350.7844150137585
 30
0.0
 11
2109.888921385238
 21
1000.784415013758
 31
0.0
  0
SOLID
  5
25C
330
24C
100
AcDbEntity
  8
koty
 62
     0
100
AcDbTrace
 10
2106.555588051904
 20
350.7844150137585
 30
0.0
 11
2113.222254718571
 21
350.7844150137585
 31
0.0
 12
2109.888921385238
 22
330.7844150137585
 32
0.0
 13
2109.888921385238
 23
330.7844150137585
 33
0.0
  0
SOLID
  5
25D
330
24C
100
AcDbEntity
  8
koty
 62
     0
100
AcDbTrace
 10
2106.555588051904
 20
1000.784415013758
 30
0.0
 11
2113.222254718571
 21
1000.784415013758
 31
0.0
 12
2109.888921385238
 22
1020.784415013758
 32
0.0
 13
2109.888921385238
 23
1020.784415013758
 33
0.0
  0
MTEXT
  5
25E
330
24C
100
AcDbEntity
  8
koty
 62
     0
100
AcDbMText
 10
2093.638921385238
 20
675.7844150137588
 30
0.0
 40
20.0
 41
0.0
 71
     5
 72
     1
  1
690
 11
0.0000000000000001
 21
1.0
 31
0.0
 73
     1
 44
1.0
  0
POINT
  5
25F
330
24C
100
AcDbEntity
  8
Defpoints
 62
     0
100
AcDbPoint
 10
1998.552383502914
 20
330.7844150137585
 30
0.0
  0
POINT
  5
260
330
24C
100
AcDbEntity
  8
Defpoints
 62
     0
100
AcDbPoint
 10
1998.552383502914
 20
1020.784415013758
 30
0.0
  0
POINT
  5
261
330
24C
100
AcDbEntity
  8
Defpoints
 62
     0
100
AcDbPoint
 10
2109.888921385238
 20
1020.784415013758
 30
0.0
  0
ENDBLK
  5
257
330
24C
100
AcDbEntity
  8
0
100
AcDbBlockEnd
  0
BLOCK
  5
26E
330
264
100
AcDbEntity
  8
0
100
AcDbBlockBegin
  2
*D3
 70
     1
 10
0.0
 20
0.0
 30
0.0
  3
*D3
  1

  0
LINE
  5
271
330
264
100
AcDbEntity
  8
koty
 62
     0
370
    -2
100
AcDbLine
 10
2004.802383502914
 20
1038.284415013758
 30
0.0
 11
2172.243020336881
 21
1038.284415013758
 31
0.0
  0
LINE
  5
272
330
264
100
AcDbEntity
  8
koty
 62
     0
370
    -2
100
AcDbLine
 10
2004.802383502914
 20
313.2844150137582
 30
0.0
 11
2172.243020336881
 21
313.2844150137582
 31
0.0
  0
LINE
  5
273
330
264
100
AcDbEntity
  8
koty
 62
     0
370
    -2
100
AcDbLine
 10
2159.743020336881
 20
1018.284415013758
 30
0.0
 11
2159.743020336881
 21
333.2844150137582
 31
0.0
  0
SOLID
  5
274
330
264
100
AcDbEntity
  8
koty
 62
     0
100
AcDbTrace
 10
2156.409687003547
 20
1018.284415013758
 30
0.0
 11
2163.076353670214
 21
1018.284415013758
 31
0.0
 12
2159.743020336881
 22
1038.284415013758
 32
0.0
 13
2159.743020336881
 23
1038.284415013758
 33
0.0
  0
SOLID
  5
275
330
264
100
AcDbEntity
  8
koty
 62
     0
100
AcDbTrace
 10
2156.409687003547
 20
333.2844150137582
 30
0.0
 11
2163.076353670214
 21
333.2844150137582
 31
0.0
 12
2159.743020336881
 22
313.2844150137582
 32
0.0
 13
2159.743020336881
 23
313.2844150137582
 33
0.0
  0
MTEXT
  5
276
330
264
100
AcDbEntity
  8
koty
 62
     0
100
AcDbMText
 10
2143.493020336881
 20
675.7844150137588
 30
0.0
 40
20.0
 41
0.0
 71
     5
 72
     1
  1
725
 11
0.0000000000000001
 21
1.0
 31
0.0
 73
     1
 44
1.0
  0
POINT
  5
277
330
264
100
AcDbEntity
  8
Defpoints
 62
     0
100
AcDbPoint
 10
1998.552383502914
 20
1038.284415013758
 30
0.0
  0
POINT
  5
278
330
264
100
AcDbEntity
  8
Defpoints
 62
     0
100
AcDbPoint
 10
1998.552383502914
 20
313.2844150137582
 30
0.0
  0
POINT
  5
279
330
264
100
AcDbEntity
  8
Defpoints
 62
     0
100
AcDbPoint
 10
2159.743020336881
 20
313.2844150137582
 30
0.0
  0
ENDBLK
  5
26F
330
264
100
AcDbEntity
  8
0
100
AcDbBlockEnd
  0
BLOCK
  5
286
330
27C
100
AcDbEntity
  8
0
100
AcDbBlockBegin
  2
*D4
 70
     1
 10
0.0
 20
0.0
 30
0.0
  3
*D4
  1

  0
LINE
  5
289
330
27C
100
AcDbEntity
  8
koty
 62
     0
370
    -2
100
AcDbLine
 10
1478.552383502915
 20
307.0344150137582
 30
0.0
 11
1478.552383502915
 21
270.8987229214976
 31
0.0
  0
LINE
  5
28A
330
27C
100
AcDbEntity
  8
koty
 62
     0
370
    -2
100
AcDbLine
 10
1998.552383502914
 20
307.0344150137582
 30
0.0
 11
1998.552383502914
 21
270.8987229214976
 31
0.0
  0
LINE
  5
28B
330
27C
100
AcDbEntity
  8
koty
 62
     0
370
    -2
100
AcDbLine
 10
1498.552383502915
 20
283.3987229214976
 30
0.0
 11
1978.552383502915
 21
283.3987229214976
 31
0.0
  0
SOLID
  5
28C
330
27C
100
AcDbEntity
  8
koty
 62
     0
100
AcDbTrace
 10
1498.552383502915
 20
286.7320562548309
 30
0.0
 11
1498.552383502915
 21
280.0653895881643
 31
0.0
 12
1478.552383502915
 22
283.3987229214976
 32
0.0
 13
1478.552383502915
 23
283.3987229214976
 33
0.0
  0
SOLID
  5
28D
330
27C
100
AcDbEntity
  8
koty
 62
     0
100
AcDbTrace
 10
1978.552383502915
 20
286.7320562548309
 30
0.0
 11
1978.552383502915
 21
280.0653895881643
 31
0.0
 12
1998.552383502914
 22
283.3987229214976
 32
0.0
 13
1998.552383502914
 23
283.3987229214976
 33
0.0
  0
MTEXT
  5
28E
330
27C
100
AcDbEntity
  8
koty
 62
     0
100
AcDbMText
 10
1738.552383502915
 20
299.6487229214976
 30
0.0
 40
20.0
 41
0.0
 71
     5
 72
     1
  1
520
 73
     1
 44
1.0
  0
POINT
  5
28F
330
27C
100
AcDbEntity
  8
Defpoints
 62
     0
100
AcDbPoint
 10
1478.552383502915
 20
313.2844150137582
 30
0.0
  0
POINT
  5
290
330
27C
100
AcDbEntity
  8
Defpoints
 62
     0
100
AcDbPoint
 10
1998.552383502914
 20
313.2844150137582
 30
0.0
  0
POINT
  5
291
330
27C
100
AcDbEntity
  8
Defpoints
 62
     0
100
AcDbPoint
 10
1998.552383502914
 20
283.3987229214976
 30
0.0
  0
ENDBLK
  5
287
330
27C
100
AcDbEntity
  8
0
100
AcDbBlockEnd
  0
BLOCK
  5
29D
330
294
100
AcDbEntity
  8
0
100
AcDbBlockBegin
  2
*D5
 70
     1
 10
0.0
 20
0.0
 30
0.0
  3
*D5
  1

  0
LINE
  5
2A0
330
294
100
AcDbEntity
  8
koty
 62
     0
370
    -2
100
AcDbLine
 10
1291.820758668011
 20
974.5631793193897
 30
0.0
 11
1197.843288469779
 21
974.5631793193897
 31
0.0
  0
LINE
  5
2A1
330
294
100
AcDbEntity
  8
koty
 62
     0
370
    -2
100
AcDbLine
 10
1145.843288469779
 20
974.5631793193897
 30
0.0
 11
1125.843288469779
 21
974.5631793193897
 31
0.0
  0
MTEXT
  5
2A2
330
294
100
AcDbEntity
  8
koty
 62
     0
100
AcDbMText
 10
1262.237425334677
 20
990.8131793193897
 30
0.0
 40
20.0
 41
0.0
 71
     5
 72
     1
  1
\U+220512
 73
     1
 44
1.0
  0
LINE
  5
2A3
330
294
100
AcDbEntity
  8
koty
 62
     0
370
    -2
100
AcDbLine
 10
1165.843288469779
 20
974.5631793193897
 30
0.0
 11
1177.843288469779
 21
974.5631793193897
 31
0.0
  0
SOLID
  5
2A4
330
294
100
AcDbEntity
  8
koty
 62
     0
100
AcDbTrace
 10
1145.843288469779
 20
977.896512652723
 30
0.0
 11
1145.843288469779
 21
971.2298459860564
 31
0.0
 12
1165.843288469779
 22
974.5631793193897
 32
0.0
 13
1165.843288469779
 23
974.5631793193897
 33
0.0
  0
SOLID
  5
2A5
330
294
100
AcDbEntity
  8
koty
 62
     0
100
AcDbTrace
 10
1197.843288469779
 20
977.896512652723
 30
0.0
 11
1197.843288469779
 21
971.2298459860564
 31
0.0
 12
1177.843288469779
 22
974.5631793193897
 32
0.0
 13
1177.843288469779
 23
974.5631793193897
 33
0.0
  0
POINT
  5
2A6
330
294
100
AcDbEntity
  8
Defpoints
 62
     0
100
AcDbPoint
 10
1177.843288469779
 20
974.5631793193897
 30
0.0
  0
POINT
  5
2A7
330
294
100
AcDbEntity
  8
Defpoints
 62
     0
100
AcDbPoint
 10
1165.843288469779
 20
974.5631793193897
 30
0.0
  0
ENDBLK
  5
29E
330
294
100
AcDbEntity
  8
0
100
AcDbBlockEnd
  0
ENDSEC
  0
SECTION
  2
ENTITIES
  0
CIRCLE
  5
172
330
1F
100
AcDbEntity
  8
0
100
AcDbCircle
 10
999.3432884697794
 20
675.7844150137584
 30
0.0
 40
362.5
  0
CIRCLE
  5
173
330
1F
100
AcDbEntity
  8
0
100
AcDbCircle
 10
999.3432884697794
 20
675.7844150137584
 30
0.0
 40
315.0
  0
CIRCLE
  5
176
330
1F
100
AcDbEntity
  8
0
100
AcDbCircle
 10
999.3432884697794
 20
1020.784415013758
 30
0.0
 40
6.0
  0
CIRCLE
  5
177
330
1F
100
AcDbEntity
  8
0
100
AcDbCircle
 10
826.8432884697794
 20
974.5631793193897
 30
0.0
 40
6.0
  0
CIRCLE
  5
178
330
1F
100
AcDbEntity
  8
0
100
AcDbCircle
 10
700.5645241641483
 20
848.2844150137584
 30
0.0
 40
6.0
  0
CIRCLE
  5
179
330
1F
100
AcDbEntity
  8
0
100
AcDbCircle
 10
654.3432884697795
 20
675.7844150137586
 30
0.0
 40
6.0
  0
CIRCLE
  5
17A
330
1F
100
AcDbEntity
  8
0
100
AcDbCircle
 10
700.5645241641482
 20
503.2844150137588
 30
0.0
 40
6.0
  0
CIRCLE
  5
17B
330
1F
100
AcDbEntity
  8
0
100
AcDbCircle
 10
826.8432884697796
 20
377.0056507081272
 30
0.0
 40
6.0
  0
CIRCLE
  5
17C
330
1F
100
AcDbEntity
  8
0
100
AcDbCircle
 10
999.3432884697794
 20
330.7844150137585
 30
0.0
 40
6.0
  0
CIRCLE
  5
17D
330
1F
100
AcDbEntity
  8
0
100
AcDbCircle
 10
1171.843288469779
 20
377.0056507081271
 30
0.0
 40
6.0
  0
CIRCLE
  5
17E
330
1F
100
AcDbEntity
  8
0
100
AcDbCircle
 10
1298.12205277541
 20
503.284415013758
 30
0.0
 40
6.0
  0
CIRCLE
  5
17F
330
1F
100
AcDbEntity
  8
0
100
AcDbCircle
 10
1344.343288469779
 20
675.7844150137582
 30
0.0
 40
6.0
  0
CIRCLE
  5
180
330
1F
100
AcDbEntity
  8
0
100
AcDbCircle
 10
1298.12205277541
 20
848.2844150137584
 30
0.0
 40
6.0
  0
CIRCLE
  5
181
102
{ACAD_REACTORS
330
2A8
102
}
330
1F
100
AcDbEntity
  8
0
100
AcDbCircle
 10
1171.843288469779
 20
974.5631793193897
 30
0.0
 40
6.0
  0
CIRCLE
  5
182
330
1F
100
AcDbEntity
  8
0
100
AcDbCircle
 10
999.3432884697794
 20
675.7844150137584
 30
0.0
 40
113.2819278980416
  0
CIRCLE
  5
183
330
1F
100
AcDbEntity
  8
0
100
AcDbCircle
 10
999.3432884697794
 20
675.7844150137584
 30
0.0
 40
103.8305250811117
  0
CIRCLE
  5
184
330
1F
100
AcDbEntity
  8
0
100
AcDbCircle
 10
999.3432884697794
 20
675.7844150137584
 30
0.0
 40
8.224127166953826
  0
LINE
  5
185
330
1F
100
AcDbEntity
  8
0
100
AcDbLine
 10
935.7740459756888
 20
980.0307616195613
 30
0.0
 11
935.7740459756888
 21
840.6340918732652
 31
0.0
  0
LINE
  5
186
330
1F
100
AcDbEntity
  8
0
100
AcDbLine
 10
935.7740459756888
 20
840.6340918732652
 30
0.0
 11
957.186704281255
 21
780.9301120148862
 31
0.0
  0
ARC
  5
187
330
1F
100
AcDbEntity
  8
0
100
AcDbCircle
 10
999.3432884697794
 20
675.7844150137584
 30
0.0
 40
310.8164860721689
100
AcDbArc
 50
78.19839961216939
 51
101.8016003878306
  0
LINE
  5
188
330
1F
100
AcDbEntity
  8
0
100
AcDbLine
 10
1062.91253096387
 20
980.0307616195613
 30
0.0
 11
1062.91253096387
 21
840.6340918732652
 31
0.0
  0
LINE
  5
189
330
1F
100
AcDbEntity
  8
0
100
AcDbLine
 10
1062.91253096387
 20
840.6340918732649
 30
0.0
 11
1041.499872658304
 21
780.9301120148862
 31
0.0
  0
LINE
  5
18A
330
1F
100
AcDbEntity
  8
0
100
AcDbLine
 10
830.8238468193852
 20
728.866072276844
 30
0.0
 11
890.8528719855095
 21
708.3823400913875
 31
0.0
  0
LINE
  5
18B
330
1F
100
AcDbEntity
  8
0
100
AcDbLine
 10
721.8391418605322
 20
815.7784742767294
 30
0.0
 11
830.8238468193851
 21
728.866072276844
 31
0.0
  0
ARC
  5
18C
330
1F
100
AcDbEntity
  8
0
100
AcDbCircle
 10
999.3432884697794
 20
675.7844150137582
 30
0.0
 40
310.8164860721689
100
AcDbArc
 50
129.6269710407408
 51
153.230171816402
  0
LINE
  5
18D
330
1F
100
AcDbEntity
  8
0
100
AcDbLine
 10
801.1086906744331
 20
915.1793444737787
 30
0.0
 11
910.0933956332859
 21
828.266942473893
 31
0.0
  0
LINE
  5
18E
330
1F
100
AcDbEntity
  8
0
100
AcDbLine
 10
910.0933956332864
 20
828.2669424738928
 30
0.0
 11
943.4212726309977
 21
774.3010295151925
 31
0.0
  0
LINE
  5
18F
330
1F
100
AcDbEntity
  8
0
100
AcDbLine
 10
852.7722243959729
 20
577.1264820928406
 30
0.0
 11
906.2145361036058
 21
611.2876657079445
 31
0.0
  0
LINE
  5
190
330
1F
100
AcDbEntity
  8
0
100
AcDbLine
 10
716.8705201951172
 20
546.1078049504948
 30
0.0
 11
852.7722243959729
 21
577.1264820928405
 31
0.0
  0
ARC
  5
191
330
1F
100
AcDbEntity
  8
0
100
AcDbCircle
 10
999.3432884697799
 20
675.7844150137587
 30
0.0
 40
310.8164860721689
100
AcDbArc
 50
181.0555424693122
 51
204.6587432449734
  0
LINE
  5
192
330
1F
100
AcDbEntity
  8
0
100
AcDbLine
 10
688.5795457737563
 20
670.0586626779828
 30
0.0
 11
824.4812499746119
 21
701.0773398203282
 31
0.0
  0
LINE
  5
193
330
1F
100
AcDbEntity
  8
0
100
AcDbLine
 10
824.4812499746121
 20
701.0773398203285
 30
0.0
 11
887.4530911315289
 21
693.4869269232154
 31
0.0
  0
LINE
  5
194
330
1F
100
AcDbEntity
  8
0
100
AcDbLine
 10
985.0916027249708
 20
499.678327653362
 30
0.0
 11
991.7040502337764
 21
562.7603590457005
 31
0.0
  0
LINE
  5
195
330
1F
100
AcDbEntity
  8
0
100
AcDbLine
 10
924.6096544349125
 20
374.0862679226744
 30
0.0
 11
985.0916027249709
 21
499.678327653362
 31
0.0
  0
ARC
  5
196
330
1F
100
AcDbEntity
  8
0
100
AcDbCircle
 10
999.3432884697798
 20
675.7844150137587
 30
0.0
 40
310.8164860721689
100
AcDbArc
 50
232.4841138978836
 51
256.0873146735449
  0
LINE
  5
197
330
1F
100
AcDbEntity
  8
0
100
AcDbLine
 10
810.0618375482818
 20
429.2495891750881
 30
0.0
 11
870.5437858383405
 21
554.8416489057757
 31
0.0
  0
LINE
  5
198
330
1F
100
AcDbEntity
  8
0
100
AcDbLine
 10
870.5437858383405
 20
554.8416489057761
 30
0.0
 11
915.7405103718403
 21
599.3424717979828
 31
0.0
  0
LINE
  5
199
330
1F
100
AcDbEntity
  8
0
100
AcDbLine
 10
1128.142791101218
 20
554.8416489057756
 30
0.0
 11
1082.946066567718
 21
599.3424717979826
 31
0.0
  0
LINE
  5
19A
330
1F
100
AcDbEntity
  8
0
100
AcDbLine
 10
1188.624739391276
 20
429.2495891750879
 30
0.0
 11
1128.142791101218
 21
554.8416489057756
 31
0.0
  0
ARC
  5
19B
330
1F
100
AcDbEntity
  8
0
100
AcDbCircle
 10
999.3432884697794
 20
675.7844150137583
 30
0.0
 40
310.8164860721689
100
AcDbArc
 50
283.912685326455
 51
307.5158861021162
  0
LINE
  5
19C
330
1F
100
AcDbEntity
  8
0
100
AcDbLine
 10
1074.076922504646
 20
374.0862679226743
 30
0.0
 11
1013.594974214588
 21
499.6783276533622
 31
0.0
  0
LINE
  5
19D
330
1F
100
AcDbEntity
  8
0
100
AcDbLine
 10
1013.594974214588
 20
499.6783276533624
 30
0.0
 11
1006.982526705782
 21
562.7603590457003
 31
0.0
  0
LINE
  5
19E
330
1F
100
AcDbEntity
  8
0
100
AcDbLine
 10
1174.205326964947
 20
701.0773398203277
 30
0.0
 11
1111.23348580803
 21
693.4869269232152
 31
0.0
  0
LINE
  5
19F
330
1F
100
AcDbEntity
  8
0
100
AcDbLine
 10
1310.107031165802
 20
670.0586626779823
 30
0.0
 11
1174.205326964947
 21
701.077339820328
 31
0.0
  0
ARC
  5
1A0
330
1F
100
AcDbEntity
  8
0
100
AcDbCircle
 10
999.3432884697796
 20
675.7844150137582
 30
0.0
 40
310.8164860721689
100
AcDbArc
 50
335.3412567550264
 51
358.9444575306876
  0
LINE
  5
1A1
330
1F
100
AcDbEntity
  8
0
100
AcDbLine
 10
1281.816056744441
 20
546.1078049504942
 30
0.0
 11
1145.914352543586
 21
577.1264820928404
 31
0.0
  0
LINE
  5
1A2
330
1F
100
AcDbEntity
  8
0
100
AcDbLine
 10
1145.914352543585
 20
577.1264820928402
 30
0.0
 11
1092.472040835953
 21
611.2876657079441
 31
0.0
  0
LINE
  5
1A3
330
1F
100
AcDbEntity
  8
0
100
AcDbLine
 10
1088.593181306273
 20
828.266942473893
 30
0.0
 11
1055.265304308561
 21
774.3010295151922
 31
0.0
  0
LINE
  5
1A4
330
1F
100
AcDbEntity
  8
0
100
AcDbLine
 10
1197.577886265126
 20
915.1793444737784
 30
0.0
 11
1088.593181306273
 21
828.266942473893
 31
0.0
  0
ARC
  5
1A5
330
1F
100
AcDbEntity
  8
0
100
AcDbCircle
 10
999.3432884697794
 20
675.7844150137583
 30
0.0
 40
310.8164860721689
100
AcDbArc
 50
26.76982818359791
 51
50.37302895925911
  0
LINE
  5
1A6
330
1F
100
AcDbEntity
  8
0
100
AcDbLine
 10
1276.847435079027
 20
815.7784742767288
 30
0.0
 11
1167.862730120174
 21
728.8660722768439
 31
0.0
  0
LINE
  5
1A7
330
1F
100
AcDbEntity
  8
0
100
AcDbLine
 10
1167.862730120174
 20
728.8660722768433
 30
0.0
 11
1107.833704954049
 21
708.3823400913872
 31
0.0
  0
ARC
  5
1A8
330
1F
100
AcDbEntity
  8
0
100
AcDbCircle
 10
992.1331463387769
 20
675.4538969955074
 30
0.0
 40
310.8164860721689
100
AcDbArc
 50
91.95937156763497
 51
101.8016003878306
  0
LINE
  5
1A9
330
1F
100
AcDbEntity
  8
0
100
AcDbLine
 10
928.5639038446861
 20
979.7002436013102
 30
0.0
 11
928.5639038446861
 21
840.3035738550142
 31
0.0
  0
LINE
  5
1AA
330
1F
100
AcDbEntity
  8
0
100
AcDbLine
 10
928.5639038446863
 20
840.3035738550142
 30
0.0
 11
950.8506429244247
 21
778.1624327534554
 31
0.0
  0
LINE
  5
1AB
330
1F
100
AcDbEntity
  8
0
100
AcDbLine
 10
826.5868061229449
 20
723.0228815520468
 30
0.0
 11
889.0662611255349
 21
701.7029880534505
 31
0.0
  0
LINE
  5
1AC
330
1F
100
AcDbEntity
  8
0
100
AcDbLine
 10
717.6021011640917
 20
809.935283551932
 30
0.0
 11
826.5868061229447
 21
723.0228815520468
 31
0.0
  0
ARC
  5
1AD
330
1F
100
AcDbEntity
  8
0
100
AcDbCircle
 10
995.1062477733389
 20
669.9412242889613
 30
0.0
 40
310.8164860721689
100
AcDbArc
 50
143.3879429962063
 51
153.230171816402
  0
LINE
  5
1AE
330
1F
100
AcDbEntity
  8
0
100
AcDbLine
 10
854.6988631983932
 20
570.1706604566386
 30
0.0
 11
910.3227301582679
 21
605.726329212019
 31
0.0
  0
LINE
  5
1AF
330
1F
100
AcDbEntity
  8
0
100
AcDbLine
 10
718.7971589975377
 20
539.1519833142928
 30
0.0
 11
854.6988631983932
 21
570.1706604566385
 31
0.0
  0
ARC
  5
1B0
330
1F
100
AcDbEntity
  8
0
100
AcDbCircle
 10
1001.2699272722
 20
668.8285933775566
 30
0.0
 40
310.8164860721689
100
AcDbArc
 50
194.8165144247777
 51
204.6587432449734
  0
LINE
  5
1B1
330
1F
100
AcDbEntity
  8
0
100
AcDbLine
 10
991.7311227117602
 20
496.8477506707186
 30
0.0
 11
998.6134952880279
 21
562.504837903809
 31
0.0
  0
LINE
  5
1B2
330
1F
100
AcDbEntity
  8
0
100
AcDbLine
 10
931.2491744217018
 20
371.2556909400309
 30
0.0
 11
991.7311227117602
 21
496.8477506707186
 31
0.0
  0
ARC
  5
1B3
330
1F
100
AcDbEntity
  8
0
100
AcDbCircle
 10
1005.982808456569
 20
672.9538380311151
 30
0.0
 40
310.8164860721689
100
AcDbArc
 50
246.2450858533492
 51
256.0873146735449
  0
LINE
  5
1B4
330
1F
100
AcDbEntity
  8
0
100
AcDbLine
 10
1134.495498300799
 20
558.2677987778691
 30
0.0
 11
1087.453809568714
 21
604.5851786416508
 31
0.0
  0
LINE
  5
1B5
330
1F
100
AcDbEntity
  8
0
100
AcDbLine
 10
1194.977446590857
 20
432.6757390471814
 30
0.0
 11
1134.495498300799
 21
558.2677987778691
 31
0.0
  0
ARC
  5
1B6
330
1F
100
AcDbEntity
  8
0
100
AcDbCircle
 10
1005.69599566936
 20
679.2105648858519
 30
0.0
 40
310.8164860721689
100
AcDbArc
 50
297.6736572819206
 51
307.5158861021162
  0
LINE
  5
1B7
330
1F
100
AcDbEntity
  8
0
100
AcDbLine
 10
1175.487503284423
 20
708.1802558127511
 30
0.0
 11
1109.94510433482
 21
700.2799965674308
 31
0.0
  0
LINE
  5
1B8
330
1F
100
AcDbEntity
  8
0
100
AcDbLine
 10
1311.389207485279
 20
677.1615786704053
 30
0.0
 11
1175.487503284423
 21
708.1802558127512
 31
0.0
  0
ARC
  5
1B9
330
1F
100
AcDbEntity
  8
0
100
AcDbCircle
 10
1000.625464789256
 20
682.8873310061815
 30
0.0
 40
310.8164860721689
100
AcDbArc
 50
349.102228710492
 51
358.9444575306876
  0
LINE
  5
1BA
330
1F
100
AcDbEntity
  8
0
100
AcDbLine
 10
1083.839321825449
 20
833.6979839712698
 30
0.0
 11
1049.150975888666
 21
777.5291419644932
 31
0.0
  0
LINE
  5
1BB
330
1F
100
AcDbEntity
  8
0
100
AcDbLine
 10
1192.824026784302
 20
920.6103859711552
 30
0.0
 11
1083.839321825449
 21
833.69798397127
 31
0.0
  0
ARC
  5
1BC
330
1F
100
AcDbEntity
  8
0
100
AcDbCircle
 10
994.5894289889558
 20
681.2154565111352
 30
0.0
 40
310.8164860721689
100
AcDbArc
 50
40.53080013906347
 51
50.37302895925911
  0
LINE
  5
1BD
330
1F
100
AcDbEntity
  8
0
100
AcDbLine
 10
1478.552383502915
 20
1038.284415013758
 30
0.0
 11
1483.552383502915
 21
1038.284415013758
 31
0.0
  0
LINE
  5
1BE
330
1F
100
AcDbEntity
  8
0
100
AcDbLine
 10
1478.552383502915
 20
1020.784415013758
 30
0.0
 11
1483.552383502915
 21
1020.784415013758
 31
0.0
  0
LINE
  5
1BF
330
1F
100
AcDbEntity
  8
0
100
AcDbLine
 10
1478.552383502915
 20
990.7844150137584
 30
0.0
 11
1738.552383502915
 21
990.7844150137586
 31
0.0
  0
LINE
  5
1C0
330
1F
100
AcDbEntity
  8
0
100
AcDbLine
 10
1478.552383502915
 20
1038.284415013758
 30
0.0
 11
1478.552383502915
 21
675.7844150137584
 31
0.0
  0
LINE
  5
1C4
330
1F
100
AcDbEntity
  8
0
100
AcDbLine
 10
1483.552383502915
 20
1038.284415013758
 30
0.0
 11
1483.552383502915
 21
990.7844150137584
 31
0.0
  0
LINE
  5
1C5
330
1F
100
AcDbEntity
  8
0
100
AcDbLine
 10
1724.383262966209
 20
955.1520036004404
 30
0.0
 11
1724.383262966208
 21
396.4168264270764
 31
0.0
  0
LINE
  5
1C6
330
1F
100
AcDbEntity
  8
0
100
AcDbLine
 10
1495.947985888537
 20
980.3816284834461
 30
0.0
 11
1495.947985888537
 21
675.7844150137583
 31
0.0
  0
LINE
  5
1C7
330
1F
100
AcDbEntity
  8
0
100
AcDbLine
 10
1617.456114802779
 20
957.1256658782274
 30
0.0
 11
1617.456114802779
 21
675.7844150137584
 31
0.0
  0
LINE
  5
1C8
330
1F
100
AcDbEntity
  8
0
100
AcDbLine
 10
1495.947985888537
 20
980.3816284834461
 30
0.0
 11
1527.644843596241
 21
980.3816284834459
 31
0.0
  0
LINE
  5
1C9
330
1F
100
AcDbEntity
  8
0
100
AcDbLine
 10
1617.456114802779
 20
371.1872015440707
 30
0.0
 11
1617.456114802779
 21
675.7844150137584
 31
0.0
  0
LINE
  5
1CA
330
1F
100
AcDbEntity
  8
0
100
AcDbLine
 10
1495.947985888536
 20
390.2330094972845
 30
0.0
 11
1495.947985888537
 21
675.7844150137586
 31
0.0
  0
LINE
  5
1CB
330
1F
100
AcDbEntity
  8
0
100
AcDbLine
 10
1582.625720994593
 20
371.1872015440708
 30
0.0
 11
1617.456114802779
 21
371.1872015440708
 31
0.0
  0
LINE
  5
1CC
330
1F
100
AcDbEntity
  8
0
100
AcDbLine
 10
1478.552383502915
 20
330.7844150137585
 30
0.0
 11
1483.552383502915
 21
330.7844150137585
 31
0.0
  0
LINE
  5
1CD
330
1F
100
AcDbEntity
  8
0
100
AcDbLine
 10
1478.552383502915
 20
313.2844150137582
 30
0.0
 11
1483.552383502915
 21
313.2844150137584
 31
0.0
  0
LINE
  5
1CE
330
1F
100
AcDbEntity
  8
0
100
AcDbLine
 10
1483.552383502915
 20
313.2844150137582
 30
0.0
 11
1483.552383502915
 21
360.7844150137584
 31
0.0
  0
LINE
  5
1CF
330
1F
100
AcDbEntity
  8
0
100
AcDbLine
 10
1478.552383502915
 20
360.7844150137584
 30
0.0
 11
1738.552383502915
 21
360.7844150137583
 31
0.0
  0
LINE
  5
1D2
102
{ACAD_REACTORS
330
292
102
}
330
1F
100
AcDbEntity
  8
0
100
AcDbLine
 10
1478.552383502915
 20
313.2844150137582
 30
0.0
 11
1478.552383502915
 21
675.7844150137584
 31
0.0
  0
LINE
  5
1D3
330
1F
100
AcDbEntity
  8
0
100
AcDbLine
 10
1527.644843596241
 20
980.3816284834459
 30
0.0
 11
1617.456114802779
 21
957.1256658782273
 31
0.0
  0
LINE
  5
1D4
330
1F
100
AcDbEntity
  8
0
100
AcDbLine
 10
1495.947985888537
 20
390.2330094972845
 30
0.0
 11
1582.625720994593
 21
371.1872015440708
 31
0.0
  0
LINE
  5
1D5
330
1F
100
AcDbEntity
  8
0
100
AcDbLine
 10
1495.947985888536
 20
510.8481334341046
 30
0.0
 11
1617.456114802779
 21
455.9724394814399
 31
0.0
  0
LINE
  5
1D6
330
1F
100
AcDbEntity
  8
0
100
AcDbLine
 10
1617.456114802779
 20
476.1807382801032
 30
0.0
 11
1495.947985888537
 21
544.6708684070162
 31
0.0
  0
LINE
  5
1D7
330
1F
100
AcDbEntity
  8
0
100
AcDbLine
 10
1495.947985888537
 20
922.588354031534
 30
0.0
 11
1617.456114802779
 21
842.1364122344993
 31
0.0
  0
LINE
  5
1D8
330
1F
100
AcDbEntity
  8
0
100
AcDbLine
 10
1495.947985888537
 20
910.5869747526261
 30
0.0
 11
1617.456114802779
 21
822.4567127962055
 31
0.0
  0
LINE
  5
1D9
330
1F
100
AcDbEntity
  8
0
100
AcDbLine
 10
1729.383262966209
 20
955.1520036004404
 30
0.0
 11
1729.383262966208
 21
396.4168264270764
 31
0.0
  0
LINE
  5
1DA
330
1F
100
AcDbEntity
  8
0
100
AcDbLine
 10
1617.456114802779
 20
693.1315413480756
 30
0.0
 11
1724.383262966209
 21
693.1315413480756
 31
0.0
  0
LINE
  5
1DC
330
1F
100
AcDbEntity
  8
0
100
AcDbLine
 10
1617.456114802779
 20
843.1315413480756
 30
0.0
 11
1724.383262966209
 21
843.1315413480755
 31
0.0
  0
LINE
  5
1DD
330
1F
100
AcDbEntity
  8
0
100
AcDbLine
 10
1617.456114802779
 20
508.4372886794411
 30
0.0
 11
1724.383262966209
 21
508.4372886794414
 31
0.0
  0
LINE
  5
1DE
330
1F
100
AcDbEntity
  8
0
100
AcDbLine
 10
1617.456114802779
 20
658.4372886794413
 30
0.0
 11
1724.383262966209
 21
658.4372886794413
 31
0.0
  0
LWPOLYLINE
  5
1DF
102
{ACAD_REACTORS
330
1E1
102
}
330
1F
100
AcDbEntity
  8
0
100
AcDbPolyline
 90
        4
 70
     1
 43
0.0
 10
1617.456114802779
 20
843.1315413480756
 10
1724.383262966209
 20
843.1315413480756
 10
1724.383262966209
 20
693.1315413480756
 10
1617.456114802779
 20
693.1315413480756
  0
LWPOLYLINE
  5
1E0
102
{ACAD_REACTORS
330
1E1
102
}
330
1F
100
AcDbEntity
  8
0
100
AcDbPolyline
 90
        4
 70
     1
 43
0.0
 10
1617.456114802779
 20
658.4372886794413
 10
1724.383262966209
 20
658.4372886794413
 10
1724.383262966209
 20
508.4372886794414
 10
1617.456114802779
 20
508.4372886794414
  0
HATCH
  5
1E1
330
1F
100
AcDbEntity
  8
srafy
100
AcDbHatch
 10
0.0
 20
0.0
 30
0.0
210
0.0
220
0.0
230
1.0
  2
LINE
 70
     0
 71
     1
 91
        2
 92
        1
 93
        4
 72
     1
 10
1617.456114802779
 20
843.1315413480756
 11
1724.383262966209
 21
843.1315413480756
 72
     1
 10
1724.383262966209
 20
843.1315413480756
 11
1724.383262966209
 21
693.1315413480756
 72
     1
 10
1724.383262966209
 20
693.1315413480756
 11
1617.456114802779
 21
693.1315413480756
 72
     1
 10
1617.456114802779
 20
693.1315413480756
 11
1617.456114802779
 21
843.1315413480756
 97
        1
330
1DF
 92
        1
 93
        4
 72
     1
 10
1617.456114802779
 20
658.4372886794413
 11
1724.383262966209
 21
658.4372886794413
 72
     1
 10
1724.383262966209
 20
658.4372886794413
 11
1724.383262966209
 21
508.4372886794414
 72
     1
 10
1724.383262966209
 20
508.4372886794414
 11
1617.456114802779
 21
508.4372886794414
 72
     1
 10
1617.456114802779
 20
508.4372886794414
 11
1617.456114802779
 21
658.4372886794413
 97
        1
330
1E0
 75
     0
 76
     1
 52
0.0
 41
2.0
 77
     0
 78
     1
 53
0.0
 43
0.0
 44
0.0
 45
0.0
 46
6.349999999999999
 79
     0
 98
        1
 10
0.0
 20
0.0
  0
LINE
  5
1E2
330
1F
100
AcDbEntity
  8
0
100
AcDbLine
 10
1634.971045019293
 20
889.2822688294364
 30
0.0
 11
1634.971045019293
 21
843.1315413480756
 31
0.0
  0
LINE
  5
1E3
330
1F
100
AcDbEntity
  8
0
100
AcDbLine
 10
1634.971045019293
 20
889.2822688294364
 30
0.0
 11
1714.376939059619
 21
944.0775055282356
 31
0.0
  0
LINE
  5
1E4
330
1F
100
AcDbEntity
  8
0
100
AcDbLine
 10
1714.376939059619
 20
944.0775055282356
 30
0.0
 11
1714.376939059619
 21
990.7844150137586
 31
0.0
  0
LINE
  5
1E5
330
1F
100
AcDbEntity
  8
0
100
AcDbLine
 10
1639.971045019293
 20
886.6576666841972
 30
0.0
 11
1639.971045019293
 21
843.1315413480756
 31
0.0
  0
LINE
  5
1E6
330
1F
100
AcDbEntity
  8
0
100
AcDbLine
 10
1639.971045019293
 20
886.6576666841972
 30
0.0
 11
1719.376939059619
 21
941.4529033829964
 31
0.0
  0
LINE
  5
1E7
330
1F
100
AcDbEntity
  8
0
100
AcDbLine
 10
1719.376939059619
 20
941.4529033829964
 30
0.0
 11
1719.376939059619
 21
990.7844150137586
 31
0.0
  0
LINE
  5
1E8
330
1F
100
AcDbEntity
  8
0
100
AcDbLine
 10
1724.383262966209
 20
955.1520036004404
 30
0.0
 11
1729.383262966209
 21
955.1520036004404
 31
0.0
  0
LINE
  5
1E9
330
1F
100
AcDbEntity
  8
0
100
AcDbLine
 10
1634.971045019293
 20
462.2865611980805
 30
0.0
 11
1634.971045019293
 21
508.4372886794411
 31
0.0
  0
LINE
  5
1EA
330
1F
100
AcDbEntity
  8
0
100
AcDbLine
 10
1639.971045019293
 20
464.9111633433196
 30
0.0
 11
1639.971045019293
 21
508.4372886794411
 31
0.0
  0
LINE
  5
1EB
330
1F
100
AcDbEntity
  8
0
100
AcDbLine
 10
1639.971045019293
 20
464.9111633433196
 30
0.0
 11
1719.376939059619
 21
410.1159266445205
 31
0.0
  0
LINE
  5
1EC
330
1F
100
AcDbEntity
  8
0
100
AcDbLine
 10
1634.971045019293
 20
462.2865611980804
 30
0.0
 11
1714.376939059619
 21
407.4913244992813
 31
0.0
  0
LINE
  5
1ED
330
1F
100
AcDbEntity
  8
0
100
AcDbLine
 10
1714.376939059619
 20
407.4913244992813
 30
0.0
 11
1714.376939059619
 21
360.7844150137582
 31
0.0
  0
LINE
  5
1EE
330
1F
100
AcDbEntity
  8
0
100
AcDbLine
 10
1719.376939059619
 20
410.1159266445205
 30
0.0
 11
1719.376939059619
 21
360.7844150137582
 31
0.0
  0
LINE
  5
1EF
330
1F
100
AcDbEntity
  8
0
100
AcDbLine
 10
1724.383262966209
 20
396.4168264270764
 30
0.0
 11
1729.383262966209
 21
396.4168264270764
 31
0.0
  0
LINE
  5
1F0
330
1F
100
AcDbEntity
  8
0
100
AcDbLine
 10
1752.72150403962
 20
955.1520036004404
 30
0.0
 11
1752.721504039621
 21
396.4168264270764
 31
0.0
  0
LINE
  5
1F1
330
1F
100
AcDbEntity
  8
0
100
AcDbLine
 10
1747.72150403962
 20
955.1520036004404
 30
0.0
 11
1747.721504039621
 21
396.4168264270764
 31
0.0
  0
LINE
  5
1F2
330
1F
100
AcDbEntity
  8
0
100
AcDbLine
 10
1752.72150403962
 20
396.4168264270764
 30
0.0
 11
1747.72150403962
 21
396.4168264270764
 31
0.0
  0
LINE
  5
1F3
330
1F
100
AcDbEntity
  8
0
100
AcDbLine
 10
1757.72782794621
 20
410.1159266445205
 30
0.0
 11
1757.72782794621
 21
360.7844150137582
 31
0.0
  0
LINE
  5
1F4
330
1F
100
AcDbEntity
  8
0
100
AcDbLine
 10
1762.72782794621
 20
407.4913244992813
 30
0.0
 11
1762.72782794621
 21
360.7844150137582
 31
0.0
  0
LINE
  5
1F5
330
1F
100
AcDbEntity
  8
0
100
AcDbLine
 10
1842.133721986536
 20
462.2865611980804
 30
0.0
 11
1762.72782794621
 21
407.4913244992813
 31
0.0
  0
LINE
  5
1F6
330
1F
100
AcDbEntity
  8
0
100
AcDbLine
 10
1837.133721986536
 20
464.9111633433196
 30
0.0
 11
1757.72782794621
 21
410.1159266445205
 31
0.0
  0
LINE
  5
1F7
330
1F
100
AcDbEntity
  8
0
100
AcDbLine
 10
1837.133721986536
 20
464.9111633433196
 30
0.0
 11
1837.133721986536
 21
508.4372886794411
 31
0.0
  0
LINE
  5
1F8
330
1F
100
AcDbEntity
  8
0
100
AcDbLine
 10
1842.133721986536
 20
462.2865611980805
 30
0.0
 11
1842.133721986536
 21
508.4372886794411
 31
0.0
  0
LINE
  5
1F9
330
1F
100
AcDbEntity
  8
0
100
AcDbLine
 10
1752.72150403962
 20
955.1520036004404
 30
0.0
 11
1747.72150403962
 21
955.1520036004404
 31
0.0
  0
LINE
  5
1FA
330
1F
100
AcDbEntity
  8
0
100
AcDbLine
 10
1837.133721986536
 20
886.6576666841972
 30
0.0
 11
1837.133721986536
 21
843.1315413480756
 31
0.0
  0
LINE
  5
1FB
330
1F
100
AcDbEntity
  8
0
100
AcDbLine
 10
1837.133721986536
 20
886.6576666841972
 30
0.0
 11
1757.72782794621
 21
941.4529033829964
 31
0.0
  0
LINE
  5
1FC
330
1F
100
AcDbEntity
  8
0
100
AcDbLine
 10
1757.72782794621
 20
941.4529033829964
 30
0.0
 11
1757.72782794621
 21
990.7844150137586
 31
0.0
  0
LINE
  5
1FD
330
1F
100
AcDbEntity
  8
0
100
AcDbLine
 10
1842.133721986536
 20
889.2822688294364
 30
0.0
 11
1842.133721986536
 21
843.1315413480756
 31
0.0
  0
LINE
  5
1FE
330
1F
100
AcDbEntity
  8
0
100
AcDbLine
 10
1842.133721986536
 20
889.2822688294364
 30
0.0
 11
1762.72782794621
 21
944.0775055282356
 31
0.0
  0
LINE
  5
1FF
330
1F
100
AcDbEntity
  8
0
100
AcDbLine
 10
1762.72782794621
 20
944.0775055282356
 30
0.0
 11
1762.72782794621
 21
990.7844150137586
 31
0.0
  0
HATCH
  5
200
330
1F
100
AcDbEntity
  8
srafy
100
AcDbHatch
 10
0.0
 20
0.0
 30
0.0
210
0.0
220
0.0
230
1.0
  2
LINE
 70
     0
 71
     1
 91
        2
 92
        1
 93
        4
 72
     1
 10
1859.64865220305
 20
843.1315413480756
 11
1752.721504039621
 21
843.1315413480756
 72
     1
 10
1752.721504039621
 20
843.1315413480756
 11
1752.721504039621
 21
693.1315413480756
 72
     1
 10
1752.721504039621
 20
693.1315413480756
 11
1859.64865220305
 21
693.1315413480756
 72
     1
 10
1859.64865220305
 20
693.1315413480756
 11
1859.64865220305
 21
843.1315413480756
 97
        1
330
202
 92
        1
 93
        4
 72
     1
 10
1859.64865220305
 20
658.4372886794413
 11
1752.721504039621
 21
658.4372886794413
 72
     1
 10
1752.721504039621
 20
658.4372886794413
 11
1752.721504039621
 21
508.4372886794414
 72
     1
 10
1752.721504039621
 20
508.4372886794414
 11
1859.64865220305
 21
508.4372886794414
 72
     1
 10
1859.64865220305
 20
508.4372886794414
 11
1859.64865220305
 21
658.4372886794413
 97
        1
330
201
 75
     0
 76
     1
 52
0.0
 41
2.0
 77
     0
 78
     1
 53
180.0
 43
3477.10476700583
 44
0.0
 45
0.0
 46
6.349999999999999
 79
     0
 98
        1
 10
3477.10476700583
 20
0.0
  0
LWPOLYLINE
  5
201
102
{ACAD_REACTORS
330
200
102
}
330
1F
100
AcDbEntity
  8
0
100
AcDbPolyline
 90
        4
 70
     1
 43
0.0
 10
1859.64865220305
 20
658.4372886794413
 10
1752.721504039621
 20
658.4372886794413
 10
1752.721504039621
 20
508.4372886794414
 10
1859.64865220305
 20
508.4372886794414
  0
LWPOLYLINE
  5
202
102
{ACAD_REACTORS
330
200
102
}
330
1F
100
AcDbEntity
  8
0
100
AcDbPolyline
 90
        4
 70
     1
 43
0.0
 10
1859.64865220305
 20
843.1315413480756
 10
1752.721504039621
 20
843.1315413480756
 10
1752.721504039621
 20
693.1315413480756
 10
1859.64865220305
 20
693.1315413480756
  0
LINE
  5
203
330
1F
100
AcDbEntity
  8
0
100
AcDbLine
 10
1859.64865220305
 20
658.4372886794413
 30
0.0
 11
1752.72150403962
 21
658.4372886794413
 31
0.0
  0
LINE
  5
204
330
1F
100
AcDbEntity
  8
0
100
AcDbLine
 10
1859.64865220305
 20
508.4372886794411
 30
0.0
 11
1752.721504039621
 21
508.4372886794414
 31
0.0
  0
LINE
  5
205
330
1F
100
AcDbEntity
  8
0
100
AcDbLine
 10
1859.64865220305
 20
693.1315413480756
 30
0.0
 11
1752.72150403962
 21
693.1315413480756
 31
0.0
  0
LINE
  5
206
330
1F
100
AcDbEntity
  8
0
100
AcDbLine
 10
1859.64865220305
 20
843.1315413480756
 30
0.0
 11
1752.721504039621
 21
843.1315413480755
 31
0.0
  0
LINE
  5
207
330
1F
100
AcDbEntity
  8
0
100
AcDbLine
 10
1859.64865220305
 20
957.1256658782274
 30
0.0
 11
1859.64865220305
 21
675.7844150137584
 31
0.0
  0
LINE
  5
208
330
1F
100
AcDbEntity
  8
0
100
AcDbLine
 10
1981.156781117293
 20
390.2330094972845
 30
0.0
 11
1894.479046011236
 21
371.1872015440708
 31
0.0
  0
LINE
  5
209
330
1F
100
AcDbEntity
  8
0
100
AcDbLine
 10
1981.156781117293
 20
390.2330094972845
 30
0.0
 11
1981.156781117293
 21
675.7844150137586
 31
0.0
  0
LINE
  5
20A
330
1F
100
AcDbEntity
  8
0
100
AcDbLine
 10
1894.479046011236
 20
371.1872015440708
 30
0.0
 11
1859.64865220305
 21
371.1872015440708
 31
0.0
  0
LINE
  5
20B
330
1F
100
AcDbEntity
  8
0
100
AcDbLine
 10
1859.64865220305
 20
476.1807382801032
 30
0.0
 11
1981.156781117293
 21
544.6708684070162
 31
0.0
  0
LINE
  5
20C
330
1F
100
AcDbEntity
  8
0
100
AcDbLine
 10
1981.156781117293
 20
510.8481334341046
 30
0.0
 11
1859.64865220305
 21
455.9724394814399
 31
0.0
  0
LINE
  5
20D
330
1F
100
AcDbEntity
  8
0
100
AcDbLine
 10
1981.156781117293
 20
922.588354031534
 30
0.0
 11
1859.64865220305
 21
842.1364122344993
 31
0.0
  0
LINE
  5
20E
330
1F
100
AcDbEntity
  8
0
100
AcDbLine
 10
1981.156781117292
 20
910.5869747526261
 30
0.0
 11
1859.64865220305
 21
822.4567127962055
 31
0.0
  0
LINE
  5
20F
330
1F
100
AcDbEntity
  8
0
100
AcDbLine
 10
1949.459923409589
 20
980.3816284834459
 30
0.0
 11
1859.64865220305
 21
957.1256658782273
 31
0.0
  0
LINE
  5
210
330
1F
100
AcDbEntity
  8
0
100
AcDbLine
 10
1981.156781117293
 20
980.3816284834461
 30
0.0
 11
1949.459923409589
 21
980.3816284834459
 31
0.0
  0
LINE
  5
211
102
{ACAD_REACTORS
330
27A
330
292
102
}
330
1F
100
AcDbEntity
  8
0
100
AcDbLine
 10
1998.552383502914
 20
313.2844150137582
 30
0.0
 11
1998.552383502914
 21
675.7844150137584
 31
0.0
  0
LINE
  5
214
102
{ACAD_REACTORS
330
24A
102
}
330
1F
100
AcDbEntity
  8
0
100
AcDbLine
 10
1998.552383502914
 20
360.7844150137584
 30
0.0
 11
1738.552383502915
 21
360.7844150137583
 31
0.0
  0
LINE
  5
215
330
1F
100
AcDbEntity
  8
0
100
AcDbLine
 10
1993.552383502914
 20
313.2844150137582
 30
0.0
 11
1993.552383502915
 21
360.7844150137584
 31
0.0
  0
LINE
  5
216
330
1F
100
AcDbEntity
  8
0
100
AcDbLine
 10
1998.552383502914
 20
313.2844150137582
 30
0.0
 11
1993.552383502915
 21
313.2844150137584
 31
0.0
  0
LINE
  5
217
102
{ACAD_REACTORS
330
262
102
}
330
1F
100
AcDbEntity
  8
0
100
AcDbLine
 10
1998.552383502914
 20
330.7844150137585
 30
0.0
 11
1993.552383502915
 21
330.7844150137585
 31
0.0
  0
LINE
  5
218
330
1F
100
AcDbEntity
  8
0
100
AcDbLine
 10
1859.64865220305
 20
371.1872015440707
 30
0.0
 11
1859.64865220305
 21
675.7844150137584
 31
0.0
  0
LINE
  5
219
330
1F
100
AcDbEntity
  8
0
100
AcDbLine
 10
1981.156781117293
 20
980.3816284834461
 30
0.0
 11
1981.156781117293
 21
675.7844150137583
 31
0.0
  0
LINE
  5
21A
102
{ACAD_REACTORS
330
262
102
}
330
1F
100
AcDbEntity
  8
0
100
AcDbLine
 10
1998.552383502914
 20
1020.784415013758
 30
0.0
 11
1993.552383502915
 21
1020.784415013758
 31
0.0
  0
LINE
  5
21B
330
1F
100
AcDbEntity
  8
0
100
AcDbLine
 10
1998.552383502914
 20
1038.284415013758
 30
0.0
 11
1993.552383502915
 21
1038.284415013758
 31
0.0
  0
LINE
  5
21C
330
1F
100
AcDbEntity
  8
0
100
AcDbLine
 10
1993.552383502914
 20
1038.284415013758
 30
0.0
 11
1993.552383502915
 21
990.7844150137584
 31
0.0
  0
LINE
  5
21D
102
{ACAD_REACTORS
330
24A
102
}
330
1F
100
AcDbEntity
  8
0
100
AcDbLine
 10
1998.552383502914
 20
990.7844150137584
 30
0.0
 11
1738.552383502915
 21
990.7844150137586
 31
0.0
  0
LINE
  5
220
102
{ACAD_REACTORS
330
27A
102
}
330
1F
100
AcDbEntity
  8
0
100
AcDbLine
 10
1998.552383502914
 20
1038.284415013758
 30
0.0
 11
1998.552383502914
 21
675.7844150137584
 31
0.0
  0
LINE
  5
221
330
1F
100
AcDbEntity
  8
0
100
AcDbLine
 10
947.8867827268476
 20
1073.360817491236
 30
0.0
 11
1050.799794212711
 21
1073.360817491236
 31
0.0
  0
LINE
  5
223
330
1F
100
AcDbEntity
  8
0
100
AcDbLine
 10
947.8867827268476
 20
1073.360817491235
 30
0.0
 11
947.8867827268476
 21
1034.613731007766
 31
0.0
  0
LINE
  5
224
330
1F
100
AcDbEntity
  8
0
100
AcDbLine
 10
1050.799794212711
 20
1073.360817491235
 30
0.0
 11
1050.799794212711
 21
1034.613731007766
 31
0.0
  0
LINE
  5
225
330
1F
100
AcDbEntity
  8
0
100
AcDbLine
 10
1643.669836419342
 20
1063.360817491236
 30
0.0
 11
1643.669836419341
 21
990.7844150137584
 31
0.0
  0
LINE
  5
226
330
1F
100
AcDbEntity
  8
0
100
AcDbLine
 10
1668.865323218429
 20
1053.826753391104
 30
0.0
 11
1668.865323218429
 21
990.7844150137584
 31
0.0
  0
LINE
  5
228
330
1F
100
AcDbEntity
  8
0
100
AcDbLine
 10
1643.669836419341
 20
1053.826753391104
 30
0.0
 11
1738.552383502915
 21
1053.826753391104
 31
0.0
  0
LINE
  5
229
330
1F
100
AcDbEntity
  8
0
100
AcDbLine
 10
1668.865323218429
 20
1001.21965179822
 30
0.0
 11
1738.552383502915
 21
1001.21965179822
 31
0.0
  0
LINE
  5
22A
330
1F
100
AcDbEntity
  8
0
100
AcDbLine
 10
1653.669836419342
 20
1073.360817491236
 30
0.0
 11
1738.552383502915
 21
1073.360817491236
 31
0.0
  0
LINE
  5
22B
330
1F
100
AcDbEntity
  8
0
100
AcDbLine
 10
1808.2394437874
 20
1001.21965179822
 30
0.0
 11
1738.552383502915
 21
1001.21965179822
 31
0.0
  0
LINE
  5
22C
330
1F
100
AcDbEntity
  8
0
100
AcDbLine
 10
1808.2394437874
 20
1053.826753391104
 30
0.0
 11
1808.2394437874
 21
990.7844150137581
 31
0.0
  0
LINE
  5
22D
330
1F
100
AcDbEntity
  8
0
100
AcDbLine
 10
1833.434930586488
 20
1063.360817491235
 30
0.0
 11
1833.434930586488
 21
990.7844150137579
 31
0.0
  0
LINE
  5
22E
330
1F
100
AcDbEntity
  8
0
100
AcDbLine
 10
1833.434930586489
 20
1053.826753391103
 30
0.0
 11
1738.552383502915
 21
1053.826753391104
 31
0.0
  0
LINE
  5
230
330
1F
100
AcDbEntity
  8
0
100
AcDbLine
 10
1823.434930586488
 20
1073.360817491235
 30
0.0
 11
1738.552383502915
 21
1073.360817491236
 31
0.0
  0
ARC
  5
231
330
1F
100
AcDbEntity
  8
0
100
AcDbCircle
 10
1653.669836419342
 20
1063.360817491236
 30
0.0
 40
10.0
100
AcDbArc
 50
90.00000000000014
 51
180.0
  0
ARC
  5
232
330
1F
100
AcDbEntity
  8
0
100
AcDbCircle
 10
1823.434930586488
 20
1063.360817491235
 30
0.0
 40
10.0
100
AcDbArc
 50
359.9999999999997
 51
89.99999999999959
  0
DIMENSION
  5
233
102
{ACAD_XDICTIONARY
360
240
102
}
102
{ACAD_REACTORS
330
24A
102
}
330
1F
100
AcDbEntity
  8
koty
100
AcDbDimension
  2
*D1
 10
2064.294052691746
 20
990.7844150137584
 30
0.0
 11
2048.044052691746
 21
675.7844150137588
 31
0.0
 70
    32
 71
     5
 42
630.0
  3
ISO-25
100
AcDbAlignedDimension
 13
1998.552383502914
 23
360.7844150137584
 33
0.0
 14
1998.552383502914
 24
990.7844150137584
 34
0.0
 50
90.0
100
AcDbRotatedDimension
  0
DIMENSION
  5
24B
102
{ACAD_XDICTIONARY
360
258
102
}
102
{ACAD_REACTORS
330
262
102
}
330
1F
100
AcDbEntity
  8
koty
100
AcDbDimension
  2
*D2
 10
2109.888921385238
 20
1020.784415013758
 30
0.0
 11
2093.638921385238
 21
675.7844150137588
 31
0.0
 70
    32
 71
     5
 42
689.9999999999997
  3
ISO-25
100
AcDbAlignedDimension
 13
1998.552383502914
 23
330.7844150137585
 33
0.0
 14
1998.552383502914
 24
1020.784415013758
 34
0.0
 50
90.0
100
AcDbRotatedDimension
  0
DIMENSION
  5
263
102
{ACAD_XDICTIONARY
360
270
102
}
102
{ACAD_REACTORS
330
27A
102
}
330
1F
100
AcDbEntity
  8
koty
100
AcDbDimension
  2
*D3
 10
2159.743020336881
 20
313.2844150137582
 30
0.0
 11
2143.493020336881
 21
675.7844150137588
 31
0.0
 70
    32
 71
     5
 42
725.0000000000004
  3
ISO-25
100
AcDbAlignedDimension
 13
1998.552383502914
 23
1038.284415013758
 33
0.0
 14
1998.552383502914
 24
313.2844150137582
 34
0.0
 50
90.0
100
AcDbRotatedDimension
  0
DIMENSION
  5
27B
102
{ACAD_XDICTIONARY
360
288
102
}
102
{ACAD_REACTORS
330
292
102
}
330
1F
100
AcDbEntity
  8
koty
100
AcDbDimension
  2
*D4
 10
1998.552383502914
 20
283.3987229214976
 30
0.0
 11
1738.552383502915
 21
299.6487229214976
 31
0.0
 70
    32
 71
     5
 42
519.9999999999995
  3
ISO-25
100
AcDbAlignedDimension
 13
1478.552383502915
 23
313.2844150137582
 33
0.0
 14
1998.552383502914
 24
313.2844150137582
 34
0.0
100
AcDbRotatedDimension
  0
DIMENSION
  5
293
102
{ACAD_XDICTIONARY
360
29F
102
}
102
{ACAD_REACTORS
330
2A8
102
}
330
1F
100
AcDbEntity
  8
koty
100
AcDbDimension
  2
*D5
 10
1165.843288469779
 20
974.5631793193897
 30
0.0
 11
1262.237425334677
 21
974.5631793193897
 31
0.0
 70
   163
 71
     5
 42
12.0
  3
ISO-25
100
AcDbDiametricDimension
 15
1177.843288469779
 25
974.5631793193897
 35
0.0
 40
0.0
1001
ACAD
1000
DSTYLE
1002
{
1070
   288
1070
     1
1002
}
  0
LEADER
  5
2AA
330
1F
100
AcDbEntity
  8
koty
100
AcDbLeader
  3
ISO-25
 73
     0
 40
20.0
 41
46.66666666666666
 76
     3
 10
1179.507276720687
 20
377.0056507081271
 30
0.0
 10
1245.076057153525
 20
407.7607585615206
 30
0.0
 10
1309.581081740777
 20
407.7607585615205
 30
0.0
340
2AB
213
-79.06988371777515
223
-10.0
233
0.0
1001
ACAD
1000
DSTYLE
1002
{
1070
   147
1040
0.625
1070
    77
1070
     0
1002
}
  0
MTEXT
  5
2AB
102
{ACAD_REACTORS
330
2AA
102
}
330
1F
100
AcDbEntity
  8
koty
100
AcDbMText
 10
1323.349483243564
 20
427.732492734492
 30
0.0
 40
20.0
 41
0.0
 71
     1
 72
     1
  1
12x
 73
     1
 44
1.0
  0
TEXT
  5
2B0
330
1F
100
AcDbEntity
  8
popis
100
AcDbText
 10
839.2143927357755
 20
1119.206500586215
 30
0.0
 40
25.0
  1
TCBx2/630 - středotlaký axiální ventilátor potrubní
100
AcDbText
  0
ENDSEC
  0
SECTION
  2
OBJECTS
  0
DICTIONARY
  5
C
330
0
100
AcDbDictionary
281
     1
  3
ACAD_GROUP
350
D
  3
ACAD_LAYOUT
350
1A
  3
ACAD_MLINESTYLE
350
17
  3
ACAD_PLOTSETTINGS
350
19
  3
ACAD_PLOTSTYLENAME
350
E
  3
AcDbVariableDictionary
350
2E
  0
DICTIONARY
  5
240
330
233
100
AcDbDictionary
280
     1
281
     1
  3
ACAD_DIMASSOC
360
24A
  0
DICTIONARY
  5
258
330
24B
100
AcDbDictionary
280
     1
281
     1
  3
ACAD_DIMASSOC
360
262
  0
DICTIONARY
  5
270
330
263
100
AcDbDictionary
280
     1
281
     1
  3
ACAD_DIMASSOC
360
27A
  0
DICTIONARY
  5
288
330
27B
100
AcDbDictionary
280
     1
281
     1
  3
ACAD_DIMASSOC
360
292
  0
DICTIONARY
  5
29F
330
293
100
AcDbDictionary
280
     1
281
     1
  3
ACAD_DIMASSOC
360
2A8
  0
DICTIONARY
  5
D
102
{ACAD_REACTORS
330
C
102
}
330
C
100
AcDbDictionary
281
     1
  0
DICTIONARY
  5
1A
102
{ACAD_REACTORS
330
C
102
}
330
C
100
AcDbDictionary
281
     1
  3
Model
350
22
  3
Rozvržení1
350
1E
  3
Rozvržení2
350
26
  0
DICTIONARY
  5
17
102
{ACAD_REACTORS
330
C
102
}
330
C
100
AcDbDictionary
281
     1
  3
Standard
350
18
  0
DICTIONARY
  5
19
102
{ACAD_REACTORS
330
C
102
}
330
C
100
AcDbDictionary
281
     1
  0
ACDBDICTIONARYWDFLT
  5
E
102
{ACAD_REACTORS
330
C
102
}
330
C
100
AcDbDictionary
281
     1
  3
Normal
350
F
100
AcDbDictionaryWithDefault
340
F
  0
DICTIONARY
  5
2E
102
{ACAD_REACTORS
330
C
102
}
330
C
100
AcDbDictionary
281
     1
  3
DIMASSOC
350
30
  3
HIDETEXT
350
2F
  0
DIMASSOC
  5
24A
102
{ACAD_REACTORS
330
240
102
}
330
240
100
AcDbDimAssoc
330
233
 90
        3
 70
     0
 71
     0
  1
AcDbOsnapPointRef
 72
    13
331
214
 73
     2
 91
        0
 40
0.0
 10
1998.552383502914
 20
360.7844150137584
 30
0.0
 75
     0
  1
AcDbOsnapPointRef
 72
    13
331
21D
 73
     2
 91
        0
 40
0.0
 10
1998.552383502914
 20
990.7844150137584
 30
0.0
 75
     0
  0
DIMASSOC
  5
262
102
{ACAD_REACTORS
330
258
102
}
330
258
100
AcDbDimAssoc
330
24B
 90
        3
 70
     0
 71
     0
  1
AcDbOsnapPointRef
 72
    13
331
217
 73
     2
 91
        0
 40
0.0
 10
1998.552383502914
 20
330.7844150137585
 30
0.0
 75
     0
  1
AcDbOsnapPointRef
 72
    13
331
21A
 73
     2
 91
        0
 40
0.0
 10
1998.552383502914
 20
1020.784415013758
 30
0.0
 75
     0
  0
DIMASSOC
  5
27A
102
{ACAD_REACTORS
330
270
102
}
330
270
100
AcDbDimAssoc
330
263
 90
        3
 70
     0
 71
     0
  1
AcDbOsnapPointRef
 72
    13
331
220
 73
     2
 91
        0
 40
0.0
 10
1998.552383502914
 20
1038.284415013758
 30
0.0
 75
     0
  1
AcDbOsnapPointRef
 72
    13
331
211
 73
     2
 91
        0
 40
0.0
 10
1998.552383502914
 20
313.2844150137582
 30
0.0
 75
     0
  0
DIMASSOC
  5
292
102
{ACAD_REACTORS
330
288
102
}
330
288
100
AcDbDimAssoc
330
27B
 90
        3
 70
     0
 71
     0
  1
AcDbOsnapPointRef
 72
    13
331
1D2
 73
     2
 91
        0
 40
0.0
 10
1478.552383502915
 20
313.2844150137582
 30
0.0
 75
     0
  1
AcDbOsnapPointRef
 72
    13
331
211
 73
     2
 91
        0
 40
0.0
 10
1998.552383502914
 20
313.2844150137582
 30
0.0
 75
     0
  0
DIMASSOC
  5
2A8
102
{ACAD_REACTORS
330
29F
102
}
330
29F
100
AcDbDimAssoc
330
293
 90
        2
 70
     0
 71
     0
  1
AcDbOsnapPointRef
 72
     3
331
181
 73
     2
 91
        0
 40
0.0
 10
0.0
 20
0.0
 30
0.0
 75
     0
  0
LAYOUT
  5
22
102
{ACAD_REACTORS
330
1A
102
}
330
1A
100
AcDbPlotSettings
  1

  2
D:\AutoCAD 2002Cz\plotters\PublishToWeb DWF.pc3
  4

  6

 40
0.0
 41
0.0
 42
0.0
 43
0.0
 44
0.0
 45
0.0
 46
0.0
 47
0.0
 48
0.0
 49
0.0
140
0.0
141
0.0
142
1.0
143
1.0
 70
  1712
 72
     0
 73
     0
 74
     0
  7

 75
     0
147
1.0
148
0.0
149
0.0
100
AcDbLayout
  1
Model
 70
     1
 71
     0
 10
0.0
 20
0.0
 11
12.0
 21
9.0
 12
0.0
 22
0.0
 32
0.0
 14
0.0
 24
0.0
 34
0.0
 15
0.0
 25
0.0
 35
0.0
146
0.0
 13
0.0
 23
0.0
 33
0.0
 16
1.0
 26
0.0
 36
0.0
 17
0.0
 27
1.0
 37
0.0
 76
     0
330
1F
  0
LAYOUT
  5
1E
102
{ACAD_REACTORS
330
1A
102
}
330
1A
100
AcDbPlotSettings
  1

  2
D:\AutoCAD 2002Cz\plotters\PublishToWeb DWF.pc3
  4

  6

 40
0.0
 41
0.0
 42
0.0
 43
0.0
 44
0.0
 45
0.0
 46
0.0
 47
0.0
 48
0.0
 49
0.0
140
0.0
141
0.0
142
1.0
143
1.0
 70
   688
 72
     0
 73
     0
 74
     5
  7

 75
    16
147
1.0
148
0.0
149
0.0
100
AcDbLayout
  1
Rozvržení1
 70
     1
 71
     1
 10
0.0
 20
0.0
 11
420.0
 21
297.0
 12
0.0
 22
0.0
 32
0.0
 14
1.000000000000000E+20
 24
1.000000000000000E+20
 34
1.000000000000000E+20
 15
-1.000000000000000E+20
 25
-1.000000000000000E+20
 35
-1.000000000000000E+20
146
0.0
 13
0.0
 23
0.0
 33
0.0
 16
1.0
 26
0.0
 36
0.0
 17
0.0
 27
1.0
 37
0.0
 76
     0
330
1B
  0
LAYOUT
  5
26
102
{ACAD_REACTORS
330
1A
102
}
330
1A
100
AcDbPlotSettings
  1

  2
D:\AutoCAD 2002Cz\plotters\PublishToWeb DWF.pc3
  4

  6

 40
0.0
 41
0.0
 42
0.0
 43
0.0
 44
0.0
 45
0.0
 46
0.0
 47
0.0
 48
0.0
 49
0.0
140
0.0
141
0.0
142
1.0
143
1.0
 70
   688
 72
     0
 73
     0
 74
     5
  7

 75
    16
147
1.0
148
0.0
149
0.0
100
AcDbLayout
  1
Rozvržení2
 70
     1
 71
     2
 10
0.0
 20
0.0
 11
12.0
 21
9.0
 12
0.0
 22
0.0
 32
0.0
 14
0.0
 24
0.0
 34
0.0
 15
0.0
 25
0.0
 35
0.0
146
0.0
 13
0.0
 23
0.0
 33
0.0
 16
1.0
 26
0.0
 36
0.0
 17
0.0
 27
1.0
 37
0.0
 76
     0
330
23
  0
MLINESTYLE
  5
18
102
{ACAD_REACTORS
330
17
102
}
330
17
100
AcDbMlineStyle
  2
STANDARD
 70
     0
  3

 62
   256
 51
90.0
 52
90.0
 71
     2
 49
0.5
 62
   256
  6
BYLAYER
 49
-0.5
 62
   256
  6
BYLAYER
  0
ACDBPLACEHOLDER
  5
F
102
{ACAD_REACTORS
330
E
102
}
330
E
  0
DICTIONARYVAR
  5
30
102
{ACAD_REACTORS
330
2E
102
}
330
2E
100
DictionaryVariables
280
     0
  1
2
  0
DICTIONARYVAR
  5
2F
102
{ACAD_REACTORS
330
2E
102
}
330
2E
100
DictionaryVariables
280
     0
  1
1
  0
ENDSEC
  0
EOF
