  0
SECTION
  2
HEADER
  9
$ACADVER
  1
AC1015
  9
$ACADMAINTVER
 70
    13
  9
$DWGCODEPAGE
  3
ANSI_1250
  9
$INSBASE
 10
0.0
 20
0.0
 30
0.0
  9
$EXTMIN
 10
447.9165978372366
 20
230.5182778977441
 30
-615.0
  9
$EXTMAX
 10
1904.495554019522
 20
1077.136988881578
 30
0.0
  9
$LIMMIN
 10
0.0
 20
0.0
  9
$LIMMAX
 10
420.0
 20
297.0
  9
$ORTHOMODE
 70
     0
  9
$REGENMODE
 70
     1
  9
$FILLMODE
 70
     1
  9
$QTEXTMODE
 70
     0
  9
$MIRRTEXT
 70
     1
  9
$LTSCALE
 40
1.0
  9
$ATTMODE
 70
     1
  9
$TEXTSIZE
 40
25.0
  9
$TRACEWID
 40
1.0
  9
$TEXTSTYLE
  7
Standard
  9
$CLAYER
  8
0
  9
$CELTYPE
  6
ByLayer
  9
$CECOLOR
 62
   256
  9
$CELTSCALE
 40
1.0
  9
$DISPSILH
 70
     0
  9
$DIMSCALE
 40
10.0
  9
$DIMASZ
 40
2.0
  9
$DIMEXO
 40
0.625
  9
$DIMDLI
 40
3.75
  9
$DIMRND
 40
0.0
  9
$DIMDLE
 40
0.0
  9
$DIMEXE
 40
1.25
  9
$DIMTP
 40
0.0
  9
$DIMTM
 40
0.0
  9
$DIMTXT
 40
2.0
  9
$DIMCEN
 40
2.5
  9
$DIMTSZ
 40
0.0
  9
$DIMTOL
 70
     0
  9
$DIMLIM
 70
     0
  9
$DIMTIH
 70
     0
  9
$DIMTOH
 70
     0
  9
$DIMSE1
 70
     0
  9
$DIMSE2
 70
     0
  9
$DIMTAD
 70
     1
  9
$DIMZIN
 70
     8
  9
$DIMBLK
  1

  9
$DIMASO
 70
     1
  9
$DIMSHO
 70
     1
  9
$DIMPOST
  1

  9
$DIMAPOST
  1

  9
$DIMALT
 70
     0
  9
$DIMALTD
 70
     3
  9
$DIMALTF
 40
0.03937007874016
  9
$DIMLFAC
 40
1.0
  9
$DIMTOFL
 70
     1
  9
$DIMTVP
 40
0.0
  9
$DIMTIX
 70
     0
  9
$DIMSOXD
 70
     0
  9
$DIMSAH
 70
     0
  9
$DIMBLK1
  1

  9
$DIMBLK2
  1

  9
$DIMSTYLE
  2
ISO-25
  9
$DIMCLRD
 70
     0
  9
$DIMCLRE
 70
     0
  9
$DIMCLRT
 70
     0
  9
$DIMTFAC
 40
1.0
  9
$DIMGAP
 40
0.625
  9
$DIMJUST
 70
     0
  9
$DIMSD1
 70
     0
  9
$DIMSD2
 70
     0
  9
$DIMTOLJ
 70
     0
  9
$DIMTZIN
 70
     8
  9
$DIMALTZ
 70
     0
  9
$DIMALTTZ
 70
     0
  9
$DIMUPT
 70
     0
  9
$DIMDEC
 70
     2
  9
$DIMTDEC
 70
     2
  9
$DIMALTU
 70
     2
  9
$DIMALTTD
 70
     3
  9
$DIMTXSTY
  7
Standard
  9
$DIMAUNIT
 70
     0
  9
$DIMADEC
 70
     0
  9
$DIMALTRND
 40
0.0
  9
$DIMAZIN
 70
     0
  9
$DIMDSEP
 70
    44
  9
$DIMATFIT
 70
     3
  9
$DIMFRAC
 70
     0
  9
$DIMLDRBLK
  1

  9
$DIMLUNIT
 70
     2
  9
$DIMLWD
 70
    -2
  9
$DIMLWE
 70
    -2
  9
$DIMTMOVE
 70
     0
  9
$LUNITS
 70
     2
  9
$LUPREC
 70
     4
  9
$SKETCHINC
 40
1.0
  9
$FILLETRAD
 40
10.0
  9
$AUNITS
 70
     0
  9
$AUPREC
 70
     0
  9
$MENU
  1
.
  9
$ELEVATION
 40
0.0
  9
$PELEVATION
 40
0.0
  9
$THICKNESS
 40
0.0
  9
$LIMCHECK
 70
     0
  9
$CHAMFERA
 40
10.0
  9
$CHAMFERB
 40
10.0
  9
$CHAMFERC
 40
20.0
  9
$CHAMFERD
 40
0.0
  9
$SKPOLY
 70
     0
  9
$TDCREATE
 40
2453639.692351574
  9
$TDUCREATE
 40
2453639.650684907
  9
$TDUPDATE
 40
2454043.784309166
  9
$TDUUPDATE
 40
2454043.742642500
  9
$TDINDWG
 40
0.0994407407
  9
$TDUSRTIMER
 40
0.0994401620
  9
$USRTIMER
 70
     1
  9
$ANGBASE
 50
0.0
  9
$ANGDIR
 70
     0
  9
$PDMODE
 70
     0
  9
$PDSIZE
 40
0.0
  9
$PLINEWID
 40
0.0
  9
$SPLFRAME
 70
     0
  9
$SPLINETYPE
 70
     6
  9
$SPLINESEGS
 70
     8
  9
$HANDSEED
  5
2DB
  9
$SURFTAB1
 70
     6
  9
$SURFTAB2
 70
     6
  9
$SURFTYPE
 70
     6
  9
$SURFU
 70
     6
  9
$SURFV
 70
     6
  9
$UCSBASE
  2

  9
$UCSNAME
  2

  9
$UCSORG
 10
0.0
 20
0.0
 30
0.0
  9
$UCSXDIR
 10
1.0
 20
0.0
 30
0.0
  9
$UCSYDIR
 10
0.0
 20
1.0
 30
0.0
  9
$UCSORTHOREF
  2

  9
$UCSORTHOVIEW
 70
     1
  9
$UCSORGTOP
 10
0.0
 20
0.0
 30
0.0
  9
$UCSORGBOTTOM
 10
0.0
 20
0.0
 30
0.0
  9
$UCSORGLEFT
 10
0.0
 20
0.0
 30
0.0
  9
$UCSORGRIGHT
 10
0.0
 20
0.0
 30
0.0
  9
$UCSORGFRONT
 10
0.0
 20
0.0
 30
0.0
  9
$UCSORGBACK
 10
0.0
 20
0.0
 30
0.0
  9
$PUCSBASE
  2

  9
$PUCSNAME
  2

  9
$PUCSORG
 10
0.0
 20
0.0
 30
0.0
  9
$PUCSXDIR
 10
1.0
 20
0.0
 30
0.0
  9
$PUCSYDIR
 10
0.0
 20
1.0
 30
0.0
  9
$PUCSORTHOREF
  2

  9
$PUCSORTHOVIEW
 70
     0
  9
$PUCSORGTOP
 10
0.0
 20
0.0
 30
0.0
  9
$PUCSORGBOTTOM
 10
0.0
 20
0.0
 30
0.0
  9
$PUCSORGLEFT
 10
0.0
 20
0.0
 30
0.0
  9
$PUCSORGRIGHT
 10
0.0
 20
0.0
 30
0.0
  9
$PUCSORGFRONT
 10
0.0
 20
0.0
 30
0.0
  9
$PUCSORGBACK
 10
0.0
 20
0.0
 30
0.0
  9
$USERI1
 70
     0
  9
$USERI2
 70
     0
  9
$USERI3
 70
     0
  9
$USERI4
 70
     0
  9
$USERI5
 70
     0
  9
$USERR1
 40
0.0
  9
$USERR2
 40
0.0
  9
$USERR3
 40
0.0
  9
$USERR4
 40
0.0
  9
$USERR5
 40
0.0
  9
$WORLDVIEW
 70
     1
  9
$SHADEDGE
 70
     3
  9
$SHADEDIF
 70
    70
  9
$TILEMODE
 70
     1
  9
$MAXACTVP
 70
    64
  9
$PINSBASE
 10
0.0
 20
0.0
 30
0.0
  9
$PLIMCHECK
 70
     0
  9
$PEXTMIN
 10
1.000000000000000E+20
 20
1.000000000000000E+20
 30
1.000000000000000E+20
  9
$PEXTMAX
 10
-1.000000000000000E+20
 20
-1.000000000000000E+20
 30
-1.000000000000000E+20
  9
$PLIMMIN
 10
0.0
 20
0.0
  9
$PLIMMAX
 10
420.0
 20
297.0
  9
$UNITMODE
 70
     0
  9
$VISRETAIN
 70
     1
  9
$PLINEGEN
 70
     0
  9
$PSLTSCALE
 70
     1
  9
$TREEDEPTH
 70
  3020
  9
$CMLSTYLE
  2
Standard
  9
$CMLJUST
 70
     0
  9
$CMLSCALE
 40
20.0
  9
$PROXYGRAPHICS
 70
     1
  9
$MEASUREMENT
 70
     1
  9
$CELWEIGHT
370
    -1
  9
$ENDCAPS
280
     0
  9
$JOINSTYLE
280
     0
  9
$LWDISPLAY
290
     0
  9
$INSUNITS
 70
     4
  9
$HYPERLINKBASE
  1

  9
$STYLESHEET
  1

  9
$XEDIT
290
     1
  9
$CEPSNTYPE
380
     0
  9
$PSTYLEMODE
290
     1
  9
$FINGERPRINTGUID
  2
{9B47308E-04D6-42FB-BD32-F27AC533D1CD}
  9
$VERSIONGUID
  2
{5267F6DF-22B8-4A94-A0BF-A86240D5098D}
  9
$EXTNAMES
290
     1
  9
$PSVPSCALE
 40
0.0
  9
$OLESTARTUP
290
     0
  0
ENDSEC
  0
SECTION
  2
CLASSES
  0
CLASS
  1
ACDBDICTIONARYWDFLT
  2
AcDbDictionaryWithDefault
  3
AutoCAD 2000
 90
        0
280
     0
281
     0
  0
CLASS
  1
ACDBPLACEHOLDER
  2
AcDbPlaceHolder
  3
AutoCAD 2000
 90
        0
280
     0
281
     0
  0
CLASS
  1
LAYOUT
  2
AcDbLayout
  3
AutoCAD 2000
 90
        0
280
     0
281
     0
  0
CLASS
  1
DICTIONARYVAR
  2
AcDbDictionaryVar
  3
AutoCAD 2000
 90
        0
280
     0
281
     0
  0
CLASS
  1
DIMASSOC
  2
AcDbDimAssoc
  3
"AcDbDimAssoc|Product Desc:     AcDim ARX App For Dimension|Company:          Autodesk, Inc.|WEB Address:      www.autodesk.com"
 90
        0
280
     0
281
     0
  0
ENDSEC
  0
SECTION
  2
TABLES
  0
TABLE
  2
VPORT
  5
8
330
0
100
AcDbSymbolTable
 70
     2
  0
VPORT
  5
2DA
330
8
100
AcDbSymbolTableRecord
100
AcDbViewportTableRecord
  2
*Active
 70
     0
 10
0.0
 20
0.0
 11
1.0
 21
1.0
 12
-143.7161098199862
 22
-81.14550529130003
 13
0.0
 23
0.0
 14
10.0
 24
10.0
 15
10.0
 25
10.0
 16
-1656.147883172874
 26
452.7207493045787
 36
1807.38277014539
 17
971.9174769469363
 27
709.6714916253618
 37
-84.55632589474499
 40
876.8045579550246
 41
2.226666666666666
 42
50.0
 43
0.0
 44
0.0
 50
0.0
 51
257.7100915400788
 71
     0
 72
   100
 73
     1
 74
     3
 75
     0
 76
     0
 77
     0
 78
     0
281
     0
 65
     1
110
0.0
120
0.0
130
0.0
111
1.0
121
0.0
131
0.0
112
0.0
122
1.0
132
0.0
 79
     1
146
0.0
  0
ENDTAB
  0
TABLE
  2
LTYPE
  5
5
330
0
100
AcDbSymbolTable
 70
     3
  0
LTYPE
  5
14
330
5
100
AcDbSymbolTableRecord
100
AcDbLinetypeTableRecord
  2
ByBlock
 70
     0
  3

 72
    65
 73
     0
 40
0.0
  0
LTYPE
  5
15
330
5
100
AcDbSymbolTableRecord
100
AcDbLinetypeTableRecord
  2
ByLayer
 70
     0
  3

 72
    65
 73
     0
 40
0.0
  0
LTYPE
  5
16
330
5
100
AcDbSymbolTableRecord
100
AcDbLinetypeTableRecord
  2
Continuous
 70
     0
  3
Solid line
 72
    65
 73
     0
 40
0.0
  0
LTYPE
  5
121
330
5
100
AcDbSymbolTableRecord
100
AcDbLinetypeTableRecord
  2
ACAD_ISO02W100
 70
     0
  3
ISO \U+00E8árkovaná __ __ __ __ __ __ __ __ __ __ __ 
 72
    65
 73
     2
 40
15.0
 49
12.0
 74
     0
 49
-3.0
 74
     0
  0
LTYPE
  5
122
330
5
100
AcDbSymbolTableRecord
100
AcDbLinetypeTableRecord
  2
ACAD_ISO03W100
 70
     0
  3
ISO p\U+00F8erušovaná __    __    __    __    __    _
 72
    65
 73
     2
 40
30.0
 49
12.0
 74
     0
 49
-18.0
 74
     0
  0
ENDTAB
  0
TABLE
  2
LAYER
  5
2
330
0
100
AcDbSymbolTable
 70
     5
  0
LAYER
  5
10
330
2
100
AcDbSymbolTableRecord
100
AcDbLayerTableRecord
  2
0
 70
     0
 62
     7
  6
Continuous
370
    -3
390
F
  0
LAYER
  5
2B
330
2
100
AcDbSymbolTableRecord
100
AcDbLayerTableRecord
  2
koty
 70
     0
 62
   -41
  6
Continuous
370
    -3
390
F
  0
LAYER
  5
2C
330
2
100
AcDbSymbolTableRecord
100
AcDbLayerTableRecord
  2
popis
 70
     0
 62
  -210
  6
Continuous
370
    -3
390
F
  0
LAYER
  5
4E
330
2
100
AcDbSymbolTableRecord
100
AcDbLayerTableRecord
  2
Defpoints
 70
     0
 62
     7
  6
Continuous
290
     0
370
    -3
390
F
  0
LAYER
  5
C4
330
2
100
AcDbSymbolTableRecord
100
AcDbLayerTableRecord
  2
srafy
 70
     0
 62
   -90
  6
Continuous
370
    -3
390
F
  0
ENDTAB
  0
TABLE
  2
STYLE
  5
3
330
0
100
AcDbSymbolTable
 70
     2
  0
STYLE
  5
11
330
3
100
AcDbSymbolTableRecord
100
AcDbTextStyleTableRecord
  2
Standard
 70
     0
 40
0.0
 41
1.0
 50
0.0
 71
     0
 42
25.0
  3
txt
  4

  0
STYLE
  5
120
330
3
100
AcDbSymbolTableRecord
100
AcDbTextStyleTableRecord
  2

 70
     1
 40
0.0
 41
1.0
 50
0.0
 71
     0
 42
2.5
  3
ltypeshp.shx
  4

  0
ENDTAB
  0
TABLE
  2
VIEW
  5
6
330
0
100
AcDbSymbolTable
 70
     0
  0
ENDTAB
  0
TABLE
  2
UCS
  5
7
330
0
100
AcDbSymbolTable
 70
     0
  0
ENDTAB
  0
TABLE
  2
APPID
  5
9
330
0
100
AcDbSymbolTable
 70
     1
  0
APPID
  5
12
330
9
100
AcDbSymbolTableRecord
100
AcDbRegAppTableRecord
  2
ACAD
 70
     0
  0
ENDTAB
  0
TABLE
  2
DIMSTYLE
  5
A
330
0
100
AcDbSymbolTable
 70
     1
100
AcDbDimStyleTable
 71
     1
340
27
  0
DIMSTYLE
105
27
102
{ACAD_REACTORS
330
22E
330
246
330
25E
330
276
330
28E
102
}
330
A
100
AcDbSymbolTableRecord
100
AcDbDimStyleTableRecord
  2
ISO-25
 70
     0
 40
10.0
 41
2.0
 42
0.625
 43
3.75
 44
1.25
 73
     0
 74
     0
 77
     1
 78
     8
140
2.0
141
2.5
143
0.03937007874016
147
0.625
171
     3
172
     1
271
     2
272
     2
274
     3
278
    44
283
     0
284
     8
340
11
  0
ENDTAB
  0
TABLE
  2
BLOCK_RECORD
  5
1
330
0
100
AcDbSymbolTable
 70
     6
  0
BLOCK_RECORD
  5
1F
330
1
100
AcDbSymbolTableRecord
100
AcDbBlockTableRecord
  2
*Model_Space
340
22
  0
BLOCK_RECORD
  5
1B
330
1
100
AcDbSymbolTableRecord
100
AcDbBlockTableRecord
  2
*Paper_Space
340
1E
  0
BLOCK_RECORD
  5
23
330
1
100
AcDbSymbolTableRecord
100
AcDbBlockTableRecord
  2
*Paper_Space0
340
26
  0
BLOCK_RECORD
  5
22F
330
1
100
AcDbSymbolTableRecord
100
AcDbBlockTableRecord
  2
*D1
340
0
  0
BLOCK_RECORD
  5
247
330
1
100
AcDbSymbolTableRecord
100
AcDbBlockTableRecord
  2
*D2
340
0
  0
BLOCK_RECORD
  5
25F
330
1
100
AcDbSymbolTableRecord
100
AcDbBlockTableRecord
  2
*D3
340
0
  0
BLOCK_RECORD
  5
277
330
1
100
AcDbSymbolTableRecord
100
AcDbBlockTableRecord
  2
*D4
340
0
  0
BLOCK_RECORD
  5
28F
330
1
100
AcDbSymbolTableRecord
100
AcDbBlockTableRecord
  2
*D5
340
0
  0
ENDTAB
  0
ENDSEC
  0
SECTION
  2
BLOCKS
  0
BLOCK
  5
20
330
1F
100
AcDbEntity
  8
0
100
AcDbBlockBegin
  2
*Model_Space
 70
     0
 10
0.0
 20
0.0
 30
0.0
  3
*Model_Space
  1

  0
ENDBLK
  5
21
330
1F
100
AcDbEntity
  8
0
100
AcDbBlockEnd
  0
BLOCK
  5
1C
330
1B
100
AcDbEntity
 67
     1
  8
0
100
AcDbBlockBegin
  2
*Paper_Space
 70
     0
 10
0.0
 20
0.0
 30
0.0
  3
*Paper_Space
  1

  0
ENDBLK
  5
1D
330
1B
100
AcDbEntity
 67
     1
  8
0
100
AcDbBlockEnd
  0
BLOCK
  5
24
330
23
100
AcDbEntity
  8
0
100
AcDbBlockBegin
  2
*Paper_Space0
 70
     0
 10
0.0
 20
0.0
 30
0.0
  3
*Paper_Space0
  1

  0
ENDBLK
  5
25
330
23
100
AcDbEntity
  8
0
100
AcDbBlockEnd
  0
BLOCK
  5
239
330
22F
100
AcDbEntity
  8
0
100
AcDbBlockBegin
  2
*D1
 70
     1
 10
0.0
 20
0.0
 30
0.0
  3
*D1
  1

  0
LINE
  5
2C2
330
22F
100
AcDbEntity
  8
koty
 62
     0
370
    -2
100
AcDbLine
 10
1704.467479919651
 20
909.2008256455001
 30
0.0
 11
1782.602042735519
 21
909.2008256455001
 31
0.0
  0
LINE
  5
2C3
330
22F
100
AcDbEntity
  8
koty
 62
     0
370
    -2
100
AcDbLine
 10
1704.467479919652
 20
349.2008256455
 30
0.0
 11
1782.602042735519
 21
349.2008256455
 31
0.0
  0
LINE
  5
2C4
330
22F
100
AcDbEntity
  8
koty
 62
     0
370
    -2
100
AcDbLine
 10
1770.10204273552
 20
889.2008256455
 30
0.0
 11
1770.102042735519
 21
369.2008256455
 31
0.0
  0
SOLID
  5
2C5
330
22F
100
AcDbEntity
  8
koty
 62
     0
100
AcDbTrace
 10
1766.768709402186
 20
889.2008256455
 30
0.0
 11
1773.435376068853
 21
889.2008256455
 31
0.0
 12
1770.10204273552
 22
909.2008256455001
 32
0.0
 13
1770.10204273552
 23
909.2008256455001
 33
0.0
  0
SOLID
  5
2C6
330
22F
100
AcDbEntity
  8
koty
 62
     0
100
AcDbTrace
 10
1766.768709402186
 20
369.2008256455
 30
0.0
 11
1773.435376068853
 21
369.2008256455
 31
0.0
 12
1770.102042735519
 22
349.2008256455
 32
0.0
 13
1770.102042735519
 23
349.2008256455
 33
0.0
  0
MTEXT
  5
2C7
330
22F
100
AcDbEntity
  8
koty
 62
     0
100
AcDbMText
 10
1753.85204273552
 20
629.2008256455002
 30
0.0
 40
20.0
 41
0.0
 71
     5
 72
     1
  1
560
 11
0.0000000000000001
 21
1.0
 31
0.0
 73
     1
 44
1.0
  0
POINT
  5
2C8
330
22F
100
AcDbEntity
  8
Defpoints
 62
     0
100
AcDbPoint
 10
1698.217479919651
 20
909.2008256455001
 30
0.0
  0
POINT
  5
2C9
330
22F
100
AcDbEntity
  8
Defpoints
 62
     0
100
AcDbPoint
 10
1698.217479919652
 20
349.2008256455
 30
0.0
  0
POINT
  5
2CA
330
22F
100
AcDbEntity
  8
Defpoints
 62
     0
100
AcDbPoint
 10
1770.102042735519
 20
349.2008256455
 30
0.0
  0
ENDBLK
  5
23A
330
22F
100
AcDbEntity
  8
0
100
AcDbBlockEnd
  0
BLOCK
  5
251
330
247
100
AcDbEntity
  8
0
100
AcDbBlockBegin
  2
*D2
 70
     1
 10
0.0
 20
0.0
 30
0.0
  3
*D2
  1

  0
LINE
  5
2B9
330
247
100
AcDbEntity
  8
koty
 62
     0
370
    -2
100
AcDbLine
 10
1704.467479919652
 20
319.2008256454998
 30
0.0
 11
1847.644902209737
 21
319.2008256454998
 31
0.0
  0
LINE
  5
2BA
330
247
100
AcDbEntity
  8
koty
 62
     0
370
    -2
100
AcDbLine
 10
1704.467479919651
 20
939.2008256455001
 30
0.0
 11
1847.644902209737
 21
939.2008256455
 31
0.0
  0
LINE
  5
2BB
330
247
100
AcDbEntity
  8
koty
 62
     0
370
    -2
100
AcDbLine
 10
1835.144902209737
 20
339.2008256454999
 30
0.0
 11
1835.144902209737
 21
919.2008256455
 31
0.0
  0
SOLID
  5
2BC
330
247
100
AcDbEntity
  8
koty
 62
     0
100
AcDbTrace
 10
1831.811568876404
 20
339.2008256454999
 30
0.0
 11
1838.47823554307
 21
339.2008256454999
 31
0.0
 12
1835.144902209737
 22
319.2008256454998
 32
0.0
 13
1835.144902209737
 23
319.2008256454998
 33
0.0
  0
SOLID
  5
2BD
330
247
100
AcDbEntity
  8
koty
 62
     0
100
AcDbTrace
 10
1831.811568876404
 20
919.2008256455
 30
0.0
 11
1838.47823554307
 21
919.2008256455
 31
0.0
 12
1835.144902209737
 22
939.2008256455
 32
0.0
 13
1835.144902209737
 23
939.2008256455
 33
0.0
  0
MTEXT
  5
2BE
330
247
100
AcDbEntity
  8
koty
 62
     0
100
AcDbMText
 10
1818.894902209737
 20
629.2008256455002
 30
0.0
 40
20.0
 41
0.0
 71
     5
 72
     1
  1
620
 11
0.0000000000000001
 21
1.0
 31
0.0
 73
     1
 44
1.0
  0
POINT
  5
2BF
330
247
100
AcDbEntity
  8
Defpoints
 62
     0
100
AcDbPoint
 10
1698.217479919652
 20
319.2008256454998
 30
0.0
  0
POINT
  5
2C0
330
247
100
AcDbEntity
  8
Defpoints
 62
     0
100
AcDbPoint
 10
1698.217479919651
 20
939.2008256455001
 30
0.0
  0
POINT
  5
2C1
330
247
100
AcDbEntity
  8
Defpoints
 62
     0
100
AcDbPoint
 10
1835.144902209737
 20
939.2008256455
 30
0.0
  0
ENDBLK
  5
252
330
247
100
AcDbEntity
  8
0
100
AcDbBlockEnd
  0
BLOCK
  5
269
330
25F
100
AcDbEntity
  8
0
100
AcDbBlockBegin
  2
*D3
 70
     1
 10
0.0
 20
0.0
 30
0.0
  3
*D3
  1

  0
LINE
  5
2B0
330
25F
100
AcDbEntity
  8
koty
 62
     0
370
    -2
100
AcDbLine
 10
1704.467479919651
 20
956.7008256455002
 30
0.0
 11
1904.495554019522
 21
956.7008256455
 31
0.0
  0
LINE
  5
2B1
330
25F
100
AcDbEntity
  8
koty
 62
     0
370
    -2
100
AcDbLine
 10
1704.467479919652
 20
301.7008256454997
 30
0.0
 11
1904.495554019522
 21
301.7008256454997
 31
0.0
  0
LINE
  5
2B2
330
25F
100
AcDbEntity
  8
koty
 62
     0
370
    -2
100
AcDbLine
 10
1891.995554019522
 20
936.7008256455001
 30
0.0
 11
1891.995554019522
 21
321.7008256454997
 31
0.0
  0
SOLID
  5
2B3
330
25F
100
AcDbEntity
  8
koty
 62
     0
100
AcDbTrace
 10
1888.662220686189
 20
936.7008256455001
 30
0.0
 11
1895.328887352856
 21
936.7008256455001
 31
0.0
 12
1891.995554019522
 22
956.7008256455
 32
0.0
 13
1891.995554019522
 23
956.7008256455
 33
0.0
  0
SOLID
  5
2B4
330
25F
100
AcDbEntity
  8
koty
 62
     0
100
AcDbTrace
 10
1888.662220686189
 20
321.7008256454997
 30
0.0
 11
1895.328887352855
 21
321.7008256454997
 31
0.0
 12
1891.995554019522
 22
301.7008256454997
 32
0.0
 13
1891.995554019522
 23
301.7008256454997
 33
0.0
  0
MTEXT
  5
2B5
330
25F
100
AcDbEntity
  8
koty
 62
     0
100
AcDbMText
 10
1875.745554019522
 20
629.2008256455002
 30
0.0
 40
20.0
 41
0.0
 71
     5
 72
     1
  1
655
 11
0.0000000000000001
 21
1.0
 31
0.0
 73
     1
 44
1.0
  0
POINT
  5
2B6
330
25F
100
AcDbEntity
  8
Defpoints
 62
     0
100
AcDbPoint
 10
1698.217479919651
 20
956.7008256455002
 30
0.0
  0
POINT
  5
2B7
330
25F
100
AcDbEntity
  8
Defpoints
 62
     0
100
AcDbPoint
 10
1698.217479919652
 20
301.7008256454997
 30
0.0
  0
POINT
  5
2B8
330
25F
100
AcDbEntity
  8
Defpoints
 62
     0
100
AcDbPoint
 10
1891.995554019522
 20
301.7008256454997
 30
0.0
  0
ENDBLK
  5
26A
330
25F
100
AcDbEntity
  8
0
100
AcDbBlockEnd
  0
BLOCK
  5
281
330
277
100
AcDbEntity
  8
0
100
AcDbBlockBegin
  2
*D4
 70
     1
 10
0.0
 20
0.0
 30
0.0
  3
*D4
  1

  0
LINE
  5
2CB
330
277
100
AcDbEntity
  8
koty
 62
     0
370
    -2
100
AcDbLine
 10
1178.217479919652
 20
295.4508256454993
 30
0.0
 11
1178.217479919652
 21
230.5182778977441
 31
0.0
  0
LINE
  5
2CC
330
277
100
AcDbEntity
  8
koty
 62
     0
370
    -2
100
AcDbLine
 10
1698.217479919652
 20
295.4508256454997
 30
0.0
 11
1698.217479919652
 21
230.5182778977441
 31
0.0
  0
LINE
  5
2CD
330
277
100
AcDbEntity
  8
koty
 62
     0
370
    -2
100
AcDbLine
 10
1198.217479919652
 20
243.0182778977441
 30
0.0
 11
1678.217479919652
 21
243.0182778977441
 31
0.0
  0
SOLID
  5
2CE
330
277
100
AcDbEntity
  8
koty
 62
     0
100
AcDbTrace
 10
1198.217479919652
 20
246.3516112310775
 30
0.0
 11
1198.217479919652
 21
239.6849445644108
 31
0.0
 12
1178.217479919652
 22
243.0182778977441
 32
0.0
 13
1178.217479919652
 23
243.0182778977441
 33
0.0
  0
SOLID
  5
2CF
330
277
100
AcDbEntity
  8
koty
 62
     0
100
AcDbTrace
 10
1678.217479919652
 20
246.3516112310775
 30
0.0
 11
1678.217479919652
 21
239.6849445644108
 31
0.0
 12
1698.217479919652
 22
243.0182778977441
 32
0.0
 13
1698.217479919652
 23
243.0182778977441
 33
0.0
  0
MTEXT
  5
2D0
330
277
100
AcDbEntity
  8
koty
 62
     0
100
AcDbMText
 10
1438.217479919652
 20
259.2682778977441
 30
0.0
 40
20.0
 41
0.0
 71
     5
 72
     1
  1
520
 73
     1
 44
1.0
  0
POINT
  5
2D1
330
277
100
AcDbEntity
  8
Defpoints
 62
     0
100
AcDbPoint
 10
1178.217479919652
 20
301.7008256454993
 30
0.0
  0
POINT
  5
2D2
330
277
100
AcDbEntity
  8
Defpoints
 62
     0
100
AcDbPoint
 10
1698.217479919652
 20
301.7008256454997
 30
0.0
  0
POINT
  5
2D3
330
277
100
AcDbEntity
  8
Defpoints
 62
     0
100
AcDbPoint
 10
1698.217479919652
 20
243.0182778977441
 30
0.0
  0
ENDBLK
  5
282
330
277
100
AcDbEntity
  8
0
100
AcDbBlockEnd
  0
BLOCK
  5
298
330
28F
100
AcDbEntity
  8
0
100
AcDbBlockBegin
  2
*D5
 70
     1
 10
0.0
 20
0.0
 30
0.0
  3
*D5
  1

  0
LINE
  5
29B
330
28F
100
AcDbEntity
  8
koty
 62
     0
370
    -2
100
AcDbLine
 10
1070.156480957379
 20
897.6687008186756
 30
0.0
 11
956.4165978372367
 21
897.6687008186756
 31
0.0
  0
LINE
  5
29C
330
28F
100
AcDbEntity
  8
koty
 62
     0
370
    -2
100
AcDbLine
 10
904.4165978372365
 20
897.6687008186756
 30
0.0
 11
884.4165978372366
 21
897.6687008186756
 31
0.0
  0
MTEXT
  5
29D
330
28F
100
AcDbEntity
  8
koty
 62
     0
100
AcDbMText
 10
1040.573147624046
 20
913.9187008186755
 30
0.0
 40
20.0
 41
0.0
 71
     5
 72
     1
  1
\U+220512
 73
     1
 44
1.0
  0
LINE
  5
29E
330
28F
100
AcDbEntity
  8
koty
 62
     0
370
    -2
100
AcDbLine
 10
924.4165978372366
 20
897.6687008186756
 30
0.0
 11
936.4165978372366
 21
897.6687008186756
 31
0.0
  0
SOLID
  5
29F
330
28F
100
AcDbEntity
  8
koty
 62
     0
100
AcDbTrace
 10
904.4165978372365
 20
901.0020341520089
 30
0.0
 11
904.4165978372365
 21
894.3353674853423
 31
0.0
 12
924.4165978372366
 22
897.6687008186756
 32
0.0
 13
924.4165978372366
 23
897.6687008186756
 33
0.0
  0
SOLID
  5
2A0
330
28F
100
AcDbEntity
  8
koty
 62
     0
100
AcDbTrace
 10
956.4165978372367
 20
901.0020341520089
 30
0.0
 11
956.4165978372367
 21
894.3353674853423
 31
0.0
 12
936.4165978372366
 22
897.6687008186756
 32
0.0
 13
936.4165978372366
 23
897.6687008186756
 33
0.0
  0
POINT
  5
2A1
330
28F
100
AcDbEntity
  8
Defpoints
 62
     0
100
AcDbPoint
 10
936.4165978372366
 20
897.6687008186756
 30
0.0
  0
POINT
  5
2A2
330
28F
100
AcDbEntity
  8
Defpoints
 62
     0
100
AcDbPoint
 10
924.4165978372366
 20
897.6687008186756
 30
0.0
  0
ENDBLK
  5
299
330
28F
100
AcDbEntity
  8
0
100
AcDbBlockEnd
  0
ENDSEC
  0
SECTION
  2
ENTITIES
  0
CIRCLE
  5
176
330
1F
100
AcDbEntity
  8
0
100
AcDbCircle
 10
775.4165978372366
 20
939.2008256454996
 30
0.0
 40
6.0
  0
CIRCLE
  5
177
330
1F
100
AcDbEntity
  8
0
100
AcDbCircle
 10
620.4165978372365
 20
897.6687008186756
 30
0.0
 40
6.0
  0
CIRCLE
  5
178
330
1F
100
AcDbEntity
  8
0
100
AcDbCircle
 10
506.9487226640606
 20
784.2008256454997
 30
0.0
 40
6.0
  0
CIRCLE
  5
179
330
1F
100
AcDbEntity
  8
0
100
AcDbCircle
 10
465.4165978372367
 20
629.2008256454996
 30
0.0
 40
6.0
  0
CIRCLE
  5
17A
330
1F
100
AcDbEntity
  8
0
100
AcDbCircle
 10
506.9487226640607
 20
474.2008256454997
 30
0.0
 40
6.0
  0
CIRCLE
  5
17B
330
1F
100
AcDbEntity
  8
0
100
AcDbCircle
 10
620.4165978372365
 20
360.7329504723234
 30
0.0
 40
6.0
  0
CIRCLE
  5
17C
330
1F
100
AcDbEntity
  8
0
100
AcDbCircle
 10
775.4165978372366
 20
319.2008256454994
 30
0.0
 40
6.0
  0
CIRCLE
  5
17D
102
{ACAD_REACTORS
330
2A7
102
}
330
1F
100
AcDbEntity
  8
0
100
AcDbCircle
 10
930.4165978372365
 20
360.7329504723235
 30
0.0
 40
6.0
  0
CIRCLE
  5
17E
330
1F
100
AcDbEntity
  8
0
100
AcDbCircle
 10
1043.884473010412
 20
474.2008256454993
 30
0.0
 40
6.0
  0
CIRCLE
  5
17F
330
1F
100
AcDbEntity
  8
0
100
AcDbCircle
 10
1085.416597837236
 20
629.2008256454994
 30
0.0
 40
6.0
  0
CIRCLE
  5
180
330
1F
100
AcDbEntity
  8
0
100
AcDbCircle
 10
1043.884473010412
 20
784.2008256454996
 30
0.0
 40
6.0
  0
CIRCLE
  5
181
102
{ACAD_REACTORS
330
2A3
102
}
330
1F
100
AcDbEntity
  8
0
100
AcDbCircle
 10
930.4165978372365
 20
897.6687008186756
 30
0.0
 40
6.0
  0
CIRCLE
  5
182
330
1F
100
AcDbEntity
  8
0
100
AcDbCircle
 10
775.4165978372366
 20
629.2008256454996
 30
0.0
 40
118.3484700382132
  0
CIRCLE
  5
183
330
1F
100
AcDbEntity
  8
0
100
AcDbCircle
 10
775.4165978372366
 20
629.2008256454996
 30
0.0
 40
113.5038751979452
  0
CIRCLE
  5
184
330
1F
100
AcDbEntity
  8
0
100
AcDbCircle
 10
775.4165978372366
 20
629.2008256454996
 30
0.0
 40
57.09309276306747
  0
CIRCLE
  5
185
330
1F
100
AcDbEntity
  8
0
100
AcDbCircle
 10
775.4165978372366
 20
629.2008256454996
 30
0.0
 40
10.60288891658953
  0
LINE
  5
186
330
1F
100
AcDbEntity
  8
0
100
AcDbLine
 10
710.8497168362108
 20
898.180700110541
 30
0.0
 11
710.8497168362108
 21
800.6411540526396
 31
0.0
  0
LINE
  5
187
330
1F
100
AcDbEntity
  8
0
100
AcDbLine
 10
710.8497168362109
 20
800.6411540526395
 30
0.0
 11
724.984341056456
 21
736.2659826125693
 31
0.0
  0
ARC
  5
188
330
1F
100
AcDbEntity
  8
0
100
AcDbCircle
 10
775.4165978372366
 20
629.2008256454996
 30
0.0
 40
276.6207783038542
100
AcDbArc
 50
76.50190800190206
 51
103.4980919980979
  0
LINE
  5
189
330
1F
100
AcDbEntity
  8
0
100
AcDbLine
 10
839.9834788382621
 20
800.6411540526388
 30
0.0
 11
825.8488546180171
 21
736.2659826125693
 31
0.0
  0
LINE
  5
18A
330
1F
100
AcDbEntity
  8
0
100
AcDbLine
 10
839.9834788382623
 20
898.180700110541
 30
0.0
 11
839.9834788382623
 21
800.6411540526396
 31
0.0
  0
LINE
  5
18B
330
1F
100
AcDbEntity
  8
0
100
AcDbLine
 10
601.1223598819106
 20
685.6117017432948
 30
0.0
 11
660.2656896574626
 21
656.525333065746
 31
0.0
  0
LINE
  5
18C
330
1F
100
AcDbEntity
  8
0
100
AcDbLine
 10
524.8628719882027
 20
746.4266139883264
 30
0.0
 11
601.1223598819103
 21
685.6117017432948
 31
0.0
  0
ARC
  5
18D
330
1F
100
AcDbEntity
  8
0
100
AcDbCircle
 10
775.4165978372366
 20
629.2008256454995
 30
0.0
 40
276.6207783038542
100
AcDbArc
 50
127.9304794304734
 51
154.9266634266693
  0
LINE
  5
18E
330
1F
100
AcDbEntity
  8
0
100
AcDbLine
 10
605.3764556721347
 20
847.3874545710641
 30
0.0
 11
681.6359435658422
 21
786.5725423260323
 31
0.0
  0
LINE
  5
18F
330
1F
100
AcDbEntity
  8
0
100
AcDbLine
 10
681.635943565843
 20
786.5725423260316
 30
0.0
 11
723.1536852325379
 21
735.3843852319981
 31
0.0
  0
LINE
  5
190
330
1F
100
AcDbEntity
  8
0
100
AcDbLine
 10
622.6421190624918
 20
528.1037091601433
 30
0.0
 11
682.258020768296
 21
556.2087721131038
 31
0.0
  0
LINE
  5
191
330
1F
100
AcDbEntity
  8
0
100
AcDbLine
 10
527.5480930690991
 20
506.3991182736641
 30
0.0
 11
622.6421190624916
 21
528.1037091601432
 31
0.0
  0
ARC
  5
192
330
1F
100
AcDbEntity
  8
0
100
AcDbCircle
 10
775.4165978372366
 20
629.2008256454995
 30
0.0
 40
276.6207783038542
100
AcDbArc
 50
179.3590508590448
 51
206.3552348552407
  0
LINE
  5
193
330
1F
100
AcDbEntity
  8
0
100
AcDbLine
 10
498.8131277431103
 20
632.2952272545087
 30
0.0
 11
593.9071537365028
 21
653.9998181409877
 31
0.0
  0
LINE
  5
194
330
1F
100
AcDbEntity
  8
0
100
AcDbLine
 10
593.9071537365038
 20
653.9998181409877
 30
0.0
 11
659.813555007528
 21
654.5444017329118
 31
0.0
  0
LINE
  5
195
330
1F
100
AcDbEntity
  8
0
100
AcDbLine
 10
759.2041767918889
 20
446.7239072958163
 30
0.0
 11
774.4006605007
 21
510.8567162369019
 31
0.0
  0
LINE
  5
196
330
1F
100
AcDbEntity
  8
0
100
AcDbLine
 10
716.8833538364572
 20
358.8438129083128
 30
0.0
 11
759.2041767918888
 21
446.7239072958159
 31
0.0
  0
ARC
  5
197
330
1F
100
AcDbEntity
  8
0
100
AcDbCircle
 10
775.4165978372366
 20
629.2008256454996
 30
0.0
 40
276.6207783038542
100
AcDbArc
 50
230.7876222876163
 51
257.7838062838122
  0
LINE
  5
198
330
1F
100
AcDbEntity
  8
0
100
AcDbLine
 10
600.5378544774885
 20
414.8728524120798
 30
0.0
 11
642.85867743292
 21
502.752946799583
 31
0.0
  0
LINE
  5
199
330
1F
100
AcDbEntity
  8
0
100
AcDbLine
 10
642.8586774329207
 20
502.7529467995838
 30
0.0
 11
683.5248739056121
 21
554.6201885252657
 31
0.0
  0
LINE
  5
19A
330
1F
100
AcDbEntity
  8
0
100
AcDbLine
 10
907.9745182415528
 20
502.7529467995828
 30
0.0
 11
867.3083217688608
 21
554.6201885252656
 31
0.0
  0
LINE
  5
19B
330
1F
100
AcDbEntity
  8
0
100
AcDbLine
 10
950.2953411969844
 20
414.8728524120794
 30
0.0
 11
907.974518241553
 21
502.7529467995828
 31
0.0
  0
ARC
  5
19C
330
1F
100
AcDbEntity
  8
0
100
AcDbCircle
 10
775.4165978372366
 20
629.2008256454993
 30
0.0
 40
276.6207783038542
100
AcDbArc
 50
282.2161937161877
 51
309.2123777123836
  0
LINE
  5
19D
330
1F
100
AcDbEntity
  8
0
100
AcDbLine
 10
833.9498418380156
 20
358.8438129083126
 30
0.0
 11
791.6290188825843
 21
446.7239072958159
 31
0.0
  0
LINE
  5
19E
330
1F
100
AcDbEntity
  8
0
100
AcDbLine
 10
791.6290188825838
 20
446.7239072958168
 30
0.0
 11
776.4325351737729
 21
510.8567162369017
 31
0.0
  0
LINE
  5
19F
330
1F
100
AcDbEntity
  8
0
100
AcDbLine
 10
956.9260419379702
 20
653.9998181409875
 30
0.0
 11
891.0196406669452
 21
654.5444017329116
 31
0.0
  0
LINE
  5
1A0
330
1F
100
AcDbEntity
  8
0
100
AcDbLine
 10
1052.020067931363
 20
632.2952272545083
 30
0.0
 11
956.9260419379704
 21
653.9998181409876
 31
0.0
  0
ARC
  5
1A1
330
1F
100
AcDbEntity
  8
0
100
AcDbCircle
 10
775.4165978372368
 20
629.2008256454996
 30
0.0
 40
276.6207783038542
100
AcDbArc
 50
333.6447651447591
 51
0.6409491409550185
  0
LINE
  5
1A2
330
1F
100
AcDbEntity
  8
0
100
AcDbLine
 10
1023.285102605373
 20
506.3991182736637
 30
0.0
 11
928.1910766119814
 21
528.1037091601431
 31
0.0
  0
LINE
  5
1A3
330
1F
100
AcDbEntity
  8
0
100
AcDbLine
 10
928.1910766119805
 20
528.1037091601434
 30
0.0
 11
868.5751749061772
 21
556.2087721131036
 31
0.0
  0
LINE
  5
1A4
330
1F
100
AcDbEntity
  8
0
100
AcDbLine
 10
869.1972521086311
 20
786.5725423260321
 30
0.0
 11
827.6795104419356
 21
735.3843852319981
 31
0.0
  0
LINE
  5
1A5
330
1F
100
AcDbEntity
  8
0
100
AcDbLine
 10
945.4567400023389
 20
847.3874545710639
 30
0.0
 11
869.1972521086311
 21
786.5725423260323
 31
0.0
  0
ARC
  5
1A6
330
1F
100
AcDbEntity
  8
0
100
AcDbCircle
 10
775.4165978372367
 20
629.2008256454995
 30
0.0
 40
276.6207783038542
100
AcDbArc
 50
25.07333657333057
 51
52.06952056952644
  0
LINE
  5
1A7
330
1F
100
AcDbEntity
  8
0
100
AcDbLine
 10
1025.97032368627
 20
746.4266139883261
 30
0.0
 11
949.7108357925631
 21
685.6117017432946
 31
0.0
  0
LINE
  5
1A8
330
1F
100
AcDbEntity
  8
0
100
AcDbLine
 10
949.7108357925622
 20
685.6117017432941
 30
0.0
 11
890.5675060170105
 21
656.525333065746
 31
0.0
  0
ARC
  5
1A9
330
1F
100
AcDbEntity
  8
0
100
AcDbCircle
 10
770.9935527233565
 20
629.7636759996386
 30
0.0
 40
276.6207783038542
100
AcDbArc
 50
82.28609290419147
 51
103.4980919980979
  0
LINE
  5
1AA
330
1F
100
AcDbEntity
  8
0
100
AcDbLine
 10
706.4266717223307
 20
898.74355046468
 30
0.0
 11
706.4266717223307
 21
801.2040044067786
 31
0.0
  0
LINE
  5
1AB
330
1F
100
AcDbEntity
  8
0
100
AcDbLine
 10
706.4266717223309
 20
801.2040044067784
 30
0.0
 11
720.0338948336999
 21
739.2308449531991
 31
0.0
  0
LINE
  5
1AC
330
1F
100
AcDbEntity
  8
0
100
AcDbLine
 10
597.9245822334612
 20
682.504557280665
 30
0.0
 11
654.8611142038358
 21
654.5034797898281
 31
0.0
  0
LINE
  5
1AD
330
1F
100
AcDbEntity
  8
0
100
AcDbLine
 10
521.6650943397532
 20
743.3194695256966
 30
0.0
 11
597.9245822334608
 21
682.504557280665
 31
0.0
  0
ARC
  5
1AE
330
1F
100
AcDbEntity
  8
0
100
AcDbCircle
 10
772.218820188787
 20
626.09368118287
 30
0.0
 40
276.6207783038542
100
AcDbArc
 50
133.7146643327628
 51
154.9266634266693
  0
LINE
  5
1AF
330
1F
100
AcDbEntity
  8
0
100
AcDbLine
 10
623.0776006715318
 20
523.6663130353016
 30
0.0
 11
680.4690716336274
 21
550.7226999756949
 31
0.0
  0
LINE
  5
1B0
330
1F
100
AcDbEntity
  8
0
100
AcDbLine
 10
527.9835746781391
 20
501.9617221488223
 30
0.0
 11
623.0776006715316
 21
523.6663130353014
 31
0.0
  0
ARC
  5
1B1
330
1F
100
AcDbEntity
  8
0
100
AcDbCircle
 10
775.8520794462766
 20
624.7634295206578
 30
0.0
 40
276.6207783038542
100
AcDbArc
 50
185.1432357613342
 51
206.3552348552407
  0
LINE
  5
1B2
330
1F
100
AcDbEntity
  8
0
100
AcDbLine
 10
762.9449911246053
 20
444.2977092971532
 30
0.0
 11
777.5744528713071
 21
506.0375494529483
 31
0.0
  0
LINE
  5
1B3
330
1F
100
AcDbEntity
  8
0
100
AcDbLine
 10
720.6241681691738
 20
356.4176149096498
 30
0.0
 11
762.9449911246053
 21
444.2977092971529
 31
0.0
  0
ARC
  5
1B4
330
1F
100
AcDbEntity
  8
0
100
AcDbCircle
 10
779.1574121699532
 20
626.7746276468366
 30
0.0
 40
276.6207783038542
100
AcDbArc
 50
236.5718071899057
 51
257.7838062838122
  0
LINE
  5
1B5
330
1F
100
AcDbEntity
  8
0
100
AcDbLine
 10
912.203755806704
 20
504.1649235055119
 30
0.0
 11
873.0549252561106
 21
554.0968579761716
 31
0.0
  0
LINE
  5
1B6
330
1F
100
AcDbEntity
  8
0
100
AcDbLine
 10
954.5245787621357
 20
416.2848291180084
 30
0.0
 11
912.2037558067043
 21
504.1649235055117
 31
0.0
  0
ARC
  5
1B7
330
1F
100
AcDbEntity
  8
0
100
AcDbCircle
 10
779.6458354023878
 20
630.6128023514282
 30
0.0
 40
276.6207783038542
100
AcDbArc
 50
288.0003786184771
 51
309.2123777123836
  0
LINE
  5
1B8
330
1F
100
AcDbEntity
  8
0
100
AcDbLine
 10
958.4590005882732
 20
658.1867222928679
 30
0.0
 11
895.0117456355901
 21
658.7109859961429
 31
0.0
  0
LINE
  5
1B9
330
1F
100
AcDbEntity
  8
0
100
AcDbLine
 10
1053.553026581666
 20
636.4821314063888
 30
0.0
 11
958.4590005882734
 21
658.1867222928681
 31
0.0
  0
ARC
  5
1BA
330
1F
100
AcDbEntity
  8
0
100
AcDbCircle
 10
776.9495564875398
 20
633.3877297973802
 30
0.0
 40
276.6207783038542
100
AcDbArc
 50
339.4289500470485
 51
0.6409491409550185
  0
LINE
  5
1BB
330
1F
100
AcDbEntity
  8
0
100
AcDbLine
 10
866.8795827137499
 20
790.3815497002182
 30
0.0
 11
826.9109804264854
 21
741.1033613745114
 31
0.0
  0
LINE
  5
1BC
330
1F
100
AcDbEntity
  8
0
100
AcDbLine
 10
943.1390706074576
 20
851.19646194525
 30
0.0
 11
866.8795827137499
 21
790.3815497002184
 31
0.0
  0
ARC
  5
1BD
330
1F
100
AcDbEntity
  8
0
100
AcDbCircle
 10
773.0989284423555
 20
633.0098330196857
 30
0.0
 40
276.6207783038542
100
AcDbArc
 50
30.85752147561997
 51
52.06952056952644
  0
HATCH
  5
1E0
330
1F
100
AcDbEntity
  8
srafy
100
AcDbHatch
 10
0.0
 20
0.0
 30
0.0
210
0.0
220
0.0
230
1.0
  2
LINE
 70
     0
 71
     0
 91
        2
 92
        1
 93
        4
 72
     1
 10
1315.41658989321
 20
742.0513805385768
 11
1421.591224565439
 21
742.0513805385768
 72
     1
 10
1421.591224565439
 20
742.0513805385768
 11
1421.591224565439
 21
642.0513805385766
 72
     1
 10
1421.591224565439
 20
642.0513805385766
 11
1315.41658989321
 21
642.0513805385766
 72
     1
 10
1315.41658989321
 20
642.0513805385766
 11
1315.41658989321
 21
742.0513805385768
 97
        0
 92
        1
 93
        4
 72
     1
 10
1315.41658989321
 20
616.3502707524228
 11
1421.591224565438
 21
616.3502707524228
 72
     1
 10
1421.591224565438
 20
616.3502707524228
 11
1421.591224565438
 21
516.3502707524221
 72
     1
 10
1421.591224565438
 20
516.3502707524221
 11
1315.41658989321
 21
516.3502707524221
 72
     1
 10
1315.41658989321
 20
516.3502707524221
 11
1315.41658989321
 21
616.3502707524228
 97
        0
 75
     0
 76
     1
 52
0.0
 41
2.0
 77
     0
 78
     1
 53
0.0
 43
0.0
 44
0.0
 45
0.0
 46
6.349999999999999
 79
     0
 98
        1
 10
0.0
 20
0.0
  0
HATCH
  5
1FF
330
1F
100
AcDbEntity
  8
srafy
100
AcDbHatch
 10
0.0
 20
0.0
 30
0.0
210
0.0
220
0.0
230
1.0
  2
LINE
 70
     0
 71
     0
 91
        2
 92
        1
 93
        4
 72
     1
 10
1561.018369946093
 20
742.0513805385771
 11
1454.843735273865
 21
742.0513805385769
 72
     1
 10
1454.843735273865
 20
742.0513805385769
 11
1454.843735273865
 21
642.0513805385767
 72
     1
 10
1454.843735273865
 20
642.0513805385767
 11
1561.018369946093
 21
642.0513805385768
 72
     1
 10
1561.018369946093
 20
642.0513805385768
 11
1561.018369946093
 21
742.0513805385771
 97
        0
 92
        1
 93
        4
 72
     1
 10
1561.018369946093
 20
616.350270752423
 11
1454.843735273865
 21
616.3502707524229
 72
     1
 10
1454.843735273865
 20
616.3502707524229
 11
1454.843735273865
 21
516.3502707524222
 72
     1
 10
1454.843735273865
 20
516.3502707524222
 11
1561.018369946093
 21
516.3502707524223
 72
     1
 10
1561.018369946093
 20
516.3502707524223
 11
1561.018369946093
 21
616.350270752423
 97
        0
 75
     0
 76
     1
 52
0.0
 41
2.0
 77
     0
 78
     1
 53
180.0000000000001
 43
2876.434959839304
 44
0.0000000000023874
 45
-0.0000000000000103
 46
6.349999999999999
 79
     0
 98
        1
 10
2876.434959839304
 20
0.0000000000023874
  0
DIMENSION
  5
22E
330
1F
100
AcDbEntity
  8
koty
100
AcDbDimension
  2
*D1
 10
1770.102042735519
 20
349.2008256455
 30
0.0
 11
1753.85204273552
 21
629.2008256455002
 31
0.0
 70
    32
 71
     5
 42
560.0
  3
ISO-25
100
AcDbAlignedDimension
 13
1698.217479919651
 23
909.2008256455001
 33
0.0
 14
1698.217479919652
 24
349.2008256455
 34
0.0
 50
90.0
100
AcDbRotatedDimension
  0
DIMENSION
  5
246
330
1F
100
AcDbEntity
  8
koty
100
AcDbDimension
  2
*D2
 10
1835.144902209737
 20
939.2008256455
 30
0.0
 11
1818.894902209737
 21
629.2008256455002
 31
0.0
 70
    32
 71
     5
 42
620.0000000000002
  3
ISO-25
100
AcDbAlignedDimension
 13
1698.217479919652
 23
319.2008256454998
 33
0.0
 14
1698.217479919651
 24
939.2008256455001
 34
0.0
 50
90.0
100
AcDbRotatedDimension
  0
DIMENSION
  5
25E
330
1F
100
AcDbEntity
  8
koty
100
AcDbDimension
  2
*D3
 10
1891.995554019522
 20
301.7008256454997
 30
0.0
 11
1875.745554019522
 21
629.2008256455002
 31
0.0
 70
    32
 71
     5
 42
655.0000000000004
  3
ISO-25
100
AcDbAlignedDimension
 13
1698.217479919651
 23
956.7008256455002
 33
0.0
 14
1698.217479919652
 24
301.7008256454997
 34
0.0
 50
90.0
100
AcDbRotatedDimension
  0
DIMENSION
  5
276
330
1F
100
AcDbEntity
  8
koty
100
AcDbDimension
  2
*D4
 10
1698.217479919652
 20
243.0182778977441
 30
0.0
 11
1438.217479919652
 21
259.2682778977441
 31
0.0
 70
    32
 71
     5
 42
519.9999999999995
  3
ISO-25
100
AcDbAlignedDimension
 13
1178.217479919652
 23
301.7008256454993
 33
0.0
 14
1698.217479919652
 24
301.7008256454997
 34
0.0
100
AcDbRotatedDimension
  0
DIMENSION
  5
28E
102
{ACAD_XDICTIONARY
360
29A
102
}
102
{ACAD_REACTORS
330
2A3
102
}
330
1F
100
AcDbEntity
  8
koty
100
AcDbDimension
  2
*D5
 10
924.4165978372366
 20
897.6687008186756
 30
0.0
 11
1040.573147624046
 21
897.6687008186756
 31
0.0
 70
   163
 71
     5
 42
12.0
  3
ISO-25
100
AcDbDiametricDimension
 15
936.4165978372366
 25
897.6687008186756
 35
0.0
 40
0.0
1001
ACAD
1000
DSTYLE
1002
{
1070
   288
1070
     1
1002
}
  0
LEADER
  5
2A4
102
{ACAD_XDICTIONARY
360
2A6
102
}
102
{ACAD_REACTORS
330
2A7
102
}
330
1F
100
AcDbEntity
  8
koty
100
AcDbLeader
  3
ISO-25
 73
     0
 40
20.0
 41
46.66666666666666
 76
     3
 10
936.4165978372366
 20
360.7329504723235
 30
0.0
 10
1014.474088862059
 20
389.6027098171721
 30
0.0
 10
1085.206364770772
 20
389.6027098171721
 30
0.0
340
2A5
213
0.0
223
-10.0
233
0.0
1001
ACAD
1000
DSTYLE
1002
{
1070
   147
1040
0.625
1070
    77
1070
     0
1002
}
  0
MTEXT
  5
2A5
102
{ACAD_REACTORS
330
2A4
102
}
330
1F
100
AcDbEntity
  8
koty
100
AcDbMText
 10
1091.456364770772
 20
399.6027098171721
 30
0.0
 40
20.0
 41
0.0
 71
     1
 72
     1
  1
12x
 73
     1
 44
1.0
  0
TEXT
  5
2A8
330
1F
100
AcDbEntity
  8
popis
100
AcDbText
 10
578.2277156486088
 20
1052.136988881577
 30
0.0
 40
25.0
  1
TCBx2/560 - středotlaký axiální ventilátor potrubní
100
AcDbText
  0
3DSOLID
  5
2AB
330
1F
100
AcDbEntity
  8
0
100
AcDbModelerGeometry
 70
     1
  1
koo lg n o          
  1
h J1410(1 nl ^ \VL kqoqm QK mk Y-6 Q0) ol ngekfemk mooi 
  1
rn fqfffffffffffffffj:rooh n:rono 
  1
=0;& {n {m {rn {rn |
  1
-:9@)+r:&:r>++-6= {rn {rn {rn {o {l {k |
  1
3*2/ {j {rn {i {o |
  1
:&:@-:961:2:1+ {rn j 8-6;  n l +-6 m k ,*-9 o l >;5 o k 8->; o f /0,+<7:<4 o k ,+03 mqmikffnjmngljlmhn k 1+03 lo k ;,63 o g 93>+1:,, o h /6'>-:> o k 72>' o i 8-6;>- o j 28-6; loo j *8-6; o j )8-6; o no :1;@96:3;, |
  1
):-+:'@+:2/3>+: {rn l o n g |
  1
-:9@)+r:&:r>++-6= {rn {rn {rn {m {l {k |
  1
,7:33 {h {rn {rn {g {rn {m |
  1
-:9@)+r:&:r>++-6= {rn {rn {rn {i {l {k |
  1
9><: {f {no {nn {i {rn {nm 90-(>-; ,6183: |
  1
92:,7r:&:r>++-6= {rn {nl {rn {g |
  1
9><: {nk {nj {ni {i {rn {nh -:):-,:; ,6183: |
  1
300/ {rn {ng {nf {g |
  1
<01:r,*-9><: {rn hhjqknijfhglhmliim imfqmoogmjikjkffii o o o rn lmhqj o o n V V o n lmhqj 90-(>-; V V V V |
  1
-:9@)+r:&:r>++-6= {rn {rn {f {g {l {k |
  1
92:,7r:&:r>++-6= {rn {mo {rn {no |
  1
9><: {mn {rn {mm {i {rn {ml 90-(>-; ,6183: |
  1
300/ {rn {rn {mk {no |
  1
/3>1:r,*-9><: {rn nnomqfnijfhglhmlii imfqmoogmjikjkffii rj o o n n o o 90-(>-;@) V V V V |
  1
300/ {rn {rn {mj {g |
  1
<0:;8: {rn {nf {nf {mk {mi 90-(>-; {nn {rn |
  1
-:9@)+r:&:r>++-6= {rn {rn {nk {no {l {k |
  1
92:,7r:&:r>++-6= {rn {mh {rn {nj |
  1
300/ {rn {rn {mg {nj |
  1
/3>1:r,*-9><: {rn hhjqknijfhglhmlhog imfqmoogmjikjkfggh o o o n n o o 90-(>-;@) V V V V |
  1
<0:;8: {rn {mk {mk {nf {mi -:):-,:; {ni {rn |
  1
<0:;8: {rn {mj {mj {mg {mf -:):-,:; {ng {rn |
  1
:;8: {lo {ln {ln {nf {lm 90-(>-; |
  1
-:9@)+r:&:r>++-6= {rn {rn {mn {nj {l {k |
  1
<0:;8: {rn {mg {mg {mj {mf 90-(>-; {mm {rn |
  1
:;8: {ll {lk {lk {mg {lj 90-(>-; |
  1
/+36,+r:&:r>++-6= {rn {rn {rn {mi |
  1
):-+:' {rn {mi {li |
  1
:336/,:r<*-): {rn hhjqknijfhglhmliim imfqmoogmjikjkffii rj o o n lmhqj o o n V V |
  1
/+36,+r:&:r>++-6= {rn {rn {rn {mf |
  1
):-+:' {rn {mf {lh |
  1
:336/,:r<*-): {rn hhjqknijfhglhmliim imfqmoogmjikjkffii o o o n lmhqj o o n V V |
  1
/061+ {rn nnomqfnijfhglhmlii imfqmoogmjikjkffii rj |
  1
/061+ {rn nnomqfnijfhglhmlii imfqmoogmjikjkffii o |
  0
3DSOLID
  5
2AD
330
1F
100
AcDbEntity
  8
0
100
AcDbModelerGeometry
 70
     1
  1
koo lg n o          
  1
h J1410(1 nl ^ \VL kqoqm QK mk Y-6 Q0) ol ngekfemk mooi 
  1
rn fqfffffffffffffffj:rooh n:rono 
  1
=0;& {n {m {rn {rn |
  1
-:9@)+r:&:r>++-6= {rn {rn {rn {o {l {k |
  1
3*2/ {j {rn {i {o |
  1
:&:@-:961:2:1+ {rn j 8-6;  n l +-6 m k ,*-9 o l >;5 o k 8->; o f /0,+<7:<4 o k ,+03 mqmikffnjmngljlmhn k 1+03 lo k ;,63 o g 93>+1:,, o h /6'>-:> o k 72>' o i 8-6;>- o j 28-6; loo j *8-6; o j )8-6; o no :1;@96:3;, |
  1
):-+:'@+:2/3>+: {rn l o n g |
  1
-:9@)+r:&:r>++-6= {rn {rn {rn {m {l {k |
  1
,7:33 {h {rn {rn {g {rn {m |
  1
-:9@)+r:&:r>++-6= {rn {rn {rn {i {l {k |
  1
9><: {f {no {nn {i {rn {nm 90-(>-; ,6183: |
  1
92:,7r:&:r>++-6= {rn {nl {rn {g |
  1
9><: {nk {nj {ni {i {rn {nh -:):-,:; ,6183: |
  1
300/ {rn {ng {nf {g |
  1
<01:r,*-9><: {rn hhjqknijfhglhmliim imfqmoogmjikjkffii rino o o rn lmhqj o o n V V o n lmhqj 90-(>-; V V V V |
  1
-:9@)+r:&:r>++-6= {rn {rn {f {g {l {k |
  1
92:,7r:&:r>++-6= {rn {mo {rn {no |
  1
9><: {mn {rn {mm {i {rn {ml 90-(>-; ,6183: |
  1
300/ {rn {rn {mk {no |
  1
/3>1:r,*-9><: {rn nnomqfnijfhglhmlii imfqmoogmjikjkffii rinj o o n n o o 90-(>-;@) V V V V |
  1
300/ {rn {rn {mj {g |
  1
<0:;8: {rn {nf {nf {mk {mi 90-(>-; {nn {rn |
  1
-:9@)+r:&:r>++-6= {rn {rn {nk {no {l {k |
  1
92:,7r:&:r>++-6= {rn {mh {rn {nj |
  1
300/ {rn {rn {mg {nj |
  1
/3>1:r,*-9><: {rn hhjqknijfhglhmlhog imfqmoogmjikjkfggh rino o o n n o o 90-(>-;@) V V V V |
  1
<0:;8: {rn {mk {mk {nf {mi -:):-,:; {ni {rn |
  1
<0:;8: {rn {mj {mj {mg {mf -:):-,:; {ng {rn |
  1
:;8: {lo {ln {ln {nf {lm 90-(>-; |
  1
-:9@)+r:&:r>++-6= {rn {rn {mn {nj {l {k |
  1
<0:;8: {rn {mg {mg {mj {mf 90-(>-; {mm {rn |
  1
:;8: {ll {lk {lk {mg {lj 90-(>-; |
  1
/+36,+r:&:r>++-6= {rn {rn {rn {mi |
  1
):-+:' {rn {mi {li |
  1
:336/,:r<*-): {rn hhjqknijfhglhmliim imfqmoogmjikjkffii rinj o o n lmhqj o o n V V |
  1
/+36,+r:&:r>++-6= {rn {rn {rn {mf |
  1
):-+:' {rn {mf {lh |
  1
:336/,:r<*-): {rn hhjqknijfhglhmliim imfqmoogmjikjkffii rino o o n lmhqj o o n V V |
  1
/061+ {rn nnomqfnijfhglhmlii imfqmoogmjikjkffii rinj |
  1
/061+ {rn nnomqfnijfhglhmlii imfqmoogmjikjkffii rino |
  0
3DSOLID
  5
2AF
330
1F
100
AcDbEntity
  8
0
100
AcDbModelerGeometry
 70
     1
  1
koo nko n o         
  1
h J1410(1 nl ^ \VL kqoqm QK mk Y-6 Q0) ol ngekfemk mooi 
  1
rn fqfffffffffffffffj:rooh n:rono 
  1
=0;& {n {m {rn {rn |
  1
-:9@)+r:&:r>++-6= {rn {rn {rn {o {l {k |
  1
3*2/ {j {rn {i {o |
  1
:&:@-:961:2:1+ {rn j 8-6;  n l +-6 m k ,*-9 o l >;5 o k 8->; o f /0,+<7:<4 o k ,+03 mqmikffnjmngljlmhn k 1+03 lo k ;,63 o g 93>+1:,, o h /6'>-:> o k 72>' o i 8-6;>- o j 28-6; loo j *8-6; o j )8-6; o no :1;@96:3;, |
  1
):-+:'@+:2/3>+: {rn l o n g |
  1
-:9@)+r:&:r>++-6= {rn {rn {rn {m {l {k |
  1
,7:33 {h {rn {rn {g {rn {m |
  1
-:9@)+r:&:r>++-6= {rn {rn {rn {i {l {k |
  1
9><: {f {no {nn {i {rn {nm 90-(>-; ,6183: |
  1
92:,7r:&:r>++-6= {rn {nl {rn {g |
  1
9><: {nk {nj {ni {i {rn {nh -:):-,:; ,6183: |
  1
300/ {rn {ng {nf {g |
  1
<01:r,*-9><: {rn hhjqknijfhglhmliim imfqmoogmjikjkffii o o o rn mgo o o n V V o n mgo 90-(>-; V V V V |
  1
-:9@)+r:&:r>++-6= {rn {rn {f {g {l {k |
  1
92:,7r:&:r>++-6= {rn {mo {rn {no |
  1
9><: {mn {mm {ml {i {rn {mk 90-(>-; ,6183: |
  1
300/ {rn {rn {mj {no |
  1
/3>1:r,*-9><: {rn nojjqknijfhglhmlii imfqmoogmjikjkffii rinj o o n n o o 90-(>-;@) V V V V |
  1
300/ {rn {mi {mh {g |
  1
<0:;8: {rn {nf {nf {mg {mf -:):-,:; {nn {rn |
  1
-:9@)+r:&:r>++-6= {rn {rn {nk {no {l {k |
  1
92:,7r:&:r>++-6= {rn {lo {rn {nj |
  1
9><: {ln {lm {ll {i {rn {lk 90-(>-; ,6183: |
  1
300/ {rn {rn {mg {nj |
  1
/3>1:r,*-9><: {rn hhjqknijfhglhmligj imfqmoogmjikjkfgfg o o o n n o o 90-(>-;@) V V V V |
  1
<0:;8: {rn {mj {mj {mh {lj -:):-,:; {ni {rn |
  1
300/ {rn {rn {li {g |
  1
<0:;8: {rn {mh {mh {mj {lj 90-(>-; {ng {rn |
  1
<0:;8: {rn {mg {mg {nf {mf 90-(>-; {ml {rn |
  1
:;8: {lh {lg {lg {mg {lf 90-(>-; |
  1
-:9@)+r:&:r>++-6= {rn {rn {mn {nj {l {k |
  1
92:,7r:&:r>++-6= {rn {ko {rn {mm |
  1
9><: {kn {km {kl {i {rn {kk 90-(>-; ,6183: |
  1
300/ {rn {rn {kj {mm |
  1
/3>1:r,*-9><: {rn hmjqlokjhfhilikgif ffgqjnmfiihinignfm rfhqgmgimmfhjmjlhij rn o o o o n 90-(>-;@) V V V V |
  1
:;8: {ki {kh {kh {mh {kg 90-(>-; |
  1
<0:;8: {rn {kf {jo {jn {jm -:):-,:; {mi {rn |
  1
/+36,+r:&:r>++-6= {rn {rn {rn {mf |
  1
):-+:' {rn {mf {jl |
  1
:336/,:r<*-): {rn hhjqknijfhglhmliim imfqmoogmjikjkffii o o o n mgo o o n V V |
  1
-:9@)+r:&:r>++-6= {rn {rn {ln {mm {l {k |
  1
92:,7r:&:r>++-6= {rn {jk {rn {lm |
  1
9><: {jj {ji {jh {i {rn {jg 90-(>-; ,6183: |
  1
300/ {rn {rn {jf {lm |
  1
/3>1:r,*-9><: {rn hhjqknijfhglhmliim fkmqolgiogfjofjijf rfhqgmgimmfhjmjlhij o o n n o o 90-(>-;@) V V V V |
  1
<0:;8: {rn {io {in {im {il 90-(>-; {ll {rn |
  1
/+36,+r:&:r>++-6= {rn {rn {rn {lj |
  1
):-+:' {rn {lj {ik |
  1
:336/,:r<*-): {rn hhjqknijfhglhmliim imfqmoogmjikjkffii rinj o o n mgo o o n V V |
  1
<0:;8: {rn {im {li {jf {ij -:):-,:; {mi {rn |
  1
<0:;8: {rn {li {im {ii {ih -:):-,:; {mi {rn |
  1
<0:;8: {rn {ig {if {li {jm 90-(>-; {jh {rn |
  1
:;8: {ho {hn {hm {jn {hl 90-(>-; |
  1
/061+ {rn nojjqknijfhglhmlii imfqmoogmjikjkffii o |
  1
-:9@)+r:&:r>++-6= {rn {rn {kn {lm {l {k |
  1
92:,7r:&:r>++-6= {rn {hk {rn {km |
  1
9><: {hj {hi {hh {i {rn {hg 90-(>-; ,6183: |
  1
300/ {rn {rn {jn {km |
  1
/3>1:r,*-9><: {rn gmjqjmginjfnogmkji ggjqjikmjnnkomlnli rfhqgmgimmfhjmjlhij n o o o o rn 90-(>-;@) V V V V |
  1
<0:;8: {rn {hf {go {kf {ij 90-(>-; {kl {rn |
  1
<0:;8: {rn {gn {kj {go {gm 90-(>-; {ll {rn |
  1
<0:;8: {rn {kj {gn {gl {gk 90-(>-; {ll {rn |
  1
<0:;8: {rn {jo {kf {kj {il -:):-,:; {mi {rn |
  1
:;8: {gj {gi {gh {kj {gg 90-(>-; |
  1
/061+ {rn nojjqknijfhglhmlii imfqmoogmjikjkffii rinj |
  1
:;8: {gf {gh {hn {jf {fo 90-(>-; |
  1
<0:;8: {rn {gl {fn {jo {ih 90-(>-; {fm {rn |
  1
:;8: {fl {hm {gi {ii {fk 90-(>-; |
  1
<0:;8: {rn {fj {jn {fn {fi 90-(>-; {jh {rn |
  1
<0:;8: {rn {jn {fj {hf {fh 90-(>-; {jh {rn |
  1
/+36,+r:&:r>++-6= {rn {rn {rn {jm |
  1
):-+:' {rn {jm {fg |
  1
):-+:' {rn {fi {ff |
  1
,+->687+r<*-): {rn gmjqjmginjfnogmkji fokqigoongkohnnhnl o o o rn V V |
  1
-:9@)+r:&:r>++-6= {rn {rn {jj {km {l {k |
  1
92:,7r:&:r>++-6= {rn {noo {rn {ji |
  1
9><: {non {rn {fm {i {rn {nom -:):-,:; ,6183: |
  1
300/ {rn {rn {nol {ji |
  1
/3>1:r,*-9><: {rn gmjqjmginjfnogmkji ffgqjnmfiihinignfm rfhqgmgimmfhjmjlhij o n o o o n 90-(>-;@) V V V V |
  1
<0:;8: {rn {nok {jf {if {fh -:):-,:; {kl {rn |
  1
<0:;8: {rn {jf {nok {io {gm -:):-,:; {kl {rn |
  1
<0:;8: {rn {in {io {noj {noi 90-(>-; {ll {rn |
  1
:;8: {noh {gh {nog {go {nof 90-(>-; |
  1
<0:;8: {rn {nno {ii {in {gk -:):-,:; {fm {rn |
  1
:;8: {nnn {nnm {gi {in {nnl 90-(>-; |
  1
/+36,+r:&:r>++-6= {rn {rn {rn {il |
  1
):-+:' {rn {ih {nnk |
  1
):-+:' {rn {gm {nnj |
  1
,+->687+r<*-): {rn hmjqlokjhfhilikgif fokqigoongkohnnhnl o o o n V V |
  1
/+36,+r:&:r>++-6= {rn {rn {rn {ij |
  1
:336/,:r<*-): {rn hhjqknijfhglhmliim imfqmoogmjikjkffii rfhqgmgimmfhjmjlhij o o rn mgo o o n V V |
  1
<0:;8: {rn {ii {nno {ig {fi -:):-,:; {fm {rn |
  1
300/ {rn {rn {ii {hi |
  1
/+36,+r:&:r>++-6= {rn {rn {rn {ih |
  1
:336/,:r<*-): {rn hhjqknijfhglhmliim imfqmoogmjikjkffii rmkhqgmgimmfhjmjlhg o o n mgo o o n V V |
  1
<0:;8: {rn {if {ig {nni {nnh -:):-,:; {jh {rn |
  1
:;8: {nng {hm {nnf {ig {nmo 90-(>-; |
  1
:;8: {nmn {nmm {hn {hf {nml 90-(>-; |
  1
/061+ {rn gmjqjmginjfnogmkji fokqigoongkohnnhnl rfhqgmgimmfhjmjlhij |
  1
/061+ {rn gmjqjmginjfnogmkji fokqigoongkohnnhnl rmkhqgmgimmfhjmjlhg |
  1
-:9@)+r:&:r>++-6= {rn {rn {hj {ji {l {k |
  1
92:,7r:&:r>++-6= {rn {nmk {rn {hi |
  1
/3>1:r,*-9><: {rn hmjqlokjhfhilikgif ffgqjnmfiihinignfm rmkhqgmgimmfhjmjlhg o o n n o o 90-(>-;@) V V V V |
  1
<0:;8: {rn {noj {nni {nno {nmj 90-(>-; {hh {rn |
  1
<0:;8: {rn {go {hf {nmi {nmh -:):-,:; {kl {rn |
  1
<0:;8: {rn {nmi {nol {gn {noi -:):-,:; {hh {rn |
  1
:;8: {nmg {nog {nnm {gn {nmf 90-(>-; |
  1
/+36,+r:&:r>++-6= {rn {rn {rn {gm |
  1
):-+:' {rn {nmh {nlo |
  1
,+->687+r<*-): {rn hmjqlokjhfhilikgif ggjqjikmjnnkomlnli rfhqgmgimmfhjmjlhij o n o V V |
  1
<0:;8: {rn {fn {gl {nol {nmj -:):-,:; {fm {rn |
  1
/+36,+r:&:r>++-6= {rn {rn {rn {gk |
  1
):-+:' {rn {noi {nln |
  1
,+->687+r<*-): {rn hmjqlokjhfhilikgif ggjqjikmjnnkomlnli rmkhqgmgimmfhjmjlhg o rn o V V |
  1
/061+ {rn hmjqlokjhfhilikgif fokqigoongkohnnhnl rmkhqgmgimmfhjmjlhg |
  1
/061+ {rn hmjqlokjhfhilikgif fokqigoongkohnnhnl rfhqgmgimmfhjmjlhij |
  1
<0:;8: {rn {nol {nmi {fj {nnh 90-(>-; {hh {rn |
  1
:;8: {nlm {nmm {nnf {nni {nll 90-(>-; |
  1
/+36,+r:&:r>++-6= {rn {rn {rn {fi |
  1
):-+:' {rn {nnh {nlk |
  1
,+->687+r<*-): {rn gmjqjmginjfnogmkji ffgqjnmfiihinignfm rmkhqgmgimmfhjmjlhg o n o V V |
  1
/+36,+r:&:r>++-6= {rn {rn {rn {fh |
  1
):-+:' {rn {nmh {nlj |
  1
,+->687+r<*-): {rn gmjqjmginjfnogmkji ffgqjnmfiihinignfm rfhqgmgimmfhjmjlhij o rn o V V |
  1
-:9@)+r:&:r>++-6= {rn {rn {non {hi {l {k |
  1
:;8: {nli {nnf {nnm {nol {nlh 90-(>-; |
  1
<0:;8: {rn {nni {noj {nok {nmh 90-(>-; {hh {rn |
  1
:;8: {nlg {nog {nmm {nok {nlf 90-(>-; |
  1
/+36,+r:&:r>++-6= {rn {rn {rn {noi |
  1
,+->687+r<*-): {rn hmjqlokjhfhilikgif ffgqjnmfiihinignfm rfhqgmgimmfhjmjlhij o o rn V V |
  1
/061+ {rn hmjqlokjhfhilikgif ffgqjnmfiihinignfm rfhqgmgimmfhjmjlhij |
  1
/061+ {rn hmjqlokjhfhilikgif ffgqjnmfiihinignfm rmkhqgmgimmfhjmjlhg |
  1
/+36,+r:&:r>++-6= {rn {rn {rn {nnh |
  1
,+->687+r<*-): {rn gmjqjmginjfnogmkji ffgqjnmfiihinignfm rfhqgmgimmfhjmjlhij o o rn V V |
  1
/061+ {rn gmjqjmginjfnogmkji ffgqjnmfiihinignfm rmkhqgmgimmfhjmjlhg |
  1
/061+ {rn gmjqjmginjfnogmkji ffgqjnmfiihinignfm rfhqgmgimmfhjmjlhij |
  1
/+36,+r:&:r>++-6= {rn {rn {rn {nmj |
  1
,+->687+r<*-): {rn hmjqlokjhfhilikgif ffgqjnmfiihinignfm rmkhqgmgimmfhjmjlhg rn o o V V |
  1
/+36,+r:&:r>++-6= {rn {rn {rn {nmh |
  1
,+->687+r<*-): {rn hmjqlokjhfhilikgif ffgqjnmfiihinignfm rfhqgmgimmfhjmjlhij n o o V V |
  0
ENDSEC
  0
SECTION
  2
OBJECTS
  0
DICTIONARY
  5
C
330
0
100
AcDbDictionary
281
     1
  3
ACAD_GROUP
350
D
  3
ACAD_LAYOUT
350
1A
  3
ACAD_MLINESTYLE
350
17
  3
ACAD_PLOTSETTINGS
350
19
  3
ACAD_PLOTSTYLENAME
350
E
  3
AcDbVariableDictionary
350
2E
  0
DICTIONARY
  5
29A
330
28E
100
AcDbDictionary
280
     1
281
     1
  3
ACAD_DIMASSOC
360
2A3
  0
DICTIONARY
  5
2A6
330
2A4
100
AcDbDictionary
280
     1
281
     1
  3
ACAD_DIMASSOC
360
2A7
  0
DICTIONARY
  5
D
102
{ACAD_REACTORS
330
C
102
}
330
C
100
AcDbDictionary
281
     1
  0
DICTIONARY
  5
1A
102
{ACAD_REACTORS
330
C
102
}
330
C
100
AcDbDictionary
281
     1
  3
Model
350
22
  3
Rozvržení1
350
1E
  3
Rozvržení2
350
26
  0
DICTIONARY
  5
17
102
{ACAD_REACTORS
330
C
102
}
330
C
100
AcDbDictionary
281
     1
  3
Standard
350
18
  0
DICTIONARY
  5
19
102
{ACAD_REACTORS
330
C
102
}
330
C
100
AcDbDictionary
281
     1
  0
ACDBDICTIONARYWDFLT
  5
E
102
{ACAD_REACTORS
330
C
102
}
330
C
100
AcDbDictionary
281
     1
  3
Normal
350
F
100
AcDbDictionaryWithDefault
340
F
  0
DICTIONARY
  5
2E
102
{ACAD_REACTORS
330
C
102
}
330
C
100
AcDbDictionary
281
     1
  3
DIMASSOC
350
30
  3
HIDETEXT
350
2F
  0
DIMASSOC
  5
2A3
102
{ACAD_REACTORS
330
29A
102
}
330
29A
100
AcDbDimAssoc
330
28E
 90
        2
 70
     0
 71
     0
  1
AcDbOsnapPointRef
 72
     3
331
181
 73
     2
 91
        0
 40
0.0
 10
0.0
 20
0.0
 30
0.0
 75
     0
  0
DIMASSOC
  5
2A7
102
{ACAD_REACTORS
330
2A6
102
}
330
2A6
100
AcDbDimAssoc
330
2A4
 90
        1
 70
     0
 71
     0
  1
AcDbOsnapPointRef
 72
     5
331
17D
 73
     2
 91
        0
 40
0.0
 10
936.4165978372366
 20
360.7329504723235
 30
0.0
 75
     0
  0
LAYOUT
  5
22
102
{ACAD_REACTORS
330
1A
102
}
330
1A
100
AcDbPlotSettings
  1

  2
D:\AutoCAD 2002Cz\plotters\PublishToWeb DWF.pc3
  4

  6

 40
0.0
 41
0.0
 42
0.0
 43
0.0
 44
0.0
 45
0.0
 46
0.0
 47
0.0
 48
0.0
 49
0.0
140
0.0
141
0.0
142
1.0
143
1.0
 70
  1712
 72
     0
 73
     0
 74
     0
  7

 75
     0
147
1.0
148
0.0
149
0.0
100
AcDbLayout
  1
Model
 70
     1
 71
     0
 10
0.0
 20
0.0
 11
12.0
 21
9.0
 12
0.0
 22
0.0
 32
0.0
 14
0.0
 24
0.0
 34
0.0
 15
0.0
 25
0.0
 35
0.0
146
0.0
 13
0.0
 23
0.0
 33
0.0
 16
1.0
 26
0.0
 36
0.0
 17
0.0
 27
1.0
 37
0.0
 76
     0
330
1F
  0
LAYOUT
  5
1E
102
{ACAD_REACTORS
330
1A
102
}
330
1A
100
AcDbPlotSettings
  1

  2
D:\AutoCAD 2002Cz\plotters\PublishToWeb DWF.pc3
  4

  6

 40
0.0
 41
0.0
 42
0.0
 43
0.0
 44
0.0
 45
0.0
 46
0.0
 47
0.0
 48
0.0
 49
0.0
140
0.0
141
0.0
142
1.0
143
1.0
 70
   688
 72
     0
 73
     0
 74
     5
  7

 75
    16
147
1.0
148
0.0
149
0.0
100
AcDbLayout
  1
Rozvržení1
 70
     1
 71
     1
 10
0.0
 20
0.0
 11
420.0
 21
297.0
 12
0.0
 22
0.0
 32
0.0
 14
1.000000000000000E+20
 24
1.000000000000000E+20
 34
1.000000000000000E+20
 15
-1.000000000000000E+20
 25
-1.000000000000000E+20
 35
-1.000000000000000E+20
146
0.0
 13
0.0
 23
0.0
 33
0.0
 16
1.0
 26
0.0
 36
0.0
 17
0.0
 27
1.0
 37
0.0
 76
     0
330
1B
  0
LAYOUT
  5
26
102
{ACAD_REACTORS
330
1A
102
}
330
1A
100
AcDbPlotSettings
  1

  2
D:\AutoCAD 2002Cz\plotters\PublishToWeb DWF.pc3
  4

  6

 40
0.0
 41
0.0
 42
0.0
 43
0.0
 44
0.0
 45
0.0
 46
0.0
 47
0.0
 48
0.0
 49
0.0
140
0.0
141
0.0
142
1.0
143
1.0
 70
   688
 72
     0
 73
     0
 74
     5
  7

 75
    16
147
1.0
148
0.0
149
0.0
100
AcDbLayout
  1
Rozvržení2
 70
     1
 71
     2
 10
0.0
 20
0.0
 11
12.0
 21
9.0
 12
0.0
 22
0.0
 32
0.0
 14
0.0
 24
0.0
 34
0.0
 15
0.0
 25
0.0
 35
0.0
146
0.0
 13
0.0
 23
0.0
 33
0.0
 16
1.0
 26
0.0
 36
0.0
 17
0.0
 27
1.0
 37
0.0
 76
     0
330
23
  0
MLINESTYLE
  5
18
102
{ACAD_REACTORS
330
17
102
}
330
17
100
AcDbMlineStyle
  2
STANDARD
 70
     0
  3

 62
   256
 51
90.0
 52
90.0
 71
     2
 49
0.5
 62
   256
  6
BYLAYER
 49
-0.5
 62
   256
  6
BYLAYER
  0
ACDBPLACEHOLDER
  5
F
102
{ACAD_REACTORS
330
E
102
}
330
E
  0
DICTIONARYVAR
  5
30
102
{ACAD_REACTORS
330
2E
102
}
330
2E
100
DictionaryVariables
280
     0
  1
2
  0
DICTIONARYVAR
  5
2F
102
{ACAD_REACTORS
330
2E
102
}
330
2E
100
DictionaryVariables
280
     0
  1
1
  0
ENDSEC
  0
EOF
