  0
SECTION
  2
HEADER
  9
$ACADVER
  1
AC1015
  9
$ACADMAINTVER
 70
    13
  9
$DWGCODEPAGE
  3
ANSI_1250
  9
$INSBASE
 10
0.0
 20
0.0
 30
0.0
  9
$EXTMIN
 10
340.9204742408459
 20
25.49054333893173
 30
-380.0
  9
$EXTMAX
 10
1622.92631996038
 20
711.8249390432658
 30
0.0
  9
$LIMMIN
 10
0.0
 20
0.0
  9
$LIMMAX
 10
420.0
 20
297.0
  9
$ORTHOMODE
 70
     0
  9
$REGENMODE
 70
     1
  9
$FILLMODE
 70
     1
  9
$QTEXTMODE
 70
     0
  9
$MIRRTEXT
 70
     1
  9
$LTSCALE
 40
1.0
  9
$ATTMODE
 70
     1
  9
$TEXTSIZE
 40
20.0
  9
$TRACEWID
 40
1.0
  9
$TEXTSTYLE
  7
Standard
  9
$CLAYER
  8
0
  9
$CELTYPE
  6
ByLayer
  9
$CECOLOR
 62
   256
  9
$CELTSCALE
 40
1.0
  9
$DISPSILH
 70
     0
  9
$DIMSCALE
 40
10.0
  9
$DIMASZ
 40
2.0
  9
$DIMEXO
 40
0.625
  9
$DIMDLI
 40
3.75
  9
$DIMRND
 40
0.0
  9
$DIMDLE
 40
0.0
  9
$DIMEXE
 40
1.25
  9
$DIMTP
 40
0.0
  9
$DIMTM
 40
0.0
  9
$DIMTXT
 40
2.0
  9
$DIMCEN
 40
2.5
  9
$DIMTSZ
 40
0.0
  9
$DIMTOL
 70
     0
  9
$DIMLIM
 70
     0
  9
$DIMTIH
 70
     0
  9
$DIMTOH
 70
     0
  9
$DIMSE1
 70
     0
  9
$DIMSE2
 70
     0
  9
$DIMTAD
 70
     1
  9
$DIMZIN
 70
     8
  9
$DIMBLK
  1

  9
$DIMASO
 70
     1
  9
$DIMSHO
 70
     1
  9
$DIMPOST
  1

  9
$DIMAPOST
  1

  9
$DIMALT
 70
     0
  9
$DIMALTD
 70
     3
  9
$DIMALTF
 40
0.03937007874016
  9
$DIMLFAC
 40
1.0
  9
$DIMTOFL
 70
     1
  9
$DIMTVP
 40
0.0
  9
$DIMTIX
 70
     0
  9
$DIMSOXD
 70
     0
  9
$DIMSAH
 70
     0
  9
$DIMBLK1
  1

  9
$DIMBLK2
  1

  9
$DIMSTYLE
  2
ISO-25
  9
$DIMCLRD
 70
     0
  9
$DIMCLRE
 70
     0
  9
$DIMCLRT
 70
     0
  9
$DIMTFAC
 40
1.0
  9
$DIMGAP
 40
0.625
  9
$DIMJUST
 70
     0
  9
$DIMSD1
 70
     0
  9
$DIMSD2
 70
     0
  9
$DIMTOLJ
 70
     0
  9
$DIMTZIN
 70
     8
  9
$DIMALTZ
 70
     0
  9
$DIMALTTZ
 70
     0
  9
$DIMUPT
 70
     0
  9
$DIMDEC
 70
     2
  9
$DIMTDEC
 70
     2
  9
$DIMALTU
 70
     2
  9
$DIMALTTD
 70
     3
  9
$DIMTXSTY
  7
Standard
  9
$DIMAUNIT
 70
     0
  9
$DIMADEC
 70
     0
  9
$DIMALTRND
 40
0.0
  9
$DIMAZIN
 70
     0
  9
$DIMDSEP
 70
    44
  9
$DIMATFIT
 70
     3
  9
$DIMFRAC
 70
     0
  9
$DIMLDRBLK
  1

  9
$DIMLUNIT
 70
     2
  9
$DIMLWD
 70
    -2
  9
$DIMLWE
 70
    -2
  9
$DIMTMOVE
 70
     0
  9
$LUNITS
 70
     2
  9
$LUPREC
 70
     4
  9
$SKETCHINC
 40
1.0
  9
$FILLETRAD
 40
10.0
  9
$AUNITS
 70
     0
  9
$AUPREC
 70
     0
  9
$MENU
  1
.
  9
$ELEVATION
 40
0.0
  9
$PELEVATION
 40
0.0
  9
$THICKNESS
 40
0.0
  9
$LIMCHECK
 70
     0
  9
$CHAMFERA
 40
10.0
  9
$CHAMFERB
 40
10.0
  9
$CHAMFERC
 40
20.0
  9
$CHAMFERD
 40
0.0
  9
$SKPOLY
 70
     0
  9
$TDCREATE
 40
2453639.692351574
  9
$TDUCREATE
 40
2453639.650684907
  9
$TDUPDATE
 40
2454043.783714907
  9
$TDUUPDATE
 40
2454043.742048241
  9
$TDINDWG
 40
0.1196139931
  9
$TDUSRTIMER
 40
0.1196134144
  9
$USRTIMER
 70
     1
  9
$ANGBASE
 50
0.0
  9
$ANGDIR
 70
     0
  9
$PDMODE
 70
     0
  9
$PDSIZE
 40
0.0
  9
$PLINEWID
 40
0.0
  9
$SPLFRAME
 70
     0
  9
$SPLINETYPE
 70
     6
  9
$SPLINESEGS
 70
     8
  9
$HANDSEED
  5
2DA
  9
$SURFTAB1
 70
     6
  9
$SURFTAB2
 70
     6
  9
$SURFTYPE
 70
     6
  9
$SURFU
 70
     6
  9
$SURFV
 70
     6
  9
$UCSBASE
  2

  9
$UCSNAME
  2

  9
$UCSORG
 10
0.0
 20
0.0
 30
0.0
  9
$UCSXDIR
 10
-1.0
 20
0.0
 30
0.0
  9
$UCSYDIR
 10
0.0
 20
1.0
 30
0.0
  9
$UCSORTHOREF
  2

  9
$UCSORTHOVIEW
 70
     2
  9
$UCSORGTOP
 10
0.0
 20
0.0
 30
0.0
  9
$UCSORGBOTTOM
 10
0.0
 20
0.0
 30
0.0
  9
$UCSORGLEFT
 10
0.0
 20
0.0
 30
0.0
  9
$UCSORGRIGHT
 10
0.0
 20
0.0
 30
0.0
  9
$UCSORGFRONT
 10
0.0
 20
0.0
 30
0.0
  9
$UCSORGBACK
 10
0.0
 20
0.0
 30
0.0
  9
$PUCSBASE
  2

  9
$PUCSNAME
  2

  9
$PUCSORG
 10
0.0
 20
0.0
 30
0.0
  9
$PUCSXDIR
 10
1.0
 20
0.0
 30
0.0
  9
$PUCSYDIR
 10
0.0
 20
1.0
 30
0.0
  9
$PUCSORTHOREF
  2

  9
$PUCSORTHOVIEW
 70
     0
  9
$PUCSORGTOP
 10
0.0
 20
0.0
 30
0.0
  9
$PUCSORGBOTTOM
 10
0.0
 20
0.0
 30
0.0
  9
$PUCSORGLEFT
 10
0.0
 20
0.0
 30
0.0
  9
$PUCSORGRIGHT
 10
0.0
 20
0.0
 30
0.0
  9
$PUCSORGFRONT
 10
0.0
 20
0.0
 30
0.0
  9
$PUCSORGBACK
 10
0.0
 20
0.0
 30
0.0
  9
$USERI1
 70
     0
  9
$USERI2
 70
     0
  9
$USERI3
 70
     0
  9
$USERI4
 70
     0
  9
$USERI5
 70
     0
  9
$USERR1
 40
0.0
  9
$USERR2
 40
0.0
  9
$USERR3
 40
0.0
  9
$USERR4
 40
0.0
  9
$USERR5
 40
0.0
  9
$WORLDVIEW
 70
     1
  9
$SHADEDGE
 70
     3
  9
$SHADEDIF
 70
    70
  9
$TILEMODE
 70
     1
  9
$MAXACTVP
 70
    64
  9
$PINSBASE
 10
0.0
 20
0.0
 30
0.0
  9
$PLIMCHECK
 70
     0
  9
$PEXTMIN
 10
1.000000000000000E+20
 20
1.000000000000000E+20
 30
1.000000000000000E+20
  9
$PEXTMAX
 10
-1.000000000000000E+20
 20
-1.000000000000000E+20
 30
-1.000000000000000E+20
  9
$PLIMMIN
 10
0.0
 20
0.0
  9
$PLIMMAX
 10
420.0
 20
297.0
  9
$UNITMODE
 70
     0
  9
$VISRETAIN
 70
     1
  9
$PLINEGEN
 70
     0
  9
$PSLTSCALE
 70
     1
  9
$TREEDEPTH
 70
  3020
  9
$CMLSTYLE
  2
Standard
  9
$CMLJUST
 70
     0
  9
$CMLSCALE
 40
20.0
  9
$PROXYGRAPHICS
 70
     1
  9
$MEASUREMENT
 70
     1
  9
$CELWEIGHT
370
    -1
  9
$ENDCAPS
280
     0
  9
$JOINSTYLE
280
     0
  9
$LWDISPLAY
290
     0
  9
$INSUNITS
 70
     4
  9
$HYPERLINKBASE
  1

  9
$STYLESHEET
  1

  9
$XEDIT
290
     1
  9
$CEPSNTYPE
380
     0
  9
$PSTYLEMODE
290
     1
  9
$FINGERPRINTGUID
  2
{9B47308E-04D6-42FB-BD32-F27AC533D1CD}
  9
$VERSIONGUID
  2
{34598825-D5C1-4FF0-B372-8C597983ABA7}
  9
$EXTNAMES
290
     1
  9
$PSVPSCALE
 40
0.0
  9
$OLESTARTUP
290
     0
  0
ENDSEC
  0
SECTION
  2
CLASSES
  0
CLASS
  1
ACDBDICTIONARYWDFLT
  2
AcDbDictionaryWithDefault
  3
AutoCAD 2000
 90
        0
280
     0
281
     0
  0
CLASS
  1
ACDBPLACEHOLDER
  2
AcDbPlaceHolder
  3
AutoCAD 2000
 90
        0
280
     0
281
     0
  0
CLASS
  1
LAYOUT
  2
AcDbLayout
  3
AutoCAD 2000
 90
        0
280
     0
281
     0
  0
CLASS
  1
DICTIONARYVAR
  2
AcDbDictionaryVar
  3
AutoCAD 2000
 90
        0
280
     0
281
     0
  0
CLASS
  1
DIMASSOC
  2
AcDbDimAssoc
  3
"AcDbDimAssoc|Product Desc:     AcDim ARX App For Dimension|Company:          Autodesk, Inc.|WEB Address:      www.autodesk.com"
 90
        0
280
     0
281
     0
  0
ENDSEC
  0
SECTION
  2
TABLES
  0
TABLE
  2
VPORT
  5
8
330
0
100
AcDbSymbolTable
 70
     2
  0
VPORT
  5
2D9
330
8
100
AcDbSymbolTableRecord
100
AcDbViewportTableRecord
  2
*Active
 70
     0
 10
0.0
 20
0.0
 11
1.0
 21
1.0
 12
0.0
 22
0.0
 13
0.0
 23
0.0
 14
10.0
 24
10.0
 15
10.0
 25
10.0
 16
-894.4724659742044
 26
526.9608802439992
 36
1734.094712160975
 17
875.7519407105432
 27
307.6527660092661
 37
-306.3642591283521
 40
695.5296450376309
 41
2.226666666666666
 42
50.0
 43
0.0
 44
0.0
 50
0.0
 51
244.2307239226634
 71
     0
 72
   100
 73
     1
 74
     3
 75
     0
 76
     0
 77
     0
 78
     0
281
     1
 65
     1
110
0.0
120
0.0
130
0.0
111
-1.0
121
0.0
131
0.0
112
0.0
122
1.0
132
0.0
 79
     2
146
0.0
  0
ENDTAB
  0
TABLE
  2
LTYPE
  5
5
330
0
100
AcDbSymbolTable
 70
     3
  0
LTYPE
  5
14
330
5
100
AcDbSymbolTableRecord
100
AcDbLinetypeTableRecord
  2
ByBlock
 70
     0
  3

 72
    65
 73
     0
 40
0.0
  0
LTYPE
  5
15
330
5
100
AcDbSymbolTableRecord
100
AcDbLinetypeTableRecord
  2
ByLayer
 70
     0
  3

 72
    65
 73
     0
 40
0.0
  0
LTYPE
  5
16
330
5
100
AcDbSymbolTableRecord
100
AcDbLinetypeTableRecord
  2
Continuous
 70
     0
  3
Solid line
 72
    65
 73
     0
 40
0.0
  0
LTYPE
  5
121
330
5
100
AcDbSymbolTableRecord
100
AcDbLinetypeTableRecord
  2
ACAD_ISO02W100
 70
     0
  3
ISO \U+00E8árkovaná __ __ __ __ __ __ __ __ __ __ __ 
 72
    65
 73
     2
 40
15.0
 49
12.0
 74
     0
 49
-3.0
 74
     0
  0
LTYPE
  5
122
330
5
100
AcDbSymbolTableRecord
100
AcDbLinetypeTableRecord
  2
ACAD_ISO03W100
 70
     0
  3
ISO p\U+00F8erušovaná __    __    __    __    __    _
 72
    65
 73
     2
 40
30.0
 49
12.0
 74
     0
 49
-18.0
 74
     0
  0
ENDTAB
  0
TABLE
  2
LAYER
  5
2
330
0
100
AcDbSymbolTable
 70
     5
  0
LAYER
  5
10
330
2
100
AcDbSymbolTableRecord
100
AcDbLayerTableRecord
  2
0
 70
     0
 62
     7
  6
Continuous
370
    -3
390
F
  0
LAYER
  5
2B
330
2
100
AcDbSymbolTableRecord
100
AcDbLayerTableRecord
  2
koty
 70
     0
 62
   -41
  6
Continuous
370
    -3
390
F
  0
LAYER
  5
2C
330
2
100
AcDbSymbolTableRecord
100
AcDbLayerTableRecord
  2
popis
 70
     0
 62
  -210
  6
Continuous
370
    -3
390
F
  0
LAYER
  5
4E
330
2
100
AcDbSymbolTableRecord
100
AcDbLayerTableRecord
  2
Defpoints
 70
     0
 62
     7
  6
Continuous
290
     0
370
    -3
390
F
  0
LAYER
  5
C4
330
2
100
AcDbSymbolTableRecord
100
AcDbLayerTableRecord
  2
srafy
 70
     0
 62
   -90
  6
Continuous
370
    -3
390
F
  0
ENDTAB
  0
TABLE
  2
STYLE
  5
3
330
0
100
AcDbSymbolTable
 70
     2
  0
STYLE
  5
11
330
3
100
AcDbSymbolTableRecord
100
AcDbTextStyleTableRecord
  2
Standard
 70
     0
 40
0.0
 41
1.0
 50
0.0
 71
     0
 42
20.0
  3
txt
  4

  0
STYLE
  5
120
330
3
100
AcDbSymbolTableRecord
100
AcDbTextStyleTableRecord
  2

 70
     1
 40
0.0
 41
1.0
 50
0.0
 71
     0
 42
2.5
  3
ltypeshp.shx
  4

  0
ENDTAB
  0
TABLE
  2
VIEW
  5
6
330
0
100
AcDbSymbolTable
 70
     0
  0
ENDTAB
  0
TABLE
  2
UCS
  5
7
330
0
100
AcDbSymbolTable
 70
     0
  0
ENDTAB
  0
TABLE
  2
APPID
  5
9
330
0
100
AcDbSymbolTable
 70
     1
  0
APPID
  5
12
330
9
100
AcDbSymbolTableRecord
100
AcDbRegAppTableRecord
  2
ACAD
 70
     0
  0
ENDTAB
  0
TABLE
  2
DIMSTYLE
  5
A
330
0
100
AcDbSymbolTable
 70
     1
100
AcDbDimStyleTable
 71
     1
340
27
  0
DIMSTYLE
105
27
102
{ACAD_REACTORS
330
234
330
24C
330
264
330
27C
330
294
102
}
330
A
100
AcDbSymbolTableRecord
100
AcDbDimStyleTableRecord
  2
ISO-25
 70
     0
 40
10.0
 41
2.0
 42
0.625
 43
3.75
 44
1.25
 73
     0
 74
     0
 77
     1
 78
     8
140
2.0
141
2.5
143
0.03937007874016
147
0.625
171
     3
172
     1
271
     2
272
     2
274
     3
278
    44
283
     0
284
     8
340
11
  0
ENDTAB
  0
TABLE
  2
BLOCK_RECORD
  5
1
330
0
100
AcDbSymbolTable
 70
     6
  0
BLOCK_RECORD
  5
1F
330
1
100
AcDbSymbolTableRecord
100
AcDbBlockTableRecord
  2
*Model_Space
340
22
  0
BLOCK_RECORD
  5
1B
330
1
100
AcDbSymbolTableRecord
100
AcDbBlockTableRecord
  2
*Paper_Space
340
1E
  0
BLOCK_RECORD
  5
23
330
1
100
AcDbSymbolTableRecord
100
AcDbBlockTableRecord
  2
*Paper_Space0
340
26
  0
BLOCK_RECORD
  5
235
330
1
100
AcDbSymbolTableRecord
100
AcDbBlockTableRecord
  2
*D1
340
0
  0
BLOCK_RECORD
  5
24D
330
1
100
AcDbSymbolTableRecord
100
AcDbBlockTableRecord
  2
*D2
340
0
  0
BLOCK_RECORD
  5
265
330
1
100
AcDbSymbolTableRecord
100
AcDbBlockTableRecord
  2
*D3
340
0
  0
BLOCK_RECORD
  5
27D
330
1
100
AcDbSymbolTableRecord
100
AcDbBlockTableRecord
  2
*D4
340
0
  0
BLOCK_RECORD
  5
295
330
1
100
AcDbSymbolTableRecord
100
AcDbBlockTableRecord
  2
*D5
340
0
  0
ENDTAB
  0
ENDSEC
  0
SECTION
  2
BLOCKS
  0
BLOCK
  5
20
330
1F
100
AcDbEntity
  8
0
100
AcDbBlockBegin
  2
*Model_Space
 70
     0
 10
0.0
 20
0.0
 30
0.0
  3
*Model_Space
  1

  0
ENDBLK
  5
21
330
1F
100
AcDbEntity
  8
0
100
AcDbBlockEnd
  0
BLOCK
  5
1C
330
1B
100
AcDbEntity
 67
     1
  8
0
100
AcDbBlockBegin
  2
*Paper_Space
 70
     0
 10
0.0
 20
0.0
 30
0.0
  3
*Paper_Space
  1

  0
ENDBLK
  5
1D
330
1B
100
AcDbEntity
 67
     1
  8
0
100
AcDbBlockEnd
  0
BLOCK
  5
24
330
23
100
AcDbEntity
  8
0
100
AcDbBlockBegin
  2
*Paper_Space0
 70
     0
 10
0.0
 20
0.0
 30
0.0
  3
*Paper_Space0
  1

  0
ENDBLK
  5
25
330
23
100
AcDbEntity
  8
0
100
AcDbBlockEnd
  0
BLOCK
  5
23F
330
235
100
AcDbEntity
  8
0
100
AcDbBlockBegin
  2
*D1
 70
     1
 10
0.0
 20
0.0
 30
0.0
  3
*D1
  1

  0
LINE
  5
2CA
330
235
100
AcDbEntity
  8
koty
 62
     0
370
    -2
100
AcDbLine
 10
1486.949854213134
 20
139.3425937794573
 30
0.0
 11
1554.497703140744
 21
139.3425937794573
 31
0.0
  0
LINE
  5
2CB
330
235
100
AcDbEntity
  8
koty
 62
     0
370
    -2
100
AcDbLine
 10
1486.949854213134
 20
589.3425937794573
 30
0.0
 11
1554.497703140744
 21
589.3425937794573
 31
0.0
  0
LINE
  5
2CC
330
235
100
AcDbEntity
  8
koty
 62
     0
370
    -2
100
AcDbLine
 10
1541.997703140744
 20
159.3425937794573
 30
0.0
 11
1541.997703140744
 21
569.3425937794573
 31
0.0
  0
SOLID
  5
2CD
330
235
100
AcDbEntity
  8
koty
 62
     0
100
AcDbTrace
 10
1538.66436980741
 20
159.3425937794573
 30
0.0
 11
1545.331036474077
 21
159.3425937794573
 31
0.0
 12
1541.997703140744
 22
139.3425937794573
 32
0.0
 13
1541.997703140744
 23
139.3425937794573
 33
0.0
  0
SOLID
  5
2CE
330
235
100
AcDbEntity
  8
koty
 62
     0
100
AcDbTrace
 10
1538.664369807411
 20
569.3425937794573
 30
0.0
 11
1545.331036474077
 21
569.3425937794573
 31
0.0
 12
1541.997703140744
 22
589.3425937794573
 32
0.0
 13
1541.997703140744
 23
589.3425937794573
 33
0.0
  0
MTEXT
  5
2CF
330
235
100
AcDbEntity
  8
koty
 62
     0
100
AcDbMText
 10
1525.747703140744
 20
364.3425937794575
 30
0.0
 40
20.0
 41
0.0
 71
     5
 72
     1
  1
450
 11
0.0000000000000001
 21
1.0
 31
0.0
 73
     1
 44
1.0
  0
POINT
  5
2D0
330
235
100
AcDbEntity
  8
Defpoints
 62
     0
100
AcDbPoint
 10
1480.699854213134
 20
139.3425937794573
 30
0.0
  0
POINT
  5
2D1
330
235
100
AcDbEntity
  8
Defpoints
 62
     0
100
AcDbPoint
 10
1480.699854213134
 20
589.3425937794573
 30
0.0
  0
POINT
  5
2D2
330
235
100
AcDbEntity
  8
Defpoints
 62
     0
100
AcDbPoint
 10
1541.997703140744
 20
589.3425937794573
 30
0.0
  0
ENDBLK
  5
240
330
235
100
AcDbEntity
  8
0
100
AcDbBlockEnd
  0
BLOCK
  5
257
330
24D
100
AcDbEntity
  8
0
100
AcDbBlockBegin
  2
*D2
 70
     1
 10
0.0
 20
0.0
 30
0.0
  3
*D2
  1

  0
LINE
  5
2B8
330
24D
100
AcDbEntity
  8
koty
 62
     0
370
    -2
100
AcDbLine
 10
1486.949854213134
 20
632.8425937794572
 30
0.0
 11
1622.92631996038
 21
632.8425937794572
 31
0.0
  0
LINE
  5
2B9
330
24D
100
AcDbEntity
  8
koty
 62
     0
370
    -2
100
AcDbLine
 10
1486.949854213134
 20
95.84259377945739
 30
0.0
 11
1622.92631996038
 21
95.84259377945734
 31
0.0
  0
LINE
  5
2BA
330
24D
100
AcDbEntity
  8
koty
 62
     0
370
    -2
100
AcDbLine
 10
1610.42631996038
 20
612.8425937794572
 30
0.0
 11
1610.42631996038
 21
115.8425937794573
 31
0.0
  0
SOLID
  5
2BB
330
24D
100
AcDbEntity
  8
koty
 62
     0
100
AcDbTrace
 10
1607.092986627047
 20
612.8425937794572
 30
0.0
 11
1613.759653293714
 21
612.8425937794572
 31
0.0
 12
1610.42631996038
 22
632.8425937794572
 32
0.0
 13
1610.42631996038
 23
632.8425937794572
 33
0.0
  0
SOLID
  5
2BC
330
24D
100
AcDbEntity
  8
koty
 62
     0
100
AcDbTrace
 10
1607.092986627046
 20
115.8425937794573
 30
0.0
 11
1613.759653293713
 21
115.8425937794573
 31
0.0
 12
1610.42631996038
 22
95.84259377945734
 32
0.0
 13
1610.42631996038
 23
95.84259377945734
 33
0.0
  0
MTEXT
  5
2BD
330
24D
100
AcDbEntity
  8
koty
 62
     0
100
AcDbMText
 10
1594.17631996038
 20
364.3425937794575
 30
0.0
 40
20.0
 41
0.0
 71
     5
 72
     1
  1
537
 11
0.0000000000000001
 21
1.0
 31
0.0
 73
     1
 44
1.0
  0
POINT
  5
2BE
330
24D
100
AcDbEntity
  8
Defpoints
 62
     0
100
AcDbPoint
 10
1480.699854213134
 20
632.8425937794572
 30
0.0
  0
POINT
  5
2BF
330
24D
100
AcDbEntity
  8
Defpoints
 62
     0
100
AcDbPoint
 10
1480.699854213134
 20
95.84259377945739
 30
0.0
  0
POINT
  5
2C0
330
24D
100
AcDbEntity
  8
Defpoints
 62
     0
100
AcDbPoint
 10
1610.42631996038
 20
95.84259377945734
 30
0.0
  0
ENDBLK
  5
258
330
24D
100
AcDbEntity
  8
0
100
AcDbBlockEnd
  0
BLOCK
  5
26F
330
265
100
AcDbEntity
  8
0
100
AcDbBlockBegin
  2
*D3
 70
     1
 10
0.0
 20
0.0
 30
0.0
  3
*D3
  1

  0
LINE
  5
2C1
330
265
100
AcDbEntity
  8
koty
 62
     0
370
    -2
100
AcDbLine
 10
1105.699854213135
 20
89.59259377945739
 30
0.0
 11
1105.699854213135
 21
25.49054333893173
 31
0.0
  0
LINE
  5
2C2
330
265
100
AcDbEntity
  8
koty
 62
     0
370
    -2
100
AcDbLine
 10
1480.699854213134
 20
89.59259377945739
 30
0.0
 11
1480.699854213134
 21
25.49054333893173
 31
0.0
  0
LINE
  5
2C3
330
265
100
AcDbEntity
  8
koty
 62
     0
370
    -2
100
AcDbLine
 10
1125.699854213135
 20
37.99054333893173
 30
0.0
 11
1460.699854213134
 21
37.99054333893173
 31
0.0
  0
SOLID
  5
2C4
330
265
100
AcDbEntity
  8
koty
 62
     0
100
AcDbTrace
 10
1125.699854213135
 20
41.32387667226506
 30
0.0
 11
1125.699854213135
 21
34.65721000559839
 31
0.0
 12
1105.699854213135
 22
37.99054333893173
 32
0.0
 13
1105.699854213135
 23
37.99054333893173
 33
0.0
  0
SOLID
  5
2C5
330
265
100
AcDbEntity
  8
koty
 62
     0
100
AcDbTrace
 10
1460.699854213134
 20
41.32387667226506
 30
0.0
 11
1460.699854213134
 21
34.65721000559839
 31
0.0
 12
1480.699854213134
 22
37.99054333893173
 32
0.0
 13
1480.699854213134
 23
37.99054333893173
 33
0.0
  0
MTEXT
  5
2C6
330
265
100
AcDbEntity
  8
koty
 62
     0
100
AcDbMText
 10
1293.199854213134
 20
54.24054333893173
 30
0.0
 40
20.0
 41
0.0
 71
     5
 72
     1
  1
375
 73
     1
 44
1.0
  0
POINT
  5
2C7
330
265
100
AcDbEntity
  8
Defpoints
 62
     0
100
AcDbPoint
 10
1105.699854213135
 20
95.84259377945739
 30
0.0
  0
POINT
  5
2C8
330
265
100
AcDbEntity
  8
Defpoints
 62
     0
100
AcDbPoint
 10
1480.699854213134
 20
95.84259377945739
 30
0.0
  0
POINT
  5
2C9
330
265
100
AcDbEntity
  8
Defpoints
 62
     0
100
AcDbPoint
 10
1480.699854213134
 20
37.99054333893173
 30
0.0
  0
ENDBLK
  5
270
330
265
100
AcDbEntity
  8
0
100
AcDbBlockEnd
  0
BLOCK
  5
287
330
27D
100
AcDbEntity
  8
0
100
AcDbBlockBegin
  2
*D4
 70
     1
 10
0.0
 20
0.0
 30
0.0
  3
*D4
  1

  0
LINE
  5
28A
330
27D
100
AcDbEntity
  8
koty
 62
     0
370
    -2
100
AcDbLine
 10
680.4016694550855
 20
614.3425937794573
 30
0.0
 11
354.6704742408461
 21
614.3425937794573
 31
0.0
  0
LINE
  5
28B
330
27D
100
AcDbEntity
  8
koty
 62
     0
370
    -2
100
AcDbLine
 10
680.4016694550854
 20
114.3425937794572
 30
0.0
 11
354.6704742408459
 21
114.3425937794573
 31
0.0
  0
LINE
  5
28C
330
27D
100
AcDbEntity
  8
koty
 62
     0
370
    -2
100
AcDbLine
 10
367.1704742408461
 20
594.3425937794573
 30
0.0
 11
367.170474240846
 21
134.3425937794572
 31
0.0
  0
SOLID
  5
28D
330
27D
100
AcDbEntity
  8
koty
 62
     0
100
AcDbTrace
 10
363.8371409075127
 20
594.3425937794573
 30
0.0
 11
370.5038075741794
 21
594.3425937794573
 31
0.0
 12
367.1704742408461
 22
614.3425937794573
 32
0.0
 13
367.1704742408461
 23
614.3425937794573
 33
0.0
  0
SOLID
  5
28E
330
27D
100
AcDbEntity
  8
koty
 62
     0
100
AcDbTrace
 10
363.8371409075127
 20
134.3425937794572
 30
0.0
 11
370.5038075741793
 21
134.3425937794572
 31
0.0
 12
367.1704742408459
 22
114.3425937794573
 32
0.0
 13
367.1704742408459
 23
114.3425937794573
 33
0.0
  0
MTEXT
  5
28F
330
27D
100
AcDbEntity
  8
koty
 62
     0
100
AcDbMText
 10
350.920474240846
 20
364.3425937794574
 30
0.0
 40
20.0
 41
0.0
 71
     5
 72
     1
  1
500
 11
0.0000000000000001
 21
1.0
 31
0.0
 73
     1
 44
1.0
  0
POINT
  5
290
330
27D
100
AcDbEntity
  8
Defpoints
 62
     0
100
AcDbPoint
 10
686.6516694550855
 20
614.3425937794573
 30
0.0
  0
POINT
  5
291
330
27D
100
AcDbEntity
  8
Defpoints
 62
     0
100
AcDbPoint
 10
686.6516694550854
 20
114.3425937794572
 30
0.0
  0
POINT
  5
292
330
27D
100
AcDbEntity
  8
Defpoints
 62
     0
100
AcDbPoint
 10
367.1704742408459
 20
114.3425937794573
 30
0.0
  0
ENDBLK
  5
288
330
27D
100
AcDbEntity
  8
0
100
AcDbBlockEnd
  0
BLOCK
  5
29E
330
295
100
AcDbEntity
  8
0
100
AcDbBlockBegin
  2
*D5
 70
     1
 10
0.0
 20
0.0
 30
0.0
  3
*D5
  1

  0
LINE
  5
2A1
330
295
100
AcDbEntity
  8
koty
 62
     0
370
    -2
100
AcDbLine
 10
974.8589641695938
 20
541.1192890760941
 30
0.0
 11
889.4283647517225
 21
541.1192890760941
 31
0.0
  0
LINE
  5
2A2
330
295
100
AcDbEntity
  8
koty
 62
     0
370
    -2
100
AcDbLine
 10
837.4283647517225
 20
541.1192890760941
 30
0.0
 11
817.4283647517226
 21
541.1192890760941
 31
0.0
  0
MTEXT
  5
2A3
330
295
100
AcDbEntity
  8
koty
 62
     0
100
AcDbMText
 10
945.2756308362605
 20
557.369289076094
 30
0.0
 40
20.0
 41
0.0
 71
     5
 72
     1
  1
\U+220512
 73
     1
 44
1.0
  0
LINE
  5
2A4
330
295
100
AcDbEntity
  8
koty
 62
     0
370
    -2
100
AcDbLine
 10
857.4283647517226
 20
541.1192890760941
 30
0.0
 11
869.4283647517226
 21
541.1192890760941
 31
0.0
  0
SOLID
  5
2A5
330
295
100
AcDbEntity
  8
koty
 62
     0
100
AcDbTrace
 10
837.4283647517225
 20
544.4526224094274
 30
0.0
 11
837.4283647517225
 21
537.7859557427607
 31
0.0
 12
857.4283647517226
 22
541.1192890760941
 32
0.0
 13
857.4283647517226
 23
541.1192890760941
 33
0.0
  0
SOLID
  5
2A6
330
295
100
AcDbEntity
  8
koty
 62
     0
100
AcDbTrace
 10
889.4283647517225
 20
544.4526224094274
 30
0.0
 11
889.4283647517225
 21
537.7859557427607
 31
0.0
 12
869.4283647517226
 22
541.1192890760941
 32
0.0
 13
869.4283647517226
 23
541.1192890760941
 33
0.0
  0
POINT
  5
2A7
330
295
100
AcDbEntity
  8
Defpoints
 62
     0
100
AcDbPoint
 10
869.4283647517226
 20
541.1192890760941
 30
0.0
  0
POINT
  5
2A8
330
295
100
AcDbEntity
  8
Defpoints
 62
     0
100
AcDbPoint
 10
857.4283647517226
 20
541.1192890760941
 30
0.0
  0
ENDBLK
  5
29F
330
295
100
AcDbEntity
  8
0
100
AcDbBlockEnd
  0
ENDSEC
  0
SECTION
  2
ENTITIES
  0
CIRCLE
  5
176
102
{ACAD_REACTORS
330
293
102
}
330
1F
100
AcDbEntity
  8
0
100
AcDbCircle
 10
686.6516694550855
 20
614.3425937794573
 30
0.0
 40
6.0
  0
CIRCLE
  5
177
330
1F
100
AcDbEntity
  8
0
100
AcDbCircle
 10
509.8749741584486
 20
541.1192890760942
 30
0.0
 40
6.0
  0
CIRCLE
  5
178
330
1F
100
AcDbEntity
  8
0
100
AcDbCircle
 10
436.6516694550854
 20
364.3425937794573
 30
0.0
 40
6.0
  0
CIRCLE
  5
179
330
1F
100
AcDbEntity
  8
0
100
AcDbCircle
 10
509.8749741584484
 20
187.5658984828205
 30
0.0
 40
6.0
  0
CIRCLE
  5
17A
102
{ACAD_REACTORS
330
293
102
}
330
1F
100
AcDbEntity
  8
0
100
AcDbCircle
 10
686.6516694550854
 20
114.3425937794572
 30
0.0
 40
6.0
  0
CIRCLE
  5
17B
102
{ACAD_REACTORS
330
2AD
102
}
330
1F
100
AcDbEntity
  8
0
100
AcDbCircle
 10
863.4283647517221
 20
187.5658984828202
 30
0.0
 40
6.0
  0
CIRCLE
  5
17C
330
1F
100
AcDbEntity
  8
0
100
AcDbCircle
 10
936.6516694550854
 20
364.3425937794571
 30
0.0
 40
6.0
  0
CIRCLE
  5
17D
102
{ACAD_REACTORS
330
2A9
102
}
330
1F
100
AcDbEntity
  8
0
100
AcDbCircle
 10
863.4283647517225
 20
541.1192890760941
 30
0.0
 40
6.0
  0
CIRCLE
  5
17E
330
1F
100
AcDbEntity
  8
0
100
AcDbCircle
 10
686.6516694550855
 20
364.3425937794572
 30
0.0
 40
75.18568744449595
  0
CIRCLE
  5
17F
330
1F
100
AcDbEntity
  8
0
100
AcDbCircle
 10
686.6516694550855
 20
364.3425937794572
 30
0.0
 40
68.87117727124831
  0
CIRCLE
  5
180
330
1F
100
AcDbEntity
  8
0
100
AcDbCircle
 10
686.6516694550855
 20
364.3425937794572
 30
0.0
 40
31.88401359112842
  0
ARC
  5
181
330
1F
100
AcDbEntity
  8
0
100
AcDbCircle
 10
686.6516694550855
 20
364.3425937794572
 30
0.0
 40
221.8106389727461
100
AcDbArc
 50
76.29775833773547
 51
103.7022416622645
  0
LINE
  5
182
330
1F
100
AcDbEntity
  8
0
100
AcDbLine
 10
634.1100176806057
 20
579.8404693845482
 30
0.0
 11
634.1100176806057
 21
483.1690588927588
 31
0.0
  0
LINE
  5
183
330
1F
100
AcDbEntity
  8
0
100
AcDbLine
 10
634.3803064763163
 20
480.8597906361193
 30
0.0
 11
638.1123159738914
 21
465.1355998589444
 31
0.0
  0
LINE
  5
184
330
1F
100
AcDbEntity
  8
0
100
AcDbLine
 10
739.1933212295652
 20
579.8404693845482
 30
0.0
 11
739.1933212295651
 21
483.1690588927584
 31
0.0
  0
LINE
  5
185
330
1F
100
AcDbEntity
  8
0
100
AcDbLine
 10
738.9230324338545
 20
480.859790636119
 30
0.0
 11
726.4136904554455
 21
428.1537940695972
 31
0.0
  0
ARC
  5
186
330
1F
100
AcDbEntity
  8
0
100
AcDbCircle
 10
644.1100176806058
 20
483.1690588927588
 30
0.0
 40
10.0
100
AcDbArc
 50
180.0
 51
193.3516439788283
  0
ARC
  5
187
330
1F
100
AcDbEntity
  8
0
100
AcDbCircle
 10
729.193321229565
 20
483.1690588927584
 30
0.0
 40
10.0
100
AcDbArc
 50
346.6483560211717
 51
0.0
  0
LINE
  5
188
330
1F
100
AcDbEntity
  8
0
100
AcDbLine
 10
562.9641949571033
 20
396.1224805524368
 30
0.0
 11
577.58473220521
 21
389.2364104784613
 31
0.0
  0
LINE
  5
189
330
1F
100
AcDbEntity
  8
0
100
AcDbLine
 10
485.4094618478453
 20
457.6246040432928
 30
0.0
 11
560.9902140249164
 21
397.3509654703629
 31
0.0
  0
ARC
  5
18A
330
1F
100
AcDbEntity
  8
0
100
AcDbCircle
 10
686.6516694550855
 20
364.3425937794572
 30
0.0
 40
221.8106389727461
100
AcDbArc
 50
127.7263297663069
 51
155.1308130908359
  0
LINE
  5
18B
330
1F
100
AcDbEntity
  8
0
100
AcDbLine
 10
550.927829956247
 20
539.7820390396137
 30
0.0
 11
626.5085821333184
 21
479.5084004666834
 31
0.0
  0
LINE
  5
18C
330
1F
100
AcDbEntity
  8
0
100
AcDbLine
 10
628.1455184501411
 20
477.8572749690677
 30
0.0
 11
661.5532787291983
 21
435.215426229361
 31
0.0
  0
LINE
  5
18D
330
1F
100
AcDbEntity
  8
0
100
AcDbLine
 10
584.6872744995466
 20
287.4542675371513
 30
0.0
 11
599.1867767457521
 21
294.5916693823093
 31
0.0
  0
LINE
  5
18E
330
1F
100
AcDbEntity
  8
0
100
AcDbLine
 10
488.2483929362606
 20
265.1654823671329
 30
0.0
 11
582.4960493346928
 21
286.6768949166401
 31
0.0
  0
ARC
  5
18F
330
1F
100
AcDbEntity
  8
0
100
AcDbCircle
 10
686.6516694550857
 20
364.3425937794574
 30
0.0
 40
221.8106389727461
100
AcDbArc
 50
179.1549011948783
 51
206.5593845194073
  0
LINE
  5
190
330
1F
100
AcDbEntity
  8
0
100
AcDbLine
 10
464.8651580873312
 20
367.6141281012886
 30
0.0
 11
559.112814485764
 21
389.1255406507958
 31
0.0
  0
LINE
  5
191
330
1F
100
AcDbEntity
  8
0
100
AcDbLine
 10
561.4243294811367
 20
389.3758890887307
 30
0.0
 11
615.5924671334125
 21
388.9083700120328
 31
0.0
  0
LINE
  5
192
330
1F
100
AcDbEntity
  8
0
100
AcDbLine
 10
683.1916231381185
 20
236.6845324183475
 30
0.0
 11
686.6516694550855
 21
252.4707970167707
 31
0.0
  0
LINE
  5
193
330
1F
100
AcDbEntity
  8
0
100
AcDbLine
 10
640.4890379326343
 20
147.3887484288382
 30
0.0
 11
682.4331909825803
 21
234.4866796981556
 31
0.0
  0
ARC
  5
194
330
1F
100
AcDbEntity
  8
0
100
AcDbCircle
 10
686.6516694550857
 20
364.3425937794572
 30
0.0
 40
221.8106389727461
100
AcDbArc
 50
230.5834726234497
 51
257.9879559479787
  0
LINE
  5
195
330
1F
100
AcDbEntity
  8
0
100
AcDbLine
 10
545.812252898682
 20
192.982685091486
 30
0.0
 11
587.7564059486283
 21
280.0806163608039
 31
0.0
  0
LINE
  5
196
330
1F
100
AcDbEntity
  8
0
100
AcDbLine
 10
589.0018816847225
 20
282.0439212543469
 30
0.0
 11
623.1406842294135
 21
324.1027832410624
 31
0.0
  0
LINE
  5
197
330
1F
100
AcDbEntity
  8
0
100
AcDbLine
 10
784.3014572254489
 20
282.0439212543465
 30
0.0
 11
774.1165621644188
 21
294.5916693823093
 31
0.0
  0
LINE
  5
198
330
1F
100
AcDbEntity
  8
0
100
AcDbLine
 10
827.4910860114889
 20
192.9826850914859
 30
0.0
 11
785.5469329615431
 21
280.0806163608034
 31
0.0
  0
ARC
  5
199
330
1F
100
AcDbEntity
  8
0
100
AcDbCircle
 10
686.6516694550856
 20
364.3425937794572
 30
0.0
 40
221.8106389727461
100
AcDbArc
 50
282.0120440520211
 51
309.4165273765502
  0
LINE
  5
19A
330
1F
100
AcDbEntity
  8
0
100
AcDbLine
 10
732.8143009775367
 20
147.3887484288379
 30
0.0
 11
690.8701479275907
 21
234.486679698156
 31
0.0
  0
LINE
  5
19B
330
1F
100
AcDbEntity
  8
0
100
AcDbLine
 10
690.1117157720525
 20
236.684532418348
 30
0.0
 11
678.5139685883443
 21
289.5985945480481
 31
0.0
  0
LINE
  5
19C
330
1F
100
AcDbEntity
  8
0
100
AcDbLine
 10
811.8790094290348
 20
389.3758890887307
 30
0.0
 11
795.7186067049608
 21
389.2364104784612
 31
0.0
  0
LINE
  5
19D
330
1F
100
AcDbEntity
  8
0
100
AcDbLine
 10
908.43818082284
 20
367.6141281012885
 30
0.0
 11
814.1905244244076
 21
389.1255406507957
 31
0.0
  0
ARC
  5
19E
330
1F
100
AcDbEntity
  8
0
100
AcDbCircle
 10
686.6516694550856
 20
364.3425937794575
 30
0.0
 40
221.8106389727461
100
AcDbArc
 50
333.4406154805925
 51
0.8450988051216214
  0
LINE
  5
19F
330
1F
100
AcDbEntity
  8
0
100
AcDbLine
 10
885.0549459739106
 20
265.1654823671326
 30
0.0
 11
790.8072895754777
 21
286.6768949166402
 31
0.0
  0
LINE
  5
1A0
330
1F
100
AcDbEntity
  8
0
100
AcDbLine
 10
788.6160644106239
 20
287.4542675371515
 30
0.0
 11
740.015107678777
 21
311.378161776011
 31
0.0
  0
LINE
  5
1A1
330
1F
100
AcDbEntity
  8
0
100
AcDbLine
 10
745.1578204600302
 20
477.8572749690682
 30
0.0
 11
735.1910229362793
 21
465.1355998589442
 31
0.0
  0
LINE
  5
1A2
330
1F
100
AcDbEntity
  8
0
100
AcDbLine
 10
822.375508953924
 20
539.7820390396138
 30
0.0
 11
746.7947567768528
 21
479.5084004666838
 31
0.0
  0
ARC
  5
1A3
330
1F
100
AcDbEntity
  8
0
100
AcDbCircle
 10
686.6516694550855
 20
364.3425937794572
 30
0.0
 40
221.8106389727461
100
AcDbArc
 50
24.86918690916398
 51
52.27367023369304
  0
LINE
  5
1A4
330
1F
100
AcDbEntity
  8
0
100
AcDbLine
 10
887.893877062326
 20
457.6246040432929
 30
0.0
 11
812.3131248852542
 21
397.3509654703627
 31
0.0
  0
LINE
  5
1A5
330
1F
100
AcDbEntity
  8
0
100
AcDbLine
 10
810.3391439530673
 20
396.1224805524368
 30
0.0
 11
761.3324893710074
 21
373.0410265800881
 31
0.0
  0
LINE
  5
1A7
330
1F
100
AcDbEntity
  8
0
100
AcDbLine
 10
632.1100176806058
 20
579.8404693845482
 30
0.0
 11
632.1100176806058
 21
483.1690588927588
 31
0.0
  0
LINE
  5
1A8
330
1F
100
AcDbEntity
  8
0
100
AcDbLine
 10
632.3803064763162
 20
480.8597906361193
 30
0.0
 11
636.1123159738914
 21
465.1355998589444
 31
0.0
  0
ARC
  5
1A9
330
1F
100
AcDbEntity
  8
0
100
AcDbCircle
 10
684.6516694550855
 20
364.3425937794572
 30
0.0
 40
221.8106389727461
100
AcDbArc
 50
76.29775833773547
 51
103.7022416622645
  0
LINE
  5
1AA
330
1F
100
AcDbEntity
  8
0
100
AcDbLine
 10
561.7172153533858
 20
394.5588175875008
 30
0.0
 11
576.3377526014927
 21
387.672747513525
 31
0.0
  0
LINE
  5
1AB
330
1F
100
AcDbEntity
  8
0
100
AcDbLine
 10
484.1624822441278
 20
456.0609410783569
 30
0.0
 11
559.7432344211988
 21
395.7873025054267
 31
0.0
  0
ARC
  5
1AC
330
1F
100
AcDbEntity
  8
0
100
AcDbCircle
 10
685.4046898513681
 20
362.7789308145212
 30
0.0
 40
221.8106389727461
100
AcDbArc
 50
127.7263297663069
 51
155.1308130908359
  0
LINE
  5
1AD
330
1F
100
AcDbEntity
  8
0
100
AcDbLine
 10
585.1323163674593
 20
285.5044117127878
 30
0.0
 11
599.631818613665
 21
292.6418135579456
 31
0.0
  0
LINE
  5
1AE
330
1F
100
AcDbEntity
  8
0
100
AcDbLine
 10
488.6934348041732
 20
263.2156265427692
 30
0.0
 11
582.9410912026055
 21
284.7270390922764
 31
0.0
  0
ARC
  5
1AF
330
1F
100
AcDbEntity
  8
0
100
AcDbCircle
 10
687.0967113229984
 20
362.3927379550937
 30
0.0
 40
221.8106389727461
100
AcDbArc
 50
179.1549011948783
 51
206.5593845194073
  0
LINE
  5
1B0
330
1F
100
AcDbEntity
  8
0
100
AcDbLine
 10
684.9935608739233
 20
235.8167649401124
 30
0.0
 11
688.4536071908904
 21
251.6030295385356
 31
0.0
  0
LINE
  5
1B1
330
1F
100
AcDbEntity
  8
0
100
AcDbLine
 10
642.2909756684391
 20
146.5209809506031
 30
0.0
 11
684.2351287183851
 21
233.6189122199205
 31
0.0
  0
ARC
  5
1B2
330
1F
100
AcDbEntity
  8
0
100
AcDbCircle
 10
688.4536071908906
 20
363.4748263012222
 30
0.0
 40
221.8106389727461
100
AcDbArc
 50
230.5834726234497
 51
257.9879559479787
  0
LINE
  5
1B3
330
1F
100
AcDbEntity
  8
0
100
AcDbLine
 10
786.1033949612537
 20
282.9116887325816
 30
0.0
 11
775.9184999002238
 21
295.4594368605444
 31
0.0
  0
LINE
  5
1B4
330
1F
100
AcDbEntity
  8
0
100
AcDbLine
 10
829.2930237472937
 20
193.850452569721
 30
0.0
 11
787.3488706973479
 21
280.9483838390385
 31
0.0
  0
ARC
  5
1B5
330
1F
100
AcDbEntity
  8
0
100
AcDbCircle
 10
688.4536071908904
 20
365.2103612576923
 30
0.0
 40
221.8106389727461
100
AcDbArc
 50
282.0120440520211
 51
309.4165273765502
  0
LINE
  5
1B6
330
1F
100
AcDbEntity
  8
0
100
AcDbLine
 10
812.3240512969475
 20
391.3257449130944
 30
0.0
 11
796.1636485728734
 21
391.1862663028249
 31
0.0
  0
LINE
  5
1B7
330
1F
100
AcDbEntity
  8
0
100
AcDbLine
 10
908.8832226907525
 20
369.5639839256521
 30
0.0
 11
814.6355662923202
 21
391.0753964751595
 31
0.0
  0
ARC
  5
1B8
330
1F
100
AcDbEntity
  8
0
100
AcDbCircle
 10
687.0967113229982
 20
366.292449603821
 30
0.0
 40
221.8106389727461
100
AcDbArc
 50
333.4406154805925
 51
0.8450988051216214
  0
LINE
  5
1B9
330
1F
100
AcDbEntity
  8
0
100
AcDbLine
 10
743.9108408563128
 20
479.4209379340042
 30
0.0
 11
733.944043332562
 21
466.6992628238806
 31
0.0
  0
LINE
  5
1BA
330
1F
100
AcDbEntity
  8
0
100
AcDbLine
 10
821.1285293502067
 20
541.3457020045497
 30
0.0
 11
745.5477771731355
 21
481.0720634316198
 31
0.0
  0
ARC
  5
1BB
330
1F
100
AcDbEntity
  8
0
100
AcDbCircle
 10
685.4046898513681
 20
365.9062567443932
 30
0.0
 40
221.8106389727461
100
AcDbArc
 50
24.86918690916398
 51
52.27367023369304
  0
HATCH
  5
1F4
330
1F
100
AcDbEntity
  8
srafy
100
AcDbHatch
 10
0.0
 20
0.0
 30
0.0
210
0.0
220
0.0
230
1.0
  2
LINE
 70
     0
 71
     0
 91
        2
 92
        1
 93
        4
 72
     1
 10
1202.763897039337
 20
456.2413312342817
 11
1273.084049679026
 21
456.2413312342817
 72
     1
 10
1273.084049679026
 20
456.2413312342817
 11
1273.084049679026
 21
382.8734081367047
 72
     1
 10
1273.084049679026
 20
382.8734081367047
 11
1202.763897039337
 21
382.8734081367047
 72
     1
 10
1202.763897039337
 20
382.8734081367047
 11
1202.763897039337
 21
456.2413312342817
 97
        0
 92
        1
 93
        4
 72
     1
 10
1202.763897039337
 20
348.9391053520818
 11
1273.084049679026
 21
348.9391053520818
 72
     1
 10
1273.084049679026
 20
348.9391053520818
 11
1273.084049679026
 21
275.5711822545048
 72
     1
 10
1273.084049679026
 20
275.5711822545048
 11
1202.763897039337
 21
275.5711822545048
 72
     1
 10
1202.763897039337
 20
275.5711822545048
 11
1202.763897039337
 21
348.9391053520818
 97
        0
 75
     0
 76
     1
 52
0.0
 41
2.0
 77
     0
 78
     1
 53
0.0
 43
0.0
 44
0.0
 45
0.0
 46
6.349999999999999
 79
     0
 98
        1
 10
0.0
 20
0.0
  0
HATCH
  5
1F5
330
1F
100
AcDbEntity
  8
srafy
100
AcDbHatch
 10
0.0
 20
0.0
 30
0.0
210
0.0
220
0.0
230
1.0
  2
LINE
 70
     0
 71
     0
 91
        2
 92
        1
 93
        4
 72
     1
 10
1383.635811386932
 20
456.2413312342817
 11
1313.315658747243
 21
456.2413312342817
 72
     1
 10
1313.315658747243
 20
456.2413312342817
 11
1313.315658747243
 21
382.8734081367047
 72
     1
 10
1313.315658747243
 20
382.8734081367047
 11
1383.635811386932
 21
382.8734081367047
 72
     1
 10
1383.635811386932
 20
382.8734081367047
 11
1383.635811386932
 21
456.2413312342817
 97
        0
 92
        1
 93
        4
 72
     1
 10
1383.635811386932
 20
348.9391053520818
 11
1313.315658747243
 21
348.9391053520818
 72
     1
 10
1313.315658747243
 20
348.9391053520818
 11
1313.315658747243
 21
275.5711822545048
 72
     1
 10
1313.315658747243
 20
275.5711822545048
 11
1383.635811386932
 21
275.5711822545048
 72
     1
 10
1383.635811386932
 20
275.5711822545048
 11
1383.635811386932
 21
348.9391053520818
 97
        0
 75
     0
 76
     1
 52
0.0
 41
2.0
 77
     0
 78
     1
 53
180.0
 43
2586.399708426269
 44
0.0
 45
0.0
 46
6.349999999999999
 79
     0
 98
        1
 10
2586.399708426269
 20
0.0
  0
DIMENSION
  5
234
330
1F
100
AcDbEntity
  8
koty
100
AcDbDimension
  2
*D1
 10
1541.997703140744
 20
589.3425937794573
 30
0.0
 11
1525.747703140744
 21
364.3425937794575
 31
0.0
 70
    32
 71
     5
 42
449.9999999999999
  3
ISO-25
100
AcDbAlignedDimension
 13
1480.699854213134
 23
139.3425937794573
 33
0.0
 14
1480.699854213134
 24
589.3425937794573
 34
0.0
 50
90.0
100
AcDbRotatedDimension
  0
DIMENSION
  5
24C
330
1F
100
AcDbEntity
  8
koty
100
AcDbDimension
  2
*D2
 10
1610.42631996038
 20
95.84259377945734
 30
0.0
 11
1594.17631996038
 21
364.3425937794575
 31
0.0
 70
    32
 71
     5
 42
536.9999999999999
  3
ISO-25
100
AcDbAlignedDimension
 13
1480.699854213134
 23
632.8425937794572
 33
0.0
 14
1480.699854213134
 24
95.84259377945739
 34
0.0
 50
90.0
100
AcDbRotatedDimension
  0
DIMENSION
  5
264
330
1F
100
AcDbEntity
  8
koty
100
AcDbDimension
  2
*D3
 10
1480.699854213134
 20
37.99054333893173
 30
0.0
 11
1293.199854213134
 21
54.24054333893173
 31
0.0
 70
    32
 71
     5
 42
374.9999999999995
  3
ISO-25
100
AcDbAlignedDimension
 13
1105.699854213135
 23
95.84259377945739
 33
0.0
 14
1480.699854213134
 24
95.84259377945739
 34
0.0
100
AcDbRotatedDimension
  0
DIMENSION
  5
27C
102
{ACAD_XDICTIONARY
360
289
102
}
102
{ACAD_REACTORS
330
293
102
}
330
1F
100
AcDbEntity
  8
koty
100
AcDbDimension
  2
*D4
 10
367.1704742408459
 20
114.3425937794573
 30
0.0
 11
350.920474240846
 21
364.3425937794574
 31
0.0
 70
    32
 71
     5
 42
500.0
  3
ISO-25
100
AcDbAlignedDimension
 13
686.6516694550855
 23
614.3425937794573
 33
0.0
 14
686.6516694550854
 24
114.3425937794572
 34
0.0
 50
90.0
100
AcDbRotatedDimension
  0
DIMENSION
  5
294
102
{ACAD_XDICTIONARY
360
2A0
102
}
102
{ACAD_REACTORS
330
2A9
102
}
330
1F
100
AcDbEntity
  8
koty
100
AcDbDimension
  2
*D5
 10
857.4283647517226
 20
541.1192890760941
 30
0.0
 11
945.2756308362605
 21
541.1192890760941
 31
0.0
 70
   163
 71
     5
 42
12.0
  3
ISO-25
100
AcDbDiametricDimension
 15
869.4283647517226
 25
541.1192890760941
 35
0.0
 40
0.0
1001
ACAD
1000
DSTYLE
1002
{
1070
   288
1070
     1
1002
}
  0
LEADER
  5
2AA
102
{ACAD_XDICTIONARY
360
2AC
102
}
102
{ACAD_REACTORS
330
2AD
102
}
330
1F
100
AcDbEntity
  8
koty
100
AcDbLeader
  3
ISO-25
 73
     0
 40
20.0
 41
33.33333333333333
 76
     3
 10
869.4283647517222
 20
187.5658984828202
 30
0.0
 10
915.7895036565969
 20
208.6650300344079
 30
0.0
 10
975.2519008238031
 20
208.6650300344079
 30
0.0
340
2AB
213
0.0
223
-10.0
233
0.0
1001
ACAD
1000
DSTYLE
1002
{
1070
   147
1040
0.625
1070
    77
1070
     0
1002
}
  0
MTEXT
  5
2AB
102
{ACAD_REACTORS
330
2AA
102
}
330
1F
100
AcDbEntity
  8
koty
100
AcDbMText
 10
981.5019008238031
 20
218.6650300344079
 30
0.0
 40
20.0
 41
0.0
 71
     1
 72
     1
  1
8x
 73
     1
 44
1.0
  0
TEXT
  5
2AE
330
1F
100
AcDbEntity
  8
popis
100
AcDbText
 10
528.984946359621
 20
691.824939043265
 30
0.0
 40
20.0
  1
TCBx2/450 - středotlaký axiální ventilátor potrubní
100
AcDbText
  0
3DSOLID
  5
2B1
330
1F
100
AcDbEntity
  8
0
100
AcDbModelerGeometry
 70
     1
  1
koo lg n o          
  1
h J1410(1 nl ^ \VL kqoqm QK mk Y-6 Q0) ol ngekgell mooi 
  1
rn fqfffffffffffffffj:rooh n:rono 
  1
=0;& {n {m {rn {rn |
  1
-:9@)+r:&:r>++-6= {rn {rn {rn {o {l {k |
  1
3*2/ {j {rn {i {o |
  1
:&:@-:961:2:1+ {rn j 8-6;  n l +-6 m k ,*-9 o l >;5 o k 8->; o f /0,+<7:<4 o k ,+03 nqglfmfmniginhmkgj k 1+03 lo k ;,63 o g 93>+1:,, o h /6'>-:> o k 72>' o i 8-6;>- o j 28-6; loo j *8-6; o j )8-6; o no :1;@96:3;, |
  1
):-+:'@+:2/3>+: {rn l o n g |
  1
-:9@)+r:&:r>++-6= {rn {rn {rn {m {l {k |
  1
,7:33 {h {rn {rn {g {rn {m |
  1
-:9@)+r:&:r>++-6= {rn {rn {rn {i {l {k |
  1
9><: {f {no {nn {i {rn {nm 90-(>-; ,6183: |
  1
92:,7r:&:r>++-6= {rn {nl {rn {g |
  1
9><: {nk {nj {ni {i {rn {nh -:):-,:; ,6183: |
  1
300/ {rn {ng {nf {g |
  1
<01:r,*-9><: {rn igiqijniifkjjogjjk likqlkmjflhhfkjhmh o o o rn migqj o o n V V o n migqj 90-(>-; V V V V |
  1
-:9@)+r:&:r>++-6= {rn {rn {f {g {l {k |
  1
92:,7r:&:r>++-6= {rn {mo {rn {no |
  1
9><: {mn {rn {mm {i {rn {ml 90-(>-; ,6183: |
  1
300/ {rn {rn {mk {no |
  1
/3>1:r,*-9><: {rn fjjqnjniifkjjogjjk likqlkmjflhhfkjhmh rj o o n n o o 90-(>-;@) V V V V |
  1
300/ {rn {rn {mj {g |
  1
<0:;8: {rn {nf {nf {mk {mi 90-(>-; {nn {rn |
  1
-:9@)+r:&:r>++-6= {rn {rn {nk {no {l {k |
  1
92:,7r:&:r>++-6= {rn {mh {rn {nj |
  1
300/ {rn {rn {mg {nj |
  1
/3>1:r,*-9><: {rn igiqijniifkjjogjhh likqlkmjflhhfkjiij o o o n n o o 90-(>-;@) V V V V |
  1
<0:;8: {rn {mk {mk {nf {mi -:):-,:; {ni {rn |
  1
<0:;8: {rn {mj {mj {mg {mf -:):-,:; {ng {rn |
  1
:;8: {lo {ln {ln {nf {lm 90-(>-; |
  1
-:9@)+r:&:r>++-6= {rn {rn {mn {nj {l {k |
  1
<0:;8: {rn {mg {mg {mj {mf 90-(>-; {mm {rn |
  1
:;8: {ll {lk {lk {mg {lj 90-(>-; |
  1
/+36,+r:&:r>++-6= {rn {rn {rn {mi |
  1
):-+:' {rn {mi {li |
  1
:336/,:r<*-): {rn igiqijniifkjjogjjk likqlkmjflhhfkjhmh rj o o n migqj o o n V V |
  1
/+36,+r:&:r>++-6= {rn {rn {rn {mf |
  1
):-+:' {rn {mf {lh |
  1
:336/,:r<*-): {rn igiqijniifkjjogjjk likqlkmjflhhfkjhmh o o o n migqj o o n V V |
  1
/061+ {rn fjjqnjniifkjjogjjk likqlkmjflhhfkjhmh rj |
  1
/061+ {rn fjjqnjniifkjjogjjk likqlkmjflhhfkjhmh o |
  0
3DSOLID
  5
2B3
330
1F
100
AcDbEntity
  8
0
100
AcDbModelerGeometry
 70
     1
  1
koo lg n o          
  1
h J1410(1 nl ^ \VL kqoqm QK mk Y-6 Q0) ol ngekgell mooi 
  1
rn fqfffffffffffffffj:rooh n:rono 
  1
=0;& {n {m {rn {rn |
  1
-:9@)+r:&:r>++-6= {rn {rn {rn {o {l {k |
  1
3*2/ {j {rn {i {o |
  1
:&:@-:961:2:1+ {rn j 8-6;  n l +-6 m k ,*-9 o l >;5 o k 8->; o f /0,+<7:<4 o k ,+03 nqglfmfmniginhmkgj k 1+03 lo k ;,63 o g 93>+1:,, o h /6'>-:> o k 72>' o i 8-6;>- o j 28-6; loo j *8-6; o j )8-6; o no :1;@96:3;, |
  1
):-+:'@+:2/3>+: {rn l o n g |
  1
-:9@)+r:&:r>++-6= {rn {rn {rn {m {l {k |
  1
,7:33 {h {rn {rn {g {rn {m |
  1
-:9@)+r:&:r>++-6= {rn {rn {rn {i {l {k |
  1
9><: {f {no {nn {i {rn {nm 90-(>-; ,6183: |
  1
92:,7r:&:r>++-6= {rn {nl {rn {g |
  1
9><: {nk {nj {ni {i {rn {nh -:):-,:; ,6183: |
  1
300/ {rn {ng {nf {g |
  1
<01:r,*-9><: {rn igiqijniifkjjogjjk likqlkmjflhhfkjhmh rlhj o o rn migqj o o n V V o n migqj 90-(>-; V V V V |
  1
-:9@)+r:&:r>++-6= {rn {rn {f {g {l {k |
  1
92:,7r:&:r>++-6= {rn {mo {rn {no |
  1
9><: {mn {rn {mm {i {rn {ml 90-(>-; ,6183: |
  1
300/ {rn {rn {mk {no |
  1
/3>1:r,*-9><: {rn fjjqnjniifkjjogjjk likqlkmjflhhfkjhmh rlgo o o n n o o 90-(>-;@) V V V V |
  1
300/ {rn {rn {mj {g |
  1
<0:;8: {rn {nf {nf {mk {mi 90-(>-; {nn {rn |
  1
-:9@)+r:&:r>++-6= {rn {rn {nk {no {l {k |
  1
92:,7r:&:r>++-6= {rn {mh {rn {nj |
  1
300/ {rn {rn {mg {nj |
  1
/3>1:r,*-9><: {rn igiqijniifkjjogjhh likqlkmjflhhfkjiij rlhj o o n n o o 90-(>-;@) V V V V |
  1
<0:;8: {rn {mk {mk {nf {mi -:):-,:; {ni {rn |
  1
<0:;8: {rn {mj {mj {mg {mf -:):-,:; {ng {rn |
  1
:;8: {lo {ln {ln {nf {lm 90-(>-; |
  1
-:9@)+r:&:r>++-6= {rn {rn {mn {nj {l {k |
  1
<0:;8: {rn {mg {mg {mj {mf 90-(>-; {mm {rn |
  1
:;8: {ll {lk {lk {mg {lj 90-(>-; |
  1
/+36,+r:&:r>++-6= {rn {rn {rn {mi |
  1
):-+:' {rn {mi {li |
  1
:336/,:r<*-): {rn igiqijniifkjjogjjk likqlkmjflhhfkjhmh rlgo o o n migqj o o n V V |
  1
/+36,+r:&:r>++-6= {rn {rn {rn {mf |
  1
):-+:' {rn {mf {lh |
  1
:336/,:r<*-): {rn igiqijniifkjjogjjk likqlkmjflhhfkjhmh rlhj o o n migqj o o n V V |
  1
/061+ {rn fjjqnjniifkjjogjjk likqlkmjflhhfkjhmh rlgo |
  1
/061+ {rn fjjqnjniifkjjogjjk likqlkmjflhhfkjhmh rlhj |
  0
3DSOLID
  5
2B6
330
1F
100
AcDbEntity
  8
0
100
AcDbModelerGeometry
 70
     1
  1
koo nko n o         
  1
h J1410(1 nl ^ \VL kqoqm QK mk Y-6 Q0) ol ngekgell mooi 
  1
rn fqfffffffffffffffj:rooh n:rono 
  1
=0;& {n {m {rn {rn |
  1
-:9@)+r:&:r>++-6= {rn {rn {rn {o {l {k |
  1
3*2/ {j {rn {i {o |
  1
:&:@-:961:2:1+ {rn j 8-6;  n l +-6 m k ,*-9 o l >;5 o k 8->; o f /0,+<7:<4 o k ,+03 nqglfmfmniginhmkgj k 1+03 lo k ;,63 o g 93>+1:,, o h /6'>-:> o k 72>' o i 8-6;>- o j 28-6; loo j *8-6; o j )8-6; o no :1;@96:3;, |
  1
):-+:'@+:2/3>+: {rn l o n g |
  1
-:9@)+r:&:r>++-6= {rn {rn {rn {m {l {k |
  1
,7:33 {h {rn {rn {g {rn {m |
  1
-:9@)+r:&:r>++-6= {rn {rn {rn {i {l {k |
  1
9><: {f {no {nn {i {rn {nm 90-(>-; ,6183: |
  1
92:,7r:&:r>++-6= {rn {nl {rn {g |
  1
9><: {nk {nj {ni {i {rn {nh -:):-,:; ,6183: |
  1
300/ {rn {ng {nf {g |
  1
<01:r,*-9><: {rn igiqijniifkjjogjjk likqlkmjflhhfkjhmh o o o rn mmj o o n V V o n mmj 90-(>-; V V V V |
  1
-:9@)+r:&:r>++-6= {rn {rn {f {g {l {k |
  1
92:,7r:&:r>++-6= {rn {mo {rn {no |
  1
9><: {mn {mm {ml {i {rn {mk 90-(>-; ,6183: |
  1
300/ {rn {rn {mj {no |
  1
/3>1:r,*-9><: {rn fnnqijniifkjjogjjk likqlkmjflhhfkjhmh rlhj o o n n o o 90-(>-;@) V V V V |
  1
300/ {rn {mi {mh {g |
  1
<0:;8: {rn {nf {nf {mg {mf -:):-,:; {nn {rn |
  1
-:9@)+r:&:r>++-6= {rn {rn {nk {no {l {k |
  1
92:,7r:&:r>++-6= {rn {lo {rn {nj |
  1
9><: {ln {lm {ll {i {rn {lk 90-(>-; ,6183: |
  1
300/ {rn {rn {mg {nj |
  1
/3>1:r,*-9><: {rn igiqijniifkjjogjhh likqlkmjflhhfkjihn o o o n n o o 90-(>-;@) V V V V |
  1
<0:;8: {rn {mj {mj {mh {lj -:):-,:; {ni {rn |
  1
300/ {rn {rn {li {g |
  1
<0:;8: {rn {mh {mh {mj {lj 90-(>-; {ng {rn |
  1
<0:;8: {rn {mg {mg {nf {mf 90-(>-; {ml {rn |
  1
:;8: {lh {lg {lg {mg {lf 90-(>-; |
  1
-:9@)+r:&:r>++-6= {rn {rn {mn {nj {l {k |
  1
92:,7r:&:r>++-6= {rn {ko {rn {mm |
  1
9><: {kn {km {kl {i {rn {kk 90-(>-; ,6183: |
  1
300/ {rn {rn {kj {mm |
  1
/3>1:r,*-9><: {rn ikkqjhgljolgghlkoh ijnqojkkfikglhhhfk rjjqklhiinkjknnjkkm rn o o o o n 90-(>-;@) V V V V |
  1
:;8: {ki {kh {kh {mh {kg 90-(>-; |
  1
<0:;8: {rn {kf {jo {jn {jm -:):-,:; {mi {rn |
  1
/+36,+r:&:r>++-6= {rn {rn {rn {mf |
  1
):-+:' {rn {mf {jl |
  1
:336/,:r<*-): {rn igiqijniifkjjogjjk likqlkmjflhhfkjhmh o o o n mmj o o n V V |
  1
-:9@)+r:&:r>++-6= {rn {rn {ln {mm {l {k |
  1
92:,7r:&:r>++-6= {rn {jk {rn {lm |
  1
9><: {jj {ji {jh {i {rn {jg 90-(>-; ,6183: |
  1
300/ {rn {rn {jf {lm |
  1
/3>1:r,*-9><: {rn igiqijniifkjjogjjk iogqkoimgnhmlgjmgf rjjqklhiinkjknnjkkm o o n n o o 90-(>-;@) V V V V |
  1
<0:;8: {rn {io {in {im {il 90-(>-; {ll {rn |
  1
/+36,+r:&:r>++-6= {rn {rn {rn {lj |
  1
):-+:' {rn {lj {ik |
  1
:336/,:r<*-): {rn igiqijniifkjjogjjk likqlkmjflhhfkjhmh rlhj o o n mmj o o n V V |
  1
<0:;8: {rn {im {li {jf {ij -:):-,:; {mi {rn |
  1
<0:;8: {rn {li {im {ii {ih -:):-,:; {mi {rn |
  1
<0:;8: {rn {ig {if {li {jm 90-(>-; {jh {rn |
  1
:;8: {ho {hn {hm {jn {hl 90-(>-; |
  1
/061+ {rn fnnqijniifkjjogjjk likqlkmjflhhfkjhmh o |
  1
-:9@)+r:&:r>++-6= {rn {rn {kn {lm {l {k |
  1
92:,7r:&:r>++-6= {rn {hk {rn {km |
  1
9><: {hj {hi {hh {i {rn {hg 90-(>-; ,6183: |
  1
300/ {rn {rn {jn {km |
  1
/3>1:r,*-9><: {rn hmgqhmkfggjmnklif jijqhjgoiifilfmhfk rjjqklhiinkjknnjkkm n o o o o rn 90-(>-;@) V V V V |
  1
<0:;8: {rn {hf {go {kf {ij 90-(>-; {kl {rn |
  1
<0:;8: {rn {gn {kj {go {gm 90-(>-; {ll {rn |
  1
<0:;8: {rn {kj {gn {gl {gk 90-(>-; {ll {rn |
  1
<0:;8: {rn {jo {kf {kj {il -:):-,:; {mi {rn |
  1
:;8: {gj {gi {gh {kj {gg 90-(>-; |
  1
/061+ {rn fnnqijniifkjjogjjk likqlkmjflhhfkjhmh rlhj |
  1
:;8: {gf {gh {hn {jf {fo 90-(>-; |
  1
<0:;8: {rn {gl {fn {jo {ih 90-(>-; {fm {rn |
  1
:;8: {fl {hm {gi {ii {fk 90-(>-; |
  1
<0:;8: {rn {fj {jn {fn {fi 90-(>-; {jh {rn |
  1
<0:;8: {rn {jn {fj {hf {fh 90-(>-; {jh {rn |
  1
/+36,+r:&:r>++-6= {rn {rn {rn {jm |
  1
):-+:' {rn {jm {fg |
  1
):-+:' {rn {fi {ff |
  1
,+->687+r<*-): {rn hmgqhmkfggjmnklif jgjqlhlgfklmfmigjm o o o rn V V |
  1
-:9@)+r:&:r>++-6= {rn {rn {jj {km {l {k |
  1
92:,7r:&:r>++-6= {rn {noo {rn {ji |
  1
9><: {non {rn {fm {i {rn {nom -:):-,:; ,6183: |
  1
300/ {rn {rn {nol {ji |
  1
/3>1:r,*-9><: {rn hmgqhmkfggjmnklif ijnqojkkfikglhhhfk rjjqklhiinkjknnjkkm o n o o o n 90-(>-;@) V V V V |
  1
<0:;8: {rn {nok {jf {if {fh -:):-,:; {kl {rn |
  1
<0:;8: {rn {jf {nok {io {gm -:):-,:; {kl {rn |
  1
<0:;8: {rn {in {io {noj {noi 90-(>-; {ll {rn |
  1
:;8: {noh {gh {nog {go {nof 90-(>-; |
  1
<0:;8: {rn {nno {ii {in {gk -:):-,:; {fm {rn |
  1
:;8: {nnn {nnm {gi {in {nnl 90-(>-; |
  1
/+36,+r:&:r>++-6= {rn {rn {rn {il |
  1
):-+:' {rn {ih {nnk |
  1
):-+:' {rn {gm {nnj |
  1
,+->687+r<*-): {rn ikkqjhgljolgghlkoh jgjqlhlgfklmfmigjm o o o n V V |
  1
/+36,+r:&:r>++-6= {rn {rn {rn {ij |
  1
:336/,:r<*-): {rn igiqijniifkjjogjjk likqlkmjflhhfkjhmh rjjqklhiinkjknnjkkm o o rn mmj o o n V V |
  1
<0:;8: {rn {ii {nno {ig {fi -:):-,:; {fm {rn |
  1
300/ {rn {rn {ii {hi |
  1
/+36,+r:&:r>++-6= {rn {rn {rn {ih |
  1
:336/,:r<*-): {rn igiqijniifkjjogjjk likqlkmjflhhfkjhmh rlojqklhiinkjknnjkn o o n mmj o o n V V |
  1
<0:;8: {rn {if {ig {nni {nnh -:):-,:; {jh {rn |
  1
:;8: {nng {hm {nnf {ig {nmo 90-(>-; |
  1
:;8: {nmn {nmm {hn {hf {nml 90-(>-; |
  1
/061+ {rn hmgqhmkfggjmnklif jgjqlhlgfklmfmigjm rjjqklhiinkjknnjkkm |
  1
/061+ {rn hmgqhmkfggjmnklif jgjqlhlgfklmfmigjm rlojqklhiinkjknnjkn |
  1
-:9@)+r:&:r>++-6= {rn {rn {hj {ji {l {k |
  1
92:,7r:&:r>++-6= {rn {nmk {rn {hi |
  1
/3>1:r,*-9><: {rn ikkqjhgljolgghlkoh ijnqojkkfikglhhhfk rlojqklhiinkjknnjkn o o n n o o 90-(>-;@) V V V V |
  1
<0:;8: {rn {noj {nni {nno {nmj 90-(>-; {hh {rn |
  1
<0:;8: {rn {go {hf {nmi {nmh -:):-,:; {kl {rn |
  1
<0:;8: {rn {nmi {nol {gn {noi -:):-,:; {hh {rn |
  1
:;8: {nmg {nog {nnm {gn {nmf 90-(>-; |
  1
/+36,+r:&:r>++-6= {rn {rn {rn {gm |
  1
):-+:' {rn {nmh {nlo |
  1
,+->687+r<*-): {rn ikkqjhgljolgghlkoh jijqhjgoiifilfmhfk rjjqklhiinkjknnjkkm o n o V V |
  1
<0:;8: {rn {fn {gl {nol {nmj -:):-,:; {fm {rn |
  1
/+36,+r:&:r>++-6= {rn {rn {rn {gk |
  1
):-+:' {rn {noi {nln |
  1
,+->687+r<*-): {rn ikkqjhgljolgghlkoh jijqhjgoiifilfmhfk rlojqklhiinkjknnjkn o rn o V V |
  1
/061+ {rn ikkqjhgljolgghlkoh jgjqlhlgfklmfmigjm rlojqklhiinkjknnjkn |
  1
/061+ {rn ikkqjhgljolgghlkoh jgjqlhlgfklmfmigjm rjjqklhiinkjknnjkkm |
  1
<0:;8: {rn {nol {nmi {fj {nnh 90-(>-; {hh {rn |
  1
:;8: {nlm {nmm {nnf {nni {nll 90-(>-; |
  1
/+36,+r:&:r>++-6= {rn {rn {rn {fi |
  1
):-+:' {rn {nnh {nlk |
  1
,+->687+r<*-): {rn hmgqhmkfggjmnklif ijnqojkkfikglhhhfk rlojqklhiinkjknnjkn o n o V V |
  1
/+36,+r:&:r>++-6= {rn {rn {rn {fh |
  1
):-+:' {rn {nmh {nlj |
  1
,+->687+r<*-): {rn hmgqhmkfggjmnklif ijnqojkkfikglhhhfk rjjqklhiinkjknnjkkm o rn o V V |
  1
-:9@)+r:&:r>++-6= {rn {rn {non {hi {l {k |
  1
:;8: {nli {nnf {nnm {nol {nlh 90-(>-; |
  1
<0:;8: {rn {nni {noj {nok {nmh 90-(>-; {hh {rn |
  1
:;8: {nlg {nog {nmm {nok {nlf 90-(>-; |
  1
/+36,+r:&:r>++-6= {rn {rn {rn {noi |
  1
,+->687+r<*-): {rn ikkqjhgljolgghlkoh ijnqojkkfikglhhhfk rjjqklhiinkjknnjkkm o o rn V V |
  1
/061+ {rn ikkqjhgljolgghlkoh ijnqojkkfikglhhhfk rjjqklhiinkjknnjkkm |
  1
/061+ {rn ikkqjhgljolgghlkoh ijnqojkkfikglhhhfk rlojqklhiinkjknnjkn |
  1
/+36,+r:&:r>++-6= {rn {rn {rn {nnh |
  1
,+->687+r<*-): {rn hmgqhmkfggjmnklif ijnqojkkfikglhhhfk rjjqklhiinkjknnjkkm o o rn V V |
  1
/061+ {rn hmgqhmkfggjmnklif ijnqojkkfikglhhhfk rlojqklhiinkjknnjkn |
  1
/061+ {rn hmgqhmkfggjmnklif ijnqojkkfikglhhhfk rjjqklhiinkjknnjkkm |
  1
/+36,+r:&:r>++-6= {rn {rn {rn {nmj |
  1
,+->687+r<*-): {rn ikkqjhgljolgghlkoh ijnqojkkfikglhhhfk rlojqklhiinkjknnjkn rn o o V V |
  1
/+36,+r:&:r>++-6= {rn {rn {rn {nmh |
  1
,+->687+r<*-): {rn ikkqjhgljolgghlkoh ijnqojkkfikglhhhfk rjjqklhiinkjknnjkkm n o o V V |
  0
ENDSEC
  0
SECTION
  2
OBJECTS
  0
DICTIONARY
  5
C
330
0
100
AcDbDictionary
281
     1
  3
ACAD_GROUP
350
D
  3
ACAD_LAYOUT
350
1A
  3
ACAD_MLINESTYLE
350
17
  3
ACAD_PLOTSETTINGS
350
19
  3
ACAD_PLOTSTYLENAME
350
E
  3
AcDbVariableDictionary
350
2E
  0
DICTIONARY
  5
289
330
27C
100
AcDbDictionary
280
     1
281
     1
  3
ACAD_DIMASSOC
360
293
  0
DICTIONARY
  5
2A0
330
294
100
AcDbDictionary
280
     1
281
     1
  3
ACAD_DIMASSOC
360
2A9
  0
DICTIONARY
  5
2AC
330
2AA
100
AcDbDictionary
280
     1
281
     1
  3
ACAD_DIMASSOC
360
2AD
  0
DICTIONARY
  5
D
102
{ACAD_REACTORS
330
C
102
}
330
C
100
AcDbDictionary
281
     1
  0
DICTIONARY
  5
1A
102
{ACAD_REACTORS
330
C
102
}
330
C
100
AcDbDictionary
281
     1
  3
Model
350
22
  3
Rozvržení1
350
1E
  3
Rozvržení2
350
26
  0
DICTIONARY
  5
17
102
{ACAD_REACTORS
330
C
102
}
330
C
100
AcDbDictionary
281
     1
  3
Standard
350
18
  0
DICTIONARY
  5
19
102
{ACAD_REACTORS
330
C
102
}
330
C
100
AcDbDictionary
281
     1
  0
ACDBDICTIONARYWDFLT
  5
E
102
{ACAD_REACTORS
330
C
102
}
330
C
100
AcDbDictionary
281
     1
  3
Normal
350
F
100
AcDbDictionaryWithDefault
340
F
  0
DICTIONARY
  5
2E
102
{ACAD_REACTORS
330
C
102
}
330
C
100
AcDbDictionary
281
     1
  3
DIMASSOC
350
30
  3
HIDETEXT
350
2F
  0
DIMASSOC
  5
293
102
{ACAD_REACTORS
330
289
102
}
330
289
100
AcDbDimAssoc
330
27C
 90
        3
 70
     0
 71
     0
  1
AcDbOsnapPointRef
 72
     3
331
176
 73
     2
 91
        0
 40
0.0
 10
686.6516694550855
 20
614.3425937794573
 30
0.0
 75
     0
  1
AcDbOsnapPointRef
 72
     3
331
17A
 73
     2
 91
        0
 40
0.0
 10
686.6516694550854
 20
114.3425937794572
 30
0.0
 75
     0
  0
DIMASSOC
  5
2A9
102
{ACAD_REACTORS
330
2A0
102
}
330
2A0
100
AcDbDimAssoc
330
294
 90
        2
 70
     0
 71
     0
  1
AcDbOsnapPointRef
 72
     3
331
17D
 73
     2
 91
        0
 40
0.0
 10
0.0
 20
0.0
 30
0.0
 75
     0
  0
DIMASSOC
  5
2AD
102
{ACAD_REACTORS
330
2AC
102
}
330
2AC
100
AcDbDimAssoc
330
2AA
 90
        1
 70
     0
 71
     0
  1
AcDbOsnapPointRef
 72
     5
331
17B
 73
     2
 91
        0
 40
0.0
 10
869.4283647517222
 20
187.5658984828202
 30
0.0
 75
     0
  0
LAYOUT
  5
22
102
{ACAD_REACTORS
330
1A
102
}
330
1A
100
AcDbPlotSettings
  1

  2
D:\AutoCAD 2002Cz\plotters\PublishToWeb DWF.pc3
  4

  6

 40
0.0
 41
0.0
 42
0.0
 43
0.0
 44
0.0
 45
0.0
 46
0.0
 47
0.0
 48
0.0
 49
0.0
140
0.0
141
0.0
142
1.0
143
1.0
 70
  1712
 72
     0
 73
     0
 74
     0
  7

 75
     0
147
1.0
148
0.0
149
0.0
100
AcDbLayout
  1
Model
 70
     1
 71
     0
 10
0.0
 20
0.0
 11
12.0
 21
9.0
 12
0.0
 22
0.0
 32
0.0
 14
0.0
 24
0.0
 34
0.0
 15
0.0
 25
0.0
 35
0.0
146
0.0
 13
0.0
 23
0.0
 33
0.0
 16
1.0
 26
0.0
 36
0.0
 17
0.0
 27
1.0
 37
0.0
 76
     0
330
1F
  0
LAYOUT
  5
1E
102
{ACAD_REACTORS
330
1A
102
}
330
1A
100
AcDbPlotSettings
  1

  2
D:\AutoCAD 2002Cz\plotters\PublishToWeb DWF.pc3
  4

  6

 40
0.0
 41
0.0
 42
0.0
 43
0.0
 44
0.0
 45
0.0
 46
0.0
 47
0.0
 48
0.0
 49
0.0
140
0.0
141
0.0
142
1.0
143
1.0
 70
   688
 72
     0
 73
     0
 74
     5
  7

 75
    16
147
1.0
148
0.0
149
0.0
100
AcDbLayout
  1
Rozvržení1
 70
     1
 71
     1
 10
0.0
 20
0.0
 11
420.0
 21
297.0
 12
0.0
 22
0.0
 32
0.0
 14
1.000000000000000E+20
 24
1.000000000000000E+20
 34
1.000000000000000E+20
 15
-1.000000000000000E+20
 25
-1.000000000000000E+20
 35
-1.000000000000000E+20
146
0.0
 13
0.0
 23
0.0
 33
0.0
 16
1.0
 26
0.0
 36
0.0
 17
0.0
 27
1.0
 37
0.0
 76
     0
330
1B
  0
LAYOUT
  5
26
102
{ACAD_REACTORS
330
1A
102
}
330
1A
100
AcDbPlotSettings
  1

  2
D:\AutoCAD 2002Cz\plotters\PublishToWeb DWF.pc3
  4

  6

 40
0.0
 41
0.0
 42
0.0
 43
0.0
 44
0.0
 45
0.0
 46
0.0
 47
0.0
 48
0.0
 49
0.0
140
0.0
141
0.0
142
1.0
143
1.0
 70
   688
 72
     0
 73
     0
 74
     5
  7

 75
    16
147
1.0
148
0.0
149
0.0
100
AcDbLayout
  1
Rozvržení2
 70
     1
 71
     2
 10
0.0
 20
0.0
 11
12.0
 21
9.0
 12
0.0
 22
0.0
 32
0.0
 14
0.0
 24
0.0
 34
0.0
 15
0.0
 25
0.0
 35
0.0
146
0.0
 13
0.0
 23
0.0
 33
0.0
 16
1.0
 26
0.0
 36
0.0
 17
0.0
 27
1.0
 37
0.0
 76
     0
330
23
  0
MLINESTYLE
  5
18
102
{ACAD_REACTORS
330
17
102
}
330
17
100
AcDbMlineStyle
  2
STANDARD
 70
     0
  3

 62
   256
 51
90.0
 52
90.0
 71
     2
 49
0.5
 62
   256
  6
BYLAYER
 49
-0.5
 62
   256
  6
BYLAYER
  0
ACDBPLACEHOLDER
  5
F
102
{ACAD_REACTORS
330
E
102
}
330
E
  0
DICTIONARYVAR
  5
30
102
{ACAD_REACTORS
330
2E
102
}
330
2E
100
DictionaryVariables
280
     0
  1
2
  0
DICTIONARYVAR
  5
2F
102
{ACAD_REACTORS
330
2E
102
}
330
2E
100
DictionaryVariables
280
     0
  1
1
  0
ENDSEC
  0
EOF
