  0
SECTION
  2
HEADER
  9
$ACADVER
  1
AC1014
  9
$ACADMAINTVER
 70
     9
  9
$DWGCODEPAGE
  3
ANSI_1250
  9
$INSBASE
 10
0.0
 20
0.0
 30
0.0
  9
$EXTMIN
 10
3835.803996923172
 20
-1590.275196
 30
0.0
  9
$EXTMAX
 10
5603.178449
 20
244.111797
 30
0.0
  9
$LIMMIN
 10
0.0
 20
0.0
  9
$LIMMAX
 10
0.0
 20
0.0
  9
$ORTHOMODE
 70
     0
  9
$REGENMODE
 70
     1
  9
$FILLMODE
 70
     1
  9
$QTEXTMODE
 70
     0
  9
$MIRRTEXT
 70
     1
  9
$DRAGMODE
 70
     2
  9
$LTSCALE
 40
1.0
  9
$OSMODE
 70
    37
  9
$ATTMODE
 70
     1
  9
$TEXTSIZE
 40
0.2
  9
$TRACEWID
 40
0.05
  9
$TEXTSTYLE
  7
ED50
  9
$CLAYER
  8
V0-VYPLNE
  9
$CELTYPE
  6
CONTINUOUS
  9
$CECOLOR
 62
    41
  9
$CELTSCALE
 40
1.0
  9
$DELOBJ
 70
     1
  9
$DISPSILH
 70
     0
  9
$DIMSCALE
 40
1.0
  9
$DIMASZ
 40
30.0
  9
$DIMEXO
 40
1.0
  9
$DIMDLI
 40
0.38
  9
$DIMRND
 40
0.0
  9
$DIMDLE
 40
0.0
  9
$DIMEXE
 40
1.25
  9
$DIMTP
 40
0.0
  9
$DIMTM
 40
0.0
  9
$DIMTXT
 40
30.0
  9
$DIMCEN
 40
0.09
  9
$DIMTSZ
 40
0.0
  9
$DIMTOL
 70
     0
  9
$DIMLIM
 70
     0
  9
$DIMTIH
 70
     0
  9
$DIMTOH
 70
     0
  9
$DIMSE1
 70
     0
  9
$DIMSE2
 70
     0
  9
$DIMTAD
 70
     1
  9
$DIMZIN
 70
     0
  9
$DIMBLK
  1
OPEN
  9
$DIMASO
 70
     1
  9
$DIMSHO
 70
     1
  9
$DIMPOST
  1

  9
$DIMAPOST
  1

  9
$DIMALT
 70
     0
  9
$DIMALTD
 70
     2
  9
$DIMALTF
 40
25.4
  9
$DIMLFAC
 40
1.0
  9
$DIMTOFL
 70
     1
  9
$DIMTVP
 40
0.0
  9
$DIMTIX
 70
     1
  9
$DIMSOXD
 70
     0
  9
$DIMSAH
 70
     0
  9
$DIMBLK1
  1

  9
$DIMBLK2
  1

  9
$DIMSTYLE
  2
ED50
  9
$DIMCLRD
 70
     0
  9
$DIMCLRE
 70
    41
  9
$DIMCLRT
 70
    41
  9
$DIMTFAC
 40
1.0
  9
$DIMGAP
 40
2.0
  9
$DIMJUST
 70
     0
  9
$DIMSD1
 70
     0
  9
$DIMSD2
 70
     0
  9
$DIMTOLJ
 70
     1
  9
$DIMTZIN
 70
     0
  9
$DIMALTZ
 70
     0
  9
$DIMALTTZ
 70
     0
  9
$DIMFIT
 70
     3
  9
$DIMUPT
 70
     1
  9
$DIMUNIT
 70
     2
  9
$DIMDEC
 70
     0
  9
$DIMTDEC
 70
     4
  9
$DIMALTU
 70
     2
  9
$DIMALTTD
 70
     2
  9
$DIMTXSTY
  7
ED30
  9
$DIMAUNIT
 70
     0
  9
$LUNITS
 70
     2
  9
$LUPREC
 70
     4
  9
$SKETCHINC
 40
0.1
  9
$FILLETRAD
 40
0.5
  9
$AUNITS
 70
     0
  9
$AUPREC
 70
     0
  9
$MENU
  1
.
  9
$ELEVATION
 40
0.0
  9
$PELEVATION
 40
0.0
  9
$THICKNESS
 40
0.0
  9
$LIMCHECK
 70
     0
  9
$BLIPMODE
 70
     0
  9
$CHAMFERA
 40
0.5
  9
$CHAMFERB
 40
0.5
  9
$CHAMFERC
 40
1.0
  9
$CHAMFERD
 40
0.0
  9
$SKPOLY
 70
     0
  9
$TDCREATE
 40
2455551.675109583
  9
$TDUPDATE
 40
2455551.675109595
  9
$TDINDWG
 40
0.0000000116
  9
$TDUSRTIMER
 40
0.0000000116
  9
$USRTIMER
 70
     1
  9
$ANGBASE
 50
0.0
  9
$ANGDIR
 70
     0
  9
$PDMODE
 70
    35
  9
$PDSIZE
 40
20.0
  9
$PLINEWID
 40
0.0
  9
$COORDS
 70
     1
  9
$SPLFRAME
 70
     0
  9
$SPLINETYPE
 70
     6
  9
$SPLINESEGS
 70
     8
  9
$ATTDIA
 70
     0
  9
$ATTREQ
 70
     1
  9
$HANDLING
 70
     1
  9
$HANDSEED
  5
4C6E
  9
$SURFTAB1
 70
     6
  9
$SURFTAB2
 70
     6
  9
$SURFTYPE
 70
     6
  9
$SURFU
 70
     6
  9
$SURFV
 70
     6
  9
$UCSNAME
  2

  9
$UCSORG
 10
0.0
 20
0.0
 30
0.0
  9
$UCSXDIR
 10
1.0
 20
0.0
 30
0.0
  9
$UCSYDIR
 10
0.0
 20
1.0
 30
0.0
  9
$PUCSNAME
  2

  9
$PUCSORG
 10
0.0
 20
0.0
 30
0.0
  9
$PUCSXDIR
 10
1.0
 20
0.0
 30
0.0
  9
$PUCSYDIR
 10
0.0
 20
1.0
 30
0.0
  9
$USERI1
 70
     0
  9
$USERI2
 70
     0
  9
$USERI3
 70
     0
  9
$USERI4
 70
     0
  9
$USERI5
 70
     0
  9
$USERR1
 40
0.0
  9
$USERR2
 40
0.0
  9
$USERR3
 40
0.0
  9
$USERR4
 40
0.0
  9
$USERR5
 40
0.0
  9
$WORLDVIEW
 70
     1
  9
$SHADEDGE
 70
     3
  9
$SHADEDIF
 70
    70
  9
$TILEMODE
 70
     1
  9
$MAXACTVP
 70
    64
  9
$PINSBASE
 10
0.0
 20
0.0
 30
0.0
  9
$PLIMCHECK
 70
     0
  9
$PEXTMIN
 10
1.000000000000000E+20
 20
1.000000000000000E+20
 30
1.000000000000000E+20
  9
$PEXTMAX
 10
-1.000000000000000E+20
 20
-1.000000000000000E+20
 30
-1.000000000000000E+20
  9
$PLIMMIN
 10
0.0
 20
0.0
  9
$PLIMMAX
 10
0.0
 20
0.0
  9
$UNITMODE
 70
     0
  9
$VISRETAIN
 70
     1
  9
$PLINEGEN
 70
     0
  9
$PSLTSCALE
 70
     1
  9
$TREEDEPTH
 70
  3020
  9
$PICKSTYLE
 70
     1
  9
$CMLSTYLE
  2
STANDARD
  9
$CMLJUST
 70
     0
  9
$CMLSCALE
 40
1.0
  9
$PROXYGRAPHICS
 70
     1
  9
$MEASUREMENT
 70
     0
  0
ENDSEC
  0
SECTION
  2
CLASSES
  0
CLASS
  1
ACDBDICTIONARYWDFLT
  2
AcDbDictionaryWithDefault
  3
ObjectDBX Classes
 90
        0
280
     0
281
     0
  0
CLASS
  1
XRECORD
  2
AcDbXrecord
  3
AutoCAD 2000
 90
        0
280
     0
281
     0
  0
CLASS
  1
LWPOLYLINE
  2
AcDbPolyline
  3
AutoCAD 2000
 90
        0
280
     0
281
     1
  0
CLASS
  1
HATCH
  2
AcDbHatch
  3
AutoCAD 2000
 90
        0
280
     0
281
     1
  0
CLASS
  1
ACDBPLACEHOLDER
  2
AcDbPlaceHolder
  3
ObjectDBX Classes
 90
        0
280
     0
281
     0
  0
CLASS
  1
LAYOUT
  2
AcDbLayout
  3
ObjectDBX Classes
 90
        0
280
     0
281
     0
  0
ENDSEC
  0
SECTION
  2
TABLES
  0
TABLE
  2
VPORT
  5
4BBE
330
0
100
AcDbSymbolTable
 70
     2
  0
VPORT
  5
4BDF
102
{ACAD_XDICTIONARY
360
4C6C
102
}
330
4BBE
100
AcDbSymbolTableRecord
100
AcDbViewportTableRecord
  2
*ACTIVE
 70
     0
 10
0.0
 20
0.0
 11
1.0
 21
1.0
 12
4679.677199
 22
-637.871768
 13
0.0
 23
0.0
 14
10.0
 24
10.0
 15
10.0
 25
10.0
 16
0.0
 26
0.0
 36
1.0
 17
0.0
 27
0.0
 37
0.0
 40
1973.921126
 41
0.0089956769405653
 42
50.0
 43
0.0
 44
0.0
 50
0.0
 51
0.0000000000007958
 71
     0
 72
   100
 73
     1
 74
     3
 75
     0
 76
     0
 77
     0
 78
     0
  0
ENDTAB
  0
TABLE
  2
LTYPE
  5
4BBB
330
0
100
AcDbSymbolTable
 70
    25
  0
LTYPE
  5
4BCA
330
4BBB
100
AcDbSymbolTableRecord
100
AcDbLinetypeTableRecord
  2
BYBLOCK
 70
     0
  3

 72
    65
 73
     0
 40
0.0
  0
LTYPE
  5
4BCB
330
4BBB
100
AcDbSymbolTableRecord
100
AcDbLinetypeTableRecord
  2
BYLAYER
 70
     0
  3

 72
    65
 73
     0
 40
0.0
  0
LTYPE
  5
4BCC
330
4BBB
100
AcDbSymbolTableRecord
100
AcDbLinetypeTableRecord
  2
CONTINUOUS
 70
     0
  3
Solid line
 72
    65
 73
     0
 40
0.0
  0
LTYPE
  5
4BE7
330
4BBB
100
AcDbSymbolTableRecord
100
AcDbLinetypeTableRecord
  2
CENTER
 70
     0
  3
Center ____ _ ____ _ ____ _ ____ _ ____ _ ____
 72
    65
 73
     4
 40
2.0
 49
1.25
 74
     0
 49
-0.25
 74
     0
 49
0.25
 74
     0
 49
-0.25
 74
     0
  0
LTYPE
  5
4BE8
330
4BBB
100
AcDbSymbolTableRecord
100
AcDbLinetypeTableRecord
  2
DASHDOT
 70
     0
  3
Dashdot __ . __ . __ . __ . __ . __ . __ . __
 72
    65
 73
     4
 40
1.0
 49
0.5
 74
     0
 49
-0.25
 74
     0
 49
0.0
 74
     0
 49
-0.25
 74
     0
  0
LTYPE
  5
4BE9
330
4BBB
100
AcDbSymbolTableRecord
100
AcDbLinetypeTableRecord
  2
DASHED
 70
     0
  3
Dashed __ __ __ __ __ __ __ __ __ __ __ __ __ _
 72
    65
 73
     2
 40
0.75
 49
0.5
 74
     0
 49
-0.25
 74
     0
  0
LTYPE
  5
4BEA
330
4BBB
100
AcDbSymbolTableRecord
100
AcDbLinetypeTableRecord
  2
HIDDEN
 70
     0
  3
Hidden __ __ __ __ __ __ __ __ __ __ __ __ __ __
 72
    65
 73
     2
 40
0.375
 49
0.25
 74
     0
 49
-0.125
 74
     0
  0
LTYPE
  5
4BEB
330
4BBB
100
AcDbSymbolTableRecord
100
AcDbLinetypeTableRecord
  2
HIDDEN2
 70
     0
  3
Hidden2 _ _ _ _ _ _ _ _ _ _ _ _ _ _ _ _ _ 
 72
    65
 73
     2
 40
0.1875
 49
0.125
 74
     0
 49
-0.0625
 74
     0
  0
LTYPE
  5
4BEC
330
4BBB
100
AcDbSymbolTableRecord
100
AcDbLinetypeTableRecord
  2
BORDER
 70
     0
  3
Border __ __ . __ __ . __ __ . __ __ . __ __ .
 72
    65
 73
     6
 40
1.75
 49
0.5
 74
     0
 49
-0.25
 74
     0
 49
0.5
 74
     0
 49
-0.25
 74
     0
 49
0.0
 74
     0
 49
-0.25
 74
     0
  0
LTYPE
  5
4BED
330
4BBB
100
AcDbSymbolTableRecord
100
AcDbLinetypeTableRecord
  2
BORDER2
 70
     0
  3
Border2 __.__.__.__.__.__.__.__.__.__.__.
 72
    65
 73
     6
 40
0.875
 49
0.25
 74
     0
 49
-0.125
 74
     0
 49
0.25
 74
     0
 49
-0.125
 74
     0
 49
0.0
 74
     0
 49
-0.125
 74
     0
  0
LTYPE
  5
4BEE
330
4BBB
100
AcDbSymbolTableRecord
100
AcDbLinetypeTableRecord
  2
BORDERX2
 70
     0
  3
Borderx2  ____  ____  .  ____  ____  .  ___
 72
    65
 73
     6
 40
3.5
 49
1.0
 74
     0
 49
-0.5
 74
     0
 49
1.0
 74
     0
 49
-0.5
 74
     0
 49
0.0
 74
     0
 49
-0.5
 74
     0
  0
LTYPE
  5
4BEF
330
4BBB
100
AcDbSymbolTableRecord
100
AcDbLinetypeTableRecord
  2
CENTER2
 70
     0
  3
Center2  ___ _ ___ _ ___ _ ___ _ ___ _ ___
 72
    65
 73
     4
 40
1.125
 49
0.75
 74
     0
 49
-0.125
 74
     0
 49
0.125
 74
     0
 49
-0.125
 74
     0
  0
LTYPE
  5
4BF0
330
4BBB
100
AcDbSymbolTableRecord
100
AcDbLinetypeTableRecord
  2
CENTERX2
 70
     0
  3
Centerx2  ________  __  ________  __  _____
 72
    65
 73
     4
 40
4.0
 49
2.5
 74
     0
 49
-0.5
 74
     0
 49
0.5
 74
     0
 49
-0.5
 74
     0
  0
LTYPE
  5
4BF1
330
4BBB
100
AcDbSymbolTableRecord
100
AcDbLinetypeTableRecord
  2
DASHDOT2
 70
     0
  3
Dashdot2  _._._._._._._._._._._._._._._.
 72
    65
 73
     4
 40
0.5
 49
0.25
 74
     0
 49
-0.125
 74
     0
 49
0.0
 74
     0
 49
-0.125
 74
     0
  0
LTYPE
  5
4BF2
330
4BBB
100
AcDbSymbolTableRecord
100
AcDbLinetypeTableRecord
  2
DASHDOTX2
 70
     0
  3
Dashdotx2 ____  .  ____  .  ____  .  ___
 72
    65
 73
     4
 40
2.0
 49
1.0
 74
     0
 49
-0.5
 74
     0
 49
0.0
 74
     0
 49
-0.5
 74
     0
  0
LTYPE
  5
4BF3
330
4BBB
100
AcDbSymbolTableRecord
100
AcDbLinetypeTableRecord
  2
DASHED2
 70
     0
  3
Dashed2 _ _ _ _ _ _ _ _ _ _ _ _ _ _ _ _ _ 
 72
    65
 73
     2
 40
0.375
 49
0.25
 74
     0
 49
-0.125
 74
     0
  0
LTYPE
  5
4BF4
330
4BBB
100
AcDbSymbolTableRecord
100
AcDbLinetypeTableRecord
  2
DASHEDX2
 70
     0
  3
Dashedx2 ____  ____  ____  ____  ____  ___
 72
    65
 73
     2
 40
1.5
 49
1.0
 74
     0
 49
-0.5
 74
     0
  0
LTYPE
  5
4BF5
330
4BBB
100
AcDbSymbolTableRecord
100
AcDbLinetypeTableRecord
  2
DIVIDE
 70
     0
  3
Divide ____ . . ____ . . ____ . . ____ . . ____
 72
    65
 73
     6
 40
1.25
 49
0.5
 74
     0
 49
-0.25
 74
     0
 49
0.0
 74
     0
 49
-0.25
 74
     0
 49
0.0
 74
     0
 49
-0.25
 74
     0
  0
LTYPE
  5
4BF6
330
4BBB
100
AcDbSymbolTableRecord
100
AcDbLinetypeTableRecord
  2
DIVIDE2
 70
     0
  3
Divide2 __..__..__..__..__..__..__..__.._
 72
    65
 73
     6
 40
0.625
 49
0.25
 74
     0
 49
-0.125
 74
     0
 49
0.0
 74
     0
 49
-0.125
 74
     0
 49
0.0
 74
     0
 49
-0.125
 74
     0
  0
LTYPE
  5
4BF7
330
4BBB
100
AcDbSymbolTableRecord
100
AcDbLinetypeTableRecord
  2
DIVIDEX2
 70
     0
  3
Dividex2 ________  .  .  ________  .  .  _
 72
    65
 73
     6
 40
2.5
 49
1.0
 74
     0
 49
-0.5
 74
     0
 49
0.0
 74
     0
 49
-0.5
 74
     0
 49
0.0
 74
     0
 49
-0.5
 74
     0
  0
LTYPE
  5
4BF8
330
4BBB
100
AcDbSymbolTableRecord
100
AcDbLinetypeTableRecord
  2
DOT
 70
     0
  3
Dot . . . . . . . . . . . . . . . . . . . . . . . .
 72
    65
 73
     2
 40
0.25
 49
0.0
 74
     0
 49
-0.25
 74
     0
  0
LTYPE
  5
4BF9
330
4BBB
100
AcDbSymbolTableRecord
100
AcDbLinetypeTableRecord
  2
DOT2
 70
     0
  3
Dot2 ........................................
 72
    65
 73
     2
 40
0.125
 49
0.0
 74
     0
 49
-0.125
 74
     0
  0
LTYPE
  5
4BFA
330
4BBB
100
AcDbSymbolTableRecord
100
AcDbLinetypeTableRecord
  2
DOTX2
 70
     0
  3
Dotx2 .  .  .  .  .  .  .  .  .  .  .  .  .  .
 72
    65
 73
     2
 40
0.5
 49
0.0
 74
     0
 49
-0.5
 74
     0
  0
LTYPE
  5
4BFB
330
4BBB
100
AcDbSymbolTableRecord
100
AcDbLinetypeTableRecord
  2
HIDDENX2
 70
     0
  3
Hiddenx2 ____ ____ ____ ____ ____ ____ ____ 
 72
    65
 73
     2
 40
0.75
 49
0.5
 74
     0
 49
-0.25
 74
     0
  0
LTYPE
  5
4BFC
330
4BBB
100
AcDbSymbolTableRecord
100
AcDbLinetypeTableRecord
  2
PHANTOM
 70
     0
  3
Phantom ______  __  __  ______  __  __  ______ 
 72
    65
 73
     6
 40
2.5
 49
1.25
 74
     0
 49
-0.25
 74
     0
 49
0.25
 74
     0
 49
-0.25
 74
     0
 49
0.25
 74
     0
 49
-0.25
 74
     0
  0
LTYPE
  5
4BFD
330
4BBB
100
AcDbSymbolTableRecord
100
AcDbLinetypeTableRecord
  2
PHANTOM2
 70
     0
  3
Phantom2 ___ _ _ ___ _ _ ___ _ _ ___ _ _
 72
    65
 73
     6
 40
1.25
 49
0.625
 74
     0
 49
-0.125
 74
     0
 49
0.125
 74
     0
 49
-0.125
 74
     0
 49
0.125
 74
     0
 49
-0.125
 74
     0
  0
LTYPE
  5
4BFE
330
4BBB
100
AcDbSymbolTableRecord
100
AcDbLinetypeTableRecord
  2
PHANTOMX2
 70
     0
  3
Phantomx2 ____________    ____    ____   _
 72
    65
 73
     6
 40
5.0
 49
2.5
 74
     0
 49
-0.5
 74
     0
 49
0.5
 74
     0
 49
-0.5
 74
     0
 49
0.5
 74
     0
 49
-0.5
 74
     0
  0
ENDTAB
  0
TABLE
  2
LAYER
  5
4BB8
330
0
100
AcDbSymbolTable
 70
     5
  0
LAYER
  5
4BC6
330
4BB8
100
AcDbSymbolTableRecord
100
AcDbLayerTableRecord
  2
0
 70
     0
 62
     7
  6
CONTINUOUS
  0
LAYER
  5
9E
330
4BB8
100
AcDbSymbolTableRecord
100
AcDbLayerTableRecord
  2
DEFPOINTS
 70
     0
 62
     7
  6
CONTINUOUS
  0
LAYER
  5
377
330
4BB8
100
AcDbSymbolTableRecord
100
AcDbLayerTableRecord
  2
V0-OBRYS
 70
     0
 62
    90
  6
CONTINUOUS
  0
LAYER
  5
378
330
4BB8
100
AcDbSymbolTableRecord
100
AcDbLayerTableRecord
  2
V0-VYPLNE
 70
     0
 62
    63
  6
DASHDOT
  0
LAYER
  5
1540
330
4BB8
100
AcDbSymbolTableRecord
100
AcDbLayerTableRecord
  2
VO-OBRYS
 70
     0
 62
    90
  6
CONTINUOUS
  0
ENDTAB
  0
TABLE
  2
STYLE
  5
4BB9
330
0
100
AcDbSymbolTable
 70
     7
  0
STYLE
  5
4BC7
330
4BB9
100
AcDbSymbolTableRecord
100
AcDbTextStyleTableRecord
  2
STANDARD
 70
     0
 40
0.0
 41
1.0
 50
0.0
 71
     0
 42
0.2
  3
ISOCP.shx
  4

1001
ACAD
1000
ISOCP.shx
1071
        0
  0
STYLE
  5
331
330
4BB9
100
AcDbSymbolTableRecord
100
AcDbTextStyleTableRecord
  2
ED20
 70
     0
 40
20.0
 41
1.0
 50
0.0
 71
     0
 42
0.2
  3
ISOCP.shx
  4

1001
ACAD
1000
ISOCP.shx
1071
        0
  0
STYLE
  5
648
330
4BB9
100
AcDbSymbolTableRecord
100
AcDbTextStyleTableRecord
  2
ED10
 70
     0
 40
10.0
 41
1.0
 50
0.0
 71
     0
 42
0.2
  3
ISOCP.shx
  4

1001
ACAD
1000
ISOCP.shx
1071
        0
  0
STYLE
  5
F38
330
4BB9
100
AcDbSymbolTableRecord
100
AcDbTextStyleTableRecord
  2
ED30
 70
     0
 40
30.0
 41
1.0
 50
0.0
 71
     0
 42
0.2
  3
ISOCP.shx
  4

1001
ACAD
1000
ISOCP.shx
1071
        0
  0
STYLE
  5
F39
330
4BB9
100
AcDbSymbolTableRecord
100
AcDbTextStyleTableRecord
  2
ED40
 70
     0
 40
40.0
 41
1.0
 50
0.0
 71
     0
 42
0.2
  3
ISOCP.shx
  4

1001
ACAD
1000
ISOCP.shx
1071
        0
  0
STYLE
  5
1B9D
330
4BB9
100
AcDbSymbolTableRecord
100
AcDbTextStyleTableRecord
  2
VD_RECOV_1_1B9D_
 70
     0
 40
0.0
 41
1.0
 50
0.0
 71
     0
 42
0.2
  3
ltypeshp.shx
  4

1001
ACAD
1000
ltypeshp.shx
1071
        0
  0
STYLE
  5
426E
330
4BB9
100
AcDbSymbolTableRecord
100
AcDbTextStyleTableRecord
  2
ED50
 70
     0
 40
50.0
 41
1.0
 50
0.0
 71
     0
 42
0.2
  3
ISOCP.shx
  4

1001
ACAD
1000
ISOCP.shx
1071
        0
  0
ENDTAB
  0
TABLE
  2
VIEW
  5
4BBC
330
0
100
AcDbSymbolTable
 70
     0
  0
ENDTAB
  0
TABLE
  2
UCS
  5
4BBD
330
0
100
AcDbSymbolTable
 70
     0
  0
ENDTAB
  0
TABLE
  2
APPID
  5
4BBF
330
0
100
AcDbSymbolTable
 70
     7
  0
APPID
  5
4BC8
330
4BBF
100
AcDbSymbolTableRecord
100
AcDbRegAppTableRecord
  2
ACAD
 70
     0
  0
APPID
  5
4BE0
330
4BBF
100
AcDbSymbolTableRecord
100
AcDbRegAppTableRecord
  2
VD_INVISIBLE_NOT_FOR_READ
 70
     0
  0
APPID
  5
4BE1
330
4BBF
100
AcDbSymbolTableRecord
100
AcDbRegAppTableRecord
  2
VD_TEMPHATCH
 70
     0
  0
APPID
  5
4BE2
330
4BBF
100
AcDbSymbolTableRecord
100
AcDbRegAppTableRecord
  2
VDEXTRAPARAM
 70
     0
  0
APPID
  5
4BE3
330
4BBF
100
AcDbSymbolTableRecord
100
AcDbRegAppTableRecord
  2
PE_URL
 70
     0
  0
APPID
  5
4BE4
330
4BBF
100
AcDbSymbolTableRecord
100
AcDbRegAppTableRecord
  2
VD_UNKNOWN
 70
     0
  0
APPID
  5
4C09
330
4BBF
100
AcDbSymbolTableRecord
100
AcDbRegAppTableRecord
  2
CONTENTBLOCKICON
 70
     0
  0
ENDTAB
  0
TABLE
  2
DIMSTYLE
  5
4BC0
330
0
100
AcDbSymbolTable
 70
     5
  0
DIMSTYLE
105
4BDD
330
4BC0
100
AcDbSymbolTableRecord
100
AcDbDimStyleTableRecord
  2
STANDARD
 70
     0
  3

  4

  5
OPEN
  6

  7

 40
1.0
 41
15.0
 42
0.625
 43
0.38
 44
1.25
 45
0.0
 46
0.0
 47
0.0
 48
0.0
140
15.0
141
0.09
142
0.0
143
25.4
144
1.0
145
0.0
146
1.0
147
3.0
 71
     0
 72
     0
 73
     0
 74
     0
 75
     0
 76
     0
 77
     1
 78
     0
170
     0
171
     2
172
     1
173
     0
174
     1
175
     0
176
     0
177
     0
178
     0
270
     2
271
     0
272
     4
273
     2
274
     2
340
331
275
     0
280
     0
281
     0
282
     0
283
     1
284
     0
285
     0
286
     0
287
     3
288
     1
  0
DIMSTYLE
105
FE9
330
4BC0
100
AcDbSymbolTableRecord
100
AcDbDimStyleTableRecord
  2
ED20
 70
     0
  3

  4

  5
OPEN
  6

  7

 40
1.0
 41
20.0
 42
1.0
 43
0.38
 44
1.25
 45
0.0
 46
0.0
 47
0.0
 48
0.0
140
20.0
141
0.09
142
0.0
143
25.4
144
1.0
145
0.0
146
1.0
147
2.0
 71
     0
 72
     0
 73
     0
 74
     0
 75
     0
 76
     0
 77
     1
 78
     0
170
     0
171
     2
172
     1
173
     0
174
     1
175
     0
176
     0
177
    41
178
    41
270
     2
271
     0
272
     4
273
     2
274
     2
340
331
275
     0
280
     0
281
     0
282
     0
283
     1
284
     0
285
     0
286
     0
287
     3
288
     1
  0
DIMSTYLE
105
302B
330
4BC0
100
AcDbSymbolTableRecord
100
AcDbDimStyleTableRecord
  2
ED40
 70
     0
  3

  4

  5
OPEN
  6

  7

 40
1.0
 41
40.0
 42
1.0
 43
0.38
 44
1.25
 45
0.0
 46
0.0
 47
0.0
 48
0.0
140
40.0
141
0.09
142
0.0
143
25.4
144
1.0
145
0.0
146
1.0
147
2.0
 71
     0
 72
     0
 73
     0
 74
     0
 75
     0
 76
     0
 77
     1
 78
     0
170
     0
171
     2
172
     1
173
     0
174
     1
175
     0
176
     0
177
    41
178
    41
270
     2
271
     0
272
     4
273
     2
274
     2
340
F39
275
     0
280
     0
281
     0
282
     0
283
     1
284
     0
285
     0
286
     0
287
     3
288
     1
  0
DIMSTYLE
105
3042
330
4BC0
100
AcDbSymbolTableRecord
100
AcDbDimStyleTableRecord
  2
ED30
 70
     0
  3

  4

  5
OPEN
  6

  7

 40
1.0
 41
40.0
 42
1.0
 43
0.38
 44
1.25
 45
0.0
 46
0.0
 47
0.0
 48
0.0
140
40.0
141
0.09
142
0.0
143
25.4
144
1.0
145
0.0
146
1.0
147
2.0
 71
     0
 72
     0
 73
     0
 74
     0
 75
     0
 76
     0
 77
     1
 78
     0
170
     0
171
     2
172
     1
173
     0
174
     1
175
     0
176
     0
177
    41
178
    41
270
     2
271
     0
272
     4
273
     2
274
     2
340
F39
275
     0
280
     0
281
     0
282
     0
283
     1
284
     0
285
     0
286
     0
287
     3
288
     1
  0
DIMSTYLE
105
426F
102
{ACAD_REACTORS
330
4557
330
458E
330
459B
330
45C0
330
4695
102
}
330
4BC0
100
AcDbSymbolTableRecord
100
AcDbDimStyleTableRecord
  2
ED50
 70
     0
  3

  4

  5
OPEN
  6

  7

 40
1.0
 41
30.0
 42
1.0
 43
0.38
 44
1.25
 45
0.0
 46
0.0
 47
0.0
 48
0.0
140
30.0
141
0.09
142
0.0
143
25.4
144
1.0
145
0.0
146
1.0
147
2.0
 71
     0
 72
     0
 73
     0
 74
     0
 75
     0
 76
     0
 77
     1
 78
     0
170
     0
171
     2
172
     1
173
     0
174
     1
175
     0
176
     0
177
    41
178
    41
270
     2
271
     0
272
     4
273
     2
274
     2
340
F38
275
     0
280
     0
281
     0
282
     0
283
     1
284
     0
285
     0
286
     0
287
     3
288
     1
  0
ENDTAB
  0
TABLE
  2
BLOCK_RECORD
  5
4BB7
330
0
100
AcDbSymbolTable
 70
    11
  0
BLOCK_RECORD
  5
4BD5
330
4BB7
100
AcDbSymbolTableRecord
100
AcDbBlockTableRecord
  2
*MODEL_SPACE
  0
BLOCK_RECORD
  5
4BD1
330
4BB7
100
AcDbSymbolTableRecord
100
AcDbBlockTableRecord
  2
*PAPER_SPACE
  0
BLOCK_RECORD
  5
90
330
4BB7
100
AcDbSymbolTableRecord
100
AcDbBlockTableRecord
  2
_OPEN
  0
BLOCK_RECORD
  5
2DC7
330
4BB7
100
AcDbSymbolTableRecord
100
AcDbBlockTableRecord
  2
ASVORK
  0
BLOCK_RECORD
  5
2E4F
330
4BB7
100
AcDbSymbolTableRecord
100
AcDbBlockTableRecord
  2
ASVORKP
1001
CONTENTBLOCKICON
1071
        0
1004
2800000020000000200000000100040000000000000200000000000000000000000000000000000000000000000080000080000000808000800000008000800080800000C0C0C000808080000000FF0000FF000000FFFF00FF000000FF00FF00FFFF0000FFFFFF00FFFFFFFFFFFFFFFFFFFFFFFFFFFFFFFF
1004
FFFFFFFFFFFFFFFFFFFFFFFFFFFFFFFFFFFFFFFFFFFFFFFFFFFFFFFFFFFFFFFFFFFFFFFFFFFFFFFFFFFFFFFFFFFFFFFFFFFAAAAAAAAAAAAAAAAAAAAAAAAAAAFFFAAFFFFFFFFFFFFFFFFFFFFFFFFFFAAFAAAAFFFFFFFFFFFFFFFFFFFFFFFFAAAFAFAFFFFFFFFFFFFFFFFFFFFFFFFFFAFAAFFFFFFFFFFFFFFF
1004
FFFFFFFFFFFFFFFAAFFFFFFFFFFFFFFFFFFFFFFFFFFFFFFAAFFFFFFFFFFFFFFFFFFFFFFFFFFFFFFAAFFFFFFFFFFFFFFFFFFFFFFFFFFFFFFAAFFFFFFFFFFFFFFFFFFFFFFFFFFFFFFAAFFFFFFFFFFFFFFFFFFFFFFFFFFFFFFAAFFFFFFFFFFFFFFFFFFFFFFFFFFFFFFAAFFFFFFFFFFFFFFFFFFFFFFFFFFFFFFA
1004
AFFFFFFFFFFFFFFFFFFFFFFFFFFFFFFAAFFFFFFFFFFFFFFFFFFFFFFFFFFFFFFAAFFFFFFFFFFFFFFFFFFFFFFFFFFFFFFAAFFFFFFFFFFFFFFFFFFFFFFFFFFFFFFAAFFFFFFFFFFFFFFFFFFFFFFFFFFFFFFAAFFFFFFFFFFFFFFFFFFFFFFFFFFFFFFAAFFFFFFFFFFFFFFFFFFFFFFFFFFFFFFAAFFFFFFFFFFFFFFF
1004
FFFFFFFFFFFFFFFAAFFFFFFFFFFFFFFFFFFFFFFFFFFFFFFAFAAFFFFFFFFFFFFFFFFFFFFFFFFFFAAAFAAAFFFFFFFFFFFFFFFFFFFFFFFFAAAAFAAAAAAAAAAAAAAAAAAAAAAAAAAAAFAFFFFFFFFFFFFFFFFFFFFFFFFFFFFFFFFFFFFFFFFFFFFFFFFFFFFFFFFFFFFFFFFFFFFFFFFFFFFFFFFFFFFFFFFFFFFFFFFF
1004
FFFFFFFFFFFFFFFFFFFFFFFFFFFFFFFF
  0
BLOCK_RECORD
  5
4BB3
330
4BB7
100
AcDbSymbolTableRecord
100
AcDbBlockTableRecord
  2
VDDIM_DEFAULT
  0
BLOCK_RECORD
  5
4BB5
330
4BB7
100
AcDbSymbolTableRecord
100
AcDbBlockTableRecord
  2
VDDIM_NONE
  0
BLOCK_RECORD
  5
4C0B
330
4BB7
100
AcDbSymbolTableRecord
100
AcDbBlockTableRecord
  2
*D6
  0
BLOCK_RECORD
  5
4C17
330
4BB7
100
AcDbSymbolTableRecord
100
AcDbBlockTableRecord
  2
*D7
  0
BLOCK_RECORD
  5
4C23
330
4BB7
100
AcDbSymbolTableRecord
100
AcDbBlockTableRecord
  2
*D8
  0
BLOCK_RECORD
  5
4C2F
330
4BB7
100
AcDbSymbolTableRecord
100
AcDbBlockTableRecord
  2
*D9
  0
BLOCK_RECORD
  5
4C3C
330
4BB7
100
AcDbSymbolTableRecord
100
AcDbBlockTableRecord
  2
*D10
  0
ENDTAB
  0
ENDSEC
  0
SECTION
  2
BLOCKS
  0
BLOCK
  5
4BD6
330
4BD5
100
AcDbEntity
  8
0
100
AcDbBlockBegin
  2
*MODEL_SPACE
 70
     0
 71
     0
 10
0.0
 20
0.0
 30
0.0
  3
*MODEL_SPACE
  1

  0
ENDBLK
  5
4BD7
330
4BD5
100
AcDbEntity
  8
0
100
AcDbBlockEnd
  0
BLOCK
  5
4BD2
330
4BD1
100
AcDbEntity
 67
     1
  8
0
100
AcDbBlockBegin
  2
*PAPER_SPACE
 70
     0
 71
     0
 10
0.0
 20
0.0
 30
0.0
  3
*PAPER_SPACE
  1

  0
ENDBLK
  5
4BD3
330
4BD1
100
AcDbEntity
 67
     1
  8
0
100
AcDbBlockEnd
  0
BLOCK
  5
4BFF
330
90
100
AcDbEntity
  8
0
100
AcDbBlockBegin
  2
_OPEN
 70
     0
 71
     0
 10
0.0
 20
0.0
 30
0.0
  3
_OPEN
  1

  0
LINE
  5
92
330
90
100
AcDbEntity
  8
0
  6
BYBLOCK
 62
     0
100
AcDbLine
 10
-1.0
 20
0.166667
 30
0.0
 11
0.0
 21
0.0
 31
0.0
  0
LINE
  5
93
330
90
100
AcDbEntity
  8
0
  6
BYBLOCK
 62
     0
100
AcDbLine
 10
0.0
 20
0.0
 30
0.0
 11
-1.0
 21
-0.166667
 31
0.0
  0
LINE
  5
94
330
90
100
AcDbEntity
  8
0
  6
BYBLOCK
 62
     0
100
AcDbLine
 10
0.0
 20
0.0
 30
0.0
 11
-1.0
 21
0.0
 31
0.0
  0
ENDBLK
  5
4C00
330
90
100
AcDbEntity
  8
0
100
AcDbBlockEnd
  0
BLOCK
  5
4C01
330
2DC7
100
AcDbEntity
  8
0
100
AcDbBlockBegin
  2
ASVORK
 70
     0
 71
     0
 10
0.0
 20
0.0
 30
0.0
  3
ASVORK
  1

  0
LINE
  5
32D1
330
2DC7
100
AcDbEntity
  8
V0-OBRYS
  6
CONTINUOUS
 62
    90
100
AcDbLine
 10
0.0
 20
30.0
 30
0.0
 11
80.0
 21
30.0
 31
0.0
  0
LINE
  5
32D2
330
2DC7
100
AcDbEntity
  8
V0-OBRYS
  6
CONTINUOUS
 62
    90
100
AcDbLine
 10
80.0
 20
0.0
 30
0.0
 11
0.0
 21
0.0
 31
0.0
  0
LINE
  5
32D3
330
2DC7
100
AcDbEntity
  8
V0-OBRYS
  6
CONTINUOUS
 62
    90
100
AcDbLine
 10
0.0
 20
40.0
 30
0.0
 11
80.0
 21
40.0
 31
0.0
  0
LINE
  5
32D4
330
2DC7
100
AcDbEntity
  8
V0-OBRYS
  6
CONTINUOUS
 62
    90
100
AcDbLine
 10
0.0
 20
0.0
 30
0.0
 11
0.0
 21
40.0
 31
0.0
  0
LINE
  5
32D5
330
2DC7
100
AcDbEntity
  8
V0-OBRYS
  6
CONTINUOUS
 62
    90
100
AcDbLine
 10
80.0
 20
40.0
 30
0.0
 11
80.0
 21
0.0
 31
0.0
  0
ENDBLK
  5
4C02
330
2DC7
100
AcDbEntity
  8
0
100
AcDbBlockEnd
  0
BLOCK
  5
4C03
330
2E4F
100
AcDbEntity
  8
0
100
AcDbBlockBegin
  2
ASVORKP
 70
     0
 71
     0
 10
0.0
 20
0.0
 30
0.0
  3
ASVORKP
  1

  0
LINE
  5
334B
330
2E4F
100
AcDbEntity
  8
V0-OBRYS
  6
CONTINUOUS
 62
    90
100
AcDbLine
 10
75.0
 20
-30.0
 30
0.0
 11
5.0
 21
-30.0
 31
0.0
  0
LINE
  5
334C
330
2E4F
100
AcDbEntity
  8
V0-OBRYS
  6
CONTINUOUS
 62
    90
100
AcDbLine
 10
5.0
 20
30.0
 30
0.0
 11
75.0
 21
30.0
 31
0.0
  0
CIRCLE
  5
334D
330
2E4F
100
AcDbEntity
  8
V0-OBRYS
  6
CONTINUOUS
 62
    90
100
AcDbCircle
 10
4.669164
 20
-25.534884
 30
0.0
 40
2.347961
  0
CIRCLE
  5
334E
330
2E4F
100
AcDbEntity
  8
V0-OBRYS
  6
CONTINUOUS
 62
    90
100
AcDbCircle
 10
4.669164
 20
25.534884
 30
0.0
 40
2.347961
  0
ARC
  5
334F
330
2E4F
100
AcDbEntity
  8
V0-OBRYS
  6
CONTINUOUS
 62
    90
100
AcDbCircle
 10
5.0
 20
25.0
 30
0.0
 40
5.0
100
AcDbArc
 50
90.0
 51
180.0
  0
LINE
  5
3350
330
2E4F
100
AcDbEntity
  8
V0-OBRYS
  6
CONTINUOUS
 62
    90
100
AcDbLine
 10
0.0
 20
-25.0
 30
0.0
 11
0.0
 21
25.0
 31
0.0
  0
ARC
  5
3351
330
2E4F
100
AcDbEntity
  8
V0-OBRYS
  6
CONTINUOUS
 62
    90
100
AcDbCircle
 10
5.0
 20
-25.0
 30
0.0
 40
5.0
100
AcDbArc
 50
180.0
 51
270.0
  0
ARC
  5
3352
330
2E4F
100
AcDbEntity
  8
V0-OBRYS
  6
CONTINUOUS
 62
    90
100
AcDbCircle
 10
75.0
 20
25.0
 30
0.0
 40
5.0
100
AcDbArc
 50
0.0
 51
90.0
  0
LINE
  5
3353
330
2E4F
100
AcDbEntity
  8
V0-OBRYS
  6
CONTINUOUS
 62
    90
100
AcDbLine
 10
80.0
 20
25.0
 30
0.0
 11
80.0
 21
-25.0
 31
0.0
  0
ARC
  5
3354
330
2E4F
100
AcDbEntity
  8
V0-OBRYS
  6
CONTINUOUS
 62
    90
100
AcDbCircle
 10
75.0
 20
-25.0
 30
0.0
 40
5.0
100
AcDbArc
 50
270.0
 51
0.0
  0
CIRCLE
  5
3355
330
2E4F
100
AcDbEntity
  8
V0-OBRYS
  6
CONTINUOUS
 62
    90
100
AcDbCircle
 10
75.33083600000001
 20
-25.534884
 30
0.0
 40
2.347961
  0
CIRCLE
  5
3356
330
2E4F
100
AcDbEntity
  8
V0-OBRYS
  6
CONTINUOUS
 62
    90
100
AcDbCircle
 10
75.33083600000001
 20
25.534884
 30
0.0
 40
2.347961
  0
ENDBLK
  5
4C04
330
2E4F
100
AcDbEntity
  8
0
100
AcDbBlockEnd
  0
BLOCK
  5
4C05
330
4BB3
100
AcDbEntity
  8
0
100
AcDbBlockBegin
  2
VDDIM_DEFAULT
 70
     0
 71
     0
 10
0.0
 20
0.0
 30
0.0
  3
VDDIM_DEFAULT
  1

  0
LWPOLYLINE
  5
4BB4
330
4BB3
100
AcDbEntity
  8
0
  6
CONTINUOUS
 62
     0
100
AcDbPolyline
 90
        4
 70
     0
 43
0.0
 10
0.0
 20
0.0
 10
-1.0
 20
-0.1665
 10
-1.0
 20
0.1665
 10
0.0
 20
0.0
1001
VDEXTRAPARAM
1071
        1
1071
        0
1071
        0
1040
1.0
1000

1000

1040
0.0
1040
0.0
  0
HATCH
  5
4C0A
330
4BB3
100
AcDbEntity
  8
0
  6
CONTINUOUS
 62
     0
100
AcDbHatch
 10
0.0
 20
0.0
 30
0.0
210
0.0
220
0.0
230
1.0
  2
SOLID
 70
     1
 71
     0
 91
        1
 92
        2
 72
     0
 73
     1
 93
        3
 10
0.0
 20
0.0
 10
-1.0
 20
-0.1665
 10
-1.0
 20
0.1665
 97
        0
 75
     0
 76
     1
 98
        1
 10
0.0
 20
0.0
1001
VDEXTRAPARAM
1071
        1
1071
        0
1071
        0
1040
1.0
1000

1000

1040
0.0
1040
0.0
1001
VD_TEMPHATCH
1000
VD_TEMPHATCH
  0
ENDBLK
  5
4C06
330
4BB3
100
AcDbEntity
  8
0
100
AcDbBlockEnd
  0
BLOCK
  5
4C07
330
4BB5
100
AcDbEntity
  8
0
100
AcDbBlockBegin
  2
VDDIM_NONE
 70
     0
 71
     0
 10
0.0
 20
0.0
 30
0.0
  3
VDDIM_NONE
  1

  0
ENDBLK
  5
4C08
330
4BB5
100
AcDbEntity
  8
0
100
AcDbBlockEnd
  0
BLOCK
  5
4C15
330
4C0B
100
AcDbEntity
  8
0
100
AcDbBlockBegin
  2
*D6
 70
     1
 71
     0
 10
0.0
 20
0.0
 30
0.0
  3
*D6
  1

  0
LINE
  5
4C0C
330
4C0B
100
AcDbEntity
  8
V0-VYPLNE
 62
    41
100
AcDbLine
 10
4038.512782
 20
167.750739
 30
0.0
 11
3875.830920000094
 21
167.7507389999998
 31
0.0
  0
LINE
  5
4C0D
330
4C0B
100
AcDbEntity
  8
V0-VYPLNE
 62
    41
100
AcDbLine
 10
4044.103322
 20
-542.247841
 30
0.0
 11
3875.830920000094
 21
-542.247841
 31
0.0
  0
LINE
  5
4C0E
330
4C0B
100
AcDbEntity
  8
V0-VYPLNE
 62
     0
100
AcDbLine
 10
3877.080920000094
 20
117.7507390000001
 30
0.0
 11
3877.080920000094
 21
-492.2478409999999
 31
0.0
  0
INSERT
  5
4C0F
330
4C0B
100
AcDbEntity
  8
V0-VYPLNE
 62
     0
100
AcDbBlockReference
  2
_OPEN
 10
3877.080920000094
 20
167.7507390000001
 30
0.0
 41
50.0
 42
50.0
 43
50.0
 50
90.0
  0
INSERT
  5
4C10
330
4C0B
100
AcDbEntity
  8
V0-VYPLNE
 62
     0
100
AcDbBlockReference
  2
_OPEN
 10
3877.080920000094
 20
-542.2478409999999
 30
0.0
 41
50.0
 42
50.0
 43
50.0
 50
270.0
  0
MTEXT
  5
4C11
330
4C0B
100
AcDbEntity
  8
V0-VYPLNE
 62
    41
100
AcDbMText
 10
3850.080920000094
 20
-187.2485510000001
 30
0.0
 40
50.0
 41
0.0
 71
     5
 72
     1
  1
%%c\A1;710
  7
ED30
 11
0.0
 21
1.0
 31
0.0
  0
POINT
  5
4C12
330
4C0B
100
AcDbEntity
  8
DEFPOINTS
 62
     0
100
AcDbPoint
 10
4039.512782
 20
167.750739
 30
0.0
  0
POINT
  5
4C13
330
4C0B
100
AcDbEntity
  8
DEFPOINTS
 62
     0
100
AcDbPoint
 10
4045.103322
 20
-542.247841
 30
0.0
  0
POINT
  5
4C14
330
4C0B
100
AcDbEntity
  8
DEFPOINTS
 62
     0
100
AcDbPoint
 10
3877.080920000094
 20
-542.247841
 30
0.0
  0
ENDBLK
  5
4C16
330
4C0B
100
AcDbEntity
  8
0
100
AcDbBlockEnd
  0
BLOCK
  5
4C21
330
4C17
100
AcDbEntity
  8
0
100
AcDbBlockBegin
  2
*D7
 70
     1
 71
     0
 10
0.0
 20
0.0
 30
0.0
  3
*D7
  1

  0
LINE
  5
4C18
330
4C17
100
AcDbEntity
  8
V0-VYPLNE
 62
    41
100
AcDbLine
 10
4313.008675
 20
197.860869
 30
0.0
 11
4418.017833999824
 21
197.860869
 31
0.0
  0
LINE
  5
4C19
330
4C17
100
AcDbEntity
  8
V0-VYPLNE
 62
    41
100
AcDbLine
 10
4313.008675
 20
-572.357971
 30
0.0
 11
4418.017833999824
 21
-572.357971
 31
0.0
  0
LINE
  5
4C1A
330
4C17
100
AcDbEntity
  8
V0-VYPLNE
 62
     0
100
AcDbLine
 10
4416.767833999824
 20
147.8608690000001
 30
0.0
 11
4416.767833999824
 21
-522.3579709999999
 31
0.0
  0
INSERT
  5
4C1B
330
4C17
100
AcDbEntity
  8
V0-VYPLNE
 62
     0
100
AcDbBlockReference
  2
_OPEN
 10
4416.767833999824
 20
197.8608690000001
 30
0.0
 41
50.0
 42
50.0
 43
50.0
 50
90.0
  0
INSERT
  5
4C1C
330
4C17
100
AcDbEntity
  8
V0-VYPLNE
 62
     0
100
AcDbBlockReference
  2
_OPEN
 10
4416.767833999824
 20
-572.3579709999999
 30
0.0
 41
50.0
 42
50.0
 43
50.0
 50
270.0
  0
MTEXT
  5
4C1D
330
4C17
100
AcDbEntity
  8
V0-VYPLNE
 62
    41
100
AcDbMText
 10
4389.767833999824
 20
-187.248551
 30
0.0
 40
50.0
 41
0.0
 71
     5
 72
     1
  1
%%c\A1;770
  7
ED30
 11
0.0
 21
1.0
 31
0.0
  0
POINT
  5
4C1E
330
4C17
100
AcDbEntity
  8
DEFPOINTS
 62
     0
100
AcDbPoint
 10
4312.008675
 20
197.860869
 30
0.0
  0
POINT
  5
4C1F
330
4C17
100
AcDbEntity
  8
DEFPOINTS
 62
     0
100
AcDbPoint
 10
4312.008675
 20
-572.357971
 30
0.0
  0
POINT
  5
4C20
330
4C17
100
AcDbEntity
  8
DEFPOINTS
 62
     0
100
AcDbPoint
 10
4416.767833999824
 20
-572.357971
 30
0.0
  0
ENDBLK
  5
4C22
330
4C17
100
AcDbEntity
  8
0
100
AcDbBlockEnd
  0
BLOCK
  5
4C2D
330
4C23
100
AcDbEntity
  8
0
100
AcDbBlockBegin
  2
*D8
 70
     1
 71
     0
 10
0.0
 20
0.0
 30
0.0
  3
*D8
  1

  0
LINE
  5
4C24
330
4C23
100
AcDbEntity
  8
V0-VYPLNE
 62
    41
100
AcDbLine
 10
4280.945182
 20
215.778094
 30
0.0
 11
4514.47945600003
 21
215.778094
 31
0.0
  0
LINE
  5
4C25
330
4C23
100
AcDbEntity
  8
V0-VYPLNE
 62
    41
100
AcDbLine
 10
4280.945182
 20
-590.2751960000001
 30
0.0
 11
4514.47945600003
 21
-590.2751960000001
 31
0.0
  0
LINE
  5
4C26
330
4C23
100
AcDbEntity
  8
V0-VYPLNE
 62
     0
100
AcDbLine
 10
4513.22945600003
 20
165.7780940000002
 30
0.0
 11
4513.22945600003
 21
-540.2751959999996
 31
0.0
  0
INSERT
  5
4C27
330
4C23
100
AcDbEntity
  8
V0-VYPLNE
 62
     0
100
AcDbBlockReference
  2
_OPEN
 10
4513.22945600003
 20
215.7780940000002
 30
0.0
 41
50.0
 42
50.0
 43
50.0
 50
90.0
  0
INSERT
  5
4C28
330
4C23
100
AcDbEntity
  8
V0-VYPLNE
 62
     0
100
AcDbBlockReference
  2
_OPEN
 10
4513.22945600003
 20
-590.2751959999996
 30
0.0
 41
50.0
 42
50.0
 43
50.0
 50
270.0
  0
MTEXT
  5
4C29
330
4C23
100
AcDbEntity
  8
V0-VYPLNE
 62
    41
100
AcDbMText
 10
4486.22945600003
 20
-187.248551
 30
0.0
 40
50.0
 41
0.0
 71
     5
 72
     1
  1
%%c\A1;806
  7
ED30
 11
0.0
 21
1.0
 31
0.0
  0
POINT
  5
4C2A
330
4C23
100
AcDbEntity
  8
DEFPOINTS
 62
     0
100
AcDbPoint
 10
4279.945182
 20
215.778094
 30
0.0
  0
POINT
  5
4C2B
330
4C23
100
AcDbEntity
  8
DEFPOINTS
 62
     0
100
AcDbPoint
 10
4279.945182
 20
-590.2751960000001
 30
0.0
  0
POINT
  5
4C2C
330
4C23
100
AcDbEntity
  8
DEFPOINTS
 62
     0
100
AcDbPoint
 10
4513.22945600003
 20
-590.2751960000001
 30
0.0
  0
ENDBLK
  5
4C2E
330
4C23
100
AcDbEntity
  8
0
100
AcDbBlockEnd
  0
BLOCK
  5
4C3A
330
4C2F
100
AcDbEntity
  8
0
100
AcDbBlockBegin
  2
*D9
 70
     1
 71
     0
 10
0.0
 20
0.0
 30
0.0
  3
*D9
  1

  0
LINE
  5
4C30
330
4C2F
100
AcDbEntity
  8
V0-VYPLNE
 62
    41
100
AcDbLine
 10
4039.512782
 20
-591.2751960000001
 30
0.0
 11
4039.512782
 21
-652.615367999766
 31
0.0
  0
LINE
  5
4C31
330
4C2F
100
AcDbEntity
  8
V0-VYPLNE
 62
    41
100
AcDbLine
 10
4279.945182
 20
-591.2751960000001
 30
0.0
 11
4279.945182
 21
-652.615367999766
 31
0.0
  0
LINE
  5
4C32
330
4C2F
100
AcDbEntity
  8
V0-VYPLNE
 62
     0
100
AcDbLine
 10
4089.512782
 20
-651.365367999766
 30
0.0
 11
4103.540372714286
 21
-651.365367999766
 31
0.0
  0
LINE
  5
4C33
330
4C2F
100
AcDbEntity
  8
V0-VYPLNE
 62
     0
100
AcDbLine
 10
4229.945182
 20
-651.365367999766
 30
0.0
 11
4236.111801285715
 21
-651.365367999766
 31
0.0
  0
INSERT
  5
4C34
330
4C2F
100
AcDbEntity
  8
V0-VYPLNE
 62
     0
100
AcDbBlockReference
  2
_OPEN
 10
4039.512782
 20
-651.365367999766
 30
0.0
 41
50.0
 42
50.0
 43
50.0
 50
180.0
  0
INSERT
  5
4C35
330
4C2F
100
AcDbEntity
  8
V0-VYPLNE
 62
     0
100
AcDbBlockReference
  2
_OPEN
 10
4279.945182
 20
-651.365367999766
 30
0.0
 41
50.0
 42
50.0
 43
50.0
  0
MTEXT
  5
4C36
330
4C2F
100
AcDbEntity
  8
V0-VYPLNE
 62
    41
100
AcDbMText
 10
4169.826087
 20
-651.365368
 30
0.0
 40
50.0
 41
0.0
 71
     5
 72
     1
  1
\A1;240
  7
ED30
  0
POINT
  5
4C37
330
4C2F
100
AcDbEntity
  8
DEFPOINTS
 62
     0
100
AcDbPoint
 10
4039.512782
 20
-590.2751960000001
 30
0.0
  0
POINT
  5
4C38
330
4C2F
100
AcDbEntity
  8
DEFPOINTS
 62
     0
100
AcDbPoint
 10
4279.945182
 20
-590.2751960000001
 30
0.0
  0
POINT
  5
4C39
330
4C2F
100
AcDbEntity
  8
DEFPOINTS
 62
     0
100
AcDbPoint
 10
4279.945182
 20
-651.365367999766
 30
0.0
  0
ENDBLK
  5
4C3B
330
4C2F
100
AcDbEntity
  8
0
100
AcDbBlockEnd
  0
BLOCK
  5
4C47
330
4C3C
100
AcDbEntity
  8
0
100
AcDbBlockBegin
  2
*D10
 70
     1
 71
     0
 10
0.0
 20
0.0
 30
0.0
  3
*D10
  1

  0
LINE
  5
4C3D
330
4C3C
100
AcDbEntity
  8
V0-VYPLNE
 62
    41
100
AcDbLine
 10
4086.737015
 20
-97.268351
 30
0.0
 11
3953.406408000039
 21
-97.26835099999997
 31
0.0
  0
LINE
  5
4C3E
330
4C3C
100
AcDbEntity
  8
V0-VYPLNE
 62
    41
100
AcDbLine
 10
4086.737015
 20
-277.228751
 30
0.0
 11
3953.406408000039
 21
-277.228751
 31
0.0
  0
LINE
  5
4C3F
330
4C3C
100
AcDbEntity
  8
V0-VYPLNE
 62
     0
100
AcDbLine
 10
3954.656408000039
 20
-147.2683509999997
 30
0.0
 11
3954.656408000039
 21
-99.32811366666653
 31
0.0
  0
LINE
  5
4C40
330
4C3C
100
AcDbEntity
  8
V0-VYPLNE
 62
     0
100
AcDbLine
 10
3954.656408000039
 20
-227.2287509999997
 30
0.0
 11
3954.656408000039
 21
-269.9947803333335
 31
0.0
  0
INSERT
  5
4C41
330
4C3C
100
AcDbEntity
  8
V0-VYPLNE
 62
     0
100
AcDbBlockReference
  2
_OPEN
 10
3954.656408000039
 20
-97.26835099999971
 30
0.0
 41
50.0
 42
50.0
 43
50.0
 50
90.0
  0
INSERT
  5
4C42
330
4C3C
100
AcDbEntity
  8
V0-VYPLNE
 62
     0
100
AcDbBlockReference
  2
_OPEN
 10
3954.656408000039
 20
-277.2287509999997
 30
0.0
 41
50.0
 42
50.0
 43
50.0
 50
270.0
  0
MTEXT
  5
4C43
330
4C3C
100
AcDbEntity
  8
V0-VYPLNE
 62
    41
100
AcDbMText
 10
3954.656408
 20
-184.661447
 30
0.0
 40
50.0
 41
0.0
 71
     5
 72
     1
  1
%%c\A1;180
  7
ED30
 11
0.0
 21
1.0
 31
0.0
  0
POINT
  5
4C44
330
4C3C
100
AcDbEntity
  8
DEFPOINTS
 62
     0
100
AcDbPoint
 10
4087.737015
 20
-97.268351
 30
0.0
  0
POINT
  5
4C45
330
4C3C
100
AcDbEntity
  8
DEFPOINTS
 62
     0
100
AcDbPoint
 10
4087.737015
 20
-277.228751
 30
0.0
  0
POINT
  5
4C46
330
4C3C
100
AcDbEntity
  8
DEFPOINTS
 62
     0
100
AcDbPoint
 10
3954.656408000039
 20
-277.228751
 30
0.0
  0
ENDBLK
  5
4C48
330
4C3C
100
AcDbEntity
  8
0
100
AcDbBlockEnd
  0
ENDSEC
  0
SECTION
  2
ENTITIES
  0
TEXT
  5
1347
330
4BD5
100
AcDbEntity
  8
V0-VYPLNE
 62
     6
100
AcDbText
 10
4798.130971
 20
-1130.432774
 30
0.0
 40
90.0
  1
TCB-710
  7
ED40
100
AcDbText
  0
TEXT
  5
1348
330
4BD5
100
AcDbEntity
  8
V0-VYPLNE
  6
CONTINUOUS
 62
    51
100
AcDbText
 10
4616.876507
 20
-1255.68089
 30
0.0
 40
67.5
  1
AXIALNI VENTILATOR
  7
ED30
100
AcDbText
  0
TEXT
  5
2455
330
4BD5
100
AcDbEntity
  8
V0-VYPLNE
  6
CONTINUOUS
 62
    51
100
AcDbText
 10
4804.701663
 20
-1366.566124
 30
0.0
 40
67.5
  1
DO POTRUBI
  7
ED30
100
AcDbText
  0
LINE
  5
4550
330
4BD5
100
AcDbEntity
  8
V0-OBRYS
  6
CONTINUOUS
 62
    90
100
AcDbLine
 10
4274.354642
 20
-542.247841
 30
0.0
 11
4274.354642
 21
215.778094
 31
0.0
  0
LINE
  5
4551
330
4BD5
100
AcDbEntity
  8
V0-OBRYS
  6
CONTINUOUS
 62
    90
100
AcDbLine
 10
4045.103322
 20
-542.247841
 30
0.0
 11
4045.103322
 21
215.778094
 31
0.0
  0
LINE
  5
4552
330
4BD5
100
AcDbEntity
  8
V0-OBRYS
  6
CONTINUOUS
 62
    90
100
AcDbLine
 10
4039.512782
 20
-187.248551
 30
0.0
 11
4039.512782
 21
215.778094
 31
0.0
  0
LINE
  5
4553
330
4BD5
100
AcDbEntity
  8
V0-OBRYS
  6
CONTINUOUS
 62
    90
100
AcDbLine
 10
4279.945182
 20
-187.248551
 30
0.0
 11
4279.945182
 21
215.778094
 31
0.0
  0
LINE
  5
4554
330
4BD5
100
AcDbEntity
  8
V0-OBRYS
  6
CONTINUOUS
 62
    90
100
AcDbLine
 10
4279.945182
 20
167.750739
 30
0.0
 11
4039.512782
 21
167.750739
 31
0.0
  0
LINE
  5
4555
330
4BD5
100
AcDbEntity
  8
V0-VYPLNE
  6
DASHDOT
 62
    63
 48
3.0
100
AcDbLine
 10
4349.796876
 20
-187.248551
 30
0.0
 11
3993.935926
 21
-187.248551
 31
0.0
  0
LINE
  5
4556
330
4BD5
100
AcDbEntity
  8
V0-OBRYS
  6
CONTINUOUS
 62
    90
100
AcDbLine
 10
4279.945182
 20
-542.247841
 30
0.0
 11
4039.512782
 21
-542.247841
 31
0.0
  0
DIMENSION
  5
4557
330
4BD5
100
AcDbEntity
  8
V0-VYPLNE
  6
CONTINUOUS
 62
    41
100
AcDbDimension
  2
*D6
 10
3877.080920000094
 20
-542.247841
 30
0.0
 11
3850.080920000094
 21
-187.2485510000001
 31
0.0
 70
    32
  1
%%c<>
  3
ED50
100
AcDbAlignedDimension
 13
4039.512782
 23
167.750739
 33
0.0
 14
4045.103322
 24
-542.247841
 34
0.0
 50
90.0
100
AcDbRotatedDimension
1001
ACAD
1000
DSTYLE
1002
{
1070
    41
1040
50.0
1070
   140
1040
50.0
1002
}
  0
LINE
  5
4558
330
4BD5
100
AcDbEntity
  8
V0-OBRYS
  6
CONTINUOUS
 62
    90
100
AcDbLine
 10
4039.512782
 20
-187.248551
 30
0.0
 11
4039.512782
 21
-590.2751960000001
 31
0.0
  0
LINE
  5
4559
330
4BD5
100
AcDbEntity
  8
V0-OBRYS
  6
CONTINUOUS
 62
    90
100
AcDbLine
 10
4045.103322
 20
-542.247841
 30
0.0
 11
4045.103322
 21
-590.2751960000001
 31
0.0
  0
LINE
  5
455A
330
4BD5
100
AcDbEntity
  8
V0-VYPLNE
  6
DASHDOT
 62
    63
 48
3.0
100
AcDbLine
 10
4011.560082
 20
-572.357971
 30
0.0
 11
4091.632816
 21
-572.357971
 31
0.0
  0
LINE
  5
455B
330
4BD5
100
AcDbEntity
  8
V0-OBRYS
  6
CONTINUOUS
 62
    90
100
AcDbLine
 10
4279.945182
 20
-187.248551
 30
0.0
 11
4279.945182
 21
-590.2751960000001
 31
0.0
  0
LINE
  5
455C
330
4BD5
100
AcDbEntity
  8
V0-OBRYS
  6
CONTINUOUS
 62
    90
100
AcDbLine
 10
4274.354642
 20
-542.247841
 30
0.0
 11
4274.354642
 21
-590.2751960000001
 31
0.0
  0
LINE
  5
455D
330
4BD5
100
AcDbEntity
  8
V0-VYPLNE
  6
DASHDOT
 62
    63
 48
3.0
100
AcDbLine
 10
4248.019365
 20
-572.357971
 30
0.0
 11
4312.008675
 21
-572.357971
 31
0.0
  0
LINE
  5
455E
330
4BD5
100
AcDbEntity
  8
V0-VYPLNE
  6
DASHDOT
 62
    63
 48
3.0
100
AcDbLine
 10
4011.560082
 20
197.860869
 30
0.0
 11
4091.632816
 21
197.860869
 31
0.0
  0
LINE
  5
455F
330
4BD5
100
AcDbEntity
  8
V0-VYPLNE
  6
DASHDOT
 62
    63
 48
3.0
100
AcDbLine
 10
4248.019365
 20
197.860869
 30
0.0
 11
4312.008675
 21
197.860869
 31
0.0
  0
DIMENSION
  5
458E
330
4BD5
100
AcDbEntity
  8
V0-VYPLNE
  6
CONTINUOUS
 62
    41
100
AcDbDimension
  2
*D7
 10
4416.767833999824
 20
-572.357971
 30
0.0
 11
4389.767833999824
 21
-187.248551
 31
0.0
 70
    32
  1
%%c<>
  3
ED50
100
AcDbAlignedDimension
 13
4312.008675
 23
197.860869
 33
0.0
 14
4312.008675
 24
-572.357971
 34
0.0
 50
90.0
100
AcDbRotatedDimension
1001
ACAD
1000
DSTYLE
1002
{
1070
    41
1040
50.0
1070
   140
1040
50.0
1002
}
  0
DIMENSION
  5
459B
330
4BD5
100
AcDbEntity
  8
V0-VYPLNE
  6
CONTINUOUS
 62
    41
100
AcDbDimension
  2
*D8
 10
4513.22945600003
 20
-590.2751960000001
 30
0.0
 11
4486.22945600003
 21
-187.248551
 31
0.0
 70
    32
  1
%%c<>
  3
ED50
100
AcDbAlignedDimension
 13
4279.945182
 23
215.778094
 33
0.0
 14
4279.945182
 24
-590.2751960000001
 34
0.0
 50
90.0
100
AcDbRotatedDimension
1001
ACAD
1000
DSTYLE
1002
{
1070
    41
1040
50.0
1070
   140
1040
50.0
1002
}
  0
DIMENSION
  5
45C0
330
4BD5
100
AcDbEntity
  8
V0-VYPLNE
  6
CONTINUOUS
 62
    41
100
AcDbDimension
  2
*D9
 10
4279.945182
 20
-651.365367999766
 30
0.0
 11
4169.826087
 21
-651.365368
 31
0.0
 70
   160
  3
ED50
100
AcDbAlignedDimension
 13
4039.512782
 23
-590.2751960000001
 33
0.0
 14
4279.945182
 24
-590.2751960000001
 34
0.0
100
AcDbRotatedDimension
1001
ACAD
1000
DSTYLE
1002
{
1070
    41
1040
50.0
1070
   140
1040
50.0
1002
}
  0
LINE
  5
465D
330
4BD5
100
AcDbEntity
  8
V0-VYPLNE
  6
DASHED
 62
    52
 48
3.0
100
AcDbLine
 10
4270.806337
 20
-13.194904
 30
0.0
 11
4245.799524
 21
164.109143
 31
0.0
  0
LINE
  5
465E
330
4BD5
100
AcDbEntity
  8
V0-VYPLNE
  6
DASHED
 62
    52
 48
3.0
100
AcDbLine
 10
4159.084309
 20
-13.194904
 30
0.0
 11
4184.091123
 21
164.109143
 31
0.0
  0
LINE
  5
465F
330
4BD5
100
AcDbEntity
  8
V0-VYPLNE
  6
DASHED
 62
    52
 48
3.0
100
AcDbLine
 10
4270.806337
 20
-358.501023
 30
0.0
 11
4245.799524
 21
-535.80507
 31
0.0
  0
LINE
  5
4660
330
4BD5
100
AcDbEntity
  8
V0-VYPLNE
  6
DASHED
 62
    52
 48
3.0
100
AcDbLine
 10
4159.084309
 20
-358.501023
 30
0.0
 11
4184.091123
 21
-535.80507
 31
0.0
  0
LINE
  5
4661
330
4BD5
100
AcDbEntity
  8
V0-VYPLNE
  6
DASHED
 62
    52
 48
3.0
100
AcDbLine
 10
4184.091123
 20
-535.80507
 30
0.0
 11
4245.799524
 21
-535.80507
 31
0.0
  0
LINE
  5
4662
330
4BD5
100
AcDbEntity
  8
V0-VYPLNE
  6
DASHED
 62
    52
 48
3.0
100
AcDbLine
 10
4159.145323
 20
-185.847963
 30
0.0
 11
4159.145323
 21
-345.447963
 31
0.0
  0
ELLIPSE
  5
4663
330
4BD5
100
AcDbEntity
  8
V0-VYPLNE
  6
DASHED
 62
    52
 48
3.0
100
AcDbEllipse
 10
2623.517226
 20
-167.544087
 30
0.0
 11
0.0
 21
1868.263324336938
 31
0.0
210
0.0
220
0.0
230
-1.0
 40
0.885714
 41
1.580593751677049
 42
1.660762687017188
  0
LINE
  5
4664
330
4BD5
100
AcDbEntity
  8
V0-VYPLNE
  6
DASHED
 62
    52
 48
3.0
100
AcDbLine
 10
4214.945323
 20
-353.449316
 30
0.0
 11
4214.945323
 21
-185.847963
 31
0.0
  0
LINE
  5
4665
330
4BD5
100
AcDbEntity
  8
V0-VYPLNE
  6
DASHED
 62
    52
 48
3.0
100
AcDbLine
 10
4160.129883
 20
-205.012192
 30
0.0
 11
4274.998589
 21
-166.026273
 31
0.0
  0
ELLIPSE
  5
4666
330
4BD5
100
AcDbEntity
  8
V0-VYPLNE
  6
DASHED
 62
    52
 48
3.0
100
AcDbEllipse
 10
4214.945323
 20
-101.428085
 30
0.0
 11
-1.818989403545856E-12
 21
252.0212318425949
 31
0.0
210
0.0
220
0.0
230
-1.0
 40
0.885714
 41
2.9299914210045
 42
3.394251156505875
  0
LINE
  5
4667
330
4BD5
100
AcDbEntity
  8
V0-VYPLNE
  6
DASHED
 62
    52
 48
3.0
100
AcDbLine
 10
4168.610716
 20
-347.755323
 30
0.0
 11
4159.084309
 21
-358.501023
 31
0.0
  0
ELLIPSE
  5
4668
330
4BD5
100
AcDbEntity
  8
V0-VYPLNE
  6
DASHED
 62
    52
 48
3.0
100
AcDbEllipse
 10
4259.222688
 20
-334.140459
 30
0.0
 11
-1.818989403545857E-12
 21
14.0
 31
0.0
210
0.0
220
0.0
230
-1.0
 40
0.885714
 41
1.660762687017191
 42
2.929991421004512
  0
LINE
  5
4669
330
4BD5
100
AcDbEntity
  8
V0-VYPLNE
  6
DASHED
 62
    52
 48
3.0
100
AcDbLine
 10
4261.27993
 20
-347.755323
 30
0.0
 11
4270.806337
 21
-358.501023
 31
0.0
  0
ELLIPSE
  5
466A
330
4BD5
100
AcDbEntity
  8
V0-VYPLNE
  6
DASHED
 62
    52
 48
3.0
100
AcDbEllipse
 10
4214.945323
 20
-270.267842
 30
0.0
 11
-1.818989403545857E-12
 21
252.0212318425948
 31
0.0
210
0.0
220
0.0
230
-1.0
 40
0.885714
 41
-0.2526585029160834
 42
0.211601232585275
  0
LINE
  5
466B
330
4BD5
100
AcDbEntity
  8
V0-VYPLNE
  6
DASHED
 62
    52
 48
3.0
100
AcDbLine
 10
4214.945323
 20
-18.246611
 30
0.0
 11
4214.945323
 21
-185.847963
 31
0.0
  0
LINE
  5
466C
330
4BD5
100
AcDbEntity
  8
V0-VYPLNE
  6
DASHED
 62
    52
 48
3.0
100
AcDbLine
 10
4159.145323
 20
-185.847963
 30
0.0
 11
4159.145323
 21
-26.247963
 31
0.0
  0
ELLIPSE
  5
466D
330
4BD5
100
AcDbEntity
  8
V0-VYPLNE
  6
DASHED
 62
    52
 48
3.0
100
AcDbEllipse
 10
4214.945323
 20
-186.40808
 30
0.0
 11
-9.094947017729282E-13
 21
11.86531044912096
 31
0.0
210
0.0
220
0.0
230
-1.0
 40
0.8857140000000001
 41
0.0
 42
6.283185307179586
  0
LINE
  5
466E
330
4BD5
100
AcDbEntity
  8
V0-VYPLNE
  6
DASHED
 62
    52
 48
3.0
100
AcDbLine
 10
4168.610716
 20
-23.940604
 30
0.0
 11
4159.084309
 21
-13.194904
 31
0.0
  0
ELLIPSE
  5
466F
330
4BD5
100
AcDbEntity
  8
V0-VYPLNE
  6
DASHED
 62
    52
 48
3.0
100
AcDbEllipse
 10
2623.517226
 20
-204.15184
 30
0.0
 11
-1.818989403545857E-12
 21
1868.263324336939
 31
0.0
210
0.0
220
0.0
230
-1.0
 40
0.8857139999999999
 41
1.480829966572604
 42
1.560998901912743
  0
LINE
  5
4670
330
4BD5
100
AcDbEntity
  8
V0-VYPLNE
  6
DASHED
 62
    52
 48
3.0
100
AcDbLine
 10
4261.27993
 20
-23.940604
 30
0.0
 11
4270.806337
 21
-13.194904
 31
0.0
  0
LINE
  5
4671
330
4BD5
100
AcDbEntity
  8
V0-VYPLNE
  6
DASHED
 62
    52
 48
3.0
100
AcDbLine
 10
4184.091123
 20
164.109143
 30
0.0
 11
4245.799524
 21
164.109143
 31
0.0
  0
LINE
  5
468B
330
4BD5
100
AcDbEntity
  8
V0-VYPLNE
  6
DASHED
 62
    52
 48
2.0
100
AcDbLine
 10
4087.484767
 20
-102.783051
 30
0.0
 11
4057.923427
 21
-124.744285
 31
0.0
  0
LINE
  5
468C
330
4BD5
100
AcDbEntity
  8
V0-VYPLNE
  6
DASHED
 62
    52
 48
2.0
100
AcDbLine
 10
4086.726781
 20
-118.686016
 30
0.0
 11
4058.681407
 21
-133.831695
 31
0.0
  0
LINE
  5
468D
330
4BD5
100
AcDbEntity
  8
V0-VYPLNE
  6
DASHED
 62
    52
 48
2.0
100
AcDbLine
 10
4086.726781
 20
-155.792929
 30
0.0
 11
4057.923427
 21
-158.822067
 31
0.0
  0
LINE
  5
468E
330
4BD5
100
AcDbEntity
  8
V0-VYPLNE
  6
DASHED
 62
    52
 48
2.0
100
AcDbLine
 10
4086.726781
 20
-173.967746
 30
0.0
 11
4057.923427
 21
-174.725029
 31
0.0
  0
LINE
  5
468F
330
4BD5
100
AcDbEntity
  8
V0-VYPLNE
  6
DASHED
 62
    52
 48
2.0
100
AcDbLine
 10
4087.484767
 20
-137.618116
 30
0.0
 11
4057.165441
 21
-144.433672
 31
0.0
  0
LINE
  5
4690
330
4BD5
100
AcDbEntity
  8
V0-VYPLNE
  6
DASHED
 62
    52
 48
2.0
100
AcDbLine
 10
4087.484767
 20
-236.878986
 30
0.0
 11
4057.165441
 21
-230.063431
 31
0.0
  0
LINE
  5
4691
330
4BD5
100
AcDbEntity
  8
V0-VYPLNE
  6
DASHED
 62
    52
 48
2.0
100
AcDbLine
 10
4086.726781
 20
-200.529357
 30
0.0
 11
4057.923427
 21
-199.772073
 31
0.0
  0
LINE
  5
4692
330
4BD5
100
AcDbEntity
  8
V0-VYPLNE
  6
DASHED
 62
    52
 48
2.0
100
AcDbLine
 10
4086.726781
 20
-218.704173
 30
0.0
 11
4057.923427
 21
-215.675035
 31
0.0
  0
LINE
  5
4693
330
4BD5
100
AcDbEntity
  8
V0-VYPLNE
  6
DASHED
 62
    52
 48
2.0
100
AcDbLine
 10
4086.726781
 20
-255.811086
 30
0.0
 11
4058.681407
 21
-240.665408
 31
0.0
  0
LINE
  5
4694
330
4BD5
100
AcDbEntity
  8
V0-VYPLNE
  6
DASHED
 62
    52
 48
2.0
100
AcDbLine
 10
4087.484767
 20
-271.714052
 30
0.0
 11
4057.923427
 21
-249.752818
 31
0.0
  0
DIMENSION
  5
4695
330
4BD5
100
AcDbEntity
  8
V0-VYPLNE
  6
CONTINUOUS
 62
    41
100
AcDbDimension
  2
*D10
 10
3954.656408000039
 20
-277.228751
 30
0.0
 11
3954.656408
 21
-184.661447
 31
0.0
 70
   160
  1
%%c<>
  3
ED50
100
AcDbAlignedDimension
 13
4087.737015
 23
-97.268351
 33
0.0
 14
4087.737015
 24
-277.228751
 34
0.0
 50
90.0
100
AcDbRotatedDimension
1001
ACAD
1000
DSTYLE
1002
{
1070
    41
1040
50.0
1070
   140
1040
50.0
1002
}
  0
LINE
  5
4696
330
4BD5
100
AcDbEntity
  8
V0-VYPLNE
  6
DASHED
 62
    52
 48
2.0
100
AcDbLine
 10
4057.743615
 20
-187.248551
 30
0.0
 11
4057.743615
 21
-261.442751
 31
0.0
  0
ARC
  5
4697
330
4BD5
100
AcDbEntity
  8
V0-VYPLNE
  6
DASHED
 62
    52
 48
2.0
100
AcDbCircle
 10
4073.529615
 20
-261.442751
 30
0.0
 40
15.786
100
AcDbArc
 50
180.0
 51
270.0
  0
LINE
  5
4698
330
4BD5
100
AcDbEntity
  8
V0-VYPLNE
  6
DASHED
 62
    52
 48
2.0
100
AcDbLine
 10
4057.743615
 20
-187.248551
 30
0.0
 11
4057.743615
 21
-113.054351
 31
0.0
  0
ARC
  5
4699
330
4BD5
100
AcDbEntity
  8
V0-VYPLNE
  6
DASHED
 62
    52
 48
2.0
100
AcDbCircle
 10
4073.529615
 20
-113.054351
 30
0.0
 40
15.786
100
AcDbArc
 50
90.0
 51
180.0
  0
LINE
  5
469A
330
4BD5
100
AcDbEntity
  8
V0-VYPLNE
  6
DASHED
 62
    52
 48
2.0
100
AcDbLine
 10
4154.945259
 20
-269.335751
 30
0.0
 11
4154.945259
 21
-187.248551
 31
0.0
  0
LINE
  5
469B
330
4BD5
100
AcDbEntity
  8
V0-VYPLNE
  6
DASHED
 62
    52
 48
2.0
100
AcDbLine
 10
4087.737015
 20
-187.248551
 30
0.0
 11
4087.737015
 21
-277.228751
 31
0.0
  0
LINE
  5
469C
330
4BD5
100
AcDbEntity
  8
V0-VYPLNE
  6
DASHED
 62
    52
 48
2.0
100
AcDbLine
 10
4087.737015
 20
-200.529357
 30
0.0
 11
4154.187279
 21
-200.529357
 31
0.0
  0
LINE
  5
469D
330
4BD5
100
AcDbEntity
  8
V0-VYPLNE
  6
DASHED
 62
    52
 48
2.0
100
AcDbLine
 10
4087.737015
 20
-218.704173
 30
0.0
 11
4154.945259
 21
-218.704173
 31
0.0
  0
LINE
  5
469E
330
4BD5
100
AcDbEntity
  8
V0-VYPLNE
  6
DASHED
 62
    52
 48
2.0
100
AcDbLine
 10
4087.737015
 20
-236.878986
 30
0.0
 11
4154.187279
 21
-236.878986
 31
0.0
  0
LINE
  5
469F
330
4BD5
100
AcDbEntity
  8
V0-VYPLNE
  6
DASHED
 62
    52
 48
2.0
100
AcDbLine
 10
4087.737015
 20
-255.811086
 30
0.0
 11
4154.945259
 21
-255.811086
 31
0.0
  0
LINE
  5
46A0
330
4BD5
100
AcDbEntity
  8
V0-VYPLNE
  6
DASHED
 62
    52
 48
2.0
100
AcDbLine
 10
4087.737015
 20
-277.228751
 30
0.0
 11
4147.052259
 21
-277.228751
 31
0.0
  0
LINE
  5
46A1
330
4BD5
100
AcDbEntity
  8
V0-VYPLNE
  6
DASHED
 62
    52
 48
2.0
100
AcDbLine
 10
4087.737015
 20
-271.714052
 30
0.0
 11
4154.945259
 21
-271.714052
 31
0.0
  0
LINE
  5
46A2
330
4BD5
100
AcDbEntity
  8
V0-VYPLNE
  6
DASHED
 62
    52
 48
2.0
100
AcDbLine
 10
4086.726781
 20
-218.704173
 30
0.0
 11
4091.27468
 21
-218.704173
 31
0.0
  0
ARC
  5
46A3
330
4BD5
100
AcDbEntity
  8
V0-VYPLNE
  6
DASHED
 62
    52
 48
2.0
100
AcDbCircle
 10
4147.052259
 20
-269.335751
 30
0.0
 40
7.893
100
AcDbArc
 50
270.0
 51
0.0
  0
LINE
  5
46A4
330
4BD5
100
AcDbEntity
  8
V0-VYPLNE
  6
DASHED
 62
    52
 48
2.0
100
AcDbLine
 10
4087.737015
 20
-102.783051
 30
0.0
 11
4154.945259
 21
-102.783051
 31
0.0
  0
LINE
  5
46A5
330
4BD5
100
AcDbEntity
  8
V0-VYPLNE
  6
DASHED
 62
    52
 48
2.0
100
AcDbLine
 10
4087.737015
 20
-97.268351
 30
0.0
 11
4147.052259
 21
-97.268351
 31
0.0
  0
LINE
  5
46A6
330
4BD5
100
AcDbEntity
  8
V0-VYPLNE
  6
DASHED
 62
    52
 48
2.0
100
AcDbLine
 10
4087.737015
 20
-118.686016
 30
0.0
 11
4154.945259
 21
-118.686016
 31
0.0
  0
LINE
  5
46A7
330
4BD5
100
AcDbEntity
  8
V0-VYPLNE
  6
DASHED
 62
    52
 48
2.0
100
AcDbLine
 10
4087.737015
 20
-137.618116
 30
0.0
 11
4154.187279
 21
-137.618116
 31
0.0
  0
LINE
  5
46A8
330
4BD5
100
AcDbEntity
  8
V0-VYPLNE
  6
DASHED
 62
    52
 48
2.0
100
AcDbLine
 10
4087.737015
 20
-155.792929
 30
0.0
 11
4154.945259
 21
-155.792929
 31
0.0
  0
LINE
  5
46A9
330
4BD5
100
AcDbEntity
  8
V0-VYPLNE
  6
DASHED
 62
    52
 48
2.0
100
AcDbLine
 10
4087.737015
 20
-173.967746
 30
0.0
 11
4154.187279
 21
-173.967746
 31
0.0
  0
LINE
  5
46AA
330
4BD5
100
AcDbEntity
  8
V0-VYPLNE
  6
DASHED
 62
    52
 48
2.0
100
AcDbLine
 10
4087.737015
 20
-187.248551
 30
0.0
 11
4087.737015
 21
-97.268351
 31
0.0
  0
LINE
  5
46AB
330
4BD5
100
AcDbEntity
  8
V0-VYPLNE
  6
DASHED
 62
    52
 48
2.0
100
AcDbLine
 10
4086.726781
 20
-155.792929
 30
0.0
 11
4091.27468
 21
-155.792929
 31
0.0
  0
LINE
  5
46AC
330
4BD5
100
AcDbEntity
  8
V0-VYPLNE
  6
DASHED
 62
    52
 48
2.0
100
AcDbLine
 10
4154.945259
 20
-105.161351
 30
0.0
 11
4154.945259
 21
-187.248551
 31
0.0
  0
ARC
  5
46AD
330
4BD5
100
AcDbEntity
  8
V0-VYPLNE
  6
DASHED
 62
    52
 48
2.0
100
AcDbCircle
 10
4147.052259
 20
-105.161351
 30
0.0
 40
7.893
100
AcDbArc
 50
0.0
 51
90.0
  0
LINE
  5
46DD
330
4BD5
100
AcDbEntity
  8
V0-VYPLNE
  6
DASHED
 62
    52
100
AcDbLine
 10
4061.994152
 20
-378.426612
 30
0.0
 11
4097.734674
 21
-360.279045
 31
0.0
  0
LINE
  5
46DE
330
4BD5
100
AcDbEntity
  8
V0-VYPLNE
  6
DASHED
 62
    52
100
AcDbLine
 10
4061.994152
 20
-384.65239
 30
0.0
 11
4103.285844
 21
-363.686166
 31
0.0
  0
LINE
  5
46DF
330
4BD5
100
AcDbEntity
  8
V0-VYPLNE
  6
DASHED
 62
    52
100
AcDbLine
 10
4061.994152
 20
-532.838478
 30
0.0
 11
4095.372495
 21
-532.838478
 31
0.0
  0
LINE
  5
46E0
330
4BD5
100
AcDbEntity
  8
V0-VYPLNE
  6
DASHED
 62
    52
100
AcDbLine
 10
4061.994152
 20
-538.389648
 30
0.0
 11
4095.372495
 21
-538.389648
 31
0.0
  0
LINE
  5
46E1
330
4BD5
100
AcDbEntity
  8
V0-VYPLNE
  6
DASHED
 62
    52
100
AcDbLine
 10
4061.994152
 20
163.892545
 30
0.0
 11
4095.372495
 21
163.892545
 31
0.0
  0
LINE
  5
46E2
330
4BD5
100
AcDbEntity
  8
V0-VYPLNE
  6
DASHED
 62
    52
100
AcDbLine
 10
4061.994152
 20
158.341375
 30
0.0
 11
4095.372495
 21
158.341375
 31
0.0
  0
LINE
  5
46E3
330
4BD5
100
AcDbEntity
  8
V0-VYPLNE
  6
DASHED
 62
    52
100
AcDbLine
 10
4061.994152
 20
10.155288
 30
0.0
 11
4103.285844
 21
-10.810936
 31
0.0
  0
LINE
  5
46E4
330
4BD5
100
AcDbEntity
  8
V0-VYPLNE
  6
DASHED
 62
    52
100
AcDbLine
 10
4061.994152
 20
3.92951
 30
0.0
 11
4097.734674
 21
-14.218058
 31
0.0
  0
LINE
  5
46E5
330
4BD5
100
AcDbEntity
  8
V0-VYPLNE
  6
DASHED
 62
    52
100
AcDbLine
 10
4061.994152
 20
-539.747846
 30
0.0
 11
4061.994152
 21
-378.426612
 31
0.0
  0
LINE
  5
46E6
330
4BD5
100
AcDbEntity
  8
V0-VYPLNE
  6
DASHED
 62
    52
100
AcDbLine
 10
4067.545322
 20
-539.747846
 30
0.0
 11
4067.545322
 21
-381.539501
 31
0.0
  0
ARC
  5
46E7
330
4BD5
100
AcDbEntity
  8
V0-VYPLNE
  6
DASHED
 62
    52
100
AcDbCircle
 10
4064.769737
 20
-539.747846
 30
0.0
 40
2.775585
100
AcDbArc
 50
180.0
 51
360.0
  0
LINE
  5
46E8
330
4BD5
100
AcDbEntity
  8
V0-VYPLNE
  6
DASHED
 62
    52
100
AcDbLine
 10
4061.994152
 20
-539.747846
 30
0.0
 11
4061.994152
 21
-538.389648
 31
0.0
  0
LINE
  5
46E9
330
4BD5
100
AcDbEntity
  8
V0-VYPLNE
  6
DASHED
 62
    52
100
AcDbLine
 10
4067.545322
 20
165.250744
 30
0.0
 11
4067.545322
 21
7.042398999999989
 31
0.0
  0
LINE
  5
46EA
330
4BD5
100
AcDbEntity
  8
V0-VYPLNE
  6
DASHED
 62
    52
100
AcDbLine
 10
4061.994152
 20
158.341375
 30
0.0
 11
4061.994152
 21
3.929509999999993
 31
0.0
  0
LINE
  5
46EB
330
4BD5
100
AcDbEntity
  8
V0-VYPLNE
  6
DASHED
 62
    52
100
AcDbLine
 10
4061.994152
 20
165.250744
 30
0.0
 11
4061.994152
 21
163.892545
 31
0.0
  0
LINE
  5
46EC
330
4BD5
100
AcDbEntity
  8
V0-VYPLNE
  6
DASHED
 62
    52
100
AcDbLine
 10
4103.285844
 20
-10.810936
 30
0.0
 11
4103.285844
 21
-97.268351
 31
0.0
  0
LINE
  5
46ED
330
4BD5
100
AcDbEntity
  8
V0-VYPLNE
  6
DASHED
 62
    52
100
AcDbLine
 10
4097.734674
 20
-14.218058
 30
0.0
 11
4097.734674
 21
-97.268351
 31
0.0
  0
LINE
  5
46EE
330
4BD5
100
AcDbEntity
  8
V0-VYPLNE
  6
DASHED
 62
    52
100
AcDbLine
 10
4097.734674
 20
-360.279045
 30
0.0
 11
4097.734674
 21
-277.228751
 31
0.0
  0
LINE
  5
46EF
330
4BD5
100
AcDbEntity
  8
V0-VYPLNE
  6
DASHED
 62
    52
100
AcDbLine
 10
4103.285844
 20
-363.686166
 30
0.0
 11
4103.285844
 21
-277.228751
 31
0.0
  0
LINE
  5
4715
330
4BD5
100
AcDbEntity
  8
V0-VYPLNE
  6
DASHED
 62
    52
 48
2.0
100
AcDbLine
 10
4087.737015
 20
-1187.248551
 30
0.0
 11
4087.737015
 21
-1277.228751
 31
0.0
  0
LINE
  5
4716
330
4BD5
100
AcDbEntity
  8
V0-VYPLNE
  6
DASHED
 62
    52
 48
2.0
100
AcDbLine
 10
4154.945259
 20
-1269.335751
 30
0.0
 11
4154.945259
 21
-1187.248551
 31
0.0
  0
LINE
  5
4717
330
4BD5
100
AcDbEntity
  8
V0-VYPLNE
  6
DASHED
 62
    52
 48
2.0
100
AcDbLine
 10
4057.743615
 20
-1187.248551
 30
0.0
 11
4057.743615
 21
-1261.442751
 31
0.0
  0
LINE
  5
4718
330
4BD5
100
AcDbEntity
  8
V0-VYPLNE
  6
DASHED
 62
    52
 48
2.0
100
AcDbLine
 10
4087.484767
 20
-1271.714052
 30
0.0
 11
4057.923427
 21
-1249.752818
 31
0.0
  0
LINE
  5
4719
330
4BD5
100
AcDbEntity
  8
V0-VYPLNE
  6
DASHED
 62
    52
 48
2.0
100
AcDbLine
 10
4086.726781
 20
-1255.811086
 30
0.0
 11
4058.681407
 21
-1240.665408
 31
0.0
  0
ELLIPSE
  5
471A
330
4BD5
100
AcDbEntity
  8
V0-VYPLNE
  6
DASHED
 62
    52
 48
3.0
100
AcDbEllipse
 10
2623.517226
 20
-1167.544087
 30
0.0
 11
0.0
 21
1868.263324336938
 31
0.0
210
0.0
220
0.0
230
-1.0
 40
0.885714
 41
1.580593751677049
 42
1.660762687017188
  0
LINE
  5
471B
330
4BD5
100
AcDbEntity
  8
V0-VYPLNE
  6
DASHED
 62
    52
 48
3.0
100
AcDbLine
 10
4159.145323
 20
-1185.847963
 30
0.0
 11
4159.145323
 21
-1345.447963
 31
0.0
  0
LINE
  5
471C
330
4BD5
100
AcDbEntity
  8
V0-VYPLNE
  6
DASHED
 62
    52
 48
3.0
100
AcDbLine
 10
4214.945323
 20
-1353.449316
 30
0.0
 11
4214.945323
 21
-1185.847963
 31
0.0
  0
LINE
  5
471D
330
4BD5
100
AcDbEntity
  8
V0-OBRYS
  6
CONTINUOUS
 62
    90
100
AcDbLine
 10
4039.512782
 20
-1187.248551
 30
0.0
 11
4039.512782
 21
-1590.275196
 31
0.0
  0
LINE
  5
471E
330
4BD5
100
AcDbEntity
  8
V0-OBRYS
  6
CONTINUOUS
 62
    90
100
AcDbLine
 10
4279.945182
 20
-1187.248551
 30
0.0
 11
4279.945182
 21
-1590.275196
 31
0.0
  0
LINE
  5
471F
330
4BD5
100
AcDbEntity
  8
V0-VYPLNE
  6
DASHED
 62
    52
100
AcDbLine
 10
4067.545322
 20
-1532.838478
 30
0.0
 11
4067.545322
 21
-1381.539501
 31
0.0
  0
LINE
  5
4720
330
4BD5
100
AcDbEntity
  8
V0-VYPLNE
  6
DASHED
 62
    52
100
AcDbLine
 10
4061.994152
 20
-1538.389648
 30
0.0
 11
4061.994152
 21
-1378.426612
 31
0.0
  0
LINE
  5
4721
330
4BD5
100
AcDbEntity
  8
V0-VYPLNE
  6
DASHED
 62
    52
 48
3.0
100
AcDbLine
 10
4270.806337
 20
-1358.501023
 30
0.0
 11
4245.799524
 21
-1535.80507
 31
0.0
  0
LINE
  5
4722
330
4BD5
100
AcDbEntity
  8
V0-VYPLNE
  6
DASHED
 62
    52
 48
3.0
100
AcDbLine
 10
4159.084309
 20
-1358.501023
 30
0.0
 11
4184.091123
 21
-1535.80507
 31
0.0
  0
LINE
  5
4723
330
4BD5
100
AcDbEntity
  8
V0-OBRYS
  6
CONTINUOUS
 62
    90
100
AcDbLine
 10
4045.103322
 20
-1542.247841
 30
0.0
 11
4045.103322
 21
-1590.275196
 31
0.0
  0
LINE
  5
4724
330
4BD5
100
AcDbEntity
  8
V0-OBRYS
  6
CONTINUOUS
 62
    90
100
AcDbLine
 10
4274.354642
 20
-1542.247841
 30
0.0
 11
4274.354642
 21
-1590.275196
 31
0.0
  0
LINE
  5
4725
330
4BD5
100
AcDbEntity
  8
V0-VYPLNE
  6
DASHDOT
 62
    63
 48
3.0
100
AcDbLine
 10
4011.560082
 20
-1572.357971
 30
0.0
 11
4091.632816
 21
-1572.357971
 31
0.0
  0
LINE
  5
4726
330
4BD5
100
AcDbEntity
  8
V0-VYPLNE
  6
DASHED
 62
    52
100
AcDbLine
 10
4061.994152
 20
-1539.747846
 30
0.0
 11
4061.994152
 21
-1538.389648
 31
0.0
  0
LINE
  5
4728
330
4BD5
100
AcDbEntity
  8
V0-VYPLNE
  6
DASHED
 62
    52
100
AcDbLine
 10
4061.994152
 20
-1538.389648
 30
0.0
 11
4095.372495
 21
-1538.389648
 31
0.0
  0
LINE
  5
4729
330
4BD5
100
AcDbEntity
  8
V0-VYPLNE
  6
DASHED
 62
    52
100
AcDbLine
 10
4067.545322
 20
-1532.838478
 30
0.0
 11
4095.372495
 21
-1532.838478
 31
0.0
  0
LINE
  5
472A
330
4BD5
100
AcDbEntity
  8
V0-VYPLNE
  6
DASHED
 62
    52
 48
3.0
100
AcDbLine
 10
4184.091123
 20
-1535.80507
 30
0.0
 11
4245.799524
 21
-1535.80507
 31
0.0
  0
LINE
  5
472B
330
4BD5
100
AcDbEntity
  8
V0-VYPLNE
  6
DASHDOT
 62
    63
 48
3.0
100
AcDbLine
 10
4248.019365
 20
-1572.357971
 30
0.0
 11
4312.008675
 21
-1572.357971
 31
0.0
  0
LINE
  5
472C
330
4BD5
100
AcDbEntity
  8
V0-OBRYS
  6
CONTINUOUS
 62
    90
100
AcDbLine
 10
4274.354642
 20
-1542.247841
 30
0.0
 11
4045.103322
 21
-1542.247841
 31
0.0
  0
LINE
  5
472D
330
4BD5
100
AcDbEntity
  8
V0-VYPLNE
  6
DASHED
 62
    52
100
AcDbLine
 10
4103.285844
 20
-1363.686166
 30
0.0
 11
4103.285844
 21
-1277.228751
 31
0.0
  0
LINE
  5
472E
330
4BD5
100
AcDbEntity
  8
V0-VYPLNE
  6
DASHED
 62
    52
100
AcDbLine
 10
4097.734674
 20
-1360.279045
 30
0.0
 11
4097.734674
 21
-1277.228751
 31
0.0
  0
LINE
  5
472F
330
4BD5
100
AcDbEntity
  8
V0-VYPLNE
  6
DASHED
 62
    52
100
AcDbLine
 10
4061.994152
 20
-1384.65239
 30
0.0
 11
4103.285844
 21
-1363.686166
 31
0.0
  0
LINE
  5
4730
330
4BD5
100
AcDbEntity
  8
V0-VYPLNE
  6
DASHED
 62
    52
100
AcDbLine
 10
4061.994152
 20
-1378.426612
 30
0.0
 11
4097.734674
 21
-1360.279045
 31
0.0
  0
ELLIPSE
  5
4731
330
4BD5
100
AcDbEntity
  8
V0-VYPLNE
  6
DASHED
 62
    52
 48
3.0
100
AcDbEllipse
 10
4259.222688
 20
-1334.140459
 30
0.0
 11
-1.818989403545857E-12
 21
14.0
 31
0.0
210
0.0
220
0.0
230
-1.0
 40
0.885714
 41
1.660762687017191
 42
2.929991421004512
  0
ELLIPSE
  5
4732
330
4BD5
100
AcDbEntity
  8
V0-VYPLNE
  6
DASHED
 62
    52
 48
3.0
100
AcDbEllipse
 10
4214.945323
 20
-1101.428085
 30
0.0
 11
-1.818989403545856E-12
 21
252.0212318425949
 31
0.0
210
0.0
220
0.0
230
-1.0
 40
0.885714
 41
2.9299914210045
 42
3.394251156505875
  0
LINE
  5
4733
330
4BD5
100
AcDbEntity
  8
V0-VYPLNE
  6
DASHED
 62
    52
 48
3.0
100
AcDbLine
 10
4168.610716
 20
-1347.755323
 30
0.0
 11
4159.084309
 21
-1358.501023
 31
0.0
  0
LINE
  5
4734
330
4BD5
100
AcDbEntity
  8
V0-VYPLNE
  6
DASHED
 62
    52
 48
3.0
100
AcDbLine
 10
4261.27993
 20
-1347.755323
 30
0.0
 11
4270.806337
 21
-1358.501023
 31
0.0
  0
ARC
  5
4735
330
4BD5
100
AcDbEntity
  8
V0-VYPLNE
  6
DASHED
 62
    52
 48
2.0
100
AcDbCircle
 10
4147.052259
 20
-1269.335751
 30
0.0
 40
7.893
100
AcDbArc
 50
270.0
 51
0.0
  0
LINE
  5
4736
330
4BD5
100
AcDbEntity
  8
V0-VYPLNE
  6
DASHED
 62
    52
 48
2.0
100
AcDbLine
 10
4087.737015
 20
-1271.714052
 30
0.0
 11
4154.945259
 21
-1271.714052
 31
0.0
  0
LINE
  5
4737
330
4BD5
100
AcDbEntity
  8
V0-VYPLNE
  6
DASHED
 62
    52
 48
2.0
100
AcDbLine
 10
4087.737015
 20
-1277.228751
 30
0.0
 11
4147.052259
 21
-1277.228751
 31
0.0
  0
LINE
  5
4738
330
4BD5
100
AcDbEntity
  8
V0-VYPLNE
  6
DASHED
 62
    52
 48
2.0
100
AcDbLine
 10
4087.737015
 20
-1255.811086
 30
0.0
 11
4154.945259
 21
-1255.811086
 31
0.0
  0
ARC
  5
4739
330
4BD5
100
AcDbEntity
  8
V0-VYPLNE
  6
DASHED
 62
    52
 48
2.0
100
AcDbCircle
 10
4073.529615
 20
-1261.442751
 30
0.0
 40
15.786
100
AcDbArc
 50
180.0
 51
270.0
  0
LINE
  5
473A
330
4BD5
100
AcDbEntity
  8
V0-VYPLNE
  6
DASHED
 62
    52
100
AcDbLine
 10
4061.994152
 20
-841.658625
 30
0.0
 11
4061.994152
 21
-996.07049
 31
0.0
  0
LINE
  5
473B
330
4BD5
100
AcDbEntity
  8
V0-VYPLNE
  6
DASHED
 62
    52
100
AcDbLine
 10
4067.545322
 20
-841.658625
 30
0.0
 11
4067.545322
 21
-992.957601
 31
0.0
  0
LINE
  5
473C
330
4BD5
100
AcDbEntity
  8
V0-VYPLNE
  6
DASHED
 62
    52
 48
3.0
100
AcDbLine
 10
4270.806337
 20
-1013.194904
 30
0.0
 11
4245.799524
 21
-835.890857
 31
0.0
  0
LINE
  5
473D
330
4BD5
100
AcDbEntity
  8
V0-VYPLNE
  6
DASHED
 62
    52
 48
3.0
100
AcDbLine
 10
4159.084309
 20
-1013.194904
 30
0.0
 11
4184.091123
 21
-835.890857
 31
0.0
  0
LINE
  5
473E
330
4BD5
100
AcDbEntity
  8
V0-OBRYS
  6
CONTINUOUS
 62
    90
100
AcDbLine
 10
4039.512782
 20
-1187.248551
 30
0.0
 11
4039.512782
 21
-784.221906
 31
0.0
  0
LINE
  5
473F
330
4BD5
100
AcDbEntity
  8
V0-OBRYS
  6
CONTINUOUS
 62
    90
100
AcDbLine
 10
4279.945182
 20
-1187.248551
 30
0.0
 11
4279.945182
 21
-784.221906
 31
0.0
  0
LINE
  5
4740
330
4BD5
100
AcDbEntity
  8
V0-VYPLNE
  6
DASHED
 62
    52
 48
2.0
100
AcDbLine
 10
4154.945259
 20
-1105.161351
 30
0.0
 11
4154.945259
 21
-1187.248551
 31
0.0
  0
LINE
  5
4741
330
4BD5
100
AcDbEntity
  8
V0-VYPLNE
  6
DASHED
 62
    52
 48
2.0
100
AcDbLine
 10
4087.737015
 20
-1187.248551
 30
0.0
 11
4087.737015
 21
-1097.268351
 31
0.0
  0
LINE
  5
4742
330
4BD5
100
AcDbEntity
  8
V0-VYPLNE
  6
DASHED
 62
    52
 48
2.0
100
AcDbLine
 10
4057.743615
 20
-1187.248551
 30
0.0
 11
4057.743615
 21
-1113.054351
 31
0.0
  0
LINE
  5
4743
330
4BD5
100
AcDbEntity
  8
V0-VYPLNE
  6
DASHED
 62
    52
 48
2.0
100
AcDbLine
 10
4086.726781
 20
-1118.686016
 30
0.0
 11
4058.681407
 21
-1133.831695
 31
0.0
  0
LINE
  5
4744
330
4BD5
100
AcDbEntity
  8
V0-VYPLNE
  6
DASHED
 62
    52
 48
2.0
100
AcDbLine
 10
4087.484767
 20
-1102.783051
 30
0.0
 11
4057.923427
 21
-1124.744285
 31
0.0
  0
ELLIPSE
  5
4745
330
4BD5
100
AcDbEntity
  8
V0-VYPLNE
  6
DASHED
 62
    52
 48
3.0
100
AcDbEllipse
 10
2623.517226
 20
-1204.15184
 30
0.0
 11
-1.818989403545857E-12
 21
1868.263324336939
 31
0.0
210
0.0
220
0.0
230
-1.0
 40
0.8857139999999999
 41
1.480829966572604
 42
1.560998901912743
  0
LINE
  5
4746
330
4BD5
100
AcDbEntity
  8
V0-VYPLNE
  6
DASHED
 62
    52
 48
3.0
100
AcDbLine
 10
4214.945323
 20
-1018.246611
 30
0.0
 11
4214.945323
 21
-1185.847963
 31
0.0
  0
LINE
  5
4747
330
4BD5
100
AcDbEntity
  8
V0-VYPLNE
  6
DASHED
 62
    52
 48
3.0
100
AcDbLine
 10
4159.145323
 20
-1185.847963
 30
0.0
 11
4159.145323
 21
-1026.247963
 31
0.0
  0
ELLIPSE
  5
4748
330
4BD5
100
AcDbEntity
  8
V0-VYPLNE
  6
DASHED
 62
    52
 48
3.0
100
AcDbEllipse
 10
4214.945323
 20
-1186.40808
 30
0.0
 11
-9.094947017729281E-13
 21
11.8653104491209
 31
0.0
210
0.0
220
0.0
230
-1.0
 40
0.8857140000000002
 41
0.0
 42
6.283185307179586
  0
LINE
  5
4749
330
4BD5
100
AcDbEntity
  8
V0-VYPLNE
  6
DASHED
 62
    52
 48
3.0
100
AcDbLine
 10
4160.129883
 20
-1205.012192
 30
0.0
 11
4274.998589
 21
-1166.026273
 31
0.0
  0
LINE
  5
474A
330
4BD5
100
AcDbEntity
  8
V0-VYPLNE
  6
DASHED
 62
    52
 48
2.0
100
AcDbLine
 10
4086.726781
 20
-1218.704173
 30
0.0
 11
4091.27468
 21
-1218.704173
 31
0.0
  0
LINE
  5
474B
330
4BD5
100
AcDbEntity
  8
V0-VYPLNE
  6
DASHED
 62
    52
 48
2.0
100
AcDbLine
 10
4087.737015
 20
-1236.878986
 30
0.0
 11
4154.187279
 21
-1236.878986
 31
0.0
  0
LINE
  5
474C
330
4BD5
100
AcDbEntity
  8
V0-VYPLNE
  6
DASHED
 62
    52
 48
2.0
100
AcDbLine
 10
4087.737015
 20
-1218.704173
 30
0.0
 11
4154.945259
 21
-1218.704173
 31
0.0
  0
LINE
  5
474D
330
4BD5
100
AcDbEntity
  8
V0-VYPLNE
  6
DASHED
 62
    52
 48
2.0
100
AcDbLine
 10
4087.737015
 20
-1200.529357
 30
0.0
 11
4154.187279
 21
-1200.529357
 31
0.0
  0
LINE
  5
474E
330
4BD5
100
AcDbEntity
  8
V0-VYPLNE
  6
DASHED
 62
    52
 48
2.0
100
AcDbLine
 10
4086.726781
 20
-1218.704173
 30
0.0
 11
4057.923427
 21
-1215.675035
 31
0.0
  0
LINE
  5
474F
330
4BD5
100
AcDbEntity
  8
V0-VYPLNE
  6
DASHED
 62
    52
 48
2.0
100
AcDbLine
 10
4086.726781
 20
-1200.529357
 30
0.0
 11
4057.923427
 21
-1199.772073
 31
0.0
  0
LINE
  5
4750
330
4BD5
100
AcDbEntity
  8
V0-VYPLNE
  6
DASHED
 62
    52
 48
2.0
100
AcDbLine
 10
4087.484767
 20
-1236.878986
 30
0.0
 11
4057.165441
 21
-1230.063431
 31
0.0
  0
LINE
  5
4751
330
4BD5
100
AcDbEntity
  8
V0-VYPLNE
  6
DASHDOT
 62
    63
 48
2.0
100
AcDbLine
 10
4021.641916
 20
-1187.248551
 30
0.0
 11
4311.789467
 21
-1187.248551
 31
0.0
  0
LINE
  5
4752
330
4BD5
100
AcDbEntity
  8
V0-VYPLNE
  6
DASHED
 62
    52
 48
2.0
100
AcDbLine
 10
4086.726781
 20
-1155.792929
 30
0.0
 11
4091.27468
 21
-1155.792929
 31
0.0
  0
LINE
  5
4753
330
4BD5
100
AcDbEntity
  8
V0-VYPLNE
  6
DASHED
 62
    52
 48
2.0
100
AcDbLine
 10
4087.737015
 20
-1173.967746
 30
0.0
 11
4154.187279
 21
-1173.967746
 31
0.0
  0
LINE
  5
4754
330
4BD5
100
AcDbEntity
  8
V0-VYPLNE
  6
DASHED
 62
    52
 48
2.0
100
AcDbLine
 10
4087.737015
 20
-1155.792929
 30
0.0
 11
4154.945259
 21
-1155.792929
 31
0.0
  0
LINE
  5
4755
330
4BD5
100
AcDbEntity
  8
V0-VYPLNE
  6
DASHED
 62
    52
 48
2.0
100
AcDbLine
 10
4087.737015
 20
-1137.618116
 30
0.0
 11
4154.187279
 21
-1137.618116
 31
0.0
  0
LINE
  5
4756
330
4BD5
100
AcDbEntity
  8
V0-VYPLNE
  6
DASHED
 62
    52
 48
2.0
100
AcDbLine
 10
4087.484767
 20
-1137.618116
 30
0.0
 11
4057.165441
 21
-1144.433672
 31
0.0
  0
LINE
  5
4757
330
4BD5
100
AcDbEntity
  8
V0-VYPLNE
  6
DASHED
 62
    52
 48
2.0
100
AcDbLine
 10
4086.726781
 20
-1173.967746
 30
0.0
 11
4057.923427
 21
-1174.725029
 31
0.0
  0
LINE
  5
4758
330
4BD5
100
AcDbEntity
  8
V0-VYPLNE
  6
DASHED
 62
    52
 48
2.0
100
AcDbLine
 10
4086.726781
 20
-1155.792929
 30
0.0
 11
4057.923427
 21
-1158.822067
 31
0.0
  0
LINE
  5
4759
330
4BD5
100
AcDbEntity
  8
V0-VYPLNE
  6
DASHED
 62
    52
100
AcDbLine
 10
4103.285844
 20
-1010.810936
 30
0.0
 11
4103.285844
 21
-1097.268351
 31
0.0
  0
LINE
  5
475A
330
4BD5
100
AcDbEntity
  8
V0-VYPLNE
  6
DASHED
 62
    52
100
AcDbLine
 10
4097.734674
 20
-1014.218058
 30
0.0
 11
4097.734674
 21
-1097.268351
 31
0.0
  0
ARC
  5
475B
330
4BD5
100
AcDbEntity
  8
V0-VYPLNE
  6
DASHED
 62
    52
 48
2.0
100
AcDbCircle
 10
4147.052259
 20
-1105.161351
 30
0.0
 40
7.893
100
AcDbArc
 50
0.0
 51
90.0
  0
LINE
  5
475C
330
4BD5
100
AcDbEntity
  8
V0-VYPLNE
  6
DASHED
 62
    52
 48
2.0
100
AcDbLine
 10
4087.737015
 20
-1118.686016
 30
0.0
 11
4154.945259
 21
-1118.686016
 31
0.0
  0
LINE
  5
475D
330
4BD5
100
AcDbEntity
  8
V0-VYPLNE
  6
DASHED
 62
    52
 48
2.0
100
AcDbLine
 10
4087.737015
 20
-1097.268351
 30
0.0
 11
4147.052259
 21
-1097.268351
 31
0.0
  0
LINE
  5
475E
330
4BD5
100
AcDbEntity
  8
V0-VYPLNE
  6
DASHED
 62
    52
 48
2.0
100
AcDbLine
 10
4087.737015
 20
-1102.783051
 30
0.0
 11
4154.945259
 21
-1102.783051
 31
0.0
  0
ARC
  5
475F
330
4BD5
100
AcDbEntity
  8
V0-VYPLNE
  6
DASHED
 62
    52
 48
2.0
100
AcDbCircle
 10
4073.529615
 20
-1113.054351
 30
0.0
 40
15.786
100
AcDbArc
 50
90.0
 51
180.0
  0
LINE
  5
4760
330
4BD5
100
AcDbEntity
  8
V0-VYPLNE
  6
DASHED
 62
    52
100
AcDbLine
 10
4061.994152
 20
-996.07049
 30
0.0
 11
4097.734674
 21
-1014.218058
 31
0.0
  0
LINE
  5
4761
330
4BD5
100
AcDbEntity
  8
V0-VYPLNE
  6
DASHED
 62
    52
100
AcDbLine
 10
4061.994152
 20
-989.844712
 30
0.0
 11
4103.285844
 21
-1010.810936
 31
0.0
  0
ELLIPSE
  5
4762
330
4BD5
100
AcDbEntity
  8
V0-VYPLNE
  6
DASHED
 62
    52
 48
3.0
100
AcDbEllipse
 10
4214.945323
 20
-1270.267842
 30
0.0
 11
-1.818989403545856E-12
 21
252.0212318425948
 31
0.0
210
0.0
220
0.0
230
-1.0
 40
0.885714
 41
-0.2526585029160834
 42
0.211601232585275
  0
LINE
  5
4763
330
4BD5
100
AcDbEntity
  8
V0-VYPLNE
  6
DASHED
 62
    52
 48
3.0
100
AcDbLine
 10
4168.610716
 20
-1023.940604
 30
0.0
 11
4159.084309
 21
-1013.194904
 31
0.0
  0
LINE
  5
4764
330
4BD5
100
AcDbEntity
  8
V0-VYPLNE
  6
DASHED
 62
    52
 48
3.0
100
AcDbLine
 10
4261.27993
 20
-1023.940604
 30
0.0
 11
4270.806337
 21
-1013.194904
 31
0.0
  0
LINE
  5
4765
330
4BD5
100
AcDbEntity
  8
V0-OBRYS
  6
CONTINUOUS
 62
    90
100
AcDbLine
 10
4274.354642
 20
-1542.247841
 30
0.0
 11
4274.354642
 21
-784.221906
 31
0.0
  0
LINE
  5
4766
330
4BD5
100
AcDbEntity
  8
V0-OBRYS
  6
CONTINUOUS
 62
    90
100
AcDbLine
 10
4045.103322
 20
-1542.247841
 30
0.0
 11
4045.103322
 21
-784.221906
 31
0.0
  0
LINE
  5
4767
330
4BD5
100
AcDbEntity
  8
V0-VYPLNE
  6
DASHDOT
 62
    63
 48
3.0
100
AcDbLine
 10
4011.560082
 20
-802.139131
 30
0.0
 11
4091.632816
 21
-802.139131
 31
0.0
  0
LINE
  5
4768
330
4BD5
100
AcDbEntity
  8
V0-VYPLNE
  6
DASHED
 62
    52
100
AcDbLine
 10
4061.994152
 20
-834.749256
 30
0.0
 11
4061.994152
 21
-836.107455
 31
0.0
  0
LINE
  5
4769
330
4BD5
100
AcDbEntity
  8
V0-VYPLNE
  6
DASHED
 62
    52
100
AcDbLine
 10
4067.545322
 20
-841.658625
 30
0.0
 11
4095.372495
 21
-841.658625
 31
0.0
  0
LINE
  5
476A
330
4BD5
100
AcDbEntity
  8
V0-VYPLNE
  6
DASHED
 62
    52
100
AcDbLine
 10
4061.994152
 20
-836.107455
 30
0.0
 11
4095.372495
 21
-836.107455
 31
0.0
  0
LINE
  5
476B
330
4BD5
100
AcDbEntity
  8
V0-VYPLNE
  6
DASHED
 62
    52
 48
3.0
100
AcDbLine
 10
4184.091123
 20
-835.890857
 30
0.0
 11
4245.799524
 21
-835.890857
 31
0.0
  0
LINE
  5
476C
330
4BD5
100
AcDbEntity
  8
V0-VYPLNE
  6
DASHDOT
 62
    63
 48
3.0
100
AcDbLine
 10
4248.019365
 20
-802.139131
 30
0.0
 11
4312.008675
 21
-802.139131
 31
0.0
  0
LINE
  5
476D
330
4BD5
100
AcDbEntity
  8
V0-OBRYS
  6
CONTINUOUS
 62
    90
100
AcDbLine
 10
4274.354642
 20
-832.2492610000001
 30
0.0
 11
4045.103322
 21
-832.2492610000001
 31
0.0
  0
INSERT
  5
476E
330
4BD5
100
AcDbEntity
  8
V0-VYPLNE
  6
CONTINUOUS
 62
    41
100
AcDbBlockReference
  2
ASVORK
 10
4099.945182
 20
167.751449
 30
0.0
  0
INSERT
  5
476F
330
4BD5
100
AcDbEntity
  8
V0-VYPLNE
  6
CONTINUOUS
 62
    41
100
AcDbBlockReference
  2
ASVORKP
 10
4099.945182
 20
-1187.248551
 30
0.0
  0
LINE
  5
4772
330
4BD5
100
AcDbEntity
  8
V0-OBRYS
  6
CONTINUOUS
 62
    90
100
AcDbLine
 10
4039.512782
 20
215.778094
 30
0.0
 11
4045.103322
 21
215.778094
 31
0.0
  0
LINE
  5
4773
330
4BD5
100
AcDbEntity
  8
V0-OBRYS
  6
CONTINUOUS
 62
    90
100
AcDbLine
 10
4274.354642
 20
215.778094
 30
0.0
 11
4280.945182
 21
215.778094
 31
0.0
  0
LINE
  5
4774
330
4BD5
100
AcDbEntity
  8
V0-OBRYS
  6
CONTINUOUS
 62
    90
100
AcDbLine
 10
4039.512782
 20
-590.2751960000001
 30
0.0
 11
4045.103322
 21
-590.2751960000001
 31
0.0
  0
LINE
  5
4775
330
4BD5
100
AcDbEntity
  8
V0-OBRYS
  6
CONTINUOUS
 62
    90
100
AcDbLine
 10
4274.354642
 20
-590.2751960000001
 30
0.0
 11
4274.354642
 21
-590.2751960000001
 31
0.0
  0
LINE
  5
4776
330
4BD5
100
AcDbEntity
  8
V0-OBRYS
  6
CONTINUOUS
 62
    90
100
AcDbLine
 10
4039.512782
 20
-784.221906
 30
0.0
 11
4045.103322
 21
-784.221906
 31
0.0
  0
LINE
  5
4777
330
4BD5
100
AcDbEntity
  8
V0-OBRYS
  6
CONTINUOUS
 62
    90
100
AcDbLine
 10
4274.354642
 20
-784.221906
 30
0.0
 11
4279.945182
 21
-784.221906
 31
0.0
  0
LINE
  5
4778
330
4BD5
100
AcDbEntity
  8
V0-OBRYS
  6
CONTINUOUS
 62
    90
100
AcDbLine
 10
4039.512782
 20
-1590.275196
 30
0.0
 11
4045.103322
 21
-1590.275196
 31
0.0
  0
LINE
  5
4779
330
4BD5
100
AcDbEntity
  8
V0-OBRYS
  6
CONTINUOUS
 62
    90
100
AcDbLine
 10
4274.354642
 20
-1590.275196
 30
0.0
 11
4279.945182
 21
-1590.275196
 31
0.0
  0
LINE
  5
4799
330
4BD5
100
AcDbEntity
  8
V0-VYPLNE
 48
2.0
100
AcDbLine
 10
5179.945012
 20
-187.248551
 30
0.0
 11
5179.945012
 21
244.111797
 31
0.0
  0
CIRCLE
  5
479A
330
4BD5
100
AcDbEntity
  8
V0-VYPLNE
  6
DASHDOT
 62
    63
 48
2.0
100
AcDbCircle
 10
5179.945012
 20
-187.248551
 30
0.0
 40
384.847183
  0
CIRCLE
  5
479B
330
4BD5
100
AcDbEntity
  8
V0-OBRYS
  6
CONTINUOUS
 62
    90
100
AcDbCircle
 10
5179.945012
 20
-187.248551
 30
0.0
 40
403.097501
  0
LINE
  5
479C
330
4BD5
100
AcDbEntity
  8
V0-OBRYS
  6
CONTINUOUS
 62
    90
100
AcDbLine
 10
5418.532075
 20
66.453096
 30
0.0
 11
5367.847215
 21
31.033516
 31
0.0
  0
LINE
  5
479D
330
4BD5
100
AcDbEntity
  8
V0-OBRYS
  6
CONTINUOUS
 62
    90
100
AcDbLine
 10
5431.227266
 20
-55.65718
 30
0.0
 11
5395.23867
 21
-88.28535100000001
 31
0.0
  0
LINE
  5
479E
330
4BD5
100
AcDbEntity
  8
V0-OBRYS
  6
CONTINUOUS
 62
    90
100
AcDbLine
 10
5412.463502
 20
-181.699159
 30
0.0
 11
5366.550057
 21
-168.114698
 31
0.0
  0
LINE
  5
479F
330
4BD5
100
AcDbEntity
  8
V0-OBRYS
  6
CONTINUOUS
 62
    90
100
AcDbLine
 10
5439.499212
 20
-301.663051
 30
0.0
 11
5391.550958
 21
-293.869366
 31
0.0
  0
LINE
  5
47A0
330
4BD5
100
AcDbEntity
  8
VO-OBRYS
  6
CONTINUOUS
100
AcDbLine
 10
5292.613765
 20
-263.270013
 30
0.0
 11
5448.621393
 21
-419.27764
 31
0.0
  0
LINE
  5
47A1
330
4BD5
100
AcDbEntity
  8
VO-OBRYS
  6
CONTINUOUS
100
AcDbLine
 10
5292.247779
 20
-256.731245
 30
0.0
 11
5451.462742
 21
-415.946208
 31
0.0
  0
LINE
  5
47A2
330
4BD5
100
AcDbEntity
  8
VO-OBRYS
  6
CONTINUOUS
100
AcDbLine
 10
5255.966473
 20
-299.917305
 30
0.0
 11
5411.9741
 21
-455.924933
 31
0.0
  0
LINE
  5
47A3
330
4BD5
100
AcDbEntity
  8
V0-VYPLNE
 48
2.0
100
AcDbLine
 10
5179.945012
 20
-187.248551
 30
0.0
 11
5452.107617
 21
-459.411157
 31
0.0
  0
CIRCLE
  5
47A4
330
4BD5
100
AcDbEntity
  8
V0-OBRYS
  6
CONTINUOUS
 62
    90
100
AcDbCircle
 10
5179.945012
 20
-187.248551
 30
0.0
 40
354.99929
  0
CIRCLE
  5
47A5
330
4BD5
100
AcDbEntity
  8
V0-OBRYS
  6
CONTINUOUS
 62
    90
100
AcDbCircle
 10
5179.945012
 20
-187.248551
 30
0.0
 40
283.653064
  0
CIRCLE
  5
47A6
330
4BD5
100
AcDbEntity
  8
V0-OBRYS
  6
CONTINUOUS
 62
    90
100
AcDbCircle
 10
5179.945012
 20
-187.248551
 30
0.0
 40
288.017879
  0
LINE
  5
47A7
330
4BD5
100
AcDbEntity
  8
VO-OBRYS
  6
CONTINUOUS
100
AcDbLine
 10
5292.613765
 20
-111.22709
 30
0.0
 11
5448.621393
 21
44.78053700000001
 31
0.0
  0
LINE
  5
47A8
330
4BD5
100
AcDbEntity
  8
VO-OBRYS
  6
CONTINUOUS
100
AcDbLine
 10
5255.966473
 20
-74.579797
 30
0.0
 11
5411.9741
 21
81.42783000000001
 31
0.0
  0
LINE
  5
47A9
330
4BD5
100
AcDbEntity
  8
V0-VYPLNE
 48
2.0
100
AcDbLine
 10
5179.945012
 20
-187.248551
 30
0.0
 11
5426.205354
 21
59.01179099999999
 31
0.0
  0
LINE
  5
47AA
330
4BD5
100
AcDbEntity
  8
VO-OBRYS
  6
CONTINUOUS
100
AcDbLine
 10
5292.247779
 20
-117.765858
 30
0.0
 11
5451.462742
 21
41.44910500000002
 31
0.0
  0
LINE
  5
47AB
330
4BD5
100
AcDbEntity
  8
V0-VYPLNE
 48
2.0
100
AcDbLine
 10
5603.178449
 20
-187.248551
 30
0.0
 11
4708.144128
 21
-187.248551
 31
0.0
  0
LINE
  5
47AC
330
4BD5
100
AcDbEntity
  8
V0-OBRYS
  6
CONTINUOUS
 62
    90
100
AcDbLine
 10
5309.472666
 20
-316.831155
 30
0.0
 11
5295.043593
 21
-281.277885
 31
0.0
  0
LINE
  5
47AD
330
4BD5
100
AcDbEntity
  8
V0-OBRYS
  6
CONTINUOUS
 62
    90
100
AcDbLine
 10
5167.347093
 20
-352.899787
 30
0.0
 11
5171.40429
 21
-299.551319
 31
0.0
  0
LINE
  5
47AE
330
4BD5
100
AcDbEntity
  8
V0-OBRYS
  6
CONTINUOUS
 62
    90
100
AcDbLine
 10
5192.54293
 20
-352.899787
 30
0.0
 11
5188.485733
 21
-299.551319
 31
0.0
  0
LINE
  5
47AF
330
4BD5
100
AcDbEntity
  8
V0-OBRYS
  6
CONTINUOUS
 62
    90
100
AcDbLine
 10
5206.175408
 20
-295.683977
 30
0.0
 11
5219.277432
 21
-349.847231
 31
0.0
  0
LINE
  5
47B0
330
4BD5
100
AcDbEntity
  8
V0-OBRYS
  6
CONTINUOUS
 62
    90
100
AcDbLine
 10
5242.956567
 20
-341.452708
 30
0.0
 11
5222.145091
 21
-290.522113
 31
0.0
  0
LINE
  5
47B1
330
4BD5
100
AcDbEntity
  8
V0-OBRYS
  6
CONTINUOUS
 62
    90
100
AcDbLine
 10
5237.179855
 20
-283.011007
 30
0.0
 11
5266.635701
 21
-332.295044
 31
0.0
  0
LINE
  5
47B2
330
4BD5
100
AcDbEntity
  8
V0-OBRYS
  6
CONTINUOUS
 62
    90
100
AcDbLine
 10
5050.417357
 20
-316.831155
 30
0.0
 11
5064.84643
 21
-281.277885
 31
0.0
  0
LINE
  5
47B3
330
4BD5
100
AcDbEntity
  8
V0-OBRYS
  6
CONTINUOUS
 62
    90
100
AcDbLine
 10
5074.346924
 20
-314.731744
 30
0.0
 11
5108.577964
 21
-272.998302
 31
0.0
  0
LINE
  5
47B4
330
4BD5
100
AcDbEntity
  8
V0-OBRYS
  6
CONTINUOUS
 62
    90
100
AcDbLine
 10
5122.710168
 20
-283.011007
 30
0.0
 11
5093.254322
 21
-332.295044
 31
0.0
  0
LINE
  5
47B5
330
4BD5
100
AcDbEntity
  8
V0-OBRYS
  6
CONTINUOUS
 62
    90
100
AcDbLine
 10
5116.933456
 20
-341.452708
 30
0.0
 11
5137.744932
 21
-290.522113
 31
0.0
  0
LINE
  5
47B6
330
4BD5
100
AcDbEntity
  8
V0-OBRYS
  6
CONTINUOUS
 62
    90
100
AcDbLine
 10
5153.714615
 20
-295.683977
 30
0.0
 11
5140.612591
 21
-349.847231
 31
0.0
  0
LINE
  5
47B7
330
4BD5
100
AcDbEntity
  8
V0-OBRYS
  6
CONTINUOUS
 62
    90
100
AcDbLine
 10
4854.908476
 20
-312.30679
 30
0.0
 11
4915.941937
 21
-302.386188
 31
0.0
  0
ARC
  5
47B8
330
4BD5
100
AcDbEntity
  8
V0-OBRYS
  6
CONTINUOUS
 62
    90
100
AcDbCircle
 10
5179.945012
 20
-187.248551
 30
0.0
 40
348.264716
100
AcDbArc
 50
184.66999
 51
201.044296
  0
LINE
  5
47B9
330
4BD5
100
AcDbEntity
  8
VO-OBRYS
  6
CONTINUOUS
100
AcDbLine
 10
5067.276258
 20
-263.270013
 30
0.0
 11
4911.26863
 21
-419.27764
 31
0.0
  0
LINE
  5
47BA
330
4BD5
100
AcDbEntity
  8
VO-OBRYS
  6
CONTINUOUS
100
AcDbLine
 10
5067.642244
 20
-256.731245
 30
0.0
 11
4908.427281
 21
-415.946208
 31
0.0
  0
LINE
  5
47BB
330
4BD5
100
AcDbEntity
  8
VO-OBRYS
  6
CONTINUOUS
100
AcDbLine
 10
5103.92355
 20
-299.917305
 30
0.0
 11
4947.915923
 21
-455.924933
 31
0.0
  0
LINE
  5
47BC
330
4BD5
100
AcDbEntity
  8
V0-VYPLNE
 48
2.0
100
AcDbLine
 10
5179.945012
 20
-187.248551
 30
0.0
 11
4928.922606
 21
-438.270957
 31
0.0
  0
LINE
  5
47BD
330
4BD5
100
AcDbEntity
  8
VO-OBRYS
  6
CONTINUOUS
100
AcDbLine
 10
5110.462318
 20
-299.551319
 30
0.0
 11
4951.247355
 21
-458.766282
 31
0.0
  0
LINE
  5
47BE
330
4BD5
100
AcDbEntity
  8
V0-VYPLNE
  6
DASHDOT
 48
2.0
100
AcDbLine
 10
5179.945012
 20
-187.248551
 30
0.0
 11
5179.945012
 21
-644.2751960000001
 31
0.0
  0
LINE
  5
47BF
330
4BD5
100
AcDbEntity
  8
VO-OBRYS
  6
CONTINUOUS
100
AcDbLine
 10
5249.427705
 20
-299.551319
 30
0.0
 11
5408.642668
 21
-458.766282
 31
0.0
  0
ARC
  5
47C0
330
4BD5
100
AcDbEntity
  8
V0-OBRYS
  6
CONTINUOUS
 62
    90
100
AcDbCircle
 10
5179.945012
 20
-187.248551
 30
0.0
 40
131.408244
100
AcDbArc
 50
238.716649
 51
329.134287
  0
LINE
  5
47C1
330
4BD5
100
AcDbEntity
  8
V0-OBRYS
  6
CONTINUOUS
 62
    90
100
AcDbLine
 10
5284.428992
 20
-314.239957
 30
0.0
 11
5250.727706
 21
-273.481291
 31
0.0
  0
LINE
  5
47C2
330
4BD5
100
AcDbEntity
  8
V0-OBRYS
  6
CONTINUOUS
 62
    90
100
AcDbLine
 10
5075.062515
 20
-519.344884
 30
0.0
 11
5105.360016
 21
-465.441609
 31
0.0
  0
LINE
  5
47C3
330
4BD5
100
AcDbEntity
  8
V0-OBRYS
  6
CONTINUOUS
 62
    90
100
AcDbLine
 10
4985.69481
 20
-476.307666
 30
0.0
 11
5008.947905
 21
-419.011984
 31
0.0
  0
ARC
  5
47C4
330
4BD5
100
AcDbEntity
  8
V0-OBRYS
  6
CONTINUOUS
 62
    90
100
AcDbCircle
 10
5179.945012
 20
-187.248551
 30
0.0
 40
348.264716
100
AcDbArc
 50
236.098561
 51
252.472867
  0
LINE
  5
47C5
330
4BD5
100
AcDbEntity
  8
V0-OBRYS
  6
CONTINUOUS
 62
    90
100
AcDbLine
 10
5010.642879
 20
-414.835564
 30
0.0
 11
5028.910651
 21
-369.823731
 31
0.0
  0
LINE
  5
47C6
330
4BD5
100
AcDbEntity
  8
V0-OBRYS
  6
CONTINUOUS
 62
    90
100
AcDbLine
 10
5030.633414
 20
-365.578838
 30
0.0
 11
5048.63922
 21
-321.212488
 31
0.0
  0
LINE
  5
47C7
330
4BD5
100
AcDbEntity
  8
V0-OBRYS
  6
CONTINUOUS
 62
    90
100
AcDbLine
 10
5284.827508
 20
-519.344884
 30
0.0
 11
5254.530008
 21
-465.441609
 31
0.0
  0
LINE
  5
47C8
330
4BD5
100
AcDbEntity
  8
V0-OBRYS
  6
CONTINUOUS
 62
    90
100
AcDbLine
 10
5252.32155
 20
-461.51247
 30
0.0
 11
5228.519651
 21
-419.165732
 31
0.0
  0
LINE
  5
47C9
330
4BD5
100
AcDbEntity
  8
V0-OBRYS
  6
CONTINUOUS
 62
    90
100
AcDbLine
 10
5107.568473
 20
-461.51247
 30
0.0
 11
5131.370372
 21
-419.165732
 31
0.0
  0
LINE
  5
47CA
330
4BD5
100
AcDbEntity
  8
V0-OBRYS
  6
CONTINUOUS
 62
    90
100
AcDbLine
 10
5159.392424
 20
-369.310782
 30
0.0
 11
5178.19271
 21
-335.862577
 31
0.0
  0
LINE
  5
47CB
330
4BD5
100
AcDbEntity
  8
V0-OBRYS
  6
CONTINUOUS
 62
    90
100
AcDbLine
 10
5178.19271
 20
-335.862577
 30
0.0
 11
5168.97714
 21
-320.292331
 31
0.0
  0
LINE
  5
47CC
330
4BD5
100
AcDbEntity
  8
V0-OBRYS
  6
CONTINUOUS
 62
    90
100
AcDbLine
 10
5133.615038
 20
-415.172174
 30
0.0
 11
5157.07561
 21
-373.432701
 31
0.0
  0
LINE
  5
47CD
330
4BD5
100
AcDbEntity
  8
V0-OBRYS
  6
CONTINUOUS
 62
    90
100
AcDbLine
 10
5200.497599
 20
-369.310782
 30
0.0
 11
5181.697313
 21
-335.862577
 31
0.0
  0
LINE
  5
47CE
330
4BD5
100
AcDbEntity
  8
V0-OBRYS
  6
CONTINUOUS
 62
    90
100
AcDbLine
 10
5226.274986
 20
-415.172174
 30
0.0
 11
5202.814413
 21
-373.432701
 31
0.0
  0
LINE
  5
47CF
330
4BD5
100
AcDbEntity
  8
V0-OBRYS
  6
CONTINUOUS
 62
    90
100
AcDbLine
 10
5181.697313
 20
-335.862577
 30
0.0
 11
5190.912883
 21
-320.292331
 31
0.0
  0
LINE
  5
47D0
330
4BD5
100
AcDbEntity
  8
V0-OBRYS
  6
CONTINUOUS
 62
    90
100
AcDbLine
 10
5374.195213
 20
-476.307666
 30
0.0
 11
5350.942118
 21
-419.011984
 31
0.0
  0
ARC
  5
47D1
330
4BD5
100
AcDbEntity
  8
V0-OBRYS
  6
CONTINUOUS
 62
    90
100
AcDbCircle
 10
5179.945012
 20
-187.248551
 30
0.0
 40
348.264716
100
AcDbArc
 50
287.527133
 51
303.901439
  0
LINE
  5
47D2
330
4BD5
100
AcDbEntity
  8
V0-OBRYS
  6
CONTINUOUS
 62
    90
100
AcDbLine
 10
5349.247144
 20
-414.835564
 30
0.0
 11
5330.979372
 21
-369.823731
 31
0.0
  0
LINE
  5
47D3
330
4BD5
100
AcDbEntity
  8
V0-OBRYS
  6
CONTINUOUS
 62
    90
100
AcDbLine
 10
5329.256609
 20
-365.578838
 30
0.0
 11
5311.250803
 21
-321.212488
 31
0.0
  0
LINE
  5
47D4
330
4BD5
100
AcDbEntity
  8
V0-OBRYS
  6
CONTINUOUS
 62
    90
100
AcDbLine
 10
5075.461031
 20
-60.257146
 30
0.0
 11
5109.162317
 21
-101.015812
 31
0.0
  0
POINT
  5
47D5
330
4BD5
100
AcDbEntity
  8
V0-VYPLNE
  6
DASHED
 62
    52
100
AcDbPoint
 10
5179.945012
 20
-187.248551
 30
0.0
  0
ARC
  5
47D6
330
4BD5
100
AcDbEntity
  8
V0-OBRYS
  6
CONTINUOUS
 62
    90
100
AcDbCircle
 10
5179.945012
 20
-187.248551
 30
0.0
 40
131.408244
100
AcDbArc
 50
148.716649
 51
239.134287
  0
CIRCLE
  5
47D7
330
4BD5
100
AcDbEntity
  8
V0-OBRYS
  6
CONTINUOUS
 62
    90
100
AcDbCircle
 10
5179.945012
 20
-187.248551
 30
0.0
 40
111.562876
  0
ARC
  5
47D8
330
4BD5
100
AcDbEntity
  8
V0-OBRYS
  6
CONTINUOUS
 62
    90
100
AcDbCircle
 10
5179.945012
 20
-187.248551
 30
0.0
 40
131.408244
100
AcDbArc
 50
58.71664899999999
 51
149.134287
  0
LINE
  5
47D9
330
4BD5
100
AcDbEntity
  8
VO-OBRYS
  6
CONTINUOUS
100
AcDbLine
 10
5110.462318
 20
-74.945784
 30
0.0
 11
4951.247355
 21
84.26917900000001
 31
0.0
  0
LINE
  5
47DA
330
4BD5
100
AcDbEntity
  8
V0-VYPLNE
100
AcDbLine
 10
5179.945012
 20
-187.248551
 30
0.0
 11
4909.330254
 21
83.36620600000001
 31
0.0
  0
LINE
  5
47DB
330
4BD5
100
AcDbEntity
  8
V0-OBRYS
  6
CONTINUOUS
 62
    90
100
AcDbLine
 10
5082.433929
 20
-32.133583
 30
0.0
 11
5113.885033
 21
-54.112236
 31
0.0
  0
LINE
  5
47DC
330
4BD5
100
AcDbEntity
  8
V0-OBRYS
  6
CONTINUOUS
 62
    90
100
AcDbLine
 10
5112.824434
 20
-74.945784
 30
0.0
 11
5093.254322
 21
-42.202059
 31
0.0
  0
LINE
  5
47DD
330
4BD5
100
AcDbEntity
  8
V0-OBRYS
  6
CONTINUOUS
 62
    90
100
AcDbLine
 10
5122.710168
 20
-91.486096
 30
0.0
 11
5093.254322
 21
-42.202059
 31
0.0
  0
LINE
  5
47DE
330
4BD5
100
AcDbEntity
  8
V0-OBRYS
  6
CONTINUOUS
 62
    90
100
AcDbLine
 10
4928.662757
 20
-55.65718
 30
0.0
 11
4964.651353
 21
-88.28535100000001
 31
0.0
  0
LINE
  5
47DF
330
4BD5
100
AcDbEntity
  8
VO-OBRYS
  6
CONTINUOUS
100
AcDbLine
 10
5103.92355
 20
-74.579797
 30
0.0
 11
4952.690971
 21
76.65278199999999
 31
0.0
  0
LINE
  5
47E0
330
4BD5
100
AcDbEntity
  8
VO-OBRYS
  6
CONTINUOUS
100
AcDbLine
 10
5067.276258
 20
-111.22709
 30
0.0
 11
4911.26863
 21
44.78053700000001
 31
0.0
  0
LINE
  5
47E1
330
4BD5
100
AcDbEntity
  8
VO-OBRYS
  6
CONTINUOUS
 48
2.0
100
AcDbLine
 10
5067.642244
 20
-117.765858
 30
0.0
 11
4908.427281
 21
41.44910500000002
 31
0.0
  0
LINE
  5
47E2
330
4BD5
100
AcDbEntity
  8
V0-OBRYS
  6
CONTINUOUS
 62
    90
100
AcDbLine
 10
4947.426521
 20
-181.699159
 30
0.0
 11
4993.339966
 21
-168.114698
 31
0.0
  0
LINE
  5
47E3
330
4BD5
100
AcDbEntity
  8
V0-OBRYS
  6
CONTINUOUS
 62
    90
100
AcDbLine
 10
4920.390811
 20
-301.663051
 30
0.0
 11
4968.339066
 21
-293.869366
 31
0.0
  0
LINE
  5
47E4
330
4BD5
100
AcDbEntity
  8
V0-OBRYS
  6
CONTINUOUS
 62
    90
100
AcDbLine
 10
4896.452167
 20
-196.780996
 30
0.0
 11
4943.033604
 21
-182.998896
 31
0.0
  0
LINE
  5
47E5
330
4BD5
100
AcDbEntity
  8
V0-OBRYS
  6
CONTINUOUS
 62
    90
100
AcDbLine
 10
4832.836476
 20
-215.603039
 30
0.0
 11
4892.130112
 21
-198.059767
 31
0.0
  0
LINE
  5
47E6
330
4BD5
100
AcDbEntity
  8
V0-OBRYS
  6
CONTINUOUS
 62
    90
100
AcDbLine
 10
5024.788699
 20
-284.693835
 30
0.0
 11
5062.661345
 21
-278.537876
 31
0.0
  0
LINE
  5
47E7
330
4BD5
100
AcDbEntity
  8
V0-OBRYS
  6
CONTINUOUS
 62
    90
100
AcDbLine
 10
5014.293776
 20
-199.84647
 30
0.0
 11
5067.642244
 21
-195.789273
 31
0.0
  0
LINE
  5
47E8
330
4BD5
100
AcDbEntity
  8
V0-OBRYS
  6
CONTINUOUS
 62
    90
100
AcDbLine
 10
5071.509586
 20
-213.478947
 30
0.0
 11
5017.346332
 21
-226.580972
 31
0.0
  0
LINE
  5
47E9
330
4BD5
100
AcDbEntity
  8
V0-OBRYS
  6
CONTINUOUS
 62
    90
100
AcDbLine
 10
5025.740855
 20
-250.260106
 30
0.0
 11
5076.67145
 21
-229.448631
 31
0.0
  0
LINE
  5
47EA
330
4BD5
100
AcDbEntity
  8
V0-OBRYS
  6
CONTINUOUS
 62
    90
100
AcDbLine
 10
4972.860882
 20
-293.134373
 30
0.0
 11
5020.121543
 21
-285.452452
 31
0.0
  0
LINE
  5
47EB
330
4BD5
100
AcDbEntity
  8
V0-OBRYS
  6
CONTINUOUS
 62
    90
100
AcDbLine
 10
5064.84643
 20
-281.277885
 30
0.0
 11
5082.765553
 21
-278.775018
 31
0.0
  0
LINE
  5
47EC
330
4BD5
100
AcDbEntity
  8
V0-OBRYS
  6
CONTINUOUS
 62
    90
100
AcDbLine
 10
5062.661345
 20
-278.537876
 30
0.0
 11
5069.08884
 21
-261.624963
 31
0.0
  0
LINE
  5
47ED
330
4BD5
100
AcDbEntity
  8
V0-OBRYS
  6
CONTINUOUS
 62
    90
100
AcDbLine
 10
5084.182556
 20
-244.483395
 30
0.0
 11
5034.898519
 21
-273.939241
 31
0.0
  0
LINE
  5
47EE
330
4BD5
100
AcDbEntity
  8
V0-OBRYS
  6
CONTINUOUS
 62
    90
100
AcDbLine
 10
5052.953606
 20
-291.732531
 30
0.0
 11
5093.712272
 21
-258.031246
 31
0.0
  0
LINE
  5
47EF
330
4BD5
100
AcDbEntity
  8
V0-OBRYS
  6
CONTINUOUS
 62
    90
100
AcDbLine
 10
5025.740855
 20
-124.236996
 30
0.0
 11
5076.67145
 21
-145.048472
 31
0.0
  0
LINE
  5
47F0
330
4BD5
100
AcDbEntity
  8
V0-OBRYS
  6
CONTINUOUS
 62
    90
100
AcDbLine
 10
5071.509586
 20
-161.018155
 30
0.0
 11
5017.346332
 21
-147.916131
 31
0.0
  0
LINE
  5
47F1
330
4BD5
100
AcDbEntity
  8
V0-OBRYS
  6
CONTINUOUS
 62
    90
100
AcDbLine
 10
5014.293776
 20
-174.650633
 30
0.0
 11
5067.642244
 21
-178.707829
 31
0.0
  0
LINE
  5
47F2
330
4BD5
100
AcDbEntity
  8
V0-OBRYS
  6
CONTINUOUS
 62
    90
100
AcDbLine
 10
5007.020842
 20
-126.698602
 30
0.0
 11
5035.446974
 21
-152.470452
 31
0.0
  0
LINE
  5
47F3
330
4BD5
100
AcDbEntity
  8
V0-OBRYS
  6
CONTINUOUS
 62
    90
100
AcDbLine
 10
4997.87408
 20
-166.773185
 30
0.0
 11
5034.667126
 21
-155.887187
 31
0.0
  0
LINE
  5
47F4
330
4BD5
100
AcDbEntity
  8
V0-OBRYS
  6
CONTINUOUS
 62
    90
100
AcDbLine
 10
4968.045299
 20
-91.36238899999999
 30
0.0
 11
5003.517808
 21
-123.522662
 31
0.0
  0
LINE
  5
47F5
330
4BD5
100
AcDbEntity
  8
V0-OBRYS
  6
CONTINUOUS
 62
    90
100
AcDbLine
 10
5084.182556
 20
-130.013708
 30
0.0
 11
5034.898519
 21
-100.557862
 31
0.0
  0
LINE
  5
47F6
330
4BD5
100
AcDbEntity
  8
V0-OBRYS
  6
CONTINUOUS
 62
    90
100
AcDbLine
 10
5052.461819
 20
-81.650464
 30
0.0
 11
5094.195261
 21
-115.881504
 31
0.0
  0
LINE
  5
47F7
330
4BD5
100
AcDbEntity
  8
V0-OBRYS
  6
CONTINUOUS
 62
    90
100
AcDbLine
 10
5034.667126
 20
-155.887187
 30
0.0
 11
5047.796336
 21
-168.33641
 31
0.0
  0
LINE
  5
47F8
330
4BD5
100
AcDbEntity
  8
V0-OBRYS
  6
CONTINUOUS
 62
    90
100
AcDbLine
 10
5035.446974
 20
-152.470452
 30
0.0
 11
5052.677499
 21
-146.950641
 31
0.0
  0
LINE
  5
47F9
330
4BD5
100
AcDbEntity
  8
V0-OBRYS
  6
CONTINUOUS
 62
    90
100
AcDbLine
 10
4941.357949
 20
66.453096
 30
0.0
 11
4992.042808
 21
31.033516
 31
0.0
  0
ARC
  5
47FA
330
4BD5
100
AcDbEntity
  8
V0-OBRYS
  6
CONTINUOUS
 62
    90
100
AcDbCircle
 10
5179.945012
 20
-187.248551
 30
0.0
 40
348.264716
100
AcDbArc
 50
133.241418
 51
149.615725
  0
LINE
  5
47FB
330
4BD5
100
AcDbEntity
  8
V0-OBRYS
  6
CONTINUOUS
 62
    90
100
AcDbLine
 10
4879.513578
 20
-11.097292
 30
0.0
 11
4925.323558
 21
-52.629778
 31
0.0
  0
LINE
  5
47FC
330
4BD5
100
AcDbEntity
  8
V0-OBRYS
  6
CONTINUOUS
 62
    90
100
AcDbLine
 10
4995.737349
 20
28.451698
 30
0.0
 11
5035.55568
 21
0.6258620000000015
 31
0.0
  0
LINE
  5
47FD
330
4BD5
100
AcDbEntity
  8
V0-OBRYS
  6
CONTINUOUS
 62
    90
100
AcDbLine
 10
5039.310794
 20
-1.998285
 30
0.0
 11
5078.558118
 21
-29.42509
 31
0.0
  0
LINE
  5
47FE
330
4BD5
100
AcDbEntity
  8
V0-OBRYS
  6
CONTINUOUS
 62
    90
100
AcDbLine
 10
5246.00499
 20
-54.112236
 30
0.0
 11
5247.552255
 21
-72.13902899999999
 31
0.0
  0
LINE
  5
47FF
330
4BD5
100
AcDbEntity
  8
V0-OBRYS
  6
CONTINUOUS
 62
    90
100
AcDbLine
 10
5113.885033
 20
-54.112236
 30
0.0
 11
5112.337768
 21
-72.13902899999999
 31
0.0
  0
ARC
  5
4800
330
4BD5
100
AcDbEntity
  8
V0-OBRYS
  6
CONTINUOUS
 62
    90
100
AcDbCircle
 10
5179.945012
 20
-187.248551
 30
0.0
 40
131.408244
100
AcDbArc
 50
328.716649
 51
59.134287
  0
LINE
  5
4801
330
4BD5
100
AcDbEntity
  8
V0-OBRYS
  6
CONTINUOUS
 62
    90
100
AcDbLine
 10
5285.543099
 20
-59.765359
 30
0.0
 11
5251.312059
 21
-101.4988
 31
0.0
  0
LINE
  5
4802
330
4BD5
100
AcDbEntity
  8
V0-OBRYS
  6
CONTINUOUS
 62
    90
100
AcDbLine
 10
5192.54293
 20
-21.597315
 30
0.0
 11
5188.485733
 21
-74.945784
 31
0.0
  0
LINE
  5
4803
330
4BD5
100
AcDbEntity
  8
V0-OBRYS
  6
CONTINUOUS
 62
    90
100
AcDbLine
 10
5206.175408
 20
-78.813126
 30
0.0
 11
5219.277432
 21
-24.649872
 31
0.0
  0
LINE
  5
4804
330
4BD5
100
AcDbEntity
  8
V0-OBRYS
  6
CONTINUOUS
 62
    90
100
AcDbLine
 10
5242.956567
 20
-33.044394
 30
0.0
 11
5222.145091
 21
-83.97499000000001
 31
0.0
  0
LINE
  5
4805
330
4BD5
100
AcDbEntity
  8
V0-OBRYS
  6
CONTINUOUS
 62
    90
100
AcDbLine
 10
5247.065589
 20
-74.945784
 30
0.0
 11
5266.635701
 21
-42.202059
 31
0.0
  0
LINE
  5
4806
330
4BD5
100
AcDbEntity
  8
V0-OBRYS
  6
CONTINUOUS
 62
    90
100
AcDbLine
 10
5116.933456
 20
-33.044394
 30
0.0
 11
5134.055379
 21
-74.945784
 31
0.0
  0
LINE
  5
4807
330
4BD5
100
AcDbEntity
  8
V0-OBRYS
  6
CONTINUOUS
 62
    90
100
AcDbLine
 10
5152.77911
 20
-74.945784
 30
0.0
 11
5140.612591
 21
-24.649872
 31
0.0
  0
LINE
  5
4808
330
4BD5
100
AcDbEntity
  8
V0-OBRYS
  6
CONTINUOUS
 62
    90
100
AcDbLine
 10
5167.347093
 20
-21.597315
 30
0.0
 11
5171.40429
 21
-74.945784
 31
0.0
  0
LINE
  5
4809
330
4BD5
100
AcDbEntity
  8
V0-OBRYS
  6
CONTINUOUS
 62
    90
100
AcDbLine
 10
5116.933456
 20
-33.044394
 30
0.0
 11
5137.744932
 21
-83.97499000000001
 31
0.0
  0
LINE
  5
480A
330
4BD5
100
AcDbEntity
  8
V0-OBRYS
  6
CONTINUOUS
 62
    90
100
AcDbLine
 10
5153.714615
 20
-78.813126
 30
0.0
 11
5140.612591
 21
-24.649872
 31
0.0
  0
LINE
  5
480B
330
4BD5
100
AcDbEntity
  8
V0-OBRYS
  6
CONTINUOUS
 62
    90
100
AcDbLine
 10
5167.347093
 20
-21.597315
 30
0.0
 11
5171.40429
 21
-74.945784
 31
0.0
  0
LINE
  5
480C
330
4BD5
100
AcDbEntity
  8
VO-OBRYS
  6
CONTINUOUS
100
AcDbLine
 10
5234.460912
 20
-89.912577
 30
0.0
 11
5408.642668
 21
84.26917900000001
 31
0.0
  0
LINE
  5
480D
330
4BD5
100
AcDbEntity
  8
V0-OBRYS
  6
CONTINUOUS
 62
    90
100
AcDbLine
 10
5288.380437
 20
-213.478947
 30
0.0
 11
5342.543691
 21
-226.580972
 31
0.0
  0
LINE
  5
480E
330
4BD5
100
AcDbEntity
  8
V0-OBRYS
  6
CONTINUOUS
 62
    90
100
AcDbLine
 10
5345.596248
 20
-199.84647
 30
0.0
 11
5292.247779
 21
-195.789273
 31
0.0
  0
LINE
  5
480F
330
4BD5
100
AcDbEntity
  8
V0-OBRYS
  6
CONTINUOUS
 62
    90
100
AcDbLine
 10
5335.101324
 20
-284.693835
 30
0.0
 11
5297.228678
 21
-278.537876
 31
0.0
  0
LINE
  5
4810
330
4BD5
100
AcDbEntity
  8
V0-OBRYS
  6
CONTINUOUS
 62
    90
100
AcDbLine
 10
5297.228678
 20
-278.537876
 30
0.0
 11
5290.801183
 21
-261.624963
 31
0.0
  0
LINE
  5
4811
330
4BD5
100
AcDbEntity
  8
V0-OBRYS
  6
CONTINUOUS
 62
    90
100
AcDbLine
 10
5295.043593
 20
-281.277885
 30
0.0
 11
5277.124471
 21
-278.775018
 31
0.0
  0
LINE
  5
4812
330
4BD5
100
AcDbEntity
  8
V0-OBRYS
  6
CONTINUOUS
 62
    90
100
AcDbLine
 10
5275.707467
 20
-244.483395
 30
0.0
 11
5324.991504
 21
-273.939241
 31
0.0
  0
LINE
  5
4813
330
4BD5
100
AcDbEntity
  8
V0-OBRYS
  6
CONTINUOUS
 62
    90
100
AcDbLine
 10
5334.149169
 20
-250.260106
 30
0.0
 11
5283.218573
 21
-229.448631
 31
0.0
  0
LINE
  5
4814
330
4BD5
100
AcDbEntity
  8
V0-OBRYS
  6
CONTINUOUS
 62
    90
100
AcDbLine
 10
5307.428204
 20
-292.846639
 30
0.0
 11
5265.694762
 21
-258.615599
 31
0.0
  0
LINE
  5
4815
330
4BD5
100
AcDbEntity
  8
V0-OBRYS
  6
CONTINUOUS
 62
    90
100
AcDbLine
 10
5387.029142
 20
-293.134373
 30
0.0
 11
5339.76848
 21
-285.452452
 31
0.0
  0
LINE
  5
4816
330
4BD5
100
AcDbEntity
  8
V0-OBRYS
  6
CONTINUOUS
 62
    90
100
AcDbLine
 10
5345.596248
 20
-174.650633
 30
0.0
 11
5292.247779
 21
-178.707829
 31
0.0
  0
LINE
  5
4817
330
4BD5
100
AcDbEntity
  8
V0-OBRYS
  6
CONTINUOUS
 62
    90
100
AcDbLine
 10
5288.380437
 20
-161.018155
 30
0.0
 11
5342.543691
 21
-147.916131
 31
0.0
  0
LINE
  5
4818
330
4BD5
100
AcDbEntity
  8
V0-OBRYS
  6
CONTINUOUS
 62
    90
100
AcDbLine
 10
5362.015943
 20
-166.773185
 30
0.0
 11
5325.222897
 21
-155.887187
 31
0.0
  0
LINE
  5
4819
330
4BD5
100
AcDbEntity
  8
V0-OBRYS
  6
CONTINUOUS
 62
    90
100
AcDbLine
 10
5352.869181
 20
-126.698602
 30
0.0
 11
5324.44305
 21
-152.470452
 31
0.0
  0
LINE
  5
481A
330
4BD5
100
AcDbEntity
  8
V0-OBRYS
  6
CONTINUOUS
 62
    90
100
AcDbLine
 10
5275.707467
 20
-130.013708
 30
0.0
 11
5324.991504
 21
-100.557862
 31
0.0
  0
LINE
  5
481B
330
4BD5
100
AcDbEntity
  8
V0-OBRYS
  6
CONTINUOUS
 62
    90
100
AcDbLine
 10
5324.44305
 20
-152.470452
 30
0.0
 11
5307.212525
 21
-146.950641
 31
0.0
  0
LINE
  5
481C
330
4BD5
100
AcDbEntity
  8
V0-OBRYS
  6
CONTINUOUS
 62
    90
100
AcDbLine
 10
5325.222897
 20
-155.887187
 30
0.0
 11
5312.093687
 21
-168.33641
 31
0.0
  0
LINE
  5
481D
330
4BD5
100
AcDbEntity
  8
V0-OBRYS
  6
CONTINUOUS
 62
    90
100
AcDbLine
 10
5334.149169
 20
-124.236996
 30
0.0
 11
5283.218573
 21
-145.048472
 31
0.0
  0
LINE
  5
481E
330
4BD5
100
AcDbEntity
  8
V0-OBRYS
  6
CONTINUOUS
 62
    90
100
AcDbLine
 10
5306.936417
 20
-82.764571
 30
0.0
 11
5266.177751
 21
-116.465857
 31
0.0
  0
LINE
  5
481F
330
4BD5
100
AcDbEntity
  8
V0-OBRYS
  6
CONTINUOUS
 62
    90
100
AcDbLine
 10
5391.844724
 20
-91.36238899999999
 30
0.0
 11
5356.372216
 21
-123.522662
 31
0.0
  0
LINE
  5
4820
330
4BD5
100
AcDbEntity
  8
V0-OBRYS
  6
CONTINUOUS
 62
    90
100
AcDbLine
 10
5277.456094
 20
-32.133583
 30
0.0
 11
5246.00499
 21
-54.112236
 31
0.0
  0
LINE
  5
4821
330
4BD5
100
AcDbEntity
  8
V0-OBRYS
  6
CONTINUOUS
 62
    90
100
AcDbLine
 10
5233.734658
 20
91.257705
 30
0.0
 11
5236.805867
 21
42.777355
 31
0.0
  0
LINE
  5
4822
330
4BD5
100
AcDbEntity
  8
V0-OBRYS
  6
CONTINUOUS
 62
    90
100
AcDbLine
 10
5126.155365
 20
91.257705
 30
0.0
 11
5123.084156
 21
42.777355
 31
0.0
  0
LINE
  5
4823
330
4BD5
100
AcDbEntity
  8
V0-OBRYS
  6
CONTINUOUS
 62
    90
100
AcDbLine
 10
5122.794522
 20
38.205359
 30
0.0
 11
5119.767355
 21
-9.579767000000004
 31
0.0
  0
LINE
  5
4824
330
4BD5
100
AcDbEntity
  8
V0-OBRYS
  6
CONTINUOUS
 62
    90
100
AcDbLine
 10
5117.042572
 20
-52.591646
 30
0.0
 11
5132.10119
 21
-62.621467
 31
0.0
  0
LINE
  5
4825
330
4BD5
100
AcDbEntity
  8
V0-OBRYS
  6
CONTINUOUS
 62
    90
100
AcDbLine
 10
5119.468412
 20
-14.298716
 30
0.0
 11
5117.042572
 21
-52.591646
 31
0.0
  0
LINE
  5
4826
330
4BD5
100
AcDbEntity
  8
V0-OBRYS
  6
CONTINUOUS
 62
    90
100
AcDbLine
 10
5237.095501
 20
38.205359
 30
0.0
 11
5240.122668
 21
-9.579767000000004
 31
0.0
  0
LINE
  5
4827
330
4BD5
100
AcDbEntity
  8
V0-OBRYS
  6
CONTINUOUS
 62
    90
100
AcDbLine
 10
5242.847452
 20
-52.591646
 30
0.0
 11
5227.788833
 21
-62.621467
 31
0.0
  0
LINE
  5
4828
330
4BD5
100
AcDbEntity
  8
V0-OBRYS
  6
CONTINUOUS
 62
    90
100
AcDbLine
 10
5240.421611
 20
-14.298716
 30
0.0
 11
5242.847452
 21
-52.591646
 31
0.0
  0
ARC
  5
4829
330
4BD5
100
AcDbEntity
  8
V0-OBRYS
  6
CONTINUOUS
 62
    90
100
AcDbCircle
 10
5179.945012
 20
-187.248551
 30
0.0
 40
348.264716
100
AcDbArc
 50
81.81284700000001
 51
98.187153
  0
LINE
  5
482A
330
4BD5
100
AcDbEntity
  8
V0-OBRYS
  6
CONTINUOUS
 62
    90
100
AcDbLine
 10
5130.349677
 20
157.466716
 30
0.0
 11
5129.866554
 21
149.840406
 31
0.0
  0
LINE
  5
482B
330
4BD5
100
AcDbEntity
  8
V0-OBRYS
  6
CONTINUOUS
 62
    90
100
AcDbLine
 10
5129.58427
 20
145.384439
 30
0.0
 11
5126.440327
 21
95.75595
 31
0.0
  0
LINE
  5
482C
330
4BD5
100
AcDbEntity
  8
V0-OBRYS
  6
CONTINUOUS
 62
    90
100
AcDbLine
 10
5229.540346
 20
157.466716
 30
0.0
 11
5233.449696
 21
95.75595
 31
0.0
  0
LINE
  5
482D
330
4BD5
100
AcDbEntity
  8
V0-OBRYS
  6
CONTINUOUS
 62
    90
100
AcDbLine
 10
5364.152674
 20
28.451698
 30
0.0
 11
5324.334344
 21
0.6258620000000015
 31
0.0
  0
LINE
  5
482E
330
4BD5
100
AcDbEntity
  8
V0-OBRYS
  6
CONTINUOUS
 62
    90
100
AcDbLine
 10
5320.579229
 20
-1.998285
 30
0.0
 11
5281.331906
 21
-29.42509
 31
0.0
  0
LINE
  5
482F
330
4BD5
100
AcDbEntity
  8
V0-OBRYS
  6
CONTINUOUS
 62
    90
100
AcDbLine
 10
5504.981547
 20
-312.30679
 30
0.0
 11
5443.948086
 21
-302.386188
 31
0.0
  0
ARC
  5
4830
330
4BD5
100
AcDbEntity
  8
V0-OBRYS
  6
CONTINUOUS
 62
    90
100
AcDbCircle
 10
5179.945012
 20
-187.248551
 30
0.0
 40
348.264716
100
AcDbArc
 50
338.955704
 51
355.33001
  0
LINE
  5
4831
330
4BD5
100
AcDbEntity
  8
V0-OBRYS
  6
CONTINUOUS
 62
    90
100
AcDbLine
 10
5463.437857
 20
-196.780996
 30
0.0
 11
5416.856419
 21
-182.998896
 31
0.0
  0
LINE
  5
4832
330
4BD5
100
AcDbEntity
  8
V0-OBRYS
  6
CONTINUOUS
 62
    90
100
AcDbLine
 10
5527.053547
 20
-215.603039
 30
0.0
 11
5467.759911
 21
-198.059767
 31
0.0
  0
ARC
  5
4833
330
4BD5
100
AcDbEntity
  8
V0-OBRYS
  6
CONTINUOUS
 62
    90
100
AcDbCircle
 10
5179.945012
 20
-187.248551
 30
0.0
 40
348.264716
100
AcDbArc
 50
30.384275
 51
46.758582
  0
LINE
  5
4834
330
4BD5
100
AcDbEntity
  8
V0-OBRYS
  6
CONTINUOUS
 62
    90
100
AcDbLine
 10
5480.376445
 20
-11.097292
 30
0.0
 11
5434.566465
 21
-52.629778
 31
0.0
  0
CIRCLE
  5
4835
330
4BD5
100
AcDbEntity
  8
V0-OBRYS
  6
CONTINUOUS
 62
    90
100
AcDbCircle
 10
5179.945012
 20
197.598632
 30
0.0
 40
5.930864
  0
CIRCLE
  5
4894
330
4BD5
100
AcDbEntity
  8
V0-OBRYS
  6
CONTINUOUS
 62
    90
100
AcDbCircle
 10
4987.52142
 20
146.038886
 30
0.0
 40
5.930864
  0
CIRCLE
  5
4895
330
4BD5
100
AcDbEntity
  8
V0-OBRYS
  6
CONTINUOUS
 62
    90
100
AcDbCircle
 10
4846.657574
 20
5.17504
 30
0.0
 40
5.930864
  0
CIRCLE
  5
4896
330
4BD5
100
AcDbEntity
  8
V0-OBRYS
  6
CONTINUOUS
 62
    90
100
AcDbCircle
 10
4795.097829
 20
-187.248551
 30
0.0
 40
5.930864
  0
CIRCLE
  5
4897
330
4BD5
100
AcDbEntity
  8
V0-OBRYS
  6
CONTINUOUS
 62
    90
100
AcDbCircle
 10
4846.657574
 20
-379.672143
 30
0.0
 40
5.930864
  0
CIRCLE
  5
4898
330
4BD5
100
AcDbEntity
  8
V0-OBRYS
  6
CONTINUOUS
 62
    90
100
AcDbCircle
 10
4987.52142
 20
-520.535988
 30
0.0
 40
5.930864
  0
CIRCLE
  5
4899
330
4BD5
100
AcDbEntity
  8
V0-OBRYS
  6
CONTINUOUS
 62
    90
100
AcDbCircle
 10
5179.945012
 20
-572.095734
 30
0.0
 40
5.930864
  0
CIRCLE
  5
489A
330
4BD5
100
AcDbEntity
  8
V0-OBRYS
  6
CONTINUOUS
 62
    90
100
AcDbCircle
 10
5372.368603
 20
-520.535988
 30
0.0
 40
5.930864
  0
CIRCLE
  5
489B
330
4BD5
100
AcDbEntity
  8
V0-OBRYS
  6
CONTINUOUS
 62
    90
100
AcDbCircle
 10
5513.232449
 20
-379.672143
 30
0.0
 40
5.930864
  0
CIRCLE
  5
489C
330
4BD5
100
AcDbEntity
  8
V0-OBRYS
  6
CONTINUOUS
 62
    90
100
AcDbCircle
 10
5564.792195
 20
-187.248551
 30
0.0
 40
5.930864
  0
CIRCLE
  5
489D
330
4BD5
100
AcDbEntity
  8
V0-OBRYS
  6
CONTINUOUS
 62
    90
100
AcDbCircle
 10
5513.232449
 20
5.17504
 30
0.0
 40
5.930864
  0
CIRCLE
  5
489E
330
4BD5
100
AcDbEntity
  8
V0-OBRYS
  6
CONTINUOUS
 62
    90
100
AcDbCircle
 10
5372.368603
 20
146.038886
 30
0.0
 40
5.930864
  0
POINT
  5
48AF
330
4BD5
100
AcDbEntity
  8
V0-VYPLNE
  6
CONTINUOUS
 62
    41
100
AcDbPoint
 10
4039.512782
 20
-187.248551
 30
0.0
  0
POINT
  5
48B0
330
4BD5
100
AcDbEntity
  8
V0-VYPLNE
  6
CONTINUOUS
 62
    41
100
AcDbPoint
 10
4279.945182
 20
-187.248551
 30
0.0
  0
POINT
  5
48B2
330
4BD5
100
AcDbEntity
  8
V0-VYPLNE
  6
CONTINUOUS
 62
    41
100
AcDbPoint
 10
4279.945182
 20
-1187.248551
 30
0.0
  0
POINT
  5
48B3
330
4BD5
100
AcDbEntity
  8
V0-VYPLNE
  6
CONTINUOUS
 62
    41
100
AcDbPoint
 10
4039.512782
 20
-1187.248551
 30
0.0
  0
LWPOLYLINE
  5
4BAB
330
4BD5
100
AcDbEntity
  8
V0-VYPLNE
  6
CONTINUOUS
 62
    41
100
AcDbPolyline
 90
        4
 70
     1
 43
0.0
 10
4964.392096423885
 20
-563.6901511554795
 10
4983.989637
 20
-516.942094
 10
4980.612954991939
 20
-567.5191882528421
 10
4980.612954991939
 20
-567.5191882528421
1001
VDEXTRAPARAM
1071
       65
1071
        0
1071
        0
1040
1.0
1000

1000

1040
0.0
1040
0.0
  0
HATCH
  5
4C49
330
4BD5
100
AcDbEntity
  8
V0-VYPLNE
  6
CONTINUOUS
 62
    41
100
AcDbHatch
 10
0.0
 20
0.0
 30
0.0
210
0.0
220
0.0
230
1.0
  2
SOLID
 70
     1
 71
     0
 91
        1
 92
        2
 72
     0
 73
     1
 93
        3
 10
4964.392096423885
 20
-563.6901511554795
 10
4983.989637
 20
-516.942094
 10
4980.612954991939
 20
-567.5191882528421
 97
        0
 75
     0
 76
     1
 98
        1
 10
0.0
 20
0.0
1001
VDEXTRAPARAM
1071
       65
1071
        0
1071
        0
1040
1.0
1000

1000

1040
0.0
1040
0.0
1001
VD_TEMPHATCH
1000
VD_TEMPHATCH
  0
LWPOLYLINE
  5
4BAC
330
4BD5
100
AcDbEntity
  8
V0-VYPLNE
  6
CONTINUOUS
 62
    41
100
AcDbPolyline
 90
        3
 70
     0
 43
0.0
 10
4972.502525707911
 20
-565.6046697041609
 10
4944.918268
 20
-682.459203
 10
4454.915315
 20
-682.459203
  0
TEXT
  5
4BB1
330
4BD5
100
AcDbEntity
  8
V0-VYPLNE
  6
CONTINUOUS
 62
    41
100
AcDbText
 10
4269.108744190476
 20
-680.454282
 30
0.0
 40
50.0
  1
12 OTVORU %%c12
  7
ED50
100
AcDbText
  0
VIEWPORT
  5
4C4A
330
4BD1
100
AcDbEntity
 67
     1
  8
0
 60
     1
100
AcDbViewport
 10
261.517699
 20
148.5
 30
0.0
 40
297.0
 41
297.0
 68
     0
 69
     1
1001
VD_INVISIBLE_NOT_FOR_READ
1000
VD_INVISIBLE_NOT_FOR_READ
1001
ACAD
1000
MVIEW
1002
{
1070
    16
1010
0.0
1020
0.0
1030
0.0
1010
0.0
1020
0.0
1030
1.0
1040
6.2831853071796
1040
297.0
1040
261.517699
1040
148.5
1040
0.0
1040
0.0
1040
0.0
1070
     0
1070
   100
1070
     0
1070
     1
1070
     0
1070
     0
1070
     0
1070
     0
1040
0.0
1040
0.0
1040
0.0
1040
1.0
1040
1.0
1040
0.0
1040
0.0
1070
     0
1002
{
1002
}
1002
}
  0
VIEWPORT
  5
4C4B
330
4BD1
100
AcDbEntity
 67
     1
  8
0
 60
     1
100
AcDbViewport
 10
261.517699
 20
148.5
 30
0.0
 40
297.0
 41
297.0
 68
     0
 69
     2
1001
VD_INVISIBLE_NOT_FOR_READ
1000
VD_INVISIBLE_NOT_FOR_READ
1001
ACAD
1000
MVIEW
1002
{
1070
    16
1010
0.0
1020
0.0
1030
0.0
1010
0.0
1020
0.0
1030
1.0
1040
6.2831853071796
1040
297.0
1040
261.517699
1040
148.5
1040
0.0
1040
0.0
1040
0.0
1070
     0
1070
   100
1070
     0
1070
     1
1070
     0
1070
     0
1070
     0
1070
     0
1040
0.0
1040
0.0
1040
0.0
1040
1.0
1040
1.0
1040
0.0
1040
0.0
1070
     0
1002
{
1002
}
1002
}
  0
ENDSEC
  0
SECTION
  2
OBJECTS
  0
DICTIONARY
  5
4BC2
330
0
100
AcDbDictionary
  3
ACAD_GROUP
350
4BC3
  3
ACAD_LAYOUT
350
4BD0
  3
ACAD_MLINESTYLE
350
4BCD
  3
ACAD_PLOTSETTINGS
350
4BCF
  3
ACDBHEADERROUNDTRIPXREC
350
4C4C
  3
VECTORDRAW_OBJECTS
350
4BE5
  0
DICTIONARY
  5
4C6C
330
4BDF
100
AcDbDictionary
280
     1
  3
ACAD_XREC_ROUNDTRIP
360
4C6D
  0
DICTIONARY
  5
4BC3
102
{ACAD_REACTORS
330
4BC2
102
}
330
4BC2
100
AcDbDictionary
  0
DICTIONARY
  5
4BD0
102
{ACAD_REACTORS
330
4BC2
102
}
330
4BC2
100
AcDbDictionary
  0
DICTIONARY
  5
4BCD
102
{ACAD_REACTORS
330
4BC2
102
}
330
4BC2
100
AcDbDictionary
  3
STANDARD
350
4BCE
  0
DICTIONARY
  5
4BCF
102
{ACAD_REACTORS
330
4BC2
102
}
330
4BC2
100
AcDbDictionary
  0
DICTIONARY
  5
4C4C
102
{ACAD_REACTORS
330
4BC2
102
}
330
4BC2
100
AcDbDictionary
  3
CEPSNTYPE
350
4C55
  3
DIMSTYLEDATA
350
4C6B
  3
FINGERPRINTGUID
350
4C56
  3
HYPERLINKBASE
350
4C4F
  3
INSUNITS
350
4C54
  3
LAYOUTDICT
350
4C51
  3
LWETCUNION
350
4C53
  3
PLOTSETDICT
350
4C52
  3
PSVPSCALE
350
4C58
  3
PUCSBASE
350
4C5B
  3
PUCSORGBACK
350
4C61
  3
PUCSORGBOTTOM
350
4C5D
  3
PUCSORGFRONT
350
4C60
  3
PUCSORGLEFT
350
4C5E
  3
PUCSORGRIGHT
350
4C5F
  3
PUCSORGTOP
350
4C5C
  3
PUCSORTHOREF
350
4C59
  3
PUCSORTHOVIEW
350
4C5A
  3
STYLESHEET
350
4C50
  3
TSTACKALIGN
350
4C4D
  3
TSTACKSIZE
350
4C4E
  3
UCSBASE
350
4C64
  3
UCSORGBACK
350
4C6A
  3
UCSORGBOTTOM
350
4C66
  3
UCSORGFRONT
350
4C69
  3
UCSORGLEFT
350
4C67
  3
UCSORGRIGHT
350
4C68
  3
UCSORGTOP
350
4C65
  3
UCSORTHOREF
350
4C62
  3
UCSORTHOVIEW
350
4C63
  3
VERSIONGUID
350
4C57
  0
DICTIONARY
  5
4BE5
102
{ACAD_REACTORS
330
4BC2
102
}
330
4BC2
100
AcDbDictionary
  3
SERIALNO
350
4BE6
  0
XRECORD
  5
4C6D
102
{ACAD_REACTORS
330
4C6C
102
}
330
4C6C
100
AcDbXrecord
102
UCS
 74
     0
 71
     1
 10
0.0
 20
0.0
 30
0.0
 10
1.0
 20
0.0
 30
0.0
 10
0.0
 20
1.0
 30
0.0
146
0.0
 79
     0
102
VIEW
281
     0
  0
MLINESTYLE
  5
4BCE
102
{ACAD_REACTORS
330
4BCD
102
}
330
4BCD
100
AcDbMlineStyle
  2
Standard
 70
     0
  3

 62
   256
 51
90.0
 52
90.0
 71
     2
 49
0.5
 62
   256
  6
BYLAYER
 49
-0.5
 62
   256
  6
BYLAYER
  0
XRECORD
  5
4C55
102
{ACAD_REACTORS
330
4C4C
102
}
330
4C4C
100
AcDbXrecord
 90
        0
  0
XRECORD
  5
4C6B
102
{ACAD_REACTORS
330
4C4C
102
}
330
4C4C
100
AcDbXrecord
1000
DSTYLE
1002
{
1070
    41
 40
30.0
1070
   342
340
90
1070
   177
 70
    41
1070
   178
 70
    41
1070
   271
 70
     0
1070
    44
 40
1.25
1070
    42
 40
1.0
1070
   147
 40
2.0
1070
    77
 70
     1
1070
    73
 70
     0
1070
   174
 70
     1
1070
   172
 70
     1
1070
    74
 70
     0
1070
   340
340
F38
1070
   140
 40
30.0
1070
   288
 70
     1
1002
}
  0
XRECORD
  5
4C56
102
{ACAD_REACTORS
330
4C4C
102
}
330
4C4C
100
AcDbXrecord
  1
{FAEB1C30-E019-11D5-929B-00C0DF256EC4}
  0
XRECORD
  5
4C4F
102
{ACAD_REACTORS
330
4C4C
102
}
330
4C4C
100
AcDbXrecord
  1

  0
XRECORD
  5
4C54
102
{ACAD_REACTORS
330
4C4C
102
}
330
4C4C
100
AcDbXrecord
 90
        1
  0
XRECORD
  5
4C51
102
{ACAD_REACTORS
330
4C4C
102
}
330
4C4C
100
AcDbXrecord
340
4BD0
  0
XRECORD
  5
4C53
102
{ACAD_REACTORS
330
4C4C
102
}
330
4C4C
100
AcDbXrecord
 90
     2560
  0
XRECORD
  5
4C52
102
{ACAD_REACTORS
330
4C4C
102
}
330
4C4C
100
AcDbXrecord
340
4BCF
  0
XRECORD
  5
4C58
102
{ACAD_REACTORS
330
4C4C
102
}
330
4C4C
100
AcDbXrecord
 40
0.0
  0
XRECORD
  5
4C5B
102
{ACAD_REACTORS
330
4C4C
102
}
330
4C4C
100
AcDbXrecord
340
0
  0
XRECORD
  5
4C61
102
{ACAD_REACTORS
330
4C4C
102
}
330
4C4C
100
AcDbXrecord
 10
0.0
 20
0.0
 30
0.0
  0
XRECORD
  5
4C5D
102
{ACAD_REACTORS
330
4C4C
102
}
330
4C4C
100
AcDbXrecord
 10
0.0
 20
0.0
 30
0.0
  0
XRECORD
  5
4C60
102
{ACAD_REACTORS
330
4C4C
102
}
330
4C4C
100
AcDbXrecord
 10
0.0
 20
0.0
 30
0.0
  0
XRECORD
  5
4C5E
102
{ACAD_REACTORS
330
4C4C
102
}
330
4C4C
100
AcDbXrecord
 10
0.0
 20
0.0
 30
0.0
  0
XRECORD
  5
4C5F
102
{ACAD_REACTORS
330
4C4C
102
}
330
4C4C
100
AcDbXrecord
 10
0.0
 20
0.0
 30
0.0
  0
XRECORD
  5
4C5C
102
{ACAD_REACTORS
330
4C4C
102
}
330
4C4C
100
AcDbXrecord
 10
0.0
 20
0.0
 30
0.0
  0
XRECORD
  5
4C59
102
{ACAD_REACTORS
330
4C4C
102
}
330
4C4C
100
AcDbXrecord
340
0
  0
XRECORD
  5
4C5A
102
{ACAD_REACTORS
330
4C4C
102
}
330
4C4C
100
AcDbXrecord
 70
     0
  0
XRECORD
  5
4C50
102
{ACAD_REACTORS
330
4C4C
102
}
330
4C4C
100
AcDbXrecord
  1

  0
XRECORD
  5
4C4D
102
{ACAD_REACTORS
330
4C4C
102
}
330
4C4C
100
AcDbXrecord
 90
        1
  0
XRECORD
  5
4C4E
102
{ACAD_REACTORS
330
4C4C
102
}
330
4C4C
100
AcDbXrecord
 90
       70
  0
XRECORD
  5
4C64
102
{ACAD_REACTORS
330
4C4C
102
}
330
4C4C
100
AcDbXrecord
340
0
  0
XRECORD
  5
4C6A
102
{ACAD_REACTORS
330
4C4C
102
}
330
4C4C
100
AcDbXrecord
 10
0.0
 20
0.0
 30
0.0
  0
XRECORD
  5
4C66
102
{ACAD_REACTORS
330
4C4C
102
}
330
4C4C
100
AcDbXrecord
 10
0.0
 20
0.0
 30
0.0
  0
XRECORD
  5
4C69
102
{ACAD_REACTORS
330
4C4C
102
}
330
4C4C
100
AcDbXrecord
 10
0.0
 20
0.0
 30
0.0
  0
XRECORD
  5
4C67
102
{ACAD_REACTORS
330
4C4C
102
}
330
4C4C
100
AcDbXrecord
 10
0.0
 20
0.0
 30
0.0
  0
XRECORD
  5
4C68
102
{ACAD_REACTORS
330
4C4C
102
}
330
4C4C
100
AcDbXrecord
 10
0.0
 20
0.0
 30
0.0
  0
XRECORD
  5
4C65
102
{ACAD_REACTORS
330
4C4C
102
}
330
4C4C
100
AcDbXrecord
 10
0.0
 20
0.0
 30
0.0
  0
XRECORD
  5
4C62
102
{ACAD_REACTORS
330
4C4C
102
}
330
4C4C
100
AcDbXrecord
340
0
  0
XRECORD
  5
4C63
102
{ACAD_REACTORS
330
4C4C
102
}
330
4C4C
100
AcDbXrecord
 70
     0
  0
XRECORD
  5
4C57
102
{ACAD_REACTORS
330
4C4C
102
}
330
4C4C
100
AcDbXrecord
  1
{FAEB1C32-E019-11D5-929B-00C0DF256EC4}
  0
XRECORD
  5
4BE6
102
{ACAD_REACTORS
330
4BE5
102
}
330
4BE5
100
AcDbXrecord
1000
rInJVR9YY4Q8hfPWdUq5j5319
1070
     4
1070
     6
  0
ENDSEC
  0
EOF
