  0
SECTION
  2
HEADER
  9
$ACADVER
  1
AC1014
  9
$ACADMAINTVER
 70
     9
  9
$DWGCODEPAGE
  3
ANSI_1250
  9
$INSBASE
 10
0.0
 20
0.0
 30
0.0
  9
$EXTMIN
 10
4030.731542230695
 20
-1196.204124
 30
0.0
  9
$EXTMAX
 10
5338.062267362638
 20
204.920519
 30
0.0
  9
$LIMMIN
 10
0.0
 20
0.0
  9
$LIMMAX
 10
0.0
 20
0.0
  9
$ORTHOMODE
 70
     1
  9
$REGENMODE
 70
     1
  9
$FILLMODE
 70
     1
  9
$QTEXTMODE
 70
     0
  9
$MIRRTEXT
 70
     1
  9
$DRAGMODE
 70
     2
  9
$LTSCALE
 40
1.0
  9
$OSMODE
 70
    37
  9
$ATTMODE
 70
     1
  9
$TEXTSIZE
 40
0.2
  9
$TRACEWID
 40
0.05
  9
$TEXTSTYLE
  7
ED30
  9
$CLAYER
  8
V0-VYPLNE
  9
$CELTYPE
  6
CONTINUOUS
  9
$CECOLOR
 62
    41
  9
$CELTSCALE
 40
1.0
  9
$DELOBJ
 70
     1
  9
$DISPSILH
 70
     0
  9
$DIMSCALE
 40
1.0
  9
$DIMASZ
 40
40.0
  9
$DIMEXO
 40
1.0
  9
$DIMDLI
 40
0.38
  9
$DIMRND
 40
0.0
  9
$DIMDLE
 40
0.0
  9
$DIMEXE
 40
1.25
  9
$DIMTP
 40
0.0
  9
$DIMTM
 40
0.0
  9
$DIMTXT
 40
40.0
  9
$DIMCEN
 40
0.09
  9
$DIMTSZ
 40
0.0
  9
$DIMTOL
 70
     0
  9
$DIMLIM
 70
     0
  9
$DIMTIH
 70
     0
  9
$DIMTOH
 70
     0
  9
$DIMSE1
 70
     0
  9
$DIMSE2
 70
     0
  9
$DIMTAD
 70
     1
  9
$DIMZIN
 70
     0
  9
$DIMBLK
  1
OPEN
  9
$DIMASO
 70
     1
  9
$DIMSHO
 70
     1
  9
$DIMPOST
  1

  9
$DIMAPOST
  1

  9
$DIMALT
 70
     0
  9
$DIMALTD
 70
     2
  9
$DIMALTF
 40
25.4
  9
$DIMLFAC
 40
1.0
  9
$DIMTOFL
 70
     1
  9
$DIMTVP
 40
0.0
  9
$DIMTIX
 70
     1
  9
$DIMSOXD
 70
     0
  9
$DIMSAH
 70
     0
  9
$DIMBLK1
  1

  9
$DIMBLK2
  1

  9
$DIMSTYLE
  2
ED30
  9
$DIMCLRD
 70
     0
  9
$DIMCLRE
 70
    41
  9
$DIMCLRT
 70
    41
  9
$DIMTFAC
 40
1.0
  9
$DIMGAP
 40
2.0
  9
$DIMJUST
 70
     0
  9
$DIMSD1
 70
     0
  9
$DIMSD2
 70
     0
  9
$DIMTOLJ
 70
     1
  9
$DIMTZIN
 70
     0
  9
$DIMALTZ
 70
     0
  9
$DIMALTTZ
 70
     0
  9
$DIMFIT
 70
     3
  9
$DIMUPT
 70
     1
  9
$DIMUNIT
 70
     2
  9
$DIMDEC
 70
     0
  9
$DIMTDEC
 70
     4
  9
$DIMALTU
 70
     2
  9
$DIMALTTD
 70
     2
  9
$DIMTXSTY
  7
ED40
  9
$DIMAUNIT
 70
     0
  9
$LUNITS
 70
     2
  9
$LUPREC
 70
     4
  9
$SKETCHINC
 40
0.1
  9
$FILLETRAD
 40
0.5
  9
$AUNITS
 70
     0
  9
$AUPREC
 70
     0
  9
$MENU
  1
.
  9
$ELEVATION
 40
0.0
  9
$PELEVATION
 40
0.0
  9
$THICKNESS
 40
0.0
  9
$LIMCHECK
 70
     0
  9
$BLIPMODE
 70
     0
  9
$CHAMFERA
 40
0.5
  9
$CHAMFERB
 40
0.5
  9
$CHAMFERC
 40
1.0
  9
$CHAMFERD
 40
0.0
  9
$SKPOLY
 70
     0
  9
$TDCREATE
 40
2455551.673455393
  9
$TDUPDATE
 40
2455551.673455405
  9
$TDINDWG
 40
0.0000000116
  9
$TDUSRTIMER
 40
0.0000000116
  9
$USRTIMER
 70
     1
  9
$ANGBASE
 50
0.0
  9
$ANGDIR
 70
     0
  9
$PDMODE
 70
    35
  9
$PDSIZE
 40
20.0
  9
$PLINEWID
 40
0.0
  9
$COORDS
 70
     1
  9
$SPLFRAME
 70
     0
  9
$SPLINETYPE
 70
     6
  9
$SPLINESEGS
 70
     8
  9
$ATTDIA
 70
     0
  9
$ATTREQ
 70
     1
  9
$HANDLING
 70
     1
  9
$HANDSEED
  5
4305
  9
$SURFTAB1
 70
     6
  9
$SURFTAB2
 70
     6
  9
$SURFTYPE
 70
     6
  9
$SURFU
 70
     6
  9
$SURFV
 70
     6
  9
$UCSNAME
  2

  9
$UCSORG
 10
0.0
 20
0.0
 30
0.0
  9
$UCSXDIR
 10
1.0
 20
0.0
 30
0.0
  9
$UCSYDIR
 10
0.0
 20
1.0
 30
0.0
  9
$PUCSNAME
  2

  9
$PUCSORG
 10
0.0
 20
0.0
 30
0.0
  9
$PUCSXDIR
 10
1.0
 20
0.0
 30
0.0
  9
$PUCSYDIR
 10
0.0
 20
1.0
 30
0.0
  9
$USERI1
 70
     0
  9
$USERI2
 70
     0
  9
$USERI3
 70
     0
  9
$USERI4
 70
     0
  9
$USERI5
 70
     0
  9
$USERR1
 40
0.0
  9
$USERR2
 40
0.0
  9
$USERR3
 40
0.0
  9
$USERR4
 40
0.0
  9
$USERR5
 40
0.0
  9
$WORLDVIEW
 70
     1
  9
$SHADEDGE
 70
     3
  9
$SHADEDIF
 70
    70
  9
$TILEMODE
 70
     1
  9
$MAXACTVP
 70
    64
  9
$PINSBASE
 10
0.0
 20
0.0
 30
0.0
  9
$PLIMCHECK
 70
     0
  9
$PEXTMIN
 10
1.000000000000000E+20
 20
1.000000000000000E+20
 30
1.000000000000000E+20
  9
$PEXTMAX
 10
-1.000000000000000E+20
 20
-1.000000000000000E+20
 30
-1.000000000000000E+20
  9
$PLIMMIN
 10
0.0
 20
0.0
  9
$PLIMMAX
 10
0.0
 20
0.0
  9
$UNITMODE
 70
     0
  9
$VISRETAIN
 70
     1
  9
$PLINEGEN
 70
     0
  9
$PSLTSCALE
 70
     1
  9
$TREEDEPTH
 70
  3020
  9
$PICKSTYLE
 70
     1
  9
$CMLSTYLE
  2
STANDARD
  9
$CMLJUST
 70
     0
  9
$CMLSCALE
 40
1.0
  9
$PROXYGRAPHICS
 70
     1
  9
$MEASUREMENT
 70
     0
  0
ENDSEC
  0
SECTION
  2
CLASSES
  0
CLASS
  1
ACDBDICTIONARYWDFLT
  2
AcDbDictionaryWithDefault
  3
ObjectDBX Classes
 90
        0
280
     0
281
     0
  0
CLASS
  1
XRECORD
  2
AcDbXrecord
  3
AutoCAD 2000
 90
        0
280
     0
281
     0
  0
CLASS
  1
LWPOLYLINE
  2
AcDbPolyline
  3
AutoCAD 2000
 90
        0
280
     0
281
     1
  0
CLASS
  1
HATCH
  2
AcDbHatch
  3
AutoCAD 2000
 90
        0
280
     0
281
     1
  0
CLASS
  1
ACDBPLACEHOLDER
  2
AcDbPlaceHolder
  3
ObjectDBX Classes
 90
        0
280
     0
281
     0
  0
CLASS
  1
LAYOUT
  2
AcDbLayout
  3
ObjectDBX Classes
 90
        0
280
     0
281
     0
  0
ENDSEC
  0
SECTION
  2
TABLES
  0
TABLE
  2
VPORT
  5
4258
330
0
100
AcDbSymbolTable
 70
     2
  0
VPORT
  5
4279
102
{ACAD_XDICTIONARY
360
4303
102
}
330
4258
100
AcDbSymbolTableRecord
100
AcDbViewportTableRecord
  2
*ACTIVE
 70
     0
 10
0.0
 20
0.0
 11
1.0
 21
1.0
 12
4663.230413
 22
-492.436067
 13
0.0
 23
0.0
 14
10.0
 24
10.0
 15
10.0
 25
10.0
 16
0.0
 26
0.0
 36
1.0
 17
0.0
 27
0.0
 37
0.0
 40
1561.084923
 41
0.0113746257452343
 42
50.0
 43
0.0
 44
0.0
 50
0.0
 51
0.0000000000007958
 71
     0
 72
   100
 73
     1
 74
     3
 75
     0
 76
     0
 77
     0
 78
     0
  0
ENDTAB
  0
TABLE
  2
LTYPE
  5
4255
330
0
100
AcDbSymbolTable
 70
    25
  0
LTYPE
  5
4264
330
4255
100
AcDbSymbolTableRecord
100
AcDbLinetypeTableRecord
  2
BYBLOCK
 70
     0
  3

 72
    65
 73
     0
 40
0.0
  0
LTYPE
  5
4265
330
4255
100
AcDbSymbolTableRecord
100
AcDbLinetypeTableRecord
  2
BYLAYER
 70
     0
  3

 72
    65
 73
     0
 40
0.0
  0
LTYPE
  5
4266
330
4255
100
AcDbSymbolTableRecord
100
AcDbLinetypeTableRecord
  2
CONTINUOUS
 70
     0
  3
Solid line
 72
    65
 73
     0
 40
0.0
  0
LTYPE
  5
4281
330
4255
100
AcDbSymbolTableRecord
100
AcDbLinetypeTableRecord
  2
CENTER
 70
     0
  3
Center ____ _ ____ _ ____ _ ____ _ ____ _ ____
 72
    65
 73
     4
 40
2.0
 49
1.25
 74
     0
 49
-0.25
 74
     0
 49
0.25
 74
     0
 49
-0.25
 74
     0
  0
LTYPE
  5
4282
330
4255
100
AcDbSymbolTableRecord
100
AcDbLinetypeTableRecord
  2
DASHDOT
 70
     0
  3
Dashdot __ . __ . __ . __ . __ . __ . __ . __
 72
    65
 73
     4
 40
1.0
 49
0.5
 74
     0
 49
-0.25
 74
     0
 49
0.0
 74
     0
 49
-0.25
 74
     0
  0
LTYPE
  5
4283
330
4255
100
AcDbSymbolTableRecord
100
AcDbLinetypeTableRecord
  2
DASHED
 70
     0
  3
Dashed __ __ __ __ __ __ __ __ __ __ __ __ __ _
 72
    65
 73
     2
 40
0.75
 49
0.5
 74
     0
 49
-0.25
 74
     0
  0
LTYPE
  5
4284
330
4255
100
AcDbSymbolTableRecord
100
AcDbLinetypeTableRecord
  2
HIDDEN
 70
     0
  3
Hidden __ __ __ __ __ __ __ __ __ __ __ __ __ __
 72
    65
 73
     2
 40
0.375
 49
0.25
 74
     0
 49
-0.125
 74
     0
  0
LTYPE
  5
4285
330
4255
100
AcDbSymbolTableRecord
100
AcDbLinetypeTableRecord
  2
HIDDEN2
 70
     0
  3
Hidden2 _ _ _ _ _ _ _ _ _ _ _ _ _ _ _ _ _ 
 72
    65
 73
     2
 40
0.1875
 49
0.125
 74
     0
 49
-0.0625
 74
     0
  0
LTYPE
  5
4286
330
4255
100
AcDbSymbolTableRecord
100
AcDbLinetypeTableRecord
  2
BORDER
 70
     0
  3
Border __ __ . __ __ . __ __ . __ __ . __ __ .
 72
    65
 73
     6
 40
1.75
 49
0.5
 74
     0
 49
-0.25
 74
     0
 49
0.5
 74
     0
 49
-0.25
 74
     0
 49
0.0
 74
     0
 49
-0.25
 74
     0
  0
LTYPE
  5
4287
330
4255
100
AcDbSymbolTableRecord
100
AcDbLinetypeTableRecord
  2
BORDER2
 70
     0
  3
Border2 __.__.__.__.__.__.__.__.__.__.__.
 72
    65
 73
     6
 40
0.875
 49
0.25
 74
     0
 49
-0.125
 74
     0
 49
0.25
 74
     0
 49
-0.125
 74
     0
 49
0.0
 74
     0
 49
-0.125
 74
     0
  0
LTYPE
  5
4288
330
4255
100
AcDbSymbolTableRecord
100
AcDbLinetypeTableRecord
  2
BORDERX2
 70
     0
  3
Borderx2  ____  ____  .  ____  ____  .  ___
 72
    65
 73
     6
 40
3.5
 49
1.0
 74
     0
 49
-0.5
 74
     0
 49
1.0
 74
     0
 49
-0.5
 74
     0
 49
0.0
 74
     0
 49
-0.5
 74
     0
  0
LTYPE
  5
4289
330
4255
100
AcDbSymbolTableRecord
100
AcDbLinetypeTableRecord
  2
CENTER2
 70
     0
  3
Center2  ___ _ ___ _ ___ _ ___ _ ___ _ ___
 72
    65
 73
     4
 40
1.125
 49
0.75
 74
     0
 49
-0.125
 74
     0
 49
0.125
 74
     0
 49
-0.125
 74
     0
  0
LTYPE
  5
428A
330
4255
100
AcDbSymbolTableRecord
100
AcDbLinetypeTableRecord
  2
CENTERX2
 70
     0
  3
Centerx2  ________  __  ________  __  _____
 72
    65
 73
     4
 40
4.0
 49
2.5
 74
     0
 49
-0.5
 74
     0
 49
0.5
 74
     0
 49
-0.5
 74
     0
  0
LTYPE
  5
428B
330
4255
100
AcDbSymbolTableRecord
100
AcDbLinetypeTableRecord
  2
DASHDOT2
 70
     0
  3
Dashdot2  _._._._._._._._._._._._._._._.
 72
    65
 73
     4
 40
0.5
 49
0.25
 74
     0
 49
-0.125
 74
     0
 49
0.0
 74
     0
 49
-0.125
 74
     0
  0
LTYPE
  5
428C
330
4255
100
AcDbSymbolTableRecord
100
AcDbLinetypeTableRecord
  2
DASHDOTX2
 70
     0
  3
Dashdotx2 ____  .  ____  .  ____  .  ___
 72
    65
 73
     4
 40
2.0
 49
1.0
 74
     0
 49
-0.5
 74
     0
 49
0.0
 74
     0
 49
-0.5
 74
     0
  0
LTYPE
  5
428D
330
4255
100
AcDbSymbolTableRecord
100
AcDbLinetypeTableRecord
  2
DASHED2
 70
     0
  3
Dashed2 _ _ _ _ _ _ _ _ _ _ _ _ _ _ _ _ _ 
 72
    65
 73
     2
 40
0.375
 49
0.25
 74
     0
 49
-0.125
 74
     0
  0
LTYPE
  5
428E
330
4255
100
AcDbSymbolTableRecord
100
AcDbLinetypeTableRecord
  2
DASHEDX2
 70
     0
  3
Dashedx2 ____  ____  ____  ____  ____  ___
 72
    65
 73
     2
 40
1.5
 49
1.0
 74
     0
 49
-0.5
 74
     0
  0
LTYPE
  5
428F
330
4255
100
AcDbSymbolTableRecord
100
AcDbLinetypeTableRecord
  2
DIVIDE
 70
     0
  3
Divide ____ . . ____ . . ____ . . ____ . . ____
 72
    65
 73
     6
 40
1.25
 49
0.5
 74
     0
 49
-0.25
 74
     0
 49
0.0
 74
     0
 49
-0.25
 74
     0
 49
0.0
 74
     0
 49
-0.25
 74
     0
  0
LTYPE
  5
4290
330
4255
100
AcDbSymbolTableRecord
100
AcDbLinetypeTableRecord
  2
DIVIDE2
 70
     0
  3
Divide2 __..__..__..__..__..__..__..__.._
 72
    65
 73
     6
 40
0.625
 49
0.25
 74
     0
 49
-0.125
 74
     0
 49
0.0
 74
     0
 49
-0.125
 74
     0
 49
0.0
 74
     0
 49
-0.125
 74
     0
  0
LTYPE
  5
4291
330
4255
100
AcDbSymbolTableRecord
100
AcDbLinetypeTableRecord
  2
DIVIDEX2
 70
     0
  3
Dividex2 ________  .  .  ________  .  .  _
 72
    65
 73
     6
 40
2.5
 49
1.0
 74
     0
 49
-0.5
 74
     0
 49
0.0
 74
     0
 49
-0.5
 74
     0
 49
0.0
 74
     0
 49
-0.5
 74
     0
  0
LTYPE
  5
4292
330
4255
100
AcDbSymbolTableRecord
100
AcDbLinetypeTableRecord
  2
DOT
 70
     0
  3
Dot . . . . . . . . . . . . . . . . . . . . . . . .
 72
    65
 73
     2
 40
0.25
 49
0.0
 74
     0
 49
-0.25
 74
     0
  0
LTYPE
  5
4293
330
4255
100
AcDbSymbolTableRecord
100
AcDbLinetypeTableRecord
  2
DOT2
 70
     0
  3
Dot2 ........................................
 72
    65
 73
     2
 40
0.125
 49
0.0
 74
     0
 49
-0.125
 74
     0
  0
LTYPE
  5
4294
330
4255
100
AcDbSymbolTableRecord
100
AcDbLinetypeTableRecord
  2
DOTX2
 70
     0
  3
Dotx2 .  .  .  .  .  .  .  .  .  .  .  .  .  .
 72
    65
 73
     2
 40
0.5
 49
0.0
 74
     0
 49
-0.5
 74
     0
  0
LTYPE
  5
4295
330
4255
100
AcDbSymbolTableRecord
100
AcDbLinetypeTableRecord
  2
HIDDENX2
 70
     0
  3
Hiddenx2 ____ ____ ____ ____ ____ ____ ____ 
 72
    65
 73
     2
 40
0.75
 49
0.5
 74
     0
 49
-0.25
 74
     0
  0
LTYPE
  5
4296
330
4255
100
AcDbSymbolTableRecord
100
AcDbLinetypeTableRecord
  2
PHANTOM
 70
     0
  3
Phantom ______  __  __  ______  __  __  ______ 
 72
    65
 73
     6
 40
2.5
 49
1.25
 74
     0
 49
-0.25
 74
     0
 49
0.25
 74
     0
 49
-0.25
 74
     0
 49
0.25
 74
     0
 49
-0.25
 74
     0
  0
LTYPE
  5
4297
330
4255
100
AcDbSymbolTableRecord
100
AcDbLinetypeTableRecord
  2
PHANTOM2
 70
     0
  3
Phantom2 ___ _ _ ___ _ _ ___ _ _ ___ _ _
 72
    65
 73
     6
 40
1.25
 49
0.625
 74
     0
 49
-0.125
 74
     0
 49
0.125
 74
     0
 49
-0.125
 74
     0
 49
0.125
 74
     0
 49
-0.125
 74
     0
  0
LTYPE
  5
4298
330
4255
100
AcDbSymbolTableRecord
100
AcDbLinetypeTableRecord
  2
PHANTOMX2
 70
     0
  3
Phantomx2 ____________    ____    ____   _
 72
    65
 73
     6
 40
5.0
 49
2.5
 74
     0
 49
-0.5
 74
     0
 49
0.5
 74
     0
 49
-0.5
 74
     0
 49
0.5
 74
     0
 49
-0.5
 74
     0
  0
ENDTAB
  0
TABLE
  2
LAYER
  5
4252
330
0
100
AcDbSymbolTable
 70
     5
  0
LAYER
  5
4260
330
4252
100
AcDbSymbolTableRecord
100
AcDbLayerTableRecord
  2
0
 70
     0
 62
     7
  6
CONTINUOUS
  0
LAYER
  5
9E
330
4252
100
AcDbSymbolTableRecord
100
AcDbLayerTableRecord
  2
DEFPOINTS
 70
     0
 62
     7
  6
CONTINUOUS
  0
LAYER
  5
377
330
4252
100
AcDbSymbolTableRecord
100
AcDbLayerTableRecord
  2
V0-OBRYS
 70
     0
 62
    90
  6
CONTINUOUS
  0
LAYER
  5
378
330
4252
100
AcDbSymbolTableRecord
100
AcDbLayerTableRecord
  2
V0-VYPLNE
 70
     0
 62
    63
  6
DASHDOT
  0
LAYER
  5
1540
330
4252
100
AcDbSymbolTableRecord
100
AcDbLayerTableRecord
  2
VO-OBRYS
 70
     0
 62
    90
  6
CONTINUOUS
  0
ENDTAB
  0
TABLE
  2
STYLE
  5
4253
330
0
100
AcDbSymbolTable
 70
     6
  0
STYLE
  5
4261
330
4253
100
AcDbSymbolTableRecord
100
AcDbTextStyleTableRecord
  2
STANDARD
 70
     0
 40
0.0
 41
1.0
 50
0.0
 71
     0
 42
0.2
  3
ISOCP.shx
  4

1001
ACAD
1000
ISOCP.shx
1071
        0
  0
STYLE
  5
331
330
4253
100
AcDbSymbolTableRecord
100
AcDbTextStyleTableRecord
  2
ED20
 70
     0
 40
20.0
 41
1.0
 50
0.0
 71
     0
 42
0.2
  3
ISOCP.shx
  4

1001
ACAD
1000
ISOCP.shx
1071
        0
  0
STYLE
  5
648
330
4253
100
AcDbSymbolTableRecord
100
AcDbTextStyleTableRecord
  2
ED10
 70
     0
 40
10.0
 41
1.0
 50
0.0
 71
     0
 42
0.2
  3
ISOCP.shx
  4

1001
ACAD
1000
ISOCP.shx
1071
        0
  0
STYLE
  5
F38
330
4253
100
AcDbSymbolTableRecord
100
AcDbTextStyleTableRecord
  2
ED30
 70
     0
 40
30.0
 41
1.0
 50
0.0
 71
     0
 42
0.2
  3
ISOCP.shx
  4

1001
ACAD
1000
ISOCP.shx
1071
        0
  0
STYLE
  5
F39
330
4253
100
AcDbSymbolTableRecord
100
AcDbTextStyleTableRecord
  2
ED40
 70
     0
 40
40.0
 41
1.0
 50
0.0
 71
     0
 42
0.2
  3
ISOCP.shx
  4

1001
ACAD
1000
ISOCP.shx
1071
        0
  0
STYLE
  5
1B9D
330
4253
100
AcDbSymbolTableRecord
100
AcDbTextStyleTableRecord
  2
VD_RECOV_1_1B9D_
 70
     0
 40
0.0
 41
1.0
 50
0.0
 71
     0
 42
0.2
  3
ltypeshp.shx
  4

1001
ACAD
1000
ltypeshp.shx
1071
        0
  0
ENDTAB
  0
TABLE
  2
VIEW
  5
4256
330
0
100
AcDbSymbolTable
 70
     0
  0
ENDTAB
  0
TABLE
  2
UCS
  5
4257
330
0
100
AcDbSymbolTable
 70
     0
  0
ENDTAB
  0
TABLE
  2
APPID
  5
4259
330
0
100
AcDbSymbolTable
 70
     6
  0
APPID
  5
4262
330
4259
100
AcDbSymbolTableRecord
100
AcDbRegAppTableRecord
  2
ACAD
 70
     0
  0
APPID
  5
427A
330
4259
100
AcDbSymbolTableRecord
100
AcDbRegAppTableRecord
  2
VD_INVISIBLE_NOT_FOR_READ
 70
     0
  0
APPID
  5
427B
330
4259
100
AcDbSymbolTableRecord
100
AcDbRegAppTableRecord
  2
VD_TEMPHATCH
 70
     0
  0
APPID
  5
427C
330
4259
100
AcDbSymbolTableRecord
100
AcDbRegAppTableRecord
  2
VDEXTRAPARAM
 70
     0
  0
APPID
  5
427D
330
4259
100
AcDbSymbolTableRecord
100
AcDbRegAppTableRecord
  2
PE_URL
 70
     0
  0
APPID
  5
427E
330
4259
100
AcDbSymbolTableRecord
100
AcDbRegAppTableRecord
  2
VD_UNKNOWN
 70
     0
  0
ENDTAB
  0
TABLE
  2
DIMSTYLE
  5
425A
330
0
100
AcDbSymbolTable
 70
     4
  0
DIMSTYLE
105
4277
330
425A
100
AcDbSymbolTableRecord
100
AcDbDimStyleTableRecord
  2
STANDARD
 70
     0
  3

  4

  5
OPEN
  6

  7

 40
1.0
 41
15.0
 42
0.625
 43
0.38
 44
1.25
 45
0.0
 46
0.0
 47
0.0
 48
0.0
140
15.0
141
0.09
142
0.0
143
25.4
144
1.0
145
0.0
146
1.0
147
3.0
 71
     0
 72
     0
 73
     0
 74
     0
 75
     0
 76
     0
 77
     1
 78
     0
170
     0
171
     2
172
     1
173
     0
174
     1
175
     0
176
     0
177
     0
178
     0
270
     2
271
     0
272
     4
273
     2
274
     2
340
331
275
     0
280
     0
281
     0
282
     0
283
     1
284
     0
285
     0
286
     0
287
     3
288
     1
  0
DIMSTYLE
105
FE9
330
425A
100
AcDbSymbolTableRecord
100
AcDbDimStyleTableRecord
  2
ED20
 70
     0
  3

  4

  5
OPEN
  6

  7

 40
1.0
 41
20.0
 42
1.0
 43
0.38
 44
1.25
 45
0.0
 46
0.0
 47
0.0
 48
0.0
140
20.0
141
0.09
142
0.0
143
25.4
144
1.0
145
0.0
146
1.0
147
2.0
 71
     0
 72
     0
 73
     0
 74
     0
 75
     0
 76
     0
 77
     1
 78
     0
170
     0
171
     2
172
     1
173
     0
174
     1
175
     0
176
     0
177
    41
178
    41
270
     2
271
     0
272
     4
273
     2
274
     2
340
331
275
     0
280
     0
281
     0
282
     0
283
     1
284
     0
285
     0
286
     0
287
     3
288
     1
  0
DIMSTYLE
105
302B
330
425A
100
AcDbSymbolTableRecord
100
AcDbDimStyleTableRecord
  2
ED40
 70
     0
  3

  4

  5
OPEN
  6

  7

 40
1.0
 41
40.0
 42
1.0
 43
0.38
 44
1.25
 45
0.0
 46
0.0
 47
0.0
 48
0.0
140
40.0
141
0.09
142
0.0
143
25.4
144
1.0
145
0.0
146
1.0
147
2.0
 71
     0
 72
     0
 73
     0
 74
     0
 75
     0
 76
     0
 77
     1
 78
     0
170
     0
171
     2
172
     1
173
     0
174
     1
175
     0
176
     0
177
    41
178
    41
270
     2
271
     0
272
     4
273
     2
274
     2
340
F39
275
     0
280
     0
281
     0
282
     0
283
     1
284
     0
285
     0
286
     0
287
     3
288
     1
  0
DIMSTYLE
105
3042
102
{ACAD_REACTORS
330
3B60
330
3B97
330
3BA4
330
3BDD
330
3C25
102
}
330
425A
100
AcDbSymbolTableRecord
100
AcDbDimStyleTableRecord
  2
ED30
 70
     0
  3

  4

  5
OPEN
  6

  7

 40
1.0
 41
40.0
 42
1.0
 43
0.38
 44
1.25
 45
0.0
 46
0.0
 47
0.0
 48
0.0
140
40.0
141
0.09
142
0.0
143
25.4
144
1.0
145
0.0
146
1.0
147
2.0
 71
     0
 72
     0
 73
     0
 74
     0
 75
     0
 76
     0
 77
     1
 78
     0
170
     0
171
     2
172
     1
173
     0
174
     1
175
     0
176
     0
177
    41
178
    41
270
     2
271
     0
272
     4
273
     2
274
     2
340
F39
275
     0
280
     0
281
     0
282
     0
283
     1
284
     0
285
     0
286
     0
287
     3
288
     1
  0
ENDTAB
  0
TABLE
  2
BLOCK_RECORD
  5
4251
330
0
100
AcDbSymbolTable
 70
    11
  0
BLOCK_RECORD
  5
426F
330
4251
100
AcDbSymbolTableRecord
100
AcDbBlockTableRecord
  2
*MODEL_SPACE
  0
BLOCK_RECORD
  5
426B
330
4251
100
AcDbSymbolTableRecord
100
AcDbBlockTableRecord
  2
*PAPER_SPACE
  0
BLOCK_RECORD
  5
90
330
4251
100
AcDbSymbolTableRecord
100
AcDbBlockTableRecord
  2
_OPEN
  0
BLOCK_RECORD
  5
421A
330
4251
100
AcDbSymbolTableRecord
100
AcDbBlockTableRecord
  2
ASVORK
  0
BLOCK_RECORD
  5
4228
330
4251
100
AcDbSymbolTableRecord
100
AcDbBlockTableRecord
  2
ASVORKP
  0
BLOCK_RECORD
  5
424D
330
4251
100
AcDbSymbolTableRecord
100
AcDbBlockTableRecord
  2
VDDIM_DEFAULT
  0
BLOCK_RECORD
  5
424F
330
4251
100
AcDbSymbolTableRecord
100
AcDbBlockTableRecord
  2
VDDIM_NONE
  0
BLOCK_RECORD
  5
42A4
330
4251
100
AcDbSymbolTableRecord
100
AcDbBlockTableRecord
  2
*D6
  0
BLOCK_RECORD
  5
42B0
330
4251
100
AcDbSymbolTableRecord
100
AcDbBlockTableRecord
  2
*D7
  0
BLOCK_RECORD
  5
42BC
330
4251
100
AcDbSymbolTableRecord
100
AcDbBlockTableRecord
  2
*D8
  0
BLOCK_RECORD
  5
42C8
330
4251
100
AcDbSymbolTableRecord
100
AcDbBlockTableRecord
  2
*D9
  0
BLOCK_RECORD
  5
42D4
330
4251
100
AcDbSymbolTableRecord
100
AcDbBlockTableRecord
  2
*D10
  0
ENDTAB
  0
ENDSEC
  0
SECTION
  2
BLOCKS
  0
BLOCK
  5
4270
330
426F
100
AcDbEntity
  8
0
100
AcDbBlockBegin
  2
*MODEL_SPACE
 70
     0
 71
     0
 10
0.0
 20
0.0
 30
0.0
  3
*MODEL_SPACE
  1

  0
ENDBLK
  5
4271
330
426F
100
AcDbEntity
  8
0
100
AcDbBlockEnd
  0
BLOCK
  5
426C
330
426B
100
AcDbEntity
 67
     1
  8
0
100
AcDbBlockBegin
  2
*PAPER_SPACE
 70
     0
 71
     0
 10
0.0
 20
0.0
 30
0.0
  3
*PAPER_SPACE
  1

  0
ENDBLK
  5
426D
330
426B
100
AcDbEntity
 67
     1
  8
0
100
AcDbBlockEnd
  0
BLOCK
  5
4299
330
90
100
AcDbEntity
  8
0
100
AcDbBlockBegin
  2
_OPEN
 70
     0
 71
     0
 10
0.0
 20
0.0
 30
0.0
  3
_OPEN
  1

  0
LINE
  5
92
330
90
100
AcDbEntity
  8
0
  6
BYBLOCK
 62
     0
100
AcDbLine
 10
-1.0
 20
0.166667
 30
0.0
 11
0.0
 21
0.0
 31
0.0
  0
LINE
  5
93
330
90
100
AcDbEntity
  8
0
  6
BYBLOCK
 62
     0
100
AcDbLine
 10
0.0
 20
0.0
 30
0.0
 11
-1.0
 21
-0.166667
 31
0.0
  0
LINE
  5
94
330
90
100
AcDbEntity
  8
0
  6
BYBLOCK
 62
     0
100
AcDbLine
 10
0.0
 20
0.0
 30
0.0
 11
-1.0
 21
0.0
 31
0.0
  0
ENDBLK
  5
429A
330
90
100
AcDbEntity
  8
0
100
AcDbBlockEnd
  0
BLOCK
  5
429B
330
421A
100
AcDbEntity
  8
0
100
AcDbBlockBegin
  2
ASVORK
 70
     0
 71
     0
 10
0.0
 20
0.0
 30
0.0
  3
ASVORK
  1

  0
LINE
  5
4223
330
421A
100
AcDbEntity
  8
V0-OBRYS
  6
CONTINUOUS
 62
    90
100
AcDbLine
 10
0.0
 20
30.0
 30
0.0
 11
80.0
 21
30.0
 31
0.0
  0
LINE
  5
4224
330
421A
100
AcDbEntity
  8
V0-OBRYS
  6
CONTINUOUS
 62
    90
100
AcDbLine
 10
80.0
 20
0.0
 30
0.0
 11
0.0
 21
0.0
 31
0.0
  0
LINE
  5
4225
330
421A
100
AcDbEntity
  8
V0-OBRYS
  6
CONTINUOUS
 62
    90
100
AcDbLine
 10
0.0
 20
40.0
 30
0.0
 11
80.0
 21
40.0
 31
0.0
  0
LINE
  5
4226
330
421A
100
AcDbEntity
  8
V0-OBRYS
  6
CONTINUOUS
 62
    90
100
AcDbLine
 10
0.0
 20
0.0
 30
0.0
 11
0.0
 21
40.0
 31
0.0
  0
LINE
  5
4227
330
421A
100
AcDbEntity
  8
V0-OBRYS
  6
CONTINUOUS
 62
    90
100
AcDbLine
 10
80.0
 20
40.0
 30
0.0
 11
80.0
 21
0.0
 31
0.0
  0
ENDBLK
  5
429C
330
421A
100
AcDbEntity
  8
0
100
AcDbBlockEnd
  0
BLOCK
  5
429D
330
4228
100
AcDbEntity
  8
0
100
AcDbBlockBegin
  2
ASVORKP
 70
     0
 71
     0
 10
0.0
 20
0.0
 30
0.0
  3
ASVORKP
  1

  0
LINE
  5
4229
330
4228
100
AcDbEntity
  8
V0-OBRYS
  6
CONTINUOUS
 62
    90
100
AcDbLine
 10
75.0
 20
-30.0
 30
0.0
 11
5.0
 21
-30.0
 31
0.0
  0
LINE
  5
422A
330
4228
100
AcDbEntity
  8
V0-OBRYS
  6
CONTINUOUS
 62
    90
100
AcDbLine
 10
5.0
 20
30.0
 30
0.0
 11
75.0
 21
30.0
 31
0.0
  0
CIRCLE
  5
422B
330
4228
100
AcDbEntity
  8
V0-OBRYS
  6
CONTINUOUS
 62
    90
100
AcDbCircle
 10
4.669164
 20
-25.534884
 30
0.0
 40
2.347961
  0
CIRCLE
  5
422C
330
4228
100
AcDbEntity
  8
V0-OBRYS
  6
CONTINUOUS
 62
    90
100
AcDbCircle
 10
4.669164
 20
25.534884
 30
0.0
 40
2.347961
  0
ARC
  5
422D
330
4228
100
AcDbEntity
  8
V0-OBRYS
  6
CONTINUOUS
 62
    90
100
AcDbCircle
 10
5.0
 20
25.0
 30
0.0
 40
5.0
100
AcDbArc
 50
90.0
 51
180.0
  0
LINE
  5
422E
330
4228
100
AcDbEntity
  8
V0-OBRYS
  6
CONTINUOUS
 62
    90
100
AcDbLine
 10
0.0
 20
-25.0
 30
0.0
 11
0.0
 21
25.0
 31
0.0
  0
ARC
  5
422F
330
4228
100
AcDbEntity
  8
V0-OBRYS
  6
CONTINUOUS
 62
    90
100
AcDbCircle
 10
5.0
 20
-25.0
 30
0.0
 40
5.0
100
AcDbArc
 50
180.0
 51
270.0
  0
ARC
  5
4230
330
4228
100
AcDbEntity
  8
V0-OBRYS
  6
CONTINUOUS
 62
    90
100
AcDbCircle
 10
75.0
 20
25.0
 30
0.0
 40
5.0
100
AcDbArc
 50
0.0
 51
90.0
  0
LINE
  5
4231
330
4228
100
AcDbEntity
  8
V0-OBRYS
  6
CONTINUOUS
 62
    90
100
AcDbLine
 10
80.0
 20
25.0
 30
0.0
 11
80.0
 21
-25.0
 31
0.0
  0
ARC
  5
4232
330
4228
100
AcDbEntity
  8
V0-OBRYS
  6
CONTINUOUS
 62
    90
100
AcDbCircle
 10
75.0
 20
-25.0
 30
0.0
 40
5.0
100
AcDbArc
 50
270.0
 51
0.0
  0
CIRCLE
  5
4233
330
4228
100
AcDbEntity
  8
V0-OBRYS
  6
CONTINUOUS
 62
    90
100
AcDbCircle
 10
75.33083600000001
 20
-25.534884
 30
0.0
 40
2.347961
  0
CIRCLE
  5
4234
330
4228
100
AcDbEntity
  8
V0-OBRYS
  6
CONTINUOUS
 62
    90
100
AcDbCircle
 10
75.33083600000001
 20
25.534884
 30
0.0
 40
2.347961
  0
ENDBLK
  5
429E
330
4228
100
AcDbEntity
  8
0
100
AcDbBlockEnd
  0
BLOCK
  5
429F
330
424D
100
AcDbEntity
  8
0
100
AcDbBlockBegin
  2
VDDIM_DEFAULT
 70
     0
 71
     0
 10
0.0
 20
0.0
 30
0.0
  3
VDDIM_DEFAULT
  1

  0
LWPOLYLINE
  5
424E
330
424D
100
AcDbEntity
  8
0
  6
CONTINUOUS
 62
     0
100
AcDbPolyline
 90
        4
 70
     0
 43
0.0
 10
0.0
 20
0.0
 10
-1.0
 20
-0.1665
 10
-1.0
 20
0.1665
 10
0.0
 20
0.0
1001
VDEXTRAPARAM
1071
        1
1071
        0
1071
        0
1040
1.0
1000

1000

1040
0.0
1040
0.0
  0
HATCH
  5
42A3
330
424D
100
AcDbEntity
  8
0
  6
CONTINUOUS
 62
     0
100
AcDbHatch
 10
0.0
 20
0.0
 30
0.0
210
0.0
220
0.0
230
1.0
  2
SOLID
 70
     1
 71
     0
 91
        1
 92
        2
 72
     0
 73
     1
 93
        3
 10
0.0
 20
0.0
 10
-1.0
 20
-0.1665
 10
-1.0
 20
0.1665
 97
        0
 75
     0
 76
     1
 98
        1
 10
0.0
 20
0.0
1001
VDEXTRAPARAM
1071
        1
1071
        0
1071
        0
1040
1.0
1000

1000

1040
0.0
1040
0.0
1001
VD_TEMPHATCH
1000
VD_TEMPHATCH
  0
ENDBLK
  5
42A0
330
424D
100
AcDbEntity
  8
0
100
AcDbBlockEnd
  0
BLOCK
  5
42A1
330
424F
100
AcDbEntity
  8
0
100
AcDbBlockBegin
  2
VDDIM_NONE
 70
     0
 71
     0
 10
0.0
 20
0.0
 30
0.0
  3
VDDIM_NONE
  1

  0
ENDBLK
  5
42A2
330
424F
100
AcDbEntity
  8
0
100
AcDbBlockEnd
  0
BLOCK
  5
42AE
330
42A4
100
AcDbEntity
  8
0
100
AcDbBlockBegin
  2
*D6
 70
     1
 71
     0
 10
0.0
 20
0.0
 30
0.0
  3
*D6
  1

  0
LINE
  5
42A5
330
42A4
100
AcDbEntity
  8
V0-VYPLNE
 62
    41
100
AcDbLine
 10
4198.489407
 20
151.145126
 30
0.0
 11
4083.850772999927
 21
151.145126
 31
0.0
  0
LINE
  5
42A6
330
42A4
100
AcDbEntity
  8
V0-VYPLNE
 62
    41
100
AcDbLine
 10
4202.426407
 20
-348.853874
 30
0.0
 11
4083.850772999927
 21
-348.853874
 31
0.0
  0
LINE
  5
42A7
330
42A4
100
AcDbEntity
  8
V0-VYPLNE
 62
     0
100
AcDbLine
 10
4085.100772999927
 20
121.1451260000004
 30
0.0
 11
4085.100772999927
 21
-318.8538739999999
 31
0.0
  0
INSERT
  5
42A8
330
42A4
100
AcDbEntity
  8
V0-VYPLNE
 62
     0
100
AcDbBlockReference
  2
_OPEN
 10
4085.100772999927
 20
151.1451260000004
 30
0.0
 41
30.0
 42
30.0
 43
30.0
 50
90.0
  0
INSERT
  5
42A9
330
42A4
100
AcDbEntity
  8
V0-VYPLNE
 62
     0
100
AcDbBlockReference
  2
_OPEN
 10
4085.100772999927
 20
-348.8538739999999
 30
0.0
 41
30.0
 42
30.0
 43
30.0
 50
270.0
  0
MTEXT
  5
42AA
330
42A4
100
AcDbEntity
  8
V0-VYPLNE
 62
    41
100
AcDbMText
 10
4068.100772999927
 20
-98.85437399999998
 30
0.0
 40
30.0
 41
0.0
 71
     5
 72
     1
  1
%%c\A1;500
  7
ED40
 11
0.0
 21
1.0
 31
0.0
  0
POINT
  5
42AB
330
42A4
100
AcDbEntity
  8
DEFPOINTS
 62
     0
100
AcDbPoint
 10
4199.489407
 20
151.145126
 30
0.0
  0
POINT
  5
42AC
330
42A4
100
AcDbEntity
  8
DEFPOINTS
 62
     0
100
AcDbPoint
 10
4203.426407
 20
-348.853874
 30
0.0
  0
POINT
  5
42AD
330
42A4
100
AcDbEntity
  8
DEFPOINTS
 62
     0
100
AcDbPoint
 10
4085.100772999927
 20
-348.853874
 30
0.0
  0
ENDBLK
  5
42AF
330
42A4
100
AcDbEntity
  8
0
100
AcDbBlockEnd
  0
BLOCK
  5
42BA
330
42B0
100
AcDbEntity
  8
0
100
AcDbBlockBegin
  2
*D7
 70
     1
 71
     0
 10
0.0
 20
0.0
 30
0.0
  3
*D7
  1

  0
LINE
  5
42B1
330
42B0
100
AcDbEntity
  8
V0-VYPLNE
 62
    41
100
AcDbLine
 10
4403.289332
 20
181.046626
 30
0.0
 11
4490.867867999943
 21
181.046626
 31
0.0
  0
LINE
  5
42B2
330
42B0
100
AcDbEntity
  8
V0-VYPLNE
 62
    41
100
AcDbLine
 10
4403.289332
 20
-378.755374
 30
0.0
 11
4490.867867999943
 21
-378.755374
 31
0.0
  0
LINE
  5
42B3
330
42B0
100
AcDbEntity
  8
V0-VYPLNE
 62
     0
100
AcDbLine
 10
4489.617867999943
 20
151.0466260000003
 30
0.0
 11
4489.617867999943
 21
-348.7553739999994
 31
0.0
  0
INSERT
  5
42B4
330
42B0
100
AcDbEntity
  8
V0-VYPLNE
 62
     0
100
AcDbBlockReference
  2
_OPEN
 10
4489.617867999943
 20
181.0466260000003
 30
0.0
 41
30.0
 42
30.0
 43
30.0
 50
90.0
  0
INSERT
  5
42B5
330
42B0
100
AcDbEntity
  8
V0-VYPLNE
 62
     0
100
AcDbBlockReference
  2
_OPEN
 10
4489.617867999943
 20
-378.7553739999994
 30
0.0
 41
30.0
 42
30.0
 43
30.0
 50
270.0
  0
MTEXT
  5
42B6
330
42B0
100
AcDbEntity
  8
V0-VYPLNE
 62
    41
100
AcDbMText
 10
4472.617867999943
 20
-98.85437400000001
 30
0.0
 40
30.0
 41
0.0
 71
     5
 72
     1
  1
%%c\A1;560
  7
ED40
 11
0.0
 21
1.0
 31
0.0
  0
POINT
  5
42B7
330
42B0
100
AcDbEntity
  8
DEFPOINTS
 62
     0
100
AcDbPoint
 10
4402.289332
 20
181.046626
 30
0.0
  0
POINT
  5
42B8
330
42B0
100
AcDbEntity
  8
DEFPOINTS
 62
     0
100
AcDbPoint
 10
4402.289332
 20
-378.755374
 30
0.0
  0
POINT
  5
42B9
330
42B0
100
AcDbEntity
  8
DEFPOINTS
 62
     0
100
AcDbPoint
 10
4489.617867999943
 20
-378.755374
 30
0.0
  0
ENDBLK
  5
42BB
330
42B0
100
AcDbEntity
  8
0
100
AcDbBlockEnd
  0
BLOCK
  5
42C6
330
42BC
100
AcDbEntity
  8
0
100
AcDbBlockBegin
  2
*D8
 70
     1
 71
     0
 10
0.0
 20
0.0
 30
0.0
  3
*D8
  1

  0
LINE
  5
42BD
330
42BC
100
AcDbEntity
  8
V0-VYPLNE
 62
    41
100
AcDbLine
 10
4376.772407
 20
198.495376
 30
0.0
 11
4562.104070000119
 21
198.495376
 31
0.0
  0
LINE
  5
42BE
330
42BC
100
AcDbEntity
  8
V0-VYPLNE
 62
    41
100
AcDbLine
 10
4380.709407
 20
-396.204124
 30
0.0
 11
4562.104070000119
 21
-396.204124
 31
0.0
  0
LINE
  5
42BF
330
42BC
100
AcDbEntity
  8
V0-VYPLNE
 62
     0
100
AcDbLine
 10
4560.854070000119
 20
168.4953759999999
 30
0.0
 11
4560.854070000119
 21
-366.2041239999999
 31
0.0
  0
INSERT
  5
42C0
330
42BC
100
AcDbEntity
  8
V0-VYPLNE
 62
     0
100
AcDbBlockReference
  2
_OPEN
 10
4560.854070000119
 20
198.4953759999999
 30
0.0
 41
30.0
 42
30.0
 43
30.0
 50
90.0
  0
INSERT
  5
42C1
330
42BC
100
AcDbEntity
  8
V0-VYPLNE
 62
     0
100
AcDbBlockReference
  2
_OPEN
 10
4560.854070000119
 20
-396.2041239999999
 30
0.0
 41
30.0
 42
30.0
 43
30.0
 50
270.0
  0
MTEXT
  5
42C2
330
42BC
100
AcDbEntity
  8
V0-VYPLNE
 62
    41
100
AcDbMText
 10
4543.854070000119
 20
-98.85437400000001
 30
0.0
 40
30.0
 41
0.0
 71
     5
 72
     1
  1
%%c\A1;595
  7
ED40
 11
0.0
 21
1.0
 31
0.0
  0
POINT
  5
42C3
330
42BC
100
AcDbEntity
  8
DEFPOINTS
 62
     0
100
AcDbPoint
 10
4375.772407
 20
198.495376
 30
0.0
  0
POINT
  5
42C4
330
42BC
100
AcDbEntity
  8
DEFPOINTS
 62
     0
100
AcDbPoint
 10
4379.709407
 20
-396.204124
 30
0.0
  0
POINT
  5
42C5
330
42BC
100
AcDbEntity
  8
DEFPOINTS
 62
     0
100
AcDbPoint
 10
4560.854070000119
 20
-396.204124
 30
0.0
  0
ENDBLK
  5
42C7
330
42BC
100
AcDbEntity
  8
0
100
AcDbBlockEnd
  0
BLOCK
  5
42D2
330
42C8
100
AcDbEntity
  8
0
100
AcDbBlockBegin
  2
*D9
 70
     1
 71
     0
 10
0.0
 20
0.0
 30
0.0
  3
*D9
  1

  0
LINE
  5
42C9
330
42C8
100
AcDbEntity
  8
V0-VYPLNE
 62
    41
100
AcDbLine
 10
4199.489407
 20
-397.204124
 30
0.0
 11
4199.489407
 21
-488.3031780002639
 31
0.0
  0
LINE
  5
42CA
330
42C8
100
AcDbEntity
  8
V0-VYPLNE
 62
    41
100
AcDbLine
 10
4379.709407
 20
-397.204124
 30
0.0
 11
4379.709407
 21
-488.3031780002639
 31
0.0
  0
LINE
  5
42CB
330
42C8
100
AcDbEntity
  8
V0-VYPLNE
 62
     0
100
AcDbLine
 10
4229.489407
 20
-487.0531780002639
 30
0.0
 11
4349.709407
 21
-487.0531780002639
 31
0.0
  0
INSERT
  5
42CC
330
42C8
100
AcDbEntity
  8
V0-VYPLNE
 62
     0
100
AcDbBlockReference
  2
_OPEN
 10
4199.489407
 20
-487.0531780002639
 30
0.0
 41
30.0
 42
30.0
 43
30.0
 50
180.0
  0
INSERT
  5
42CD
330
42C8
100
AcDbEntity
  8
V0-VYPLNE
 62
     0
100
AcDbBlockReference
  2
_OPEN
 10
4379.709407
 20
-487.0531780002639
 30
0.0
 41
30.0
 42
30.0
 43
30.0
  0
MTEXT
  5
42CE
330
42C8
100
AcDbEntity
  8
V0-VYPLNE
 62
    41
100
AcDbMText
 10
4289.599407
 20
-470.0531780002639
 30
0.0
 40
30.0
 41
0.0
 71
     5
 72
     1
  1
\A1;180
  7
ED40
  0
POINT
  5
42CF
330
42C8
100
AcDbEntity
  8
DEFPOINTS
 62
     0
100
AcDbPoint
 10
4199.489407
 20
-396.204124
 30
0.0
  0
POINT
  5
42D0
330
42C8
100
AcDbEntity
  8
DEFPOINTS
 62
     0
100
AcDbPoint
 10
4379.709407
 20
-396.204124
 30
0.0
  0
POINT
  5
42D1
330
42C8
100
AcDbEntity
  8
DEFPOINTS
 62
     0
100
AcDbPoint
 10
4379.709407
 20
-487.0531780002639
 30
0.0
  0
ENDBLK
  5
42D3
330
42C8
100
AcDbEntity
  8
0
100
AcDbBlockEnd
  0
BLOCK
  5
42DE
330
42D4
100
AcDbEntity
  8
0
100
AcDbBlockBegin
  2
*D10
 70
     1
 71
     0
 10
0.0
 20
0.0
 30
0.0
  3
*D10
  1

  0
LINE
  5
42D5
330
42D4
100
AcDbEntity
  8
V0-VYPLNE
 62
    41
100
AcDbLine
 10
4231.50092
 20
-8.874174
 30
0.0
 11
4141.196165000089
 21
-8.874174000000011
 31
0.0
  0
LINE
  5
42D6
330
42D4
100
AcDbEntity
  8
V0-VYPLNE
 62
    41
100
AcDbLine
 10
4231.50092
 20
-188.834574
 30
0.0
 11
4141.196165000089
 21
-188.834574
 31
0.0
  0
LINE
  5
42D7
330
42D4
100
AcDbEntity
  8
V0-VYPLNE
 62
     0
100
AcDbLine
 10
4142.446165000089
 20
-38.87417399999958
 30
0.0
 11
4142.446165000089
 21
-158.8345739999995
 31
0.0
  0
INSERT
  5
42D8
330
42D4
100
AcDbEntity
  8
V0-VYPLNE
 62
     0
100
AcDbBlockReference
  2
_OPEN
 10
4142.446165000089
 20
-8.874173999999584
 30
0.0
 41
30.0
 42
30.0
 43
30.0
 50
90.0
  0
INSERT
  5
42D9
330
42D4
100
AcDbEntity
  8
V0-VYPLNE
 62
     0
100
AcDbBlockReference
  2
_OPEN
 10
4142.446165000089
 20
-188.8345739999995
 30
0.0
 41
30.0
 42
30.0
 43
30.0
 50
270.0
  0
MTEXT
  5
42DA
330
42D4
100
AcDbEntity
  8
V0-VYPLNE
 62
    41
100
AcDbMText
 10
4125.446165000089
 20
-98.85437399999999
 30
0.0
 40
30.0
 41
0.0
 71
     5
 72
     1
  1
%%c\A1;180
  7
ED40
 11
0.0
 21
1.0
 31
0.0
  0
POINT
  5
42DB
330
42D4
100
AcDbEntity
  8
DEFPOINTS
 62
     0
100
AcDbPoint
 10
4232.50092
 20
-8.874174
 30
0.0
  0
POINT
  5
42DC
330
42D4
100
AcDbEntity
  8
DEFPOINTS
 62
     0
100
AcDbPoint
 10
4232.50092
 20
-188.834574
 30
0.0
  0
POINT
  5
42DD
330
42D4
100
AcDbEntity
  8
DEFPOINTS
 62
     0
100
AcDbPoint
 10
4142.446165000089
 20
-188.834574
 30
0.0
  0
ENDBLK
  5
42DF
330
42D4
100
AcDbEntity
  8
0
100
AcDbBlockEnd
  0
ENDSEC
  0
SECTION
  2
ENTITIES
  0
TEXT
  5
1347
330
426F
100
AcDbEntity
  8
V0-VYPLNE
 62
     6
100
AcDbText
 10
4816.53594
 20
-707.3605710000001
 30
0.0
 40
60.0
  1
TCB-500
  7
ED40
100
AcDbText
  0
TEXT
  5
1348
330
426F
100
AcDbEntity
  8
V0-VYPLNE
  6
CONTINUOUS
 62
    51
100
AcDbText
 10
4695.69963
 20
-790.859315
 30
0.0
 40
45.0
  1
AXIALNI VENTILATOR
  7
ED30
100
AcDbText
  0
TEXT
  5
2455
330
426F
100
AcDbEntity
  8
V0-VYPLNE
  6
CONTINUOUS
 62
    51
100
AcDbText
 10
4820.916401
 20
-864.7828040000001
 30
0.0
 40
45.0
  1
DO POTRUBI
  7
ED30
100
AcDbText
  0
LINE
  5
3B59
330
426F
100
AcDbEntity
  8
V0-OBRYS
  6
CONTINUOUS
 62
    90
100
AcDbLine
 10
4375.772407
 20
-348.853874
 30
0.0
 11
4375.772407
 21
198.495376
 31
0.0
  0
LINE
  5
3B5A
330
426F
100
AcDbEntity
  8
V0-OBRYS
  6
CONTINUOUS
 62
    90
100
AcDbLine
 10
4203.426407
 20
-348.853874
 30
0.0
 11
4203.426407
 21
198.495376
 31
0.0
  0
LINE
  5
3B5B
330
426F
100
AcDbEntity
  8
V0-OBRYS
  6
CONTINUOUS
 62
    90
100
AcDbLine
 10
4199.489407
 20
-98.85437400000001
 30
0.0
 11
4199.489407
 21
198.495376
 31
0.0
  0
LINE
  5
3B5C
330
426F
100
AcDbEntity
  8
V0-OBRYS
  6
CONTINUOUS
 62
    90
100
AcDbLine
 10
4379.709407
 20
-98.85437400000001
 30
0.0
 11
4379.709407
 21
198.495376
 31
0.0
  0
LINE
  5
3B5D
330
426F
100
AcDbEntity
  8
V0-OBRYS
  6
CONTINUOUS
 62
    90
100
AcDbLine
 10
4375.772407
 20
151.145126
 30
0.0
 11
4203.426407
 21
151.145126
 31
0.0
  0
LINE
  5
3B5E
330
426F
100
AcDbEntity
  8
V0-VYPLNE
 48
3.0
100
AcDbLine
 10
4428.900741
 20
-98.85437400000001
 30
0.0
 11
4167.39303
 21
-98.85437400000001
 31
0.0
  0
LINE
  5
3B5F
330
426F
100
AcDbEntity
  8
V0-OBRYS
  6
CONTINUOUS
 62
    90
100
AcDbLine
 10
4375.772407
 20
-348.853874
 30
0.0
 11
4203.426407
 21
-348.853874
 31
0.0
  0
DIMENSION
  5
3B60
330
426F
100
AcDbEntity
  8
V0-VYPLNE
  6
CONTINUOUS
 62
    41
100
AcDbDimension
  2
*D6
 10
4085.100772999927
 20
-348.853874
 30
0.0
 11
4068.100772999927
 21
-98.85437399999998
 31
0.0
 70
    32
  1
%%c<>
  3
ED30
100
AcDbAlignedDimension
 13
4199.489407
 23
151.145126
 33
0.0
 14
4203.426407
 24
-348.853874
 34
0.0
 50
90.0
100
AcDbRotatedDimension
1001
ACAD
1000
DSTYLE
1002
{
1070
    41
1040
30.0
1070
   140
1040
30.0
1002
}
  0
LINE
  5
3B61
330
426F
100
AcDbEntity
  8
V0-OBRYS
  6
CONTINUOUS
 62
    90
100
AcDbLine
 10
4199.489407
 20
-98.85437400000001
 30
0.0
 11
4199.489407
 21
-396.204124
 31
0.0
  0
LINE
  5
3B62
330
426F
100
AcDbEntity
  8
V0-OBRYS
  6
CONTINUOUS
 62
    90
100
AcDbLine
 10
4203.426407
 20
-348.853874
 30
0.0
 11
4203.426407
 21
-396.204124
 31
0.0
  0
LINE
  5
3B63
330
426F
100
AcDbEntity
  8
V0-VYPLNE
  6
DASHDOT
 62
    63
 48
3.0
100
AcDbLine
 10
4179.804407
 20
-378.755374
 30
0.0
 11
4236.193657
 21
-378.755374
 31
0.0
  0
LINE
  5
3B64
330
426F
100
AcDbEntity
  8
V0-OBRYS
  6
CONTINUOUS
 62
    90
100
AcDbLine
 10
4379.709407
 20
-98.85437400000001
 30
0.0
 11
4379.709407
 21
-396.204124
 31
0.0
  0
LINE
  5
3B65
330
426F
100
AcDbEntity
  8
V0-OBRYS
  6
CONTINUOUS
 62
    90
100
AcDbLine
 10
4375.772407
 20
-348.853874
 30
0.0
 11
4375.772407
 21
-396.204124
 31
0.0
  0
LINE
  5
3B66
330
426F
100
AcDbEntity
  8
V0-VYPLNE
  6
DASHDOT
 62
    63
 48
3.0
100
AcDbLine
 10
4347.226438
 20
-378.755374
 30
0.0
 11
4402.289332
 21
-378.755374
 31
0.0
  0
LINE
  5
3B67
330
426F
100
AcDbEntity
  8
V0-VYPLNE
  6
DASHDOT
 62
    63
 48
3.0
100
AcDbLine
 10
4179.804407
 20
181.046626
 30
0.0
 11
4236.193657
 21
181.046626
 31
0.0
  0
LINE
  5
3B68
330
426F
100
AcDbEntity
  8
V0-VYPLNE
  6
DASHDOT
 62
    63
 48
3.0
100
AcDbLine
 10
4357.226438
 20
181.046626
 30
0.0
 11
4402.289332
 21
181.046626
 31
0.0
  0
DIMENSION
  5
3B97
330
426F
100
AcDbEntity
  8
V0-VYPLNE
  6
CONTINUOUS
 62
    41
100
AcDbDimension
  2
*D7
 10
4489.617867999943
 20
-378.755374
 30
0.0
 11
4472.617867999943
 21
-98.85437400000001
 31
0.0
 70
    32
  1
%%c<>
  3
ED30
100
AcDbAlignedDimension
 13
4402.289332
 23
181.046626
 33
0.0
 14
4402.289332
 24
-378.755374
 34
0.0
 50
90.0
100
AcDbRotatedDimension
1001
ACAD
1000
DSTYLE
1002
{
1070
    41
1040
30.0
1070
   140
1040
30.0
1002
}
  0
DIMENSION
  5
3BA4
330
426F
100
AcDbEntity
  8
V0-VYPLNE
  6
CONTINUOUS
 62
    41
100
AcDbDimension
  2
*D8
 10
4560.854070000119
 20
-396.204124
 30
0.0
 11
4543.854070000119
 21
-98.85437400000001
 31
0.0
 70
    32
  1
%%c<>
  3
ED30
100
AcDbAlignedDimension
 13
4375.772407
 23
198.495376
 33
0.0
 14
4379.709407
 24
-396.204124
 34
0.0
 50
90.0
100
AcDbRotatedDimension
1001
ACAD
1000
DSTYLE
1002
{
1070
    41
1040
30.0
1070
   140
1040
30.0
1002
}
  0
DIMENSION
  5
3BDD
330
426F
100
AcDbEntity
  8
V0-VYPLNE
  6
CONTINUOUS
 62
    41
100
AcDbDimension
  2
*D9
 10
4379.709407
 20
-487.0531780002639
 30
0.0
 11
4289.599407
 21
-470.0531780002639
 31
0.0
 70
    32
  3
ED30
100
AcDbAlignedDimension
 13
4199.489407
 23
-396.204124
 33
0.0
 14
4379.709407
 24
-396.204124
 34
0.0
100
AcDbRotatedDimension
1001
ACAD
1000
DSTYLE
1002
{
1070
    41
1040
30.0
1070
   140
1040
30.0
1002
}
  0
LINE
  5
3BEA
330
426F
100
AcDbEntity
  8
V0-VYPLNE
  6
DASHED
 62
    52
 48
1.5
100
AcDbLine
 10
4368.857496
 20
22.983179
 30
0.0
 11
4349.094047
 21
147.096012
 31
0.0
  0
LINE
  5
3BEB
330
426F
100
AcDbEntity
  8
V0-VYPLNE
  6
DASHED
 62
    52
 48
1.5
100
AcDbLine
 10
4300.561055
 20
22.983179
 30
0.0
 11
4320.324504
 21
147.096012
 31
0.0
  0
LINE
  5
3BEC
330
426F
100
AcDbEntity
  8
V0-VYPLNE
  6
DASHED
 62
    52
 48
1.5
100
AcDbLine
 10
4368.857496
 20
-218.731104
 30
0.0
 11
4349.094047
 21
-342.843937
 31
0.0
  0
LINE
  5
3BED
330
426F
100
AcDbEntity
  8
V0-VYPLNE
  6
DASHED
 62
    52
 48
1.5
100
AcDbLine
 10
4300.561055
 20
-218.731104
 30
0.0
 11
4320.324504
 21
-342.843937
 31
0.0
  0
LINE
  5
3BEE
330
426F
100
AcDbEntity
  8
V0-VYPLNE
  6
DASHED
 62
    52
 48
1.5
100
AcDbLine
 10
4320.324504
 20
-342.843937
 30
0.0
 11
4349.094047
 21
-342.843937
 31
0.0
  0
LINE
  5
3BEF
330
426F
100
AcDbEntity
  8
V0-VYPLNE
  6
DASHED
 62
    52
 48
1.5
100
AcDbLine
 10
4300.609275
 20
-97.87396200000001
 30
0.0
 11
4300.609275
 21
-209.593962
 31
0.0
  0
ARC
  5
3BF0
330
426F
100
AcDbEntity
  8
V0-VYPLNE
  6
DASHED
 62
    52
 48
2.0
100
AcDbCircle
 10
3066.967715
 20
-85.061249
 30
0.0
 40
1307.784327
100
AcDbArc
 50
354.845307
 51
359.438649
  0
LINE
  5
3BF1
330
426F
100
AcDbEntity
  8
V0-VYPLNE
  6
DASHED
 62
    52
 48
1.5
100
AcDbLine
 10
4334.709275
 20
-215.19491
 30
0.0
 11
4334.709275
 21
-97.87396200000001
 31
0.0
  0
LINE
  5
3BF2
330
426F
100
AcDbEntity
  8
V0-VYPLNE
  6
DASHED
 62
    52
 48
1.5
100
AcDbLine
 10
4301.387396
 20
-111.288922
 30
0.0
 11
4372.170727
 21
-83.998779
 31
0.0
  0
ARC
  5
3BF3
330
426F
100
AcDbEntity
  8
V0-VYPLNE
  6
DASHED
 62
    52
 48
1.5
100
AcDbCircle
 10
4333.813325
 20
-113.965984
 30
0.0
 40
101.228549
100
AcDbArc
 50
250.851921
 51
286.026636
  0
LINE
  5
3BF4
330
426F
100
AcDbEntity
  8
V0-VYPLNE
  6
DASHED
 62
    52
 48
1.5
100
AcDbLine
 10
4308.089989
 20
-211.209114
 30
0.0
 11
4300.561055
 21
-218.731104
 31
0.0
  0
ARC
  5
3BF5
330
426F
100
AcDbEntity
  8
V0-VYPLNE
  6
DASHED
 62
    52
 48
1.5
100
AcDbCircle
 10
4359.702676
 20
-201.67871
 30
0.0
 40
9.800000000000001
100
AcDbArc
 50
282.123858
 51
354.845307
  0
LINE
  5
3BF6
330
426F
100
AcDbEntity
  8
V0-VYPLNE
  6
DASHED
 62
    52
 48
1.5
100
AcDbLine
 10
4361.328562
 20
-211.209114
 30
0.0
 11
4368.857496
 21
-218.731104
 31
0.0
  0
ARC
  5
3BF7
330
426F
100
AcDbEntity
  8
V0-VYPLNE
  6
DASHED
 62
    52
 48
1.5
100
AcDbCircle
 10
4333.813325
 20
-81.781941
 30
0.0
 40
101.228549
100
AcDbArc
 50
73.97336400000002
 51
109.148079
  0
LINE
  5
3BF8
330
426F
100
AcDbEntity
  8
V0-VYPLNE
  6
DASHED
 62
    52
 48
1.5
100
AcDbLine
 10
4334.709275
 20
19.446985
 30
0.0
 11
4334.709275
 21
-97.87396200000001
 31
0.0
  0
LINE
  5
3BF9
330
426F
100
AcDbEntity
  8
V0-VYPLNE
  6
DASHED
 62
    52
 48
1.5
100
AcDbLine
 10
4300.609275
 20
-97.87396200000001
 30
0.0
 11
4300.609275
 21
13.84603799999999
 31
0.0
  0
CIRCLE
  5
3BFA
330
426F
100
AcDbEntity
  8
V0-VYPLNE
  6
DASHED
 62
    52
 48
1.5
100
AcDbCircle
 10
4334.709275
 20
-98.26604399999999
 30
0.0
 40
8.305717
  0
LINE
  5
3BFB
330
426F
100
AcDbEntity
  8
V0-VYPLNE
  6
DASHED
 62
    52
 48
1.5
100
AcDbLine
 10
4308.089989
 20
15.461189
 30
0.0
 11
4300.561055
 21
22.983179
 31
0.0
  0
ARC
  5
3BFC
330
426F
100
AcDbEntity
  8
V0-VYPLNE
  6
DASHED
 62
    52
 48
2.0
100
AcDbCircle
 10
3066.967715
 20
-110.686676
 30
0.0
 40
1307.784327
100
AcDbArc
 50
0.561351
 51
5.154693
  0
LINE
  5
3BFD
330
426F
100
AcDbEntity
  8
V0-VYPLNE
  6
DASHED
 62
    52
 48
1.5
100
AcDbLine
 10
4361.328562
 20
15.461189
 30
0.0
 11
4368.857496
 21
22.983179
 31
0.0
  0
LINE
  5
3BFE
330
426F
100
AcDbEntity
  8
V0-VYPLNE
  6
DASHED
 62
    52
 48
1.5
100
AcDbLine
 10
4320.324504
 20
147.096012
 30
0.0
 11
4349.094047
 21
147.096012
 31
0.0
  0
LINE
  5
3C19
330
426F
100
AcDbEntity
  8
V0-VYPLNE
  6
DASHED
 62
    52
 48
1.5
100
AcDbLine
 10
4232.248672
 20
-14.388873
 30
0.0
 11
4202.687332
 21
-36.350108
 31
0.0
  0
LINE
  5
3C1A
330
426F
100
AcDbEntity
  8
V0-VYPLNE
  6
DASHED
 62
    52
 48
1.5
100
AcDbLine
 10
4231.490686
 20
-30.291839
 30
0.0
 11
4203.445312
 21
-45.437518
 31
0.0
  0
LINE
  5
3C1B
330
426F
100
AcDbEntity
  8
V0-VYPLNE
  6
DASHED
 62
    52
 48
1.5
100
AcDbLine
 10
4231.490686
 20
-67.398752
 30
0.0
 11
4202.687332
 21
-70.42789000000001
 31
0.0
  0
LINE
  5
3C1C
330
426F
100
AcDbEntity
  8
V0-VYPLNE
  6
DASHED
 62
    52
 48
1.5
100
AcDbLine
 10
4231.490686
 20
-85.573568
 30
0.0
 11
4202.687332
 21
-86.33085199999999
 31
0.0
  0
LINE
  5
3C1D
330
426F
100
AcDbEntity
  8
V0-VYPLNE
  6
DASHED
 62
    52
 48
1.5
100
AcDbLine
 10
4232.248672
 20
-49.223939
 30
0.0
 11
4201.929346
 21
-56.039495
 31
0.0
  0
LINE
  5
3C1E
330
426F
100
AcDbEntity
  8
V0-VYPLNE
  6
DASHED
 62
    52
 48
1.5
100
AcDbLine
 10
4218.29352
 20
-8.874174
 30
0.0
 11
4276.70172
 21
-8.874174
 31
0.0
  0
LINE
  5
3C1F
330
426F
100
AcDbEntity
  8
V0-VYPLNE
  6
DASHED
 62
    52
 48
1.5
100
AcDbLine
 10
4232.248672
 20
-148.484809
 30
0.0
 11
4201.929346
 21
-141.669253
 31
0.0
  0
LINE
  5
3C20
330
426F
100
AcDbEntity
  8
V0-VYPLNE
  6
DASHED
 62
    52
 48
1.5
100
AcDbLine
 10
4231.490686
 20
-112.135179
 30
0.0
 11
4202.687332
 21
-111.377896
 31
0.0
  0
LINE
  5
3C21
330
426F
100
AcDbEntity
  8
V0-VYPLNE
  6
DASHED
 62
    52
 48
1.5
100
AcDbLine
 10
4231.490686
 20
-130.309996
 30
0.0
 11
4202.687332
 21
-127.280858
 31
0.0
  0
LINE
  5
3C22
330
426F
100
AcDbEntity
  8
V0-VYPLNE
  6
DASHED
 62
    52
 48
1.5
100
AcDbLine
 10
4231.490686
 20
-167.416909
 30
0.0
 11
4203.445312
 21
-152.27123
 31
0.0
  0
LINE
  5
3C23
330
426F
100
AcDbEntity
  8
V0-VYPLNE
  6
DASHED
 62
    52
 48
1.5
100
AcDbLine
 10
4232.248672
 20
-183.319875
 30
0.0
 11
4202.687332
 21
-161.35864
 31
0.0
  0
LINE
  5
3C24
330
426F
100
AcDbEntity
  8
V0-VYPLNE
  6
DASHED
 62
    52
 48
1.5
100
AcDbLine
 10
4218.29352
 20
-188.834574
 30
0.0
 11
4276.70172
 21
-188.834574
 31
0.0
  0
DIMENSION
  5
3C25
330
426F
100
AcDbEntity
  8
V0-VYPLNE
  6
CONTINUOUS
 62
    41
100
AcDbDimension
  2
*D10
 10
4142.446165000089
 20
-188.834574
 30
0.0
 11
4125.446165000089
 21
-98.85437399999999
 31
0.0
 70
    32
  1
%%c<>
  3
ED30
100
AcDbAlignedDimension
 13
4232.50092
 23
-8.874174
 33
0.0
 14
4232.50092
 24
-188.834574
 34
0.0
 50
90.0
100
AcDbRotatedDimension
1001
ACAD
1000
DSTYLE
1002
{
1070
    41
1040
30.0
1070
   140
1040
30.0
1002
}
  0
LINE
  5
3C26
330
426F
100
AcDbEntity
  8
V0-VYPLNE
  6
DASHED
 62
    52
 48
1.5
100
AcDbLine
 10
4202.50752
 20
-98.85437400000001
 30
0.0
 11
4202.50752
 21
-173.048574
 31
0.0
  0
ARC
  5
3C27
330
426F
100
AcDbEntity
  8
V0-VYPLNE
  6
DASHED
 62
    52
 48
1.5
100
AcDbCircle
 10
4218.29352
 20
-173.048574
 30
0.0
 40
15.786
100
AcDbArc
 50
180.0
 51
270.0
  0
LINE
  5
3C28
330
426F
100
AcDbEntity
  8
V0-VYPLNE
  6
DASHED
 62
    52
 48
1.5
100
AcDbLine
 10
4202.50752
 20
-98.85437400000001
 30
0.0
 11
4202.50752
 21
-24.660174
 31
0.0
  0
ARC
  5
3C29
330
426F
100
AcDbEntity
  8
V0-VYPLNE
  6
DASHED
 62
    52
 48
1.5
100
AcDbCircle
 10
4218.29352
 20
-24.660174
 30
0.0
 40
15.786
100
AcDbArc
 50
90.0
 51
180.0
  0
LINE
  5
3C2A
330
426F
100
AcDbEntity
  8
V0-VYPLNE
  6
DASHED
 62
    52
 48
1.5
100
AcDbLine
 10
4299.709164
 20
-180.941574
 30
0.0
 11
4299.709164
 21
-98.85437400000001
 31
0.0
  0
LINE
  5
3C2B
330
426F
100
AcDbEntity
  8
V0-VYPLNE
  6
DASHED
 62
    52
 48
1.5
100
AcDbLine
 10
4232.50092
 20
-98.85437400000001
 30
0.0
 11
4232.50092
 21
-188.834574
 31
0.0
  0
LINE
  5
3C2C
330
426F
100
AcDbEntity
  8
V0-VYPLNE
  6
DASHED
 62
    52
 48
1.5
100
AcDbLine
 10
4276.70172
 20
-112.135179
 30
0.0
 11
4298.951184
 21
-112.135179
 31
0.0
  0
LINE
  5
3C2D
330
426F
100
AcDbEntity
  8
V0-VYPLNE
  6
DASHED
 62
    52
 48
1.5
100
AcDbLine
 10
4276.70172
 20
-130.309996
 30
0.0
 11
4299.709164
 21
-130.309996
 31
0.0
  0
LINE
  5
3C2E
330
426F
100
AcDbEntity
  8
V0-VYPLNE
  6
DASHED
 62
    52
 48
1.5
100
AcDbLine
 10
4276.70172
 20
-148.484809
 30
0.0
 11
4298.951184
 21
-148.484809
 31
0.0
  0
LINE
  5
3C2F
330
426F
100
AcDbEntity
  8
V0-VYPLNE
  6
DASHED
 62
    52
 48
1.5
100
AcDbLine
 10
4276.70172
 20
-167.416909
 30
0.0
 11
4299.709164
 21
-167.416909
 31
0.0
  0
LINE
  5
3C30
330
426F
100
AcDbEntity
  8
V0-VYPLNE
  6
DASHED
 62
    52
 48
1.5
100
AcDbLine
 10
4276.70172
 20
-188.834574
 30
0.0
 11
4291.816164
 21
-188.834574
 31
0.0
  0
LINE
  5
3C31
330
426F
100
AcDbEntity
  8
V0-VYPLNE
  6
DASHED
 62
    52
 48
1.5
100
AcDbLine
 10
4276.70172
 20
-183.319875
 30
0.0
 11
4299.709164
 21
-183.319875
 31
0.0
  0
LINE
  5
3C32
330
426F
100
AcDbEntity
  8
V0-VYPLNE
  6
DASHED
 62
    52
 48
1.5
100
AcDbLine
 10
4231.490686
 20
-167.416909
 30
0.0
 11
4276.70172
 21
-167.416909
 31
0.0
  0
LINE
  5
3C33
330
426F
100
AcDbEntity
  8
V0-VYPLNE
  6
DASHED
 62
    52
 48
1.5
100
AcDbLine
 10
4232.248672
 20
-183.319875
 30
0.0
 11
4276.70172
 21
-183.319875
 31
0.0
  0
LINE
  5
3C34
330
426F
100
AcDbEntity
  8
V0-VYPLNE
  6
DASHED
 62
    52
 48
1.5
100
AcDbLine
 10
4236.038585
 20
-130.309996
 30
0.0
 11
4276.70172
 21
-130.309996
 31
0.0
  0
LINE
  5
3C35
330
426F
100
AcDbEntity
  8
V0-VYPLNE
  6
DASHED
 62
    52
 48
1.5
100
AcDbLine
 10
4231.490686
 20
-112.135179
 30
0.0
 11
4276.70172
 21
-112.135179
 31
0.0
  0
LINE
  5
3C36
330
426F
100
AcDbEntity
  8
V0-VYPLNE
  6
DASHED
 62
    52
 48
1.5
100
AcDbLine
 10
4232.248672
 20
-148.484809
 30
0.0
 11
4276.70172
 21
-148.484809
 31
0.0
  0
LINE
  5
3C37
330
426F
100
AcDbEntity
  8
V0-VYPLNE
  6
DASHED
 62
    52
 48
1.5
100
AcDbLine
 10
4231.490686
 20
-130.309996
 30
0.0
 11
4236.038585
 21
-130.309996
 31
0.0
  0
ARC
  5
3C38
330
426F
100
AcDbEntity
  8
V0-VYPLNE
  6
DASHED
 62
    52
 48
1.5
100
AcDbCircle
 10
4291.816164
 20
-180.941574
 30
0.0
 40
7.893
100
AcDbArc
 50
270.0
 51
0.0
  0
LINE
  5
3C39
330
426F
100
AcDbEntity
  8
V0-VYPLNE
  6
DASHED
 62
    52
 48
1.5
100
AcDbLine
 10
4276.70172
 20
-14.388873
 30
0.0
 11
4299.709164
 21
-14.388873
 31
0.0
  0
LINE
  5
3C3A
330
426F
100
AcDbEntity
  8
V0-VYPLNE
  6
DASHED
 62
    52
 48
1.5
100
AcDbLine
 10
4276.70172
 20
-8.874174
 30
0.0
 11
4291.816164
 21
-8.874174
 31
0.0
  0
LINE
  5
3C3B
330
426F
100
AcDbEntity
  8
V0-VYPLNE
  6
DASHED
 62
    52
 48
1.5
100
AcDbLine
 10
4276.70172
 20
-30.291839
 30
0.0
 11
4299.709164
 21
-30.291839
 31
0.0
  0
LINE
  5
3C3C
330
426F
100
AcDbEntity
  8
V0-VYPLNE
  6
DASHED
 62
    52
 48
1.5
100
AcDbLine
 10
4276.70172
 20
-49.223939
 30
0.0
 11
4298.951184
 21
-49.223939
 31
0.0
  0
LINE
  5
3C3D
330
426F
100
AcDbEntity
  8
V0-VYPLNE
  6
DASHED
 62
    52
 48
1.5
100
AcDbLine
 10
4276.70172
 20
-67.398752
 30
0.0
 11
4299.709164
 21
-67.398752
 31
0.0
  0
LINE
  5
3C3E
330
426F
100
AcDbEntity
  8
V0-VYPLNE
  6
DASHED
 62
    52
 48
1.5
100
AcDbLine
 10
4276.70172
 20
-85.573568
 30
0.0
 11
4298.951184
 21
-85.573568
 31
0.0
  0
LINE
  5
3C3F
330
426F
100
AcDbEntity
  8
V0-VYPLNE
  6
DASHED
 62
    52
 48
1.5
100
AcDbLine
 10
4232.50092
 20
-98.85437400000001
 30
0.0
 11
4232.50092
 21
-8.874173999999997
 31
0.0
  0
LINE
  5
3C40
330
426F
100
AcDbEntity
  8
V0-VYPLNE
  6
DASHED
 62
    52
 48
1.5
100
AcDbLine
 10
4236.038585
 20
-67.398752
 30
0.0
 11
4276.70172
 21
-67.398752
 31
0.0
  0
LINE
  5
3C41
330
426F
100
AcDbEntity
  8
V0-VYPLNE
  6
DASHED
 62
    52
 48
1.5
100
AcDbLine
 10
4231.490686
 20
-85.573568
 30
0.0
 11
4276.70172
 21
-85.573568
 31
0.0
  0
LINE
  5
3C42
330
426F
100
AcDbEntity
  8
V0-VYPLNE
  6
DASHED
 62
    52
 48
1.5
100
AcDbLine
 10
4231.490686
 20
-67.398752
 30
0.0
 11
4236.038585
 21
-67.398752
 31
0.0
  0
LINE
  5
3C43
330
426F
100
AcDbEntity
  8
V0-VYPLNE
  6
DASHED
 62
    52
 48
1.5
100
AcDbLine
 10
4232.248672
 20
-14.388873
 30
0.0
 11
4276.70172
 21
-14.388873
 31
0.0
  0
LINE
  5
3C44
330
426F
100
AcDbEntity
  8
V0-VYPLNE
  6
DASHED
 62
    52
 48
1.5
100
AcDbLine
 10
4232.248672
 20
-49.223939
 30
0.0
 11
4276.70172
 21
-49.223939
 31
0.0
  0
LINE
  5
3C45
330
426F
100
AcDbEntity
  8
V0-VYPLNE
  6
DASHED
 62
    52
 48
1.5
100
AcDbLine
 10
4231.490686
 20
-30.291839
 30
0.0
 11
4276.70172
 21
-30.291839
 31
0.0
  0
LINE
  5
3C46
330
426F
100
AcDbEntity
  8
V0-VYPLNE
  6
DASHED
 62
    52
 48
1.5
100
AcDbLine
 10
4299.709164
 20
-16.767174
 30
0.0
 11
4299.709164
 21
-98.85437400000001
 31
0.0
  0
ARC
  5
3C47
330
426F
100
AcDbEntity
  8
V0-VYPLNE
  6
DASHED
 62
    52
 48
1.5
100
AcDbCircle
 10
4291.816164
 20
-16.767174
 30
0.0
 40
7.893
100
AcDbArc
 50
0.0
 51
90.0
  0
LINE
  5
3C6D
330
426F
100
AcDbEntity
  8
V0-VYPLNE
  6
DASHED
 62
    52
 48
1.5
100
AcDbLine
 10
4215.754064
 20
-233.085779
 30
0.0
 11
4240.848473
 21
-220.343869
 31
0.0
  0
LINE
  5
3C6E
330
426F
100
AcDbEntity
  8
V0-VYPLNE
  6
DASHED
 62
    52
 48
1.5
100
AcDbLine
 10
4215.754064
 20
-237.457069
 30
0.0
 11
4244.746103
 21
-222.736104
 31
0.0
  0
LINE
  5
3C6F
330
426F
100
AcDbEntity
  8
V0-VYPLNE
  6
DASHED
 62
    52
 48
1.5
100
AcDbLine
 10
4219.651694
 20
-341.50262
 30
0.0
 11
4239.189922
 21
-341.50262
 31
0.0
  0
LINE
  5
3C70
330
426F
100
AcDbEntity
  8
V0-VYPLNE
  6
DASHED
 62
    52
 48
1.5
100
AcDbLine
 10
4215.754064
 20
-345.40025
 30
0.0
 11
4239.189922
 21
-345.40025
 31
0.0
  0
LINE
  5
3C71
330
426F
100
AcDbEntity
  8
V0-VYPLNE
  6
DASHED
 62
    52
 48
1.5
100
AcDbLine
 10
4215.754064
 20
147.691502
 30
0.0
 11
4239.189922
 21
147.691502
 31
0.0
  0
LINE
  5
3C72
330
426F
100
AcDbEntity
  8
V0-VYPLNE
  6
DASHED
 62
    52
 48
1.5
100
AcDbLine
 10
4219.651694
 20
143.793872
 30
0.0
 11
4239.189922
 21
143.793872
 31
0.0
  0
LINE
  5
3C73
330
426F
100
AcDbEntity
  8
V0-VYPLNE
  6
DASHED
 62
    52
 48
1.5
100
AcDbLine
 10
4215.754064
 20
39.748321
 30
0.0
 11
4244.746103
 21
25.027356
 31
0.0
  0
LINE
  5
3C74
330
426F
100
AcDbEntity
  8
V0-VYPLNE
  6
DASHED
 62
    52
 48
1.5
100
AcDbLine
 10
4215.754064
 20
35.377031
 30
0.0
 11
4240.848473
 21
22.635121
 31
0.0
  0
LINE
  5
3C75
330
426F
100
AcDbEntity
  8
V0-VYPLNE
  6
DASHED
 62
    52
 48
1.5
100
AcDbLine
 10
4215.754064
 20
-346.353879
 30
0.0
 11
4215.754064
 21
-233.085779
 31
0.0
  0
LINE
  5
3C76
330
426F
100
AcDbEntity
  8
V0-VYPLNE
  6
DASHED
 62
    52
 48
1.5
100
AcDbLine
 10
4219.651694
 20
-341.50262
 30
0.0
 11
4219.651694
 21
-235.271424
 31
0.0
  0
LINE
  5
3C78
330
426F
100
AcDbEntity
  8
V0-VYPLNE
  6
DASHED
 62
    52
 48
1.5
100
AcDbLine
 10
4215.754064
 20
-346.353879
 30
0.0
 11
4215.754064
 21
-345.40025
 31
0.0
  0
LINE
  5
3C79
330
426F
100
AcDbEntity
  8
V0-VYPLNE
  6
DASHED
 62
    52
 48
1.5
100
AcDbLine
 10
4219.651694
 20
143.793872
 30
0.0
 11
4219.651694
 21
37.56267600000001
 31
0.0
  0
LINE
  5
3C7A
330
426F
100
AcDbEntity
  8
V0-VYPLNE
  6
DASHED
 62
    52
 48
1.5
100
AcDbLine
 10
4215.754064
 20
143.793872
 30
0.0
 11
4215.754064
 21
35.377031
 31
0.0
  0
LINE
  5
3C7B
330
426F
100
AcDbEntity
  8
V0-VYPLNE
  6
DASHED
 62
    52
 48
1.5
100
AcDbLine
 10
4215.754064
 20
148.645131
 30
0.0
 11
4215.754064
 21
147.691502
 31
0.0
  0
LINE
  5
3C7C
330
426F
100
AcDbEntity
  8
V0-VYPLNE
  6
DASHED
 62
    52
 48
1.5
100
AcDbLine
 10
4244.746103
 20
25.027356
 30
0.0
 11
4244.746103
 21
-8.874174
 31
0.0
  0
LINE
  5
3C7D
330
426F
100
AcDbEntity
  8
V0-VYPLNE
  6
DASHED
 62
    52
 48
1.5
100
AcDbLine
 10
4240.848473
 20
22.635121
 30
0.0
 11
4240.848473
 21
-8.874174
 31
0.0
  0
LINE
  5
3C7E
330
426F
100
AcDbEntity
  8
V0-VYPLNE
  6
DASHED
 62
    52
 48
1.5
100
AcDbLine
 10
4240.848473
 20
-220.343869
 30
0.0
 11
4240.848473
 21
-188.834574
 31
0.0
  0
LINE
  5
3C7F
330
426F
100
AcDbEntity
  8
V0-VYPLNE
  6
DASHED
 62
    52
 48
1.5
100
AcDbLine
 10
4244.746103
 20
-222.736104
 30
0.0
 11
4244.746103
 21
-188.834574
 31
0.0
  0
LINE
  5
3CB9
330
426F
100
AcDbEntity
  8
V0-OBRYS
  6
CONTINUOUS
 62
    90
100
AcDbLine
 10
4203.426407
 20
-1148.853874
 30
0.0
 11
4203.426407
 21
-1196.204124
 31
0.0
  0
LINE
  5
3CBA
330
426F
100
AcDbEntity
  8
V0-OBRYS
  6
CONTINUOUS
 62
    90
100
AcDbLine
 10
4199.489407
 20
-898.854374
 30
0.0
 11
4199.489407
 21
-1196.204124
 31
0.0
  0
LINE
  5
3CBB
330
426F
100
AcDbEntity
  8
V0-OBRYS
  6
CONTINUOUS
 62
    90
100
AcDbLine
 10
4379.709407
 20
-898.854374
 30
0.0
 11
4379.709407
 21
-1196.204124
 31
0.0
  0
LINE
  5
3CBC
330
426F
100
AcDbEntity
  8
V0-OBRYS
  6
CONTINUOUS
 62
    90
100
AcDbLine
 10
4375.772407
 20
-1148.853874
 30
0.0
 11
4375.772407
 21
-1196.204124
 31
0.0
  0
LINE
  5
3CBD
330
426F
100
AcDbEntity
  8
V0-VYPLNE
  6
DASHDOT
 62
    63
 48
3.0
100
AcDbLine
 10
4179.804407
 20
-618.9533740000001
 30
0.0
 11
4236.193657
 21
-618.9533740000001
 31
0.0
  0
LINE
  5
3CBE
330
426F
100
AcDbEntity
  8
V0-VYPLNE
  6
DASHDOT
 62
    63
 48
3.0
100
AcDbLine
 10
4179.804407
 20
-1178.755374
 30
0.0
 11
4236.193657
 21
-1178.755374
 31
0.0
  0
LINE
  5
3CBF
330
426F
100
AcDbEntity
  8
V0-VYPLNE
 48
3.0
100
AcDbLine
 10
4428.900741
 20
-898.854374
 30
0.0
 11
4167.39303
 21
-898.854374
 31
0.0
  0
LINE
  5
3CC0
330
426F
100
AcDbEntity
  8
V0-VYPLNE
  6
DASHED
 62
    52
 48
1.5
100
AcDbLine
 10
4368.857496
 20
-777.0168210000001
 30
0.0
 11
4349.094047
 21
-652.903988
 31
0.0
  0
LINE
  5
3CC1
330
426F
100
AcDbEntity
  8
V0-VYPLNE
  6
DASHED
 62
    52
 48
1.5
100
AcDbLine
 10
4300.561055
 20
-777.0168210000001
 30
0.0
 11
4320.324504
 21
-652.903988
 31
0.0
  0
LINE
  5
3CC2
330
426F
100
AcDbEntity
  8
V0-VYPLNE
  6
DASHED
 62
    52
 48
1.5
100
AcDbLine
 10
4215.754064
 20
-760.251679
 30
0.0
 11
4244.746103
 21
-774.972644
 31
0.0
  0
LINE
  5
3CC3
330
426F
100
AcDbEntity
  8
V0-VYPLNE
  6
DASHED
 62
    52
 48
1.5
100
AcDbLine
 10
4219.651694
 20
-656.206128
 30
0.0
 11
4219.651694
 21
-762.437324
 31
0.0
  0
LINE
  5
3CC4
330
426F
100
AcDbEntity
  8
V0-VYPLNE
  6
DASHED
 62
    52
 48
1.5
100
AcDbLine
 10
4215.754064
 20
-656.206128
 30
0.0
 11
4215.754064
 21
-764.622969
 31
0.0
  0
LINE
  5
3CC5
330
426F
100
AcDbEntity
  8
V0-OBRYS
  6
CONTINUOUS
 62
    90
100
AcDbLine
 10
4199.489407
 20
-898.854374
 30
0.0
 11
4199.489407
 21
-601.504624
 31
0.0
  0
LINE
  5
3CC6
330
426F
100
AcDbEntity
  8
V0-OBRYS
  6
CONTINUOUS
 62
    90
100
AcDbLine
 10
4379.709407
 20
-898.854374
 30
0.0
 11
4379.709407
 21
-601.504624
 31
0.0
  0
LINE
  5
3CC7
330
426F
100
AcDbEntity
  8
V0-VYPLNE
  6
DASHED
 62
    52
 48
1.5
100
AcDbLine
 10
4300.609275
 20
-897.873962
 30
0.0
 11
4300.609275
 21
-1009.593962
 31
0.0
  0
LINE
  5
3CC8
330
426F
100
AcDbEntity
  8
V0-VYPLNE
  6
DASHED
 62
    52
 48
1.5
100
AcDbLine
 10
4334.709275
 20
-1015.19491
 30
0.0
 11
4334.709275
 21
-897.873962
 31
0.0
  0
LINE
  5
3CC9
330
426F
100
AcDbEntity
  8
V0-VYPLNE
  6
DASHED
 62
    52
 48
1.5
100
AcDbLine
 10
4299.709164
 20
-980.941574
 30
0.0
 11
4299.709164
 21
-898.854374
 31
0.0
  0
LINE
  5
3CCA
330
426F
100
AcDbEntity
  8
V0-VYPLNE
  6
DASHED
 62
    52
 48
1.5
100
AcDbLine
 10
4232.50092
 20
-898.854374
 30
0.0
 11
4232.50092
 21
-988.834574
 31
0.0
  0
ARC
  5
3CCB
330
426F
100
AcDbEntity
  8
V0-VYPLNE
  6
DASHED
 62
    52
 48
1.5
100
AcDbCircle
 10
4218.29352
 20
-973.048574
 30
0.0
 40
15.786
100
AcDbArc
 50
180.0
 51
270.0
  0
LINE
  5
3CCC
330
426F
100
AcDbEntity
  8
V0-VYPLNE
  6
DASHED
 62
    52
 48
1.5
100
AcDbLine
 10
4232.248672
 20
-983.319875
 30
0.0
 11
4202.687332
 21
-961.35864
 31
0.0
  0
ARC
  5
3CCD
330
426F
100
AcDbEntity
  8
V0-VYPLNE
  6
DASHED
 62
    52
 48
2.0
100
AcDbCircle
 10
3066.967715
 20
-885.061249
 30
0.0
 40
1307.784327
100
AcDbArc
 50
354.845307
 51
359.438649
  0
LINE
  5
3CCE
330
426F
100
AcDbEntity
  8
V0-VYPLNE
  6
DASHED
 62
    52
 48
1.5
100
AcDbLine
 10
4368.857496
 20
-1018.731104
 30
0.0
 11
4349.094047
 21
-1142.843937
 31
0.0
  0
LINE
  5
3CCF
330
426F
100
AcDbEntity
  8
V0-VYPLNE
  6
DASHED
 62
    52
 48
1.5
100
AcDbLine
 10
4300.561055
 20
-1018.731104
 30
0.0
 11
4320.324504
 21
-1142.843937
 31
0.0
  0
LINE
  5
3CD0
330
426F
100
AcDbEntity
  8
V0-VYPLNE
  6
DASHED
 62
    52
 48
1.5
100
AcDbLine
 10
4215.754064
 20
-1146.353879
 30
0.0
 11
4215.754064
 21
-1033.085779
 31
0.0
  0
LINE
  5
3CD1
330
426F
100
AcDbEntity
  8
V0-VYPLNE
  6
DASHED
 62
    52
 48
1.5
100
AcDbLine
 10
4219.651694
 20
-1141.50262
 30
0.0
 11
4219.651694
 21
-1035.271424
 31
0.0
  0
LINE
  5
3CD2
330
426F
100
AcDbEntity
  8
V0-VYPLNE
  6
DASHED
 62
    52
 48
1.5
100
AcDbLine
 10
4320.324504
 20
-1142.843937
 30
0.0
 11
4349.094047
 21
-1142.843937
 31
0.0
  0
LINE
  5
3CD3
330
426F
100
AcDbEntity
  8
V0-OBRYS
  6
CONTINUOUS
 62
    90
100
AcDbLine
 10
4375.772407
 20
-1148.853874
 30
0.0
 11
4203.426407
 21
-1148.853874
 31
0.0
  0
LINE
  5
3CD4
330
426F
100
AcDbEntity
  8
V0-VYPLNE
  6
DASHED
 62
    52
 48
1.5
100
AcDbLine
 10
4219.651694
 20
-1141.50262
 30
0.0
 11
4239.189922
 21
-1141.50262
 31
0.0
  0
LINE
  5
3CD5
330
426F
100
AcDbEntity
  8
V0-VYPLNE
  6
DASHED
 62
    52
 48
1.5
100
AcDbLine
 10
4215.754064
 20
-1145.40025
 30
0.0
 11
4239.189922
 21
-1145.40025
 31
0.0
  0
LINE
  5
3CD7
330
426F
100
AcDbEntity
  8
V0-VYPLNE
  6
DASHED
 62
    52
 48
1.5
100
AcDbLine
 10
4215.754064
 20
-1146.353879
 30
0.0
 11
4215.754064
 21
-1145.40025
 31
0.0
  0
LINE
  5
3CD8
330
426F
100
AcDbEntity
  8
V0-VYPLNE
  6
DASHDOT
 62
    63
 48
3.0
100
AcDbLine
 10
4347.226438
 20
-1178.755374
 30
0.0
 11
4402.289332
 21
-1178.755374
 31
0.0
  0
ARC
  5
3CD9
330
426F
100
AcDbEntity
  8
V0-VYPLNE
  6
DASHED
 62
    52
 48
1.5
100
AcDbCircle
 10
4333.813325
 20
-913.9659840000001
 30
0.0
 40
101.228549
100
AcDbArc
 50
250.851921
 51
286.026636
  0
LINE
  5
3CDA
330
426F
100
AcDbEntity
  8
V0-VYPLNE
  6
DASHED
 62
    52
 48
1.5
100
AcDbLine
 10
4215.754064
 20
-1033.085779
 30
0.0
 11
4240.848473
 21
-1020.343869
 31
0.0
  0
LINE
  5
3CDB
330
426F
100
AcDbEntity
  8
V0-VYPLNE
  6
DASHED
 62
    52
 48
1.5
100
AcDbLine
 10
4215.754064
 20
-1037.457069
 30
0.0
 11
4244.746103
 21
-1022.736104
 31
0.0
  0
LINE
  5
3CDC
330
426F
100
AcDbEntity
  8
V0-VYPLNE
  6
DASHED
 62
    52
 48
1.5
100
AcDbLine
 10
4232.248672
 20
-983.319875
 30
0.0
 11
4276.70172
 21
-983.319875
 31
0.0
  0
LINE
  5
3CDD
330
426F
100
AcDbEntity
  8
V0-VYPLNE
  6
DASHED
 62
    52
 48
1.5
100
AcDbLine
 10
4218.29352
 20
-988.834574
 30
0.0
 11
4276.70172
 21
-988.834574
 31
0.0
  0
LINE
  5
3CDE
330
426F
100
AcDbEntity
  8
V0-VYPLNE
  6
DASHED
 62
    52
 48
1.5
100
AcDbLine
 10
4244.746103
 20
-1022.736104
 30
0.0
 11
4244.746103
 21
-988.834574
 31
0.0
  0
LINE
  5
3CDF
330
426F
100
AcDbEntity
  8
V0-VYPLNE
  6
DASHED
 62
    52
 48
1.5
100
AcDbLine
 10
4240.848473
 20
-1020.343869
 30
0.0
 11
4240.848473
 21
-988.834574
 31
0.0
  0
LINE
  5
3CE0
330
426F
100
AcDbEntity
  8
V0-VYPLNE
  6
DASHED
 62
    52
 48
1.5
100
AcDbLine
 10
4308.089989
 20
-1011.209114
 30
0.0
 11
4300.561055
 21
-1018.731104
 31
0.0
  0
LINE
  5
3CE1
330
426F
100
AcDbEntity
  8
V0-VYPLNE
  6
DASHED
 62
    52
 48
1.5
100
AcDbLine
 10
4276.70172
 20
-983.319875
 30
0.0
 11
4299.709164
 21
-983.319875
 31
0.0
  0
ARC
  5
3CE2
330
426F
100
AcDbEntity
  8
V0-VYPLNE
  6
DASHED
 62
    52
 48
1.5
100
AcDbCircle
 10
4291.816164
 20
-980.941574
 30
0.0
 40
7.893
100
AcDbArc
 50
270.0
 51
0.0
  0
LINE
  5
3CE3
330
426F
100
AcDbEntity
  8
V0-VYPLNE
  6
DASHED
 62
    52
 48
1.5
100
AcDbLine
 10
4276.70172
 20
-988.834574
 30
0.0
 11
4291.816164
 21
-988.834574
 31
0.0
  0
ARC
  5
3CE4
330
426F
100
AcDbEntity
  8
V0-VYPLNE
  6
DASHED
 62
    52
 48
1.5
100
AcDbCircle
 10
4359.702676
 20
-1001.67871
 30
0.0
 40
9.800000000000001
100
AcDbArc
 50
282.123858
 51
354.845307
  0
LINE
  5
3CE5
330
426F
100
AcDbEntity
  8
V0-VYPLNE
  6
DASHED
 62
    52
 48
1.5
100
AcDbLine
 10
4361.328562
 20
-1011.209114
 30
0.0
 11
4368.857496
 21
-1018.731104
 31
0.0
  0
LINE
  5
3CE6
330
426F
100
AcDbEntity
  8
V0-VYPLNE
  6
DASHED
 62
    52
 48
1.5
100
AcDbLine
 10
4300.609275
 20
-897.873962
 30
0.0
 11
4300.609275
 21
-786.153962
 31
0.0
  0
LINE
  5
3CE7
330
426F
100
AcDbEntity
  8
V0-VYPLNE
  6
DASHED
 62
    52
 48
1.5
100
AcDbLine
 10
4334.709275
 20
-780.553015
 30
0.0
 11
4334.709275
 21
-897.873962
 31
0.0
  0
LINE
  5
3CE8
330
426F
100
AcDbEntity
  8
V0-VYPLNE
  6
DASHED
 62
    52
 48
1.5
100
AcDbLine
 10
4299.709164
 20
-816.767174
 30
0.0
 11
4299.709164
 21
-898.854374
 31
0.0
  0
LINE
  5
3CE9
330
426F
100
AcDbEntity
  8
V0-VYPLNE
  6
DASHED
 62
    52
 48
1.5
100
AcDbLine
 10
4232.50092
 20
-898.854374
 30
0.0
 11
4232.50092
 21
-808.874174
 31
0.0
  0
LINE
  5
3CEA
330
426F
100
AcDbEntity
  8
V0-VYPLNE
  6
DASHED
 62
    52
 48
1.5
100
AcDbLine
 10
4202.50752
 20
-898.854374
 30
0.0
 11
4202.50752
 21
-824.660174
 31
0.0
  0
LINE
  5
3CEB
330
426F
100
AcDbEntity
  8
V0-VYPLNE
  6
DASHED
 62
    52
 48
1.5
100
AcDbLine
 10
4231.490686
 20
-867.3987519999999
 30
0.0
 11
4202.687332
 21
-870.4278900000001
 31
0.0
  0
ARC
  5
3CEC
330
426F
100
AcDbEntity
  8
V0-VYPLNE
  6
DASHED
 62
    52
 48
2.0
100
AcDbCircle
 10
3066.967715
 20
-910.686676
 30
0.0
 40
1307.784327
100
AcDbArc
 50
0.561351
 51
5.154693
  0
LINE
  5
3CED
330
426F
100
AcDbEntity
  8
V0-VYPLNE
  6
DASHED
 62
    52
 48
1.5
100
AcDbLine
 10
4301.387396
 20
-911.288922
 30
0.0
 11
4372.170727
 21
-883.998779
 31
0.0
  0
CIRCLE
  5
3CEE
330
426F
100
AcDbEntity
  8
V0-VYPLNE
  6
DASHED
 62
    52
 48
1.5
100
AcDbCircle
 10
4334.709275
 20
-898.266044
 30
0.0
 40
8.305717
  0
LINE
  5
3CEF
330
426F
100
AcDbEntity
  8
V0-VYPLNE
  6
DASHED
 62
    52
 48
1.5
100
AcDbLine
 10
4202.50752
 20
-898.854374
 30
0.0
 11
4202.50752
 21
-973.048574
 31
0.0
  0
LINE
  5
3CF0
330
426F
100
AcDbEntity
  8
V0-VYPLNE
  6
DASHED
 62
    52
 48
1.5
100
AcDbLine
 10
4232.248672
 20
-948.484809
 30
0.0
 11
4276.70172
 21
-948.484809
 31
0.0
  0
LINE
  5
3CF1
330
426F
100
AcDbEntity
  8
V0-VYPLNE
  6
DASHED
 62
    52
 48
1.5
100
AcDbLine
 10
4236.038585
 20
-930.309996
 30
0.0
 11
4276.70172
 21
-930.309996
 31
0.0
  0
LINE
  5
3CF2
330
426F
100
AcDbEntity
  8
V0-VYPLNE
  6
DASHED
 62
    52
 48
1.5
100
AcDbLine
 10
4231.490686
 20
-967.416909
 30
0.0
 11
4276.70172
 21
-967.416909
 31
0.0
  0
LINE
  5
3CF3
330
426F
100
AcDbEntity
  8
V0-VYPLNE
  6
DASHED
 62
    52
 48
1.5
100
AcDbLine
 10
4231.490686
 20
-967.416909
 30
0.0
 11
4203.445312
 21
-952.27123
 31
0.0
  0
LINE
  5
3CF4
330
426F
100
AcDbEntity
  8
V0-VYPLNE
  6
DASHED
 62
    52
 48
1.5
100
AcDbLine
 10
4231.490686
 20
-930.309996
 30
0.0
 11
4202.687332
 21
-927.280858
 31
0.0
  0
LINE
  5
3CF5
330
426F
100
AcDbEntity
  8
V0-VYPLNE
  6
DASHED
 62
    52
 48
1.5
100
AcDbLine
 10
4232.248672
 20
-948.484809
 30
0.0
 11
4201.929346
 21
-941.669253
 31
0.0
  0
LINE
  5
3CF6
330
426F
100
AcDbEntity
  8
V0-VYPLNE
  6
DASHED
 62
    52
 48
1.5
100
AcDbLine
 10
4231.490686
 20
-930.309996
 30
0.0
 11
4236.038585
 21
-930.309996
 31
0.0
  0
LINE
  5
3CF7
330
426F
100
AcDbEntity
  8
V0-VYPLNE
  6
DASHED
 62
    52
 48
1.5
100
AcDbLine
 10
4276.70172
 20
-967.416909
 30
0.0
 11
4299.709164
 21
-967.416909
 31
0.0
  0
LINE
  5
3CF8
330
426F
100
AcDbEntity
  8
V0-VYPLNE
  6
DASHED
 62
    52
 48
1.5
100
AcDbLine
 10
4276.70172
 20
-948.484809
 30
0.0
 11
4298.951184
 21
-948.484809
 31
0.0
  0
LINE
  5
3CF9
330
426F
100
AcDbEntity
  8
V0-VYPLNE
  6
DASHED
 62
    52
 48
1.5
100
AcDbLine
 10
4276.70172
 20
-930.309996
 30
0.0
 11
4299.709164
 21
-930.309996
 31
0.0
  0
LINE
  5
3CFA
330
426F
100
AcDbEntity
  8
V0-VYPLNE
  6
DASHED
 62
    52
 48
1.5
100
AcDbLine
 10
4231.490686
 20
-885.573568
 30
0.0
 11
4276.70172
 21
-885.573568
 31
0.0
  0
LINE
  5
3CFB
330
426F
100
AcDbEntity
  8
V0-VYPLNE
  6
DASHED
 62
    52
 48
1.5
100
AcDbLine
 10
4231.490686
 20
-912.135179
 30
0.0
 11
4276.70172
 21
-912.135179
 31
0.0
  0
LINE
  5
3CFC
330
426F
100
AcDbEntity
  8
V0-VYPLNE
  6
DASHED
 62
    52
 48
1.5
100
AcDbLine
 10
4231.490686
 20
-912.135179
 30
0.0
 11
4202.687332
 21
-911.377896
 31
0.0
  0
LINE
  5
3CFD
330
426F
100
AcDbEntity
  8
V0-VYPLNE
  6
DASHED
 62
    52
 48
1.5
100
AcDbLine
 10
4231.490686
 20
-885.573568
 30
0.0
 11
4202.687332
 21
-886.3308520000001
 31
0.0
  0
LINE
  5
3CFE
330
426F
100
AcDbEntity
  8
V0-VYPLNE
  6
DASHED
 62
    52
 48
1.5
100
AcDbLine
 10
4276.70172
 20
-912.135179
 30
0.0
 11
4298.951184
 21
-912.135179
 31
0.0
  0
LINE
  5
3CFF
330
426F
100
AcDbEntity
  8
V0-VYPLNE
  6
DASHED
 62
    52
 48
1.5
100
AcDbLine
 10
4276.70172
 20
-885.573568
 30
0.0
 11
4298.951184
 21
-885.573568
 31
0.0
  0
ARC
  5
3D00
330
426F
100
AcDbEntity
  8
V0-VYPLNE
  6
DASHED
 62
    52
 48
1.5
100
AcDbCircle
 10
4333.813325
 20
-881.781941
 30
0.0
 40
101.228549
100
AcDbArc
 50
73.97336400000002
 51
109.148079
  0
ARC
  5
3D01
330
426F
100
AcDbEntity
  8
V0-VYPLNE
  6
DASHED
 62
    52
 48
1.5
100
AcDbCircle
 10
4291.816164
 20
-816.767174
 30
0.0
 40
7.893
100
AcDbArc
 50
0.0
 51
90.0
  0
ARC
  5
3D02
330
426F
100
AcDbEntity
  8
V0-VYPLNE
  6
DASHED
 62
    52
 48
1.5
100
AcDbCircle
 10
4218.29352
 20
-824.660174
 30
0.0
 40
15.786
100
AcDbArc
 50
90.0
 51
180.0
  0
LINE
  5
3D03
330
426F
100
AcDbEntity
  8
V0-VYPLNE
  6
DASHED
 62
    52
 48
1.5
100
AcDbLine
 10
4232.248672
 20
-814.388873
 30
0.0
 11
4202.687332
 21
-836.350108
 31
0.0
  0
LINE
  5
3D04
330
426F
100
AcDbEntity
  8
V0-VYPLNE
  6
DASHED
 62
    52
 48
1.5
100
AcDbLine
 10
4231.490686
 20
-830.291839
 30
0.0
 11
4276.70172
 21
-830.291839
 31
0.0
  0
LINE
  5
3D05
330
426F
100
AcDbEntity
  8
V0-VYPLNE
  6
DASHED
 62
    52
 48
1.5
100
AcDbLine
 10
4232.248672
 20
-849.223939
 30
0.0
 11
4276.70172
 21
-849.223939
 31
0.0
  0
LINE
  5
3D06
330
426F
100
AcDbEntity
  8
V0-VYPLNE
  6
DASHED
 62
    52
 48
1.5
100
AcDbLine
 10
4236.038585
 20
-867.3987519999999
 30
0.0
 11
4276.70172
 21
-867.3987519999999
 31
0.0
  0
LINE
  5
3D07
330
426F
100
AcDbEntity
  8
V0-VYPLNE
  6
DASHED
 62
    52
 48
1.5
100
AcDbLine
 10
4231.490686
 20
-830.291839
 30
0.0
 11
4203.445312
 21
-845.437518
 31
0.0
  0
LINE
  5
3D08
330
426F
100
AcDbEntity
  8
V0-VYPLNE
  6
DASHED
 62
    52
 48
1.5
100
AcDbLine
 10
4232.248672
 20
-849.223939
 30
0.0
 11
4201.929346
 21
-856.039495
 31
0.0
  0
LINE
  5
3D09
330
426F
100
AcDbEntity
  8
V0-VYPLNE
  6
DASHED
 62
    52
 48
1.5
100
AcDbLine
 10
4231.490686
 20
-867.3987519999999
 30
0.0
 11
4236.038585
 21
-867.3987519999999
 31
0.0
  0
LINE
  5
3D0A
330
426F
100
AcDbEntity
  8
V0-VYPLNE
  6
DASHED
 62
    52
 48
1.5
100
AcDbLine
 10
4276.70172
 20
-867.3987519999999
 30
0.0
 11
4299.709164
 21
-867.3987519999999
 31
0.0
  0
LINE
  5
3D0B
330
426F
100
AcDbEntity
  8
V0-VYPLNE
  6
DASHED
 62
    52
 48
1.5
100
AcDbLine
 10
4276.70172
 20
-849.223939
 30
0.0
 11
4298.951184
 21
-849.223939
 31
0.0
  0
LINE
  5
3D0C
330
426F
100
AcDbEntity
  8
V0-VYPLNE
  6
DASHED
 62
    52
 48
1.5
100
AcDbLine
 10
4276.70172
 20
-830.291839
 30
0.0
 11
4299.709164
 21
-830.291839
 31
0.0
  0
LINE
  5
3D0D
330
426F
100
AcDbEntity
  8
V0-VYPLNE
  6
DASHED
 62
    52
 48
1.5
100
AcDbLine
 10
4232.248672
 20
-814.388873
 30
0.0
 11
4276.70172
 21
-814.388873
 31
0.0
  0
LINE
  5
3D0E
330
426F
100
AcDbEntity
  8
V0-VYPLNE
  6
DASHED
 62
    52
 48
1.5
100
AcDbLine
 10
4218.29352
 20
-808.874174
 30
0.0
 11
4276.70172
 21
-808.874174
 31
0.0
  0
LINE
  5
3D0F
330
426F
100
AcDbEntity
  8
V0-VYPLNE
  6
DASHED
 62
    52
 48
1.5
100
AcDbLine
 10
4240.848473
 20
-777.364879
 30
0.0
 11
4240.848473
 21
-808.874174
 31
0.0
  0
LINE
  5
3D10
330
426F
100
AcDbEntity
  8
V0-VYPLNE
  6
DASHED
 62
    52
 48
1.5
100
AcDbLine
 10
4244.746103
 20
-774.972644
 30
0.0
 11
4244.746103
 21
-808.874174
 31
0.0
  0
LINE
  5
3D11
330
426F
100
AcDbEntity
  8
V0-VYPLNE
  6
DASHED
 62
    52
 48
1.5
100
AcDbLine
 10
4215.754064
 20
-764.622969
 30
0.0
 11
4240.848473
 21
-777.364879
 31
0.0
  0
LINE
  5
3D12
330
426F
100
AcDbEntity
  8
V0-VYPLNE
  6
DASHED
 62
    52
 48
1.5
100
AcDbLine
 10
4276.70172
 20
-814.388873
 30
0.0
 11
4299.709164
 21
-814.388873
 31
0.0
  0
LINE
  5
3D13
330
426F
100
AcDbEntity
  8
V0-VYPLNE
  6
DASHED
 62
    52
 48
1.5
100
AcDbLine
 10
4276.70172
 20
-808.874174
 30
0.0
 11
4291.816164
 21
-808.874174
 31
0.0
  0
LINE
  5
3D14
330
426F
100
AcDbEntity
  8
V0-VYPLNE
  6
DASHED
 62
    52
 48
1.5
100
AcDbLine
 10
4308.089989
 20
-784.538811
 30
0.0
 11
4300.561055
 21
-777.0168210000001
 31
0.0
  0
LINE
  5
3D15
330
426F
100
AcDbEntity
  8
V0-VYPLNE
  6
DASHED
 62
    52
 48
1.5
100
AcDbLine
 10
4361.328562
 20
-784.538811
 30
0.0
 11
4368.857496
 21
-777.0168210000001
 31
0.0
  0
LINE
  5
3D16
330
426F
100
AcDbEntity
  8
V0-VYPLNE
  6
DASHED
 62
    52
 48
1.5
100
AcDbLine
 10
4219.651694
 20
-656.206128
 30
0.0
 11
4239.189922
 21
-656.206128
 31
0.0
  0
LINE
  5
3D17
330
426F
100
AcDbEntity
  8
V0-VYPLNE
  6
DASHED
 62
    52
 48
1.5
100
AcDbLine
 10
4320.324504
 20
-652.903988
 30
0.0
 11
4349.094047
 21
-652.903988
 31
0.0
  0
LINE
  5
3D18
330
426F
100
AcDbEntity
  8
V0-OBRYS
  6
CONTINUOUS
 62
    90
100
AcDbLine
 10
4375.772407
 20
-648.854874
 30
0.0
 11
4203.426407
 21
-648.854874
 31
0.0
  0
LINE
  5
3D19
330
426F
100
AcDbEntity
  8
V0-OBRYS
  6
CONTINUOUS
 62
    90
100
AcDbLine
 10
4203.426407
 20
-1148.853874
 30
0.0
 11
4203.426407
 21
-601.504624
 31
0.0
  0
LINE
  5
3D1A
330
426F
100
AcDbEntity
  8
V0-VYPLNE
  6
DASHED
 62
    52
 48
1.5
100
AcDbLine
 10
4215.754064
 20
-652.308498
 30
0.0
 11
4239.189922
 21
-652.308498
 31
0.0
  0
LINE
  5
3D1B
330
426F
100
AcDbEntity
  8
V0-VYPLNE
  6
DASHED
 62
    52
 48
1.5
100
AcDbLine
 10
4215.754064
 20
-651.354869
 30
0.0
 11
4215.754064
 21
-652.308498
 31
0.0
  0
LINE
  5
3D1C
330
426F
100
AcDbEntity
  8
V0-OBRYS
  6
CONTINUOUS
 62
    90
100
AcDbLine
 10
4375.772407
 20
-1148.853874
 30
0.0
 11
4375.772407
 21
-601.504624
 31
0.0
  0
LINE
  5
3D1D
330
426F
100
AcDbEntity
  8
V0-VYPLNE
  6
DASHDOT
 62
    63
 48
3.0
100
AcDbLine
 10
4357.226438
 20
-618.9533740000001
 30
0.0
 11
4402.289332
 21
-618.9533740000001
 31
0.0
  0
LINE
  5
3DF3
330
426F
100
AcDbEntity
  8
V0-VYPLNE
100
AcDbLine
 10
5029.709044
 20
-98.85437400000001
 30
0.0
 11
5029.709044
 21
204.920519
 31
0.0
  0
CIRCLE
  5
3DF4
330
426F
100
AcDbEntity
  8
V0-VYPLNE
  6
DASHDOT
 62
    63
100
AcDbCircle
 10
5029.709044
 20
-98.85437400000001
 30
0.0
 40
279.928574
  0
CIRCLE
  5
3DF5
330
426F
100
AcDbEntity
  8
V0-OBRYS
  6
CONTINUOUS
 62
    90
100
AcDbCircle
 10
5029.709044
 20
-98.85437400000001
 30
0.0
 40
297.389169
  0
LINE
  5
3DF6
330
426F
100
AcDbEntity
  8
V0-OBRYS
  6
CONTINUOUS
 62
    90
100
AcDbLine
 10
5197.728102
 20
79.808758
 30
0.0
 11
5162.034539
 21
54.865392
 31
0.0
  0
LINE
  5
3DF7
330
426F
100
AcDbEntity
  8
V0-OBRYS
  6
CONTINUOUS
 62
    90
100
AcDbLine
 10
5206.668378
 20
-6.184394
 30
0.0
 11
5181.324297
 21
-29.16198
 31
0.0
  0
LINE
  5
3DF8
330
426F
100
AcDbEntity
  8
V0-OBRYS
  6
CONTINUOUS
 62
    90
100
AcDbLine
 10
5193.45446
 20
-94.94635100000001
 30
0.0
 11
5161.121048
 21
-85.37983
 31
0.0
  0
LINE
  5
3DF9
330
426F
100
AcDbEntity
  8
V0-OBRYS
  6
CONTINUOUS
 62
    90
100
AcDbLine
 10
5212.493692
 20
-179.427965
 30
0.0
 11
5178.727316
 21
-173.939455
 31
0.0
  0
LINE
  5
3DFA
330
426F
100
AcDbEntity
  8
VO-OBRYS
  6
CONTINUOUS
100
AcDbLine
 10
5109.053237
 20
-152.390614
 30
0.0
 11
5218.917763
 21
-262.255141
 31
0.0
  0
LINE
  5
3DFB
330
426F
100
AcDbEntity
  8
VO-OBRYS
  6
CONTINUOUS
100
AcDbLine
 10
5108.7955
 20
-147.785848
 30
0.0
 11
5220.918713
 21
-259.909062
 31
0.0
  0
LINE
  5
3DFC
330
426F
100
AcDbEntity
  8
VO-OBRYS
  6
CONTINUOUS
100
AcDbLine
 10
5083.245284
 20
-178.198567
 30
0.0
 11
5193.109811
 21
-288.063093
 31
0.0
  0
LINE
  5
3DFD
330
426F
100
AcDbEntity
  8
V0-VYPLNE
100
AcDbLine
 10
5029.709044
 20
-98.85437400000001
 30
0.0
 11
5221.372851
 21
-290.518181
 31
0.0
  0
CIRCLE
  5
3DFE
330
426F
100
AcDbEntity
  8
V0-OBRYS
  6
CONTINUOUS
 62
    90
100
AcDbCircle
 10
5029.709044
 20
-98.85437400000001
 30
0.0
 40
249.9995
  0
CIRCLE
  5
3DFF
330
426F
100
AcDbEntity
  8
V0-OBRYS
  6
CONTINUOUS
 62
    90
100
AcDbCircle
 10
5029.709044
 20
-98.85437400000001
 30
0.0
 40
199.755679
  0
CIRCLE
  5
3E00
330
426F
100
AcDbEntity
  8
V0-OBRYS
  6
CONTINUOUS
 62
    90
100
AcDbCircle
 10
5029.709044
 20
-98.85437400000001
 30
0.0
 40
202.829493
  0
LINE
  5
3E01
330
426F
100
AcDbEntity
  8
VO-OBRYS
  6
CONTINUOUS
100
AcDbLine
 10
5109.053237
 20
-45.318134
 30
0.0
 11
5218.917763
 21
64.546393
 31
0.0
  0
LINE
  5
3E02
330
426F
100
AcDbEntity
  8
VO-OBRYS
  6
CONTINUOUS
100
AcDbLine
 10
5083.245284
 20
-19.510181
 30
0.0
 11
5193.109811
 21
90.354345
 31
0.0
  0
LINE
  5
3E03
330
426F
100
AcDbEntity
  8
V0-VYPLNE
100
AcDbLine
 10
5029.709044
 20
-98.85437400000001
 30
0.0
 11
5203.13182
 21
74.56840199999999
 31
0.0
  0
LINE
  5
3E04
330
426F
100
AcDbEntity
  8
VO-OBRYS
  6
CONTINUOUS
100
AcDbLine
 10
5108.7955
 20
-49.9229
 30
0.0
 11
5220.918713
 21
62.20031399999999
 31
0.0
  0
LINE
  5
3E05
330
426F
100
AcDbEntity
  8
V0-VYPLNE
100
AcDbLine
 10
5327.76076
 20
-98.85437400000001
 30
0.0
 11
4697.4549
 21
-98.85437400000001
 31
0.0
  0
LINE
  5
3E06
330
426F
100
AcDbEntity
  8
V0-OBRYS
  6
CONTINUOUS
 62
    90
100
AcDbLine
 10
5120.925702
 20
-190.109729
 30
0.0
 11
5110.764383
 21
-165.072215
 31
0.0
  0
LINE
  5
3E07
330
426F
100
AcDbEntity
  8
V0-OBRYS
  6
CONTINUOUS
 62
    90
100
AcDbLine
 10
5020.83727
 20
-215.510174
 30
0.0
 11
5023.694451
 21
-177.94083
 31
0.0
  0
LINE
  5
3E08
330
426F
100
AcDbEntity
  8
V0-OBRYS
  6
CONTINUOUS
 62
    90
100
AcDbLine
 10
5038.580818
 20
-215.510174
 30
0.0
 11
5035.723637
 21
-177.94083
 31
0.0
  0
LINE
  5
3E09
330
426F
100
AcDbEntity
  8
V0-OBRYS
  6
CONTINUOUS
 62
    90
100
AcDbLine
 10
5048.181154
 20
-175.21735
 30
0.0
 11
5057.407932
 21
-213.360486
 31
0.0
  0
LINE
  5
3E0A
330
426F
100
AcDbEntity
  8
V0-OBRYS
  6
CONTINUOUS
 62
    90
100
AcDbLine
 10
5074.083379
 20
-207.448851
 30
0.0
 11
5059.42741
 21
-171.582234
 31
0.0
  0
LINE
  5
3E0B
330
426F
100
AcDbEntity
  8
V0-OBRYS
  6
CONTINUOUS
 62
    90
100
AcDbLine
 10
5070.015272
 20
-166.292723
 30
0.0
 11
5090.758825
 21
-200.999791
 31
0.0
  0
LINE
  5
3E0C
330
426F
100
AcDbEntity
  8
V0-OBRYS
  6
CONTINUOUS
 62
    90
100
AcDbLine
 10
4938.492386
 20
-190.109729
 30
0.0
 11
4948.653705
 21
-165.072215
 31
0.0
  0
LINE
  5
3E0D
330
426F
100
AcDbEntity
  8
V0-OBRYS
  6
CONTINUOUS
 62
    90
100
AcDbLine
 10
4955.344194
 20
-188.63127
 30
0.0
 11
4979.45056
 21
-159.241522
 31
0.0
  0
LINE
  5
3E0E
330
426F
100
AcDbEntity
  8
V0-OBRYS
  6
CONTINUOUS
 62
    90
100
AcDbLine
 10
4989.402816
 20
-166.292723
 30
0.0
 11
4968.659262
 21
-200.999791
 31
0.0
  0
LINE
  5
3E0F
330
426F
100
AcDbEntity
  8
V0-OBRYS
  6
CONTINUOUS
 62
    90
100
AcDbLine
 10
4985.334709
 20
-207.448851
 30
0.0
 11
4999.990678
 21
-171.582234
 31
0.0
  0
LINE
  5
3E10
330
426F
100
AcDbEntity
  8
V0-OBRYS
  6
CONTINUOUS
 62
    90
100
AcDbLine
 10
5011.236934
 20
-175.21735
 30
0.0
 11
5002.010156
 21
-213.360486
 31
0.0
  0
LINE
  5
3E11
330
426F
100
AcDbEntity
  8
V0-OBRYS
  6
CONTINUOUS
 62
    90
100
AcDbLine
 10
4800.810075
 20
-186.923556
 30
0.0
 11
4843.791386
 21
-179.937216
 31
0.0
  0
ARC
  5
3E12
330
426F
100
AcDbEntity
  8
V0-OBRYS
  6
CONTINUOUS
 62
    90
100
AcDbCircle
 10
5029.709044
 20
-98.85437400000001
 30
0.0
 40
245.256842
100
AcDbArc
 50
184.66999
 51
201.044296
  0
LINE
  5
3E13
330
426F
100
AcDbEntity
  8
VO-OBRYS
  6
CONTINUOUS
100
AcDbLine
 10
4950.364851
 20
-152.390614
 30
0.0
 11
4840.500325
 21
-262.255141
 31
0.0
  0
LINE
  5
3E14
330
426F
100
AcDbEntity
  8
VO-OBRYS
  6
CONTINUOUS
100
AcDbLine
 10
4950.622588
 20
-147.785848
 30
0.0
 11
4838.499375
 21
-259.909062
 31
0.0
  0
LINE
  5
3E15
330
426F
100
AcDbEntity
  8
VO-OBRYS
  6
CONTINUOUS
100
AcDbLine
 10
4976.172804
 20
-178.198567
 30
0.0
 11
4866.308277
 21
-288.063093
 31
0.0
  0
LINE
  5
3E16
330
426F
100
AcDbEntity
  8
V0-VYPLNE
100
AcDbLine
 10
5029.709044
 20
-98.85437400000001
 30
0.0
 11
4852.932702
 21
-275.630716
 31
0.0
  0
LINE
  5
3E17
330
426F
100
AcDbEntity
  8
VO-OBRYS
  6
CONTINUOUS
100
AcDbLine
 10
4980.77757
 20
-177.94083
 30
0.0
 11
4868.654356
 21
-290.064043
 31
0.0
  0
LINE
  5
3E18
330
426F
100
AcDbEntity
  8
V0-VYPLNE
  6
DASHDOT
100
AcDbLine
 10
5029.709044
 20
-98.85437400000001
 30
0.0
 11
5029.709044
 21
-420.704124
 31
0.0
  0
LINE
  5
3E19
330
426F
100
AcDbEntity
  8
VO-OBRYS
  6
CONTINUOUS
100
AcDbLine
 10
5078.640518
 20
-177.94083
 30
0.0
 11
5190.763731
 21
-290.064043
 31
0.0
  0
ARC
  5
3E1A
330
426F
100
AcDbEntity
  8
V0-OBRYS
  6
CONTINUOUS
 62
    90
100
AcDbCircle
 10
5029.709044
 20
-98.85437400000001
 30
0.0
 40
92.541017
100
AcDbArc
 50
238.716649
 51
329.134287
  0
LINE
  5
3E1B
330
426F
100
AcDbEntity
  8
V0-OBRYS
  6
CONTINUOUS
 62
    90
100
AcDbLine
 10
5103.289312
 20
-188.284941
 30
0.0
 11
5079.556012
 21
-159.581655
 31
0.0
  0
LINE
  5
3E1C
330
426F
100
AcDbEntity
  8
V0-OBRYS
  6
CONTINUOUS
 62
    90
100
AcDbLine
 10
4955.848131
 20
-332.725031
 30
0.0
 11
4977.184399
 21
-294.764978
 31
0.0
  0
LINE
  5
3E1D
330
426F
100
AcDbEntity
  8
V0-OBRYS
  6
CONTINUOUS
 62
    90
100
AcDbLine
 10
4892.913127
 20
-302.417131
 30
0.0
 11
4909.288547
 21
-262.068059
 31
0.0
  0
ARC
  5
3E1E
330
426F
100
AcDbEntity
  8
V0-OBRYS
  6
CONTINUOUS
 62
    90
100
AcDbCircle
 10
5029.709044
 20
-98.85437400000001
 30
0.0
 40
245.256842
100
AcDbArc
 50
236.098561
 51
252.472867
  0
LINE
  5
3E1F
330
426F
100
AcDbEntity
  8
V0-OBRYS
  6
CONTINUOUS
 62
    90
100
AcDbLine
 10
4910.48219
 20
-259.126918
 30
0.0
 11
4923.346818
 21
-227.428444
 31
0.0
  0
LINE
  5
3E20
330
426F
100
AcDbEntity
  8
V0-OBRYS
  6
CONTINUOUS
 62
    90
100
AcDbLine
 10
4924.560032
 20
-224.439083
 30
0.0
 11
4937.240177
 21
-193.195175
 31
0.0
  0
LINE
  5
3E21
330
426F
100
AcDbEntity
  8
V0-OBRYS
  6
CONTINUOUS
 62
    90
100
AcDbLine
 10
5103.569957
 20
-332.725031
 30
0.0
 11
5082.233689
 21
-294.764978
 31
0.0
  0
LINE
  5
3E22
330
426F
100
AcDbEntity
  8
V0-OBRYS
  6
CONTINUOUS
 62
    90
100
AcDbLine
 10
5080.678437
 20
-291.997979
 30
0.0
 11
5063.916537
 21
-262.176332
 31
0.0
  0
LINE
  5
3E23
330
426F
100
AcDbEntity
  8
V0-OBRYS
  6
CONTINUOUS
 62
    90
100
AcDbLine
 10
4978.73965
 20
-291.997979
 30
0.0
 11
4995.501551
 21
-262.176332
 31
0.0
  0
LINE
  5
3E24
330
426F
100
AcDbEntity
  8
V0-OBRYS
  6
CONTINUOUS
 62
    90
100
AcDbLine
 10
5015.235391
 20
-227.067212
 30
0.0
 11
5028.475029
 21
-203.512138
 31
0.0
  0
LINE
  5
3E25
330
426F
100
AcDbEntity
  8
V0-OBRYS
  6
CONTINUOUS
 62
    90
100
AcDbLine
 10
5028.475029
 20
-203.512138
 30
0.0
 11
5021.98519
 21
-192.547176
 31
0.0
  0
LINE
  5
3E26
330
426F
100
AcDbEntity
  8
V0-OBRYS
  6
CONTINUOUS
 62
    90
100
AcDbLine
 10
4997.082302
 20
-259.363967
 30
0.0
 11
5013.603832
 21
-229.969972
 31
0.0
  0
LINE
  5
3E27
330
426F
100
AcDbEntity
  8
V0-OBRYS
  6
CONTINUOUS
 62
    90
100
AcDbLine
 10
5044.182697
 20
-227.067212
 30
0.0
 11
5030.943059
 21
-203.512138
 31
0.0
  0
LINE
  5
3E28
330
426F
100
AcDbEntity
  8
V0-OBRYS
  6
CONTINUOUS
 62
    90
100
AcDbLine
 10
5062.335786
 20
-259.363967
 30
0.0
 11
5045.814256
 21
-229.969972
 31
0.0
  0
LINE
  5
3E29
330
426F
100
AcDbEntity
  8
V0-OBRYS
  6
CONTINUOUS
 62
    90
100
AcDbLine
 10
5030.943059
 20
-203.512138
 30
0.0
 11
5037.432897
 21
-192.547176
 31
0.0
  0
LINE
  5
3E2A
330
426F
100
AcDbEntity
  8
V0-OBRYS
  6
CONTINUOUS
 62
    90
100
AcDbLine
 10
5166.50496
 20
-302.417131
 30
0.0
 11
5150.129541
 21
-262.068059
 31
0.0
  0
ARC
  5
3E2B
330
426F
100
AcDbEntity
  8
V0-OBRYS
  6
CONTINUOUS
 62
    90
100
AcDbCircle
 10
5029.709044
 20
-98.85437400000001
 30
0.0
 40
245.256842
100
AcDbArc
 50
287.527133
 51
303.901439
  0
LINE
  5
3E2C
330
426F
100
AcDbEntity
  8
V0-OBRYS
  6
CONTINUOUS
 62
    90
100
AcDbLine
 10
5148.935898
 20
-259.126918
 30
0.0
 11
5136.07127
 21
-227.428444
 31
0.0
  0
LINE
  5
3E2D
330
426F
100
AcDbEntity
  8
V0-OBRYS
  6
CONTINUOUS
 62
    90
100
AcDbLine
 10
5134.858056
 20
-224.439083
 30
0.0
 11
5122.177911
 21
-193.195175
 31
0.0
  0
LINE
  5
3E2E
330
426F
100
AcDbEntity
  8
V0-OBRYS
  6
CONTINUOUS
 62
    90
100
AcDbLine
 10
4956.128776
 20
-9.423807
 30
0.0
 11
4979.862076
 21
-38.127092
 31
0.0
  0
POINT
  5
3E2F
330
426F
100
AcDbEntity
  8
V0-VYPLNE
  6
DASHED
 62
    52
100
AcDbPoint
 10
5029.709044
 20
-98.85437400000001
 30
0.0
  0
ARC
  5
3E30
330
426F
100
AcDbEntity
  8
V0-OBRYS
  6
CONTINUOUS
 62
    90
100
AcDbCircle
 10
5029.709044
 20
-98.85437400000001
 30
0.0
 40
92.541017
100
AcDbArc
 50
148.716649
 51
239.134287
  0
CIRCLE
  5
3E31
330
426F
100
AcDbEntity
  8
V0-OBRYS
  6
CONTINUOUS
 62
    90
100
AcDbCircle
 10
5029.709044
 20
-98.85437400000001
 30
0.0
 40
78.565405
  0
ARC
  5
3E32
330
426F
100
AcDbEntity
  8
V0-OBRYS
  6
CONTINUOUS
 62
    90
100
AcDbCircle
 10
5029.709044
 20
-98.85437400000001
 30
0.0
 40
92.541017
100
AcDbArc
 50
58.71664899999999
 51
149.134287
  0
LINE
  5
3E33
330
426F
100
AcDbEntity
  8
VO-OBRYS
  6
CONTINUOUS
100
AcDbLine
 10
4980.77757
 20
-19.767918
 30
0.0
 11
4868.654356
 21
92.35529499999998
 31
0.0
  0
LINE
  5
3E34
330
426F
100
AcDbEntity
  8
V0-VYPLNE
100
AcDbLine
 10
5029.709044
 20
-98.85437400000001
 30
0.0
 11
4839.135271
 21
91.71939900000001
 31
0.0
  0
LINE
  5
3E35
330
426F
100
AcDbEntity
  8
V0-OBRYS
  6
CONTINUOUS
 62
    90
100
AcDbLine
 10
4961.039267
 20
10.381519
 30
0.0
 11
4983.187932
 21
-5.096405000000001
 31
0.0
  0
LINE
  5
3E36
330
426F
100
AcDbEntity
  8
V0-OBRYS
  6
CONTINUOUS
 62
    90
100
AcDbLine
 10
4982.441031
 20
-19.767918
 30
0.0
 11
4968.659262
 21
3.291043000000002
 31
0.0
  0
LINE
  5
3E37
330
426F
100
AcDbEntity
  8
V0-OBRYS
  6
CONTINUOUS
 62
    90
100
AcDbLine
 10
4989.402816
 20
-31.416025
 30
0.0
 11
4968.659262
 21
3.291042999999998
 31
0.0
  0
LINE
  5
3E38
330
426F
100
AcDbEntity
  8
V0-OBRYS
  6
CONTINUOUS
 62
    90
100
AcDbLine
 10
4852.749709
 20
-6.184394
 30
0.0
 11
4878.093791
 21
-29.16198
 31
0.0
  0
LINE
  5
3E39
330
426F
100
AcDbEntity
  8
VO-OBRYS
  6
CONTINUOUS
100
AcDbLine
 10
4976.172804
 20
-19.510181
 30
0.0
 11
4869.670987
 21
86.991635
 31
0.0
  0
LINE
  5
3E3A
330
426F
100
AcDbEntity
  8
VO-OBRYS
  6
CONTINUOUS
100
AcDbLine
 10
4950.364851
 20
-45.318134
 30
0.0
 11
4840.500325
 21
64.546393
 31
0.0
  0
LINE
  5
3E3B
330
426F
100
AcDbEntity
  8
VO-OBRYS
  6
CONTINUOUS
100
AcDbLine
 10
4950.622588
 20
-49.9229
 30
0.0
 11
4838.499375
 21
62.20031399999999
 31
0.0
  0
LINE
  5
3E3C
330
426F
100
AcDbEntity
  8
V0-OBRYS
  6
CONTINUOUS
 62
    90
100
AcDbLine
 10
4865.963628
 20
-94.94635100000001
 30
0.0
 11
4898.29704
 21
-85.37983
 31
0.0
  0
LINE
  5
3E3D
330
426F
100
AcDbEntity
  8
V0-OBRYS
  6
CONTINUOUS
 62
    90
100
AcDbLine
 10
4846.924396
 20
-179.427965
 30
0.0
 11
4880.690772
 21
-173.939455
 31
0.0
  0
LINE
  5
3E3E
330
426F
100
AcDbEntity
  8
V0-OBRYS
  6
CONTINUOUS
 62
    90
100
AcDbLine
 10
4830.066195
 20
-105.567363
 30
0.0
 11
4862.870025
 21
-95.861659
 31
0.0
  0
LINE
  5
3E3F
330
426F
100
AcDbEntity
  8
V0-OBRYS
  6
CONTINUOUS
 62
    90
100
AcDbLine
 10
4785.266413
 20
-118.822323
 30
0.0
 11
4827.022495
 21
-106.467906
 31
0.0
  0
LINE
  5
3E40
330
426F
100
AcDbEntity
  8
V0-OBRYS
  6
CONTINUOUS
 62
    90
100
AcDbLine
 10
4920.444035
 20
-167.477813
 30
0.0
 11
4947.114913
 21
-163.142631
 31
0.0
  0
LINE
  5
3E41
330
426F
100
AcDbEntity
  8
V0-OBRYS
  6
CONTINUOUS
 62
    90
100
AcDbLine
 10
4913.053244
 20
-107.726148
 30
0.0
 11
4950.622588
 21
-104.868967
 31
0.0
  0
LINE
  5
3E42
330
426F
100
AcDbEntity
  8
V0-OBRYS
  6
CONTINUOUS
 62
    90
100
AcDbLine
 10
4953.346068
 20
-117.326484
 30
0.0
 11
4915.202932
 21
-126.553262
 31
0.0
  0
LINE
  5
3E43
330
426F
100
AcDbEntity
  8
V0-OBRYS
  6
CONTINUOUS
 62
    90
100
AcDbLine
 10
4921.114567
 20
-143.228709
 30
0.0
 11
4956.981184
 21
-128.57274
 31
0.0
  0
LINE
  5
3E44
330
426F
100
AcDbEntity
  8
V0-OBRYS
  6
CONTINUOUS
 62
    90
100
AcDbLine
 10
4883.87515
 20
-173.421854
 30
0.0
 11
4917.157305
 21
-168.01205
 31
0.0
  0
LINE
  5
3E45
330
426F
100
AcDbEntity
  8
V0-OBRYS
  6
CONTINUOUS
 62
    90
100
AcDbLine
 10
4948.653705
 20
-165.072215
 30
0.0
 11
4961.272805
 21
-163.309633
 31
0.0
  0
LINE
  5
3E46
330
426F
100
AcDbEntity
  8
V0-OBRYS
  6
CONTINUOUS
 62
    90
100
AcDbLine
 10
4947.114913
 20
-163.142631
 30
0.0
 11
4951.641317
 21
-151.232129
 31
0.0
  0
LINE
  5
3E47
330
426F
100
AcDbEntity
  8
V0-OBRYS
  6
CONTINUOUS
 62
    90
100
AcDbLine
 10
4962.270695
 20
-139.160602
 30
0.0
 11
4927.563627000001
 21
-159.904155
 31
0.0
  0
LINE
  5
3E48
330
426F
100
AcDbEntity
  8
V0-OBRYS
  6
CONTINUOUS
 62
    90
100
AcDbLine
 10
4940.278476
 20
-172.434642
 30
0.0
 11
4968.981762
 21
-148.701342
 31
0.0
  0
LINE
  5
3E49
330
426F
100
AcDbEntity
  8
V0-OBRYS
  6
CONTINUOUS
 62
    90
100
AcDbLine
 10
4921.114567
 20
-54.480039
 30
0.0
 11
4956.981184
 21
-69.136008
 31
0.0
  0
LINE
  5
3E4A
330
426F
100
AcDbEntity
  8
V0-OBRYS
  6
CONTINUOUS
 62
    90
100
AcDbLine
 10
4953.346068
 20
-80.38226400000001
 30
0.0
 11
4915.202932
 21
-71.155486
 31
0.0
  0
LINE
  5
3E4B
330
426F
100
AcDbEntity
  8
V0-OBRYS
  6
CONTINUOUS
 62
    90
100
AcDbLine
 10
4913.053244
 20
-89.98260000000001
 30
0.0
 11
4950.622588
 21
-92.839781
 31
0.0
  0
LINE
  5
3E4C
330
426F
100
AcDbEntity
  8
V0-OBRYS
  6
CONTINUOUS
 62
    90
100
AcDbLine
 10
4907.93146
 20
-56.213565
 30
0.0
 11
4927.949862
 21
-74.36275500000001
 31
0.0
  0
LINE
  5
3E4D
330
426F
100
AcDbEntity
  8
V0-OBRYS
  6
CONTINUOUS
 62
    90
100
AcDbLine
 10
4901.490078
 20
-84.435102
 30
0.0
 11
4927.400674
 21
-76.768906
 31
0.0
  0
LINE
  5
3E4E
330
426F
100
AcDbEntity
  8
V0-OBRYS
  6
CONTINUOUS
 62
    90
100
AcDbLine
 10
4880.483894
 20
-31.328908
 30
0.0
 11
4905.464534
 21
-53.976987
 31
0.0
  0
LINE
  5
3E4F
330
426F
100
AcDbEntity
  8
V0-OBRYS
  6
CONTINUOUS
 62
    90
100
AcDbLine
 10
4962.270695
 20
-58.548146
 30
0.0
 11
4927.563627000001
 21
-37.804592
 31
0.0
  0
LINE
  5
3E50
330
426F
100
AcDbEntity
  8
V0-OBRYS
  6
CONTINUOUS
 62
    90
100
AcDbLine
 10
4939.932148
 20
-24.489524
 30
0.0
 11
4969.321895
 21
-48.59589
 31
0.0
  0
LINE
  5
3E51
330
426F
100
AcDbEntity
  8
V0-OBRYS
  6
CONTINUOUS
 62
    90
100
AcDbLine
 10
4927.400674
 20
-76.768906
 30
0.0
 11
4936.646597
 21
-85.53596400000001
 31
0.0
  0
LINE
  5
3E52
330
426F
100
AcDbEntity
  8
V0-OBRYS
  6
CONTINUOUS
 62
    90
100
AcDbLine
 10
4927.949862
 20
-74.36275500000001
 30
0.0
 11
4940.084035
 21
-70.47556400000001
 31
0.0
  0
LINE
  5
3E53
330
426F
100
AcDbEntity
  8
V0-OBRYS
  6
CONTINUOUS
 62
    90
100
AcDbLine
 10
4861.689985
 20
79.808758
 30
0.0
 11
4897.383549
 21
54.865392
 31
0.0
  0
ARC
  5
3E54
330
426F
100
AcDbEntity
  8
V0-OBRYS
  6
CONTINUOUS
 62
    90
100
AcDbCircle
 10
5029.709044
 20
-98.85437400000001
 30
0.0
 40
245.256842
100
AcDbArc
 50
133.241418
 51
149.615725
  0
LINE
  5
3E55
330
426F
100
AcDbEntity
  8
V0-OBRYS
  6
CONTINUOUS
 62
    90
100
AcDbLine
 10
4818.137612
 20
25.195809
 30
0.0
 11
4850.398161
 21
-4.052420999999999
 31
0.0
  0
LINE
  5
3E56
330
426F
100
AcDbEntity
  8
V0-OBRYS
  6
CONTINUOUS
 62
    90
100
AcDbLine
 10
4899.985338
 20
53.04721
 30
0.0
 11
4928.026416
 21
33.451551
 31
0.0
  0
LINE
  5
3E57
330
426F
100
AcDbEntity
  8
V0-OBRYS
  6
CONTINUOUS
 62
    90
100
AcDbLine
 10
4930.670862
 20
31.60356
 30
0.0
 11
4958.309823
 21
12.288909
 31
0.0
  0
LINE
  5
3E58
330
426F
100
AcDbEntity
  8
V0-OBRYS
  6
CONTINUOUS
 62
    90
100
AcDbLine
 10
5076.230155
 20
-5.096405
 30
0.0
 11
5077.319779
 21
-17.79133
 31
0.0
  0
LINE
  5
3E59
330
426F
100
AcDbEntity
  8
V0-OBRYS
  6
CONTINUOUS
 62
    90
100
AcDbLine
 10
4983.187932
 20
-5.096405
 30
0.0
 11
4982.098309
 21
-17.79133
 31
0.0
  0
ARC
  5
3E5A
330
426F
100
AcDbEntity
  8
V0-OBRYS
  6
CONTINUOUS
 62
    90
100
AcDbCircle
 10
5029.709044
 20
-98.85437400000001
 30
0.0
 40
92.541017
100
AcDbArc
 50
328.716649
 51
59.134287
  0
LINE
  5
3E5B
330
426F
100
AcDbEntity
  8
V0-OBRYS
  6
CONTINUOUS
 62
    90
100
AcDbLine
 10
5104.073894
 20
-9.077477999999999
 30
0.0
 11
5079.967528
 21
-38.467225
 31
0.0
  0
LINE
  5
3E5C
330
426F
100
AcDbEntity
  8
V0-OBRYS
  6
CONTINUOUS
 62
    90
100
AcDbLine
 10
5038.580818
 20
17.801426
 30
0.0
 11
5035.723637
 21
-19.767918
 31
0.0
  0
LINE
  5
3E5D
330
426F
100
AcDbEntity
  8
V0-OBRYS
  6
CONTINUOUS
 62
    90
100
AcDbLine
 10
5048.181154
 20
-22.491398
 30
0.0
 11
5057.407932
 21
15.651738
 31
0.0
  0
LINE
  5
3E5E
330
426F
100
AcDbEntity
  8
V0-OBRYS
  6
CONTINUOUS
 62
    90
100
AcDbLine
 10
5074.083379
 20
9.740103
 30
0.0
 11
5059.42741
 21
-26.126514
 31
0.0
  0
LINE
  5
3E5F
330
426F
100
AcDbEntity
  8
V0-OBRYS
  6
CONTINUOUS
 62
    90
100
AcDbLine
 10
5076.977056
 20
-19.767918
 30
0.0
 11
5090.758825
 21
3.291043000000002
 31
0.0
  0
LINE
  5
3E60
330
426F
100
AcDbEntity
  8
V0-OBRYS
  6
CONTINUOUS
 62
    90
100
AcDbLine
 10
4985.334709
 20
9.740103
 30
0.0
 11
4997.392402
 21
-19.767918
 31
0.0
  0
LINE
  5
3E61
330
426F
100
AcDbEntity
  8
V0-OBRYS
  6
CONTINUOUS
 62
    90
100
AcDbLine
 10
5010.578127
 20
-19.767918
 30
0.0
 11
5002.010156
 21
15.651738
 31
0.0
  0
LINE
  5
3E62
330
426F
100
AcDbEntity
  8
V0-OBRYS
  6
CONTINUOUS
 62
    90
100
AcDbLine
 10
5020.83727
 20
17.801426
 30
0.0
 11
5023.694451
 21
-19.767918
 31
0.0
  0
LINE
  5
3E63
330
426F
100
AcDbEntity
  8
V0-OBRYS
  6
CONTINUOUS
 62
    90
100
AcDbLine
 10
4985.334709
 20
9.740103
 30
0.0
 11
4999.990678
 21
-26.126514
 31
0.0
  0
LINE
  5
3E64
330
426F
100
AcDbEntity
  8
V0-OBRYS
  6
CONTINUOUS
 62
    90
100
AcDbLine
 10
5011.236934
 20
-22.491398
 30
0.0
 11
5002.010156
 21
15.651738
 31
0.0
  0
LINE
  5
3E65
330
426F
100
AcDbEntity
  8
V0-OBRYS
  6
CONTINUOUS
 62
    90
100
AcDbLine
 10
5020.83727
 20
17.801426
 30
0.0
 11
5023.694451
 21
-19.767918
 31
0.0
  0
LINE
  5
3E66
330
426F
100
AcDbEntity
  8
VO-OBRYS
  6
CONTINUOUS
100
AcDbLine
 10
5068.100523
 20
-30.307913
 30
0.0
 11
5190.763731
 21
92.355295
 31
0.0
  0
LINE
  5
3E67
330
426F
100
AcDbEntity
  8
V0-OBRYS
  6
CONTINUOUS
 62
    90
100
AcDbLine
 10
5106.07202
 20
-117.326484
 30
0.0
 11
5144.215156
 21
-126.553262
 31
0.0
  0
LINE
  5
3E68
330
426F
100
AcDbEntity
  8
V0-OBRYS
  6
CONTINUOUS
 62
    90
100
AcDbLine
 10
5146.364844
 20
-107.726148
 30
0.0
 11
5108.7955
 21
-104.868967
 31
0.0
  0
LINE
  5
3E69
330
426F
100
AcDbEntity
  8
V0-OBRYS
  6
CONTINUOUS
 62
    90
100
AcDbLine
 10
5138.974053
 20
-167.477813
 30
0.0
 11
5112.303175
 21
-163.142631
 31
0.0
  0
LINE
  5
3E6A
330
426F
100
AcDbEntity
  8
V0-OBRYS
  6
CONTINUOUS
 62
    90
100
AcDbLine
 10
5112.303175
 20
-163.142631
 30
0.0
 11
5107.77677
 21
-151.232129
 31
0.0
  0
LINE
  5
3E6B
330
426F
100
AcDbEntity
  8
V0-OBRYS
  6
CONTINUOUS
 62
    90
100
AcDbLine
 10
5110.764383
 20
-165.072215
 30
0.0
 11
5098.145283
 21
-163.309633
 31
0.0
  0
LINE
  5
3E6C
330
426F
100
AcDbEntity
  8
V0-OBRYS
  6
CONTINUOUS
 62
    90
100
AcDbLine
 10
5097.147393
 20
-139.160602
 30
0.0
 11
5131.854461
 21
-159.904155
 31
0.0
  0
LINE
  5
3E6D
330
426F
100
AcDbEntity
  8
V0-OBRYS
  6
CONTINUOUS
 62
    90
100
AcDbLine
 10
5138.303521
 20
-143.228709
 30
0.0
 11
5102.436904
 21
-128.57274
 31
0.0
  0
LINE
  5
3E6E
330
426F
100
AcDbEntity
  8
V0-OBRYS
  6
CONTINUOUS
 62
    90
100
AcDbLine
 10
5119.48594
 20
-173.219224
 30
0.0
 11
5090.096192
 21
-149.112858
 31
0.0
  0
LINE
  5
3E6F
330
426F
100
AcDbEntity
  8
V0-OBRYS
  6
CONTINUOUS
 62
    90
100
AcDbLine
 10
5175.542938
 20
-173.421854
 30
0.0
 11
5142.260782
 21
-168.01205
 31
0.0
  0
LINE
  5
3E70
330
426F
100
AcDbEntity
  8
V0-OBRYS
  6
CONTINUOUS
 62
    90
100
AcDbLine
 10
5146.364844
 20
-89.98260000000001
 30
0.0
 11
5108.7955
 21
-92.839781
 31
0.0
  0
LINE
  5
3E71
330
426F
100
AcDbEntity
  8
V0-OBRYS
  6
CONTINUOUS
 62
    90
100
AcDbLine
 10
5106.07202
 20
-80.38226400000001
 30
0.0
 11
5144.215156
 21
-71.155486
 31
0.0
  0
LINE
  5
3E72
330
426F
100
AcDbEntity
  8
V0-OBRYS
  6
CONTINUOUS
 62
    90
100
AcDbLine
 10
5157.928009
 20
-84.435102
 30
0.0
 11
5132.017414
 21
-76.768906
 31
0.0
  0
LINE
  5
3E73
330
426F
100
AcDbEntity
  8
V0-OBRYS
  6
CONTINUOUS
 62
    90
100
AcDbLine
 10
5151.486628
 20
-56.213565
 30
0.0
 11
5131.468226
 21
-74.36275500000001
 31
0.0
  0
LINE
  5
3E74
330
426F
100
AcDbEntity
  8
V0-OBRYS
  6
CONTINUOUS
 62
    90
100
AcDbLine
 10
5097.147393
 20
-58.548146
 30
0.0
 11
5131.854461
 21
-37.804592
 31
0.0
  0
LINE
  5
3E75
330
426F
100
AcDbEntity
  8
V0-OBRYS
  6
CONTINUOUS
 62
    90
100
AcDbLine
 10
5131.468226
 20
-74.36275500000001
 30
0.0
 11
5119.334053
 21
-70.47556400000001
 31
0.0
  0
LINE
  5
3E76
330
426F
100
AcDbEntity
  8
V0-OBRYS
  6
CONTINUOUS
 62
    90
100
AcDbLine
 10
5132.017414
 20
-76.768906
 30
0.0
 11
5122.771491
 21
-85.53596400000001
 31
0.0
  0
LINE
  5
3E77
330
426F
100
AcDbEntity
  8
V0-OBRYS
  6
CONTINUOUS
 62
    90
100
AcDbLine
 10
5138.303521
 20
-54.480039
 30
0.0
 11
5102.436904
 21
-69.136008
 31
0.0
  0
LINE
  5
3E78
330
426F
100
AcDbEntity
  8
V0-OBRYS
  6
CONTINUOUS
 62
    90
100
AcDbLine
 10
5119.139611
 20
-25.274106
 30
0.0
 11
5090.436325
 21
-49.007406
 31
0.0
  0
LINE
  5
3E79
330
426F
100
AcDbEntity
  8
V0-OBRYS
  6
CONTINUOUS
 62
    90
100
AcDbLine
 10
5178.934193
 20
-31.328908
 30
0.0
 11
5153.953554
 21
-53.976987
 31
0.0
  0
LINE
  5
3E7A
330
426F
100
AcDbEntity
  8
V0-OBRYS
  6
CONTINUOUS
 62
    90
100
AcDbLine
 10
5098.378821
 20
10.381519
 30
0.0
 11
5076.230155
 21
-5.096405000000001
 31
0.0
  0
LINE
  5
3E7B
330
426F
100
AcDbEntity
  8
V0-OBRYS
  6
CONTINUOUS
 62
    90
100
AcDbLine
 10
5067.589077
 20
97.276792
 30
0.0
 11
5069.7519
 21
63.135701
 31
0.0
  0
LINE
  5
3E7C
330
426F
100
AcDbEntity
  8
V0-OBRYS
  6
CONTINUOUS
 62
    90
100
AcDbLine
 10
4991.829011
 20
97.276792
 30
0.0
 11
4989.666188
 21
63.135701
 31
0.0
  0
LINE
  5
3E7D
330
426F
100
AcDbEntity
  8
V0-OBRYS
  6
CONTINUOUS
 62
    90
100
AcDbLine
 10
4989.46222
 20
59.915986
 30
0.0
 11
4987.330413
 21
26.264488
 31
0.0
  0
LINE
  5
3E7E
330
426F
100
AcDbEntity
  8
V0-OBRYS
  6
CONTINUOUS
 62
    90
100
AcDbLine
 10
4985.411551
 20
-4.025567
 30
0.0
 11
4996.016212000001
 21
-11.088821
 31
0.0
  0
LINE
  5
3E7F
330
426F
100
AcDbEntity
  8
V0-OBRYS
  6
CONTINUOUS
 62
    90
100
AcDbLine
 10
4987.119889
 20
22.941285
 30
0.0
 11
4985.411551
 21
-4.025566999999999
 31
0.0
  0
LINE
  5
3E80
330
426F
100
AcDbEntity
  8
V0-OBRYS
  6
CONTINUOUS
 62
    90
100
AcDbLine
 10
5069.955867
 20
59.915986
 30
0.0
 11
5072.087675
 21
26.264488
 31
0.0
  0
LINE
  5
3E81
330
426F
100
AcDbEntity
  8
V0-OBRYS
  6
CONTINUOUS
 62
    90
100
AcDbLine
 10
5074.006537
 20
-4.025567
 30
0.0
 11
5063.401876
 21
-11.088821
 31
0.0
  0
LINE
  5
3E82
330
426F
100
AcDbEntity
  8
V0-OBRYS
  6
CONTINUOUS
 62
    90
100
AcDbLine
 10
5072.298199
 20
22.941285
 30
0.0
 11
5074.006537
 21
-4.025566999999999
 31
0.0
  0
ARC
  5
3E83
330
426F
100
AcDbEntity
  8
V0-OBRYS
  6
CONTINUOUS
 62
    90
100
AcDbCircle
 10
5029.709044
 20
-98.85437400000001
 30
0.0
 40
245.256842
100
AcDbArc
 50
81.81284700000001
 51
98.187153
  0
LINE
  5
3E84
330
426F
100
AcDbEntity
  8
V0-OBRYS
  6
CONTINUOUS
 62
    90
100
AcDbLine
 10
4994.782752
 20
143.902856
 30
0.0
 11
4994.442524
 21
138.532216
 31
0.0
  0
LINE
  5
3E85
330
426F
100
AcDbEntity
  8
V0-OBRYS
  6
CONTINUOUS
 62
    90
100
AcDbLine
 10
4994.243733
 20
135.394211
 30
0.0
 11
4992.029689
 21
100.44457
 31
0.0
  0
LINE
  5
3E86
330
426F
100
AcDbEntity
  8
V0-OBRYS
  6
CONTINUOUS
 62
    90
100
AcDbLine
 10
5064.635336
 20
143.902856
 30
0.0
 11
5067.388399
 21
100.44457
 31
0.0
  0
LINE
  5
3E87
330
426F
100
AcDbEntity
  8
V0-OBRYS
  6
CONTINUOUS
 62
    90
100
AcDbLine
 10
5159.43275
 20
53.04721
 30
0.0
 11
5131.391672
 21
33.451551
 31
0.0
  0
LINE
  5
3E88
330
426F
100
AcDbEntity
  8
V0-OBRYS
  6
CONTINUOUS
 62
    90
100
AcDbLine
 10
5128.747225
 20
31.60356
 30
0.0
 11
5101.108265
 21
12.288909
 31
0.0
  0
LINE
  5
3E89
330
426F
100
AcDbEntity
  8
V0-OBRYS
  6
CONTINUOUS
 62
    90
100
AcDbLine
 10
5258.608013
 20
-186.923556
 30
0.0
 11
5215.626702
 21
-179.937216
 31
0.0
  0
ARC
  5
3E8A
330
426F
100
AcDbEntity
  8
V0-OBRYS
  6
CONTINUOUS
 62
    90
100
AcDbCircle
 10
5029.709044
 20
-98.85437400000001
 30
0.0
 40
245.256842
100
AcDbArc
 50
338.955704
 51
355.33001
  0
LINE
  5
3E8B
330
426F
100
AcDbEntity
  8
V0-OBRYS
  6
CONTINUOUS
 62
    90
100
AcDbLine
 10
5229.351892
 20
-105.567363
 30
0.0
 11
5196.548063
 21
-95.861659
 31
0.0
  0
LINE
  5
3E8C
330
426F
100
AcDbEntity
  8
V0-OBRYS
  6
CONTINUOUS
 62
    90
100
AcDbLine
 10
5274.151675
 20
-118.822323
 30
0.0
 11
5232.395593
 21
-106.467906
 31
0.0
  0
ARC
  5
3E8D
330
426F
100
AcDbEntity
  8
V0-OBRYS
  6
CONTINUOUS
 62
    90
100
AcDbCircle
 10
5029.709044
 20
-98.85437400000001
 30
0.0
 40
245.256842
100
AcDbArc
 50
30.384275
 51
46.758582
  0
LINE
  5
3E8E
330
426F
100
AcDbEntity
  8
V0-OBRYS
  6
CONTINUOUS
 62
    90
100
AcDbLine
 10
5241.280476
 20
25.195809
 30
0.0
 11
5209.019927
 21
-4.052420999999999
 31
0.0
  0
CIRCLE
  5
3E8F
330
426F
100
AcDbEntity
  8
V0-OBRYS
  6
CONTINUOUS
 62
    90
100
AcDbCircle
 10
5029.709044
 20
181.0742
 30
0.0
 40
6.039555
  0
CIRCLE
  5
3EDC
330
426F
100
AcDbEntity
  8
V0-OBRYS
  6
CONTINUOUS
 62
    90
100
AcDbCircle
 10
4889.744757
 20
143.570882
 30
0.0
 40
6.039555
  0
CIRCLE
  5
3EDD
330
426F
100
AcDbEntity
  8
V0-OBRYS
  6
CONTINUOUS
 62
    90
100
AcDbCircle
 10
4787.283788
 20
41.109913
 30
0.0
 40
6.039555
  0
CIRCLE
  5
3EDE
330
426F
100
AcDbEntity
  8
V0-OBRYS
  6
CONTINUOUS
 62
    90
100
AcDbCircle
 10
4749.78047
 20
-98.85437400000001
 30
0.0
 40
6.039555
  0
CIRCLE
  5
3EDF
330
426F
100
AcDbEntity
  8
V0-OBRYS
  6
CONTINUOUS
 62
    90
100
AcDbCircle
 10
4787.283788
 20
-238.818661
 30
0.0
 40
6.039555
  0
CIRCLE
  5
3EE0
330
426F
100
AcDbEntity
  8
V0-OBRYS
  6
CONTINUOUS
 62
    90
100
AcDbCircle
 10
4889.744757
 20
-341.27963
 30
0.0
 40
6.039555
  0
CIRCLE
  5
3EE1
330
426F
100
AcDbEntity
  8
V0-OBRYS
  6
CONTINUOUS
 62
    90
100
AcDbCircle
 10
5029.709044
 20
-378.782948
 30
0.0
 40
6.039555
  0
CIRCLE
  5
3EE2
330
426F
100
AcDbEntity
  8
V0-OBRYS
  6
CONTINUOUS
 62
    90
100
AcDbCircle
 10
5169.673331
 20
-341.27963
 30
0.0
 40
6.039555
  0
CIRCLE
  5
3EE3
330
426F
100
AcDbEntity
  8
V0-OBRYS
  6
CONTINUOUS
 62
    90
100
AcDbCircle
 10
5272.1343
 20
-238.818661
 30
0.0
 40
6.039555
  0
CIRCLE
  5
3EE4
330
426F
100
AcDbEntity
  8
V0-OBRYS
  6
CONTINUOUS
 62
    90
100
AcDbCircle
 10
5309.637618
 20
-98.85437400000001
 30
0.0
 40
6.039555
  0
CIRCLE
  5
3EE5
330
426F
100
AcDbEntity
  8
V0-OBRYS
  6
CONTINUOUS
 62
    90
100
AcDbCircle
 10
5272.1343
 20
41.109913
 30
0.0
 40
6.039555
  0
CIRCLE
  5
3EE6
330
426F
100
AcDbEntity
  8
V0-OBRYS
  6
CONTINUOUS
 62
    90
100
AcDbCircle
 10
5169.673331
 20
143.570882
 30
0.0
 40
6.039555
  0
LINE
  5
3EF1
330
426F
100
AcDbEntity
  8
V0-OBRYS
  6
CONTINUOUS
 62
    90
100
AcDbLine
 10
4199.489407
 20
198.495376
 30
0.0
 11
4203.426407
 21
198.495376
 31
0.0
  0
LINE
  5
3EF2
330
426F
100
AcDbEntity
  8
V0-OBRYS
  6
CONTINUOUS
 62
    90
100
AcDbLine
 10
4375.772407
 20
198.495376
 30
0.0
 11
4379.709407
 21
198.495376
 31
0.0
  0
LINE
  5
3EF3
330
426F
100
AcDbEntity
  8
V0-OBRYS
  6
CONTINUOUS
 62
    90
100
AcDbLine
 10
4203.426407
 20
-396.204124
 30
0.0
 11
4199.489407
 21
-396.204124
 31
0.0
  0
LINE
  5
3EF4
330
426F
100
AcDbEntity
  8
V0-OBRYS
  6
CONTINUOUS
 62
    90
100
AcDbLine
 10
4375.772407
 20
-396.204124
 30
0.0
 11
4380.709407
 21
-396.204124
 31
0.0
  0
LINE
  5
3EF5
330
426F
100
AcDbEntity
  8
V0-OBRYS
  6
CONTINUOUS
 62
    90
100
AcDbLine
 10
4199.489407
 20
-601.504624
 30
0.0
 11
4203.426407
 21
-601.504624
 31
0.0
  0
LINE
  5
3EF6
330
426F
100
AcDbEntity
  8
V0-OBRYS
  6
CONTINUOUS
 62
    90
100
AcDbLine
 10
4375.772407
 20
-601.504624
 30
0.0
 11
4379.709407
 21
-601.504624
 31
0.0
  0
LINE
  5
3EF7
330
426F
100
AcDbEntity
  8
V0-OBRYS
  6
CONTINUOUS
 62
    90
100
AcDbLine
 10
4203.426407
 20
-1196.204124
 30
0.0
 11
4199.489407
 21
-1196.204124
 31
0.0
  0
LINE
  5
3EF8
330
426F
100
AcDbEntity
  8
V0-OBRYS
  6
CONTINUOUS
 62
    90
100
AcDbLine
 10
4375.772407
 20
-1196.204124
 30
0.0
 11
4379.709407
 21
-1196.204124
 31
0.0
  0
POINT
  5
3EFE
330
426F
100
AcDbEntity
  8
V0-VYPLNE
  6
CONTINUOUS
 62
    41
100
AcDbPoint
 10
4199.489407
 20
-98.85437400000001
 30
0.0
  0
POINT
  5
3EFF
330
426F
100
AcDbEntity
  8
V0-VYPLNE
  6
CONTINUOUS
 62
    41
100
AcDbPoint
 10
4379.709407
 20
-98.85437400000001
 30
0.0
  0
POINT
  5
3F00
330
426F
100
AcDbEntity
  8
V0-VYPLNE
  6
CONTINUOUS
 62
    41
100
AcDbPoint
 10
4199.489407
 20
-898.854374
 30
0.0
  0
POINT
  5
3F01
330
426F
100
AcDbEntity
  8
V0-VYPLNE
  6
CONTINUOUS
 62
    41
100
AcDbPoint
 10
4379.709407
 20
-898.854374
 30
0.0
  0
INSERT
  5
4222
330
426F
100
AcDbEntity
  8
V0-VYPLNE
  6
CONTINUOUS
 62
    41
100
AcDbBlockReference
  2
ASVORK
 10
4229.709164
 20
151.145626
 30
0.0
  0
INSERT
  5
4237
330
426F
100
AcDbEntity
  8
V0-VYPLNE
  6
CONTINUOUS
 62
    41
100
AcDbBlockReference
  2
ASVORKP
 10
4229.709164
 20
-898.854374
 30
0.0
  0
LWPOLYLINE
  5
4245
330
426F
100
AcDbEntity
  8
V0-VYPLNE
  6
CONTINUOUS
 62
    41
100
AcDbPolyline
 90
        4
 70
     1
 43
0.0
 10
4874.581327047808
 20
-367.6438176811135
 10
4889.744757
 20
-341.27963
 10
4883.951519266127
 20
-371.1365956287912
 10
4883.951519266127
 20
-371.1365956287912
1001
VDEXTRAPARAM
1071
       65
1071
        0
1071
        0
1040
1.0
1000

1000

1040
0.0
1040
0.0
  0
HATCH
  5
42E0
330
426F
100
AcDbEntity
  8
V0-VYPLNE
  6
CONTINUOUS
 62
    41
100
AcDbHatch
 10
0.0
 20
0.0
 30
0.0
210
0.0
220
0.0
230
1.0
  2
SOLID
 70
     1
 71
     0
 91
        1
 92
        2
 72
     0
 73
     1
 93
        3
 10
4874.581327047808
 20
-367.6438176811135
 10
4889.744757
 20
-341.27963
 10
4883.951519266127
 20
-371.1365956287912
 97
        0
 75
     0
 76
     1
 98
        1
 10
0.0
 20
0.0
1001
VDEXTRAPARAM
1071
       65
1071
        0
1071
        0
1040
1.0
1000

1000

1040
0.0
1040
0.0
1001
VD_TEMPHATCH
1000
VD_TEMPHATCH
  0
LWPOLYLINE
  5
4246
330
426F
100
AcDbEntity
  8
V0-VYPLNE
  6
CONTINUOUS
 62
    41
100
AcDbPolyline
 90
        3
 70
     0
 43
0.0
 10
4879.266423156967
 20
-369.3902066549523
 10
4835.906627
 20
-485.712982
 10
4541.104855000001
 20
-485.712982
  0
TEXT
  5
424B
330
426F
100
AcDbEntity
  8
V0-VYPLNE
  6
CONTINUOUS
 62
    41
100
AcDbText
 10
4429.620912714287
 20
-483.71003
 30
0.0
 40
30.0
  1
12 OTVORU %%c12
  7
ED40
100
AcDbText
  0
VIEWPORT
  5
42E1
330
426B
100
AcDbEntity
 67
     1
  8
0
 60
     1
100
AcDbViewport
 10
261.517699
 20
148.5
 30
0.0
 40
297.0
 41
297.0
 68
     0
 69
     1
1001
VD_INVISIBLE_NOT_FOR_READ
1000
VD_INVISIBLE_NOT_FOR_READ
1001
ACAD
1000
MVIEW
1002
{
1070
    16
1010
0.0
1020
0.0
1030
0.0
1010
0.0
1020
0.0
1030
1.0
1040
6.2831853071796
1040
297.0
1040
261.517699
1040
148.5
1040
0.0
1040
0.0
1040
0.0
1070
     0
1070
   100
1070
     0
1070
     1
1070
     0
1070
     0
1070
     0
1070
     0
1040
0.0
1040
0.0
1040
0.0
1040
1.0
1040
1.0
1040
0.0
1040
0.0
1070
     0
1002
{
1002
}
1002
}
  0
VIEWPORT
  5
42E2
330
426B
100
AcDbEntity
 67
     1
  8
0
 60
     1
100
AcDbViewport
 10
261.517699
 20
148.5
 30
0.0
 40
297.0
 41
297.0
 68
     0
 69
     2
1001
VD_INVISIBLE_NOT_FOR_READ
1000
VD_INVISIBLE_NOT_FOR_READ
1001
ACAD
1000
MVIEW
1002
{
1070
    16
1010
0.0
1020
0.0
1030
0.0
1010
0.0
1020
0.0
1030
1.0
1040
6.2831853071796
1040
297.0
1040
261.517699
1040
148.5
1040
0.0
1040
0.0
1040
0.0
1070
     0
1070
   100
1070
     0
1070
     1
1070
     0
1070
     0
1070
     0
1070
     0
1040
0.0
1040
0.0
1040
0.0
1040
1.0
1040
1.0
1040
0.0
1040
0.0
1070
     0
1002
{
1002
}
1002
}
  0
ENDSEC
  0
SECTION
  2
OBJECTS
  0
DICTIONARY
  5
425C
330
0
100
AcDbDictionary
  3
ACAD_GROUP
350
425D
  3
ACAD_LAYOUT
350
426A
  3
ACAD_MLINESTYLE
350
4267
  3
ACAD_PLOTSETTINGS
350
4269
  3
ACDBHEADERROUNDTRIPXREC
350
42E3
  3
VECTORDRAW_OBJECTS
350
427F
  0
DICTIONARY
  5
4303
330
4279
100
AcDbDictionary
280
     1
  3
ACAD_XREC_ROUNDTRIP
360
4304
  0
DICTIONARY
  5
425D
102
{ACAD_REACTORS
330
425C
102
}
330
425C
100
AcDbDictionary
  0
DICTIONARY
  5
426A
102
{ACAD_REACTORS
330
425C
102
}
330
425C
100
AcDbDictionary
  0
DICTIONARY
  5
4267
102
{ACAD_REACTORS
330
425C
102
}
330
425C
100
AcDbDictionary
  3
STANDARD
350
4268
  0
DICTIONARY
  5
4269
102
{ACAD_REACTORS
330
425C
102
}
330
425C
100
AcDbDictionary
  0
DICTIONARY
  5
42E3
102
{ACAD_REACTORS
330
425C
102
}
330
425C
100
AcDbDictionary
  3
CEPSNTYPE
350
42EC
  3
DIMSTYLEDATA
350
4302
  3
FINGERPRINTGUID
350
42ED
  3
HYPERLINKBASE
350
42E6
  3
INSUNITS
350
42EB
  3
LAYOUTDICT
350
42E8
  3
LWETCUNION
350
42EA
  3
PLOTSETDICT
350
42E9
  3
PSVPSCALE
350
42EF
  3
PUCSBASE
350
42F2
  3
PUCSORGBACK
350
42F8
  3
PUCSORGBOTTOM
350
42F4
  3
PUCSORGFRONT
350
42F7
  3
PUCSORGLEFT
350
42F5
  3
PUCSORGRIGHT
350
42F6
  3
PUCSORGTOP
350
42F3
  3
PUCSORTHOREF
350
42F0
  3
PUCSORTHOVIEW
350
42F1
  3
STYLESHEET
350
42E7
  3
TSTACKALIGN
350
42E4
  3
TSTACKSIZE
350
42E5
  3
UCSBASE
350
42FB
  3
UCSORGBACK
350
4301
  3
UCSORGBOTTOM
350
42FD
  3
UCSORGFRONT
350
4300
  3
UCSORGLEFT
350
42FE
  3
UCSORGRIGHT
350
42FF
  3
UCSORGTOP
350
42FC
  3
UCSORTHOREF
350
42F9
  3
UCSORTHOVIEW
350
42FA
  3
VERSIONGUID
350
42EE
  0
DICTIONARY
  5
427F
102
{ACAD_REACTORS
330
425C
102
}
330
425C
100
AcDbDictionary
  3
SERIALNO
350
4280
  0
XRECORD
  5
4304
102
{ACAD_REACTORS
330
4303
102
}
330
4303
100
AcDbXrecord
102
UCS
 74
     0
 71
     1
 10
0.0
 20
0.0
 30
0.0
 10
1.0
 20
0.0
 30
0.0
 10
0.0
 20
1.0
 30
0.0
146
0.0
 79
     0
102
VIEW
281
     0
  0
MLINESTYLE
  5
4268
102
{ACAD_REACTORS
330
4267
102
}
330
4267
100
AcDbMlineStyle
  2
Standard
 70
     0
  3

 62
   256
 51
90.0
 52
90.0
 71
     2
 49
0.5
 62
   256
  6
BYLAYER
 49
-0.5
 62
   256
  6
BYLAYER
  0
XRECORD
  5
42EC
102
{ACAD_REACTORS
330
42E3
102
}
330
42E3
100
AcDbXrecord
 90
        0
  0
XRECORD
  5
4302
102
{ACAD_REACTORS
330
42E3
102
}
330
42E3
100
AcDbXrecord
1000
DSTYLE
1002
{
1070
    41
 40
40.0
1070
   342
340
90
1070
   177
 70
    41
1070
   178
 70
    41
1070
   271
 70
     0
1070
    44
 40
1.25
1070
    42
 40
1.0
1070
   147
 40
2.0
1070
    77
 70
     1
1070
    73
 70
     0
1070
   174
 70
     1
1070
   172
 70
     1
1070
    74
 70
     0
1070
   340
340
F39
1070
   140
 40
40.0
1070
   288
 70
     1
1002
}
  0
XRECORD
  5
42ED
102
{ACAD_REACTORS
330
42E3
102
}
330
42E3
100
AcDbXrecord
  1
{FAEB1C30-E019-11D5-929B-00C0DF256EC4}
  0
XRECORD
  5
42E6
102
{ACAD_REACTORS
330
42E3
102
}
330
42E3
100
AcDbXrecord
  1

  0
XRECORD
  5
42EB
102
{ACAD_REACTORS
330
42E3
102
}
330
42E3
100
AcDbXrecord
 90
        1
  0
XRECORD
  5
42E8
102
{ACAD_REACTORS
330
42E3
102
}
330
42E3
100
AcDbXrecord
340
426A
  0
XRECORD
  5
42EA
102
{ACAD_REACTORS
330
42E3
102
}
330
42E3
100
AcDbXrecord
 90
     2560
  0
XRECORD
  5
42E9
102
{ACAD_REACTORS
330
42E3
102
}
330
42E3
100
AcDbXrecord
340
4269
  0
XRECORD
  5
42EF
102
{ACAD_REACTORS
330
42E3
102
}
330
42E3
100
AcDbXrecord
 40
0.0
  0
XRECORD
  5
42F2
102
{ACAD_REACTORS
330
42E3
102
}
330
42E3
100
AcDbXrecord
340
0
  0
XRECORD
  5
42F8
102
{ACAD_REACTORS
330
42E3
102
}
330
42E3
100
AcDbXrecord
 10
0.0
 20
0.0
 30
0.0
  0
XRECORD
  5
42F4
102
{ACAD_REACTORS
330
42E3
102
}
330
42E3
100
AcDbXrecord
 10
0.0
 20
0.0
 30
0.0
  0
XRECORD
  5
42F7
102
{ACAD_REACTORS
330
42E3
102
}
330
42E3
100
AcDbXrecord
 10
0.0
 20
0.0
 30
0.0
  0
XRECORD
  5
42F5
102
{ACAD_REACTORS
330
42E3
102
}
330
42E3
100
AcDbXrecord
 10
0.0
 20
0.0
 30
0.0
  0
XRECORD
  5
42F6
102
{ACAD_REACTORS
330
42E3
102
}
330
42E3
100
AcDbXrecord
 10
0.0
 20
0.0
 30
0.0
  0
XRECORD
  5
42F3
102
{ACAD_REACTORS
330
42E3
102
}
330
42E3
100
AcDbXrecord
 10
0.0
 20
0.0
 30
0.0
  0
XRECORD
  5
42F0
102
{ACAD_REACTORS
330
42E3
102
}
330
42E3
100
AcDbXrecord
340
0
  0
XRECORD
  5
42F1
102
{ACAD_REACTORS
330
42E3
102
}
330
42E3
100
AcDbXrecord
 70
     0
  0
XRECORD
  5
42E7
102
{ACAD_REACTORS
330
42E3
102
}
330
42E3
100
AcDbXrecord
  1

  0
XRECORD
  5
42E4
102
{ACAD_REACTORS
330
42E3
102
}
330
42E3
100
AcDbXrecord
 90
        1
  0
XRECORD
  5
42E5
102
{ACAD_REACTORS
330
42E3
102
}
330
42E3
100
AcDbXrecord
 90
       70
  0
XRECORD
  5
42FB
102
{ACAD_REACTORS
330
42E3
102
}
330
42E3
100
AcDbXrecord
340
0
  0
XRECORD
  5
4301
102
{ACAD_REACTORS
330
42E3
102
}
330
42E3
100
AcDbXrecord
 10
0.0
 20
0.0
 30
0.0
  0
XRECORD
  5
42FD
102
{ACAD_REACTORS
330
42E3
102
}
330
42E3
100
AcDbXrecord
 10
0.0
 20
0.0
 30
0.0
  0
XRECORD
  5
4300
102
{ACAD_REACTORS
330
42E3
102
}
330
42E3
100
AcDbXrecord
 10
0.0
 20
0.0
 30
0.0
  0
XRECORD
  5
42FE
102
{ACAD_REACTORS
330
42E3
102
}
330
42E3
100
AcDbXrecord
 10
0.0
 20
0.0
 30
0.0
  0
XRECORD
  5
42FF
102
{ACAD_REACTORS
330
42E3
102
}
330
42E3
100
AcDbXrecord
 10
0.0
 20
0.0
 30
0.0
  0
XRECORD
  5
42FC
102
{ACAD_REACTORS
330
42E3
102
}
330
42E3
100
AcDbXrecord
 10
0.0
 20
0.0
 30
0.0
  0
XRECORD
  5
42F9
102
{ACAD_REACTORS
330
42E3
102
}
330
42E3
100
AcDbXrecord
340
0
  0
XRECORD
  5
42FA
102
{ACAD_REACTORS
330
42E3
102
}
330
42E3
100
AcDbXrecord
 70
     0
  0
XRECORD
  5
42EE
102
{ACAD_REACTORS
330
42E3
102
}
330
42E3
100
AcDbXrecord
  1
{FAEB1C32-E019-11D5-929B-00C0DF256EC4}
  0
XRECORD
  5
4280
102
{ACAD_REACTORS
330
427F
102
}
330
427F
100
AcDbXrecord
1000
rInJVR9YY4Q8hfPWdUq5j5319
1070
     4
1070
     6
  0
ENDSEC
  0
EOF
