  0
SECTION
  2
HEADER
  9
$ACADVER
  1
AC1014
  9
$ACADMAINTVER
 70
     9
  9
$DWGCODEPAGE
  3
ANSI_1250
  9
$INSBASE
 10
0.0
 20
0.0
 30
0.0
  9
$EXTMIN
 10
3854.90103192304
 20
-1583.427223
 30
0.0
  9
$EXTMAX
 10
5580.420463043956
 20
195.507814
 30
0.0
  9
$LIMMIN
 10
0.0
 20
0.0
  9
$LIMMAX
 10
0.0
 20
0.0
  9
$ORTHOMODE
 70
     0
  9
$REGENMODE
 70
     1
  9
$FILLMODE
 70
     1
  9
$QTEXTMODE
 70
     0
  9
$MIRRTEXT
 70
     1
  9
$DRAGMODE
 70
     2
  9
$LTSCALE
 40
1.0
  9
$OSMODE
 70
    37
  9
$ATTMODE
 70
     1
  9
$TEXTSIZE
 40
0.2
  9
$TRACEWID
 40
0.05
  9
$TEXTSTYLE
  7
ED50
  9
$CLAYER
  8
V0-VYPLNE
  9
$CELTYPE
  6
CONTINUOUS
  9
$CECOLOR
 62
    41
  9
$CELTSCALE
 40
1.0
  9
$DELOBJ
 70
     1
  9
$DISPSILH
 70
     0
  9
$DIMSCALE
 40
1.0
  9
$DIMASZ
 40
30.0
  9
$DIMEXO
 40
1.0
  9
$DIMDLI
 40
0.38
  9
$DIMRND
 40
0.0
  9
$DIMDLE
 40
0.0
  9
$DIMEXE
 40
1.25
  9
$DIMTP
 40
0.0
  9
$DIMTM
 40
0.0
  9
$DIMTXT
 40
30.0
  9
$DIMCEN
 40
0.09
  9
$DIMTSZ
 40
0.0
  9
$DIMTOL
 70
     0
  9
$DIMLIM
 70
     0
  9
$DIMTIH
 70
     0
  9
$DIMTOH
 70
     0
  9
$DIMSE1
 70
     0
  9
$DIMSE2
 70
     0
  9
$DIMTAD
 70
     1
  9
$DIMZIN
 70
     0
  9
$DIMBLK
  1
OPEN
  9
$DIMASO
 70
     1
  9
$DIMSHO
 70
     1
  9
$DIMPOST
  1

  9
$DIMAPOST
  1

  9
$DIMALT
 70
     0
  9
$DIMALTD
 70
     2
  9
$DIMALTF
 40
25.4
  9
$DIMLFAC
 40
1.0
  9
$DIMTOFL
 70
     1
  9
$DIMTVP
 40
0.0
  9
$DIMTIX
 70
     1
  9
$DIMSOXD
 70
     0
  9
$DIMSAH
 70
     0
  9
$DIMBLK1
  1

  9
$DIMBLK2
  1

  9
$DIMSTYLE
  2
ED50
  9
$DIMCLRD
 70
     0
  9
$DIMCLRE
 70
    41
  9
$DIMCLRT
 70
    41
  9
$DIMTFAC
 40
1.0
  9
$DIMGAP
 40
2.0
  9
$DIMJUST
 70
     0
  9
$DIMSD1
 70
     0
  9
$DIMSD2
 70
     0
  9
$DIMTOLJ
 70
     1
  9
$DIMTZIN
 70
     0
  9
$DIMALTZ
 70
     0
  9
$DIMALTTZ
 70
     0
  9
$DIMFIT
 70
     3
  9
$DIMUPT
 70
     1
  9
$DIMUNIT
 70
     2
  9
$DIMDEC
 70
     0
  9
$DIMTDEC
 70
     4
  9
$DIMALTU
 70
     2
  9
$DIMALTTD
 70
     2
  9
$DIMTXSTY
  7
ED30
  9
$DIMAUNIT
 70
     0
  9
$LUNITS
 70
     2
  9
$LUPREC
 70
     4
  9
$SKETCHINC
 40
0.1
  9
$FILLETRAD
 40
0.5
  9
$AUNITS
 70
     0
  9
$AUPREC
 70
     0
  9
$MENU
  1
.
  9
$ELEVATION
 40
0.0
  9
$PELEVATION
 40
0.0
  9
$THICKNESS
 40
0.0
  9
$LIMCHECK
 70
     0
  9
$BLIPMODE
 70
     0
  9
$CHAMFERA
 40
0.5
  9
$CHAMFERB
 40
0.5
  9
$CHAMFERC
 40
1.0
  9
$CHAMFERD
 40
0.0
  9
$SKPOLY
 70
     0
  9
$TDCREATE
 40
2455576.657667639
  9
$TDUPDATE
 40
2455576.65766765
  9
$TDINDWG
 40
0.0000000116
  9
$TDUSRTIMER
 40
0.0000000116
  9
$USRTIMER
 70
     1
  9
$ANGBASE
 50
0.0
  9
$ANGDIR
 70
     0
  9
$PDMODE
 70
    35
  9
$PDSIZE
 40
20.0
  9
$PLINEWID
 40
0.0
  9
$COORDS
 70
     1
  9
$SPLFRAME
 70
     0
  9
$SPLINETYPE
 70
     6
  9
$SPLINESEGS
 70
     8
  9
$ATTDIA
 70
     0
  9
$ATTREQ
 70
     1
  9
$HANDLING
 70
     1
  9
$HANDSEED
  5
4915
  9
$SURFTAB1
 70
     6
  9
$SURFTAB2
 70
     6
  9
$SURFTYPE
 70
     6
  9
$SURFU
 70
     6
  9
$SURFV
 70
     6
  9
$UCSNAME
  2

  9
$UCSORG
 10
0.0
 20
0.0
 30
0.0
  9
$UCSXDIR
 10
1.0
 20
0.0
 30
0.0
  9
$UCSYDIR
 10
0.0
 20
1.0
 30
0.0
  9
$PUCSNAME
  2

  9
$PUCSORG
 10
0.0
 20
0.0
 30
0.0
  9
$PUCSXDIR
 10
1.0
 20
0.0
 30
0.0
  9
$PUCSYDIR
 10
0.0
 20
1.0
 30
0.0
  9
$USERI1
 70
     0
  9
$USERI2
 70
     0
  9
$USERI3
 70
     0
  9
$USERI4
 70
     0
  9
$USERI5
 70
     0
  9
$USERR1
 40
0.0
  9
$USERR2
 40
0.0
  9
$USERR3
 40
0.0
  9
$USERR4
 40
0.0
  9
$USERR5
 40
0.0
  9
$WORLDVIEW
 70
     1
  9
$SHADEDGE
 70
     3
  9
$SHADEDIF
 70
    70
  9
$TILEMODE
 70
     1
  9
$MAXACTVP
 70
    64
  9
$PINSBASE
 10
0.0
 20
0.0
 30
0.0
  9
$PLIMCHECK
 70
     0
  9
$PEXTMIN
 10
1.000000000000000E+20
 20
1.000000000000000E+20
 30
1.000000000000000E+20
  9
$PEXTMAX
 10
-1.000000000000000E+20
 20
-1.000000000000000E+20
 30
-1.000000000000000E+20
  9
$PLIMMIN
 10
0.0
 20
0.0
  9
$PLIMMAX
 10
0.0
 20
0.0
  9
$UNITMODE
 70
     0
  9
$VISRETAIN
 70
     1
  9
$PLINEGEN
 70
     0
  9
$PSLTSCALE
 70
     1
  9
$TREEDEPTH
 70
  3020
  9
$PICKSTYLE
 70
     1
  9
$CMLSTYLE
  2
STANDARD
  9
$CMLJUST
 70
     0
  9
$CMLSCALE
 40
1.0
  9
$PROXYGRAPHICS
 70
     1
  9
$MEASUREMENT
 70
     0
  0
ENDSEC
  0
SECTION
  2
CLASSES
  0
CLASS
  1
ACDBDICTIONARYWDFLT
  2
AcDbDictionaryWithDefault
  3
ObjectDBX Classes
 90
        0
280
     0
281
     0
  0
CLASS
  1
XRECORD
  2
AcDbXrecord
  3
AutoCAD 2000
 90
        0
280
     0
281
     0
  0
CLASS
  1
LWPOLYLINE
  2
AcDbPolyline
  3
AutoCAD 2000
 90
        0
280
     0
281
     1
  0
CLASS
  1
HATCH
  2
AcDbHatch
  3
AutoCAD 2000
 90
        0
280
     0
281
     1
  0
CLASS
  1
ACDBPLACEHOLDER
  2
AcDbPlaceHolder
  3
ObjectDBX Classes
 90
        0
280
     0
281
     0
  0
CLASS
  1
LAYOUT
  2
AcDbLayout
  3
ObjectDBX Classes
 90
        0
280
     0
281
     0
  0
ENDSEC
  0
SECTION
  2
TABLES
  0
TABLE
  2
VPORT
  5
4867
330
0
100
AcDbSymbolTable
 70
     2
  0
VPORT
  5
4888
102
{ACAD_XDICTIONARY
360
4913
102
}
330
4867
100
AcDbSymbolTableRecord
100
AcDbViewportTableRecord
  2
*ACTIVE
 70
     0
 10
0.0
 20
0.0
 11
1.0
 21
1.0
 12
4679.677199
 22
-637.871768
 13
0.0
 23
0.0
 14
10.0
 24
10.0
 15
10.0
 25
10.0
 16
0.0
 26
0.0
 36
1.0
 17
0.0
 27
0.0
 37
0.0
 40
1973.921126
 41
0.0089956769405653
 42
50.0
 43
0.0
 44
0.0
 50
0.0
 51
0.0000000000007958
 71
     0
 72
   100
 73
     1
 74
     3
 75
     0
 76
     0
 77
     0
 78
     0
  0
ENDTAB
  0
TABLE
  2
LTYPE
  5
4864
330
0
100
AcDbSymbolTable
 70
    25
  0
LTYPE
  5
4873
330
4864
100
AcDbSymbolTableRecord
100
AcDbLinetypeTableRecord
  2
BYBLOCK
 70
     0
  3

 72
    65
 73
     0
 40
0.0
  0
LTYPE
  5
4874
330
4864
100
AcDbSymbolTableRecord
100
AcDbLinetypeTableRecord
  2
BYLAYER
 70
     0
  3

 72
    65
 73
     0
 40
0.0
  0
LTYPE
  5
4875
330
4864
100
AcDbSymbolTableRecord
100
AcDbLinetypeTableRecord
  2
CONTINUOUS
 70
     0
  3
Solid line
 72
    65
 73
     0
 40
0.0
  0
LTYPE
  5
4890
330
4864
100
AcDbSymbolTableRecord
100
AcDbLinetypeTableRecord
  2
CENTER
 70
     0
  3
Center ____ _ ____ _ ____ _ ____ _ ____ _ ____
 72
    65
 73
     4
 40
2.0
 49
1.25
 74
     0
 49
-0.25
 74
     0
 49
0.25
 74
     0
 49
-0.25
 74
     0
  0
LTYPE
  5
4891
330
4864
100
AcDbSymbolTableRecord
100
AcDbLinetypeTableRecord
  2
DASHDOT
 70
     0
  3
Dashdot __ . __ . __ . __ . __ . __ . __ . __
 72
    65
 73
     4
 40
1.0
 49
0.5
 74
     0
 49
-0.25
 74
     0
 49
0.0
 74
     0
 49
-0.25
 74
     0
  0
LTYPE
  5
4892
330
4864
100
AcDbSymbolTableRecord
100
AcDbLinetypeTableRecord
  2
DASHED
 70
     0
  3
Dashed __ __ __ __ __ __ __ __ __ __ __ __ __ _
 72
    65
 73
     2
 40
0.75
 49
0.5
 74
     0
 49
-0.25
 74
     0
  0
LTYPE
  5
4893
330
4864
100
AcDbSymbolTableRecord
100
AcDbLinetypeTableRecord
  2
HIDDEN
 70
     0
  3
Hidden __ __ __ __ __ __ __ __ __ __ __ __ __ __
 72
    65
 73
     2
 40
0.375
 49
0.25
 74
     0
 49
-0.125
 74
     0
  0
LTYPE
  5
4894
330
4864
100
AcDbSymbolTableRecord
100
AcDbLinetypeTableRecord
  2
HIDDEN2
 70
     0
  3
Hidden2 _ _ _ _ _ _ _ _ _ _ _ _ _ _ _ _ _ 
 72
    65
 73
     2
 40
0.1875
 49
0.125
 74
     0
 49
-0.0625
 74
     0
  0
LTYPE
  5
4895
330
4864
100
AcDbSymbolTableRecord
100
AcDbLinetypeTableRecord
  2
BORDER
 70
     0
  3
Border __ __ . __ __ . __ __ . __ __ . __ __ .
 72
    65
 73
     6
 40
1.75
 49
0.5
 74
     0
 49
-0.25
 74
     0
 49
0.5
 74
     0
 49
-0.25
 74
     0
 49
0.0
 74
     0
 49
-0.25
 74
     0
  0
LTYPE
  5
4896
330
4864
100
AcDbSymbolTableRecord
100
AcDbLinetypeTableRecord
  2
BORDER2
 70
     0
  3
Border2 __.__.__.__.__.__.__.__.__.__.__.
 72
    65
 73
     6
 40
0.875
 49
0.25
 74
     0
 49
-0.125
 74
     0
 49
0.25
 74
     0
 49
-0.125
 74
     0
 49
0.0
 74
     0
 49
-0.125
 74
     0
  0
LTYPE
  5
4897
330
4864
100
AcDbSymbolTableRecord
100
AcDbLinetypeTableRecord
  2
BORDERX2
 70
     0
  3
Borderx2  ____  ____  .  ____  ____  .  ___
 72
    65
 73
     6
 40
3.5
 49
1.0
 74
     0
 49
-0.5
 74
     0
 49
1.0
 74
     0
 49
-0.5
 74
     0
 49
0.0
 74
     0
 49
-0.5
 74
     0
  0
LTYPE
  5
4898
330
4864
100
AcDbSymbolTableRecord
100
AcDbLinetypeTableRecord
  2
CENTER2
 70
     0
  3
Center2  ___ _ ___ _ ___ _ ___ _ ___ _ ___
 72
    65
 73
     4
 40
1.125
 49
0.75
 74
     0
 49
-0.125
 74
     0
 49
0.125
 74
     0
 49
-0.125
 74
     0
  0
LTYPE
  5
4899
330
4864
100
AcDbSymbolTableRecord
100
AcDbLinetypeTableRecord
  2
CENTERX2
 70
     0
  3
Centerx2  ________  __  ________  __  _____
 72
    65
 73
     4
 40
4.0
 49
2.5
 74
     0
 49
-0.5
 74
     0
 49
0.5
 74
     0
 49
-0.5
 74
     0
  0
LTYPE
  5
489A
330
4864
100
AcDbSymbolTableRecord
100
AcDbLinetypeTableRecord
  2
DASHDOT2
 70
     0
  3
Dashdot2  _._._._._._._._._._._._._._._.
 72
    65
 73
     4
 40
0.5
 49
0.25
 74
     0
 49
-0.125
 74
     0
 49
0.0
 74
     0
 49
-0.125
 74
     0
  0
LTYPE
  5
489B
330
4864
100
AcDbSymbolTableRecord
100
AcDbLinetypeTableRecord
  2
DASHDOTX2
 70
     0
  3
Dashdotx2 ____  .  ____  .  ____  .  ___
 72
    65
 73
     4
 40
2.0
 49
1.0
 74
     0
 49
-0.5
 74
     0
 49
0.0
 74
     0
 49
-0.5
 74
     0
  0
LTYPE
  5
489C
330
4864
100
AcDbSymbolTableRecord
100
AcDbLinetypeTableRecord
  2
DASHED2
 70
     0
  3
Dashed2 _ _ _ _ _ _ _ _ _ _ _ _ _ _ _ _ _ 
 72
    65
 73
     2
 40
0.375
 49
0.25
 74
     0
 49
-0.125
 74
     0
  0
LTYPE
  5
489D
330
4864
100
AcDbSymbolTableRecord
100
AcDbLinetypeTableRecord
  2
DASHEDX2
 70
     0
  3
Dashedx2 ____  ____  ____  ____  ____  ___
 72
    65
 73
     2
 40
1.5
 49
1.0
 74
     0
 49
-0.5
 74
     0
  0
LTYPE
  5
489E
330
4864
100
AcDbSymbolTableRecord
100
AcDbLinetypeTableRecord
  2
DIVIDE
 70
     0
  3
Divide ____ . . ____ . . ____ . . ____ . . ____
 72
    65
 73
     6
 40
1.25
 49
0.5
 74
     0
 49
-0.25
 74
     0
 49
0.0
 74
     0
 49
-0.25
 74
     0
 49
0.0
 74
     0
 49
-0.25
 74
     0
  0
LTYPE
  5
489F
330
4864
100
AcDbSymbolTableRecord
100
AcDbLinetypeTableRecord
  2
DIVIDE2
 70
     0
  3
Divide2 __..__..__..__..__..__..__..__.._
 72
    65
 73
     6
 40
0.625
 49
0.25
 74
     0
 49
-0.125
 74
     0
 49
0.0
 74
     0
 49
-0.125
 74
     0
 49
0.0
 74
     0
 49
-0.125
 74
     0
  0
LTYPE
  5
48A0
330
4864
100
AcDbSymbolTableRecord
100
AcDbLinetypeTableRecord
  2
DIVIDEX2
 70
     0
  3
Dividex2 ________  .  .  ________  .  .  _
 72
    65
 73
     6
 40
2.5
 49
1.0
 74
     0
 49
-0.5
 74
     0
 49
0.0
 74
     0
 49
-0.5
 74
     0
 49
0.0
 74
     0
 49
-0.5
 74
     0
  0
LTYPE
  5
48A1
330
4864
100
AcDbSymbolTableRecord
100
AcDbLinetypeTableRecord
  2
DOT
 70
     0
  3
Dot . . . . . . . . . . . . . . . . . . . . . . . .
 72
    65
 73
     2
 40
0.25
 49
0.0
 74
     0
 49
-0.25
 74
     0
  0
LTYPE
  5
48A2
330
4864
100
AcDbSymbolTableRecord
100
AcDbLinetypeTableRecord
  2
DOT2
 70
     0
  3
Dot2 ........................................
 72
    65
 73
     2
 40
0.125
 49
0.0
 74
     0
 49
-0.125
 74
     0
  0
LTYPE
  5
48A3
330
4864
100
AcDbSymbolTableRecord
100
AcDbLinetypeTableRecord
  2
DOTX2
 70
     0
  3
Dotx2 .  .  .  .  .  .  .  .  .  .  .  .  .  .
 72
    65
 73
     2
 40
0.5
 49
0.0
 74
     0
 49
-0.5
 74
     0
  0
LTYPE
  5
48A4
330
4864
100
AcDbSymbolTableRecord
100
AcDbLinetypeTableRecord
  2
HIDDENX2
 70
     0
  3
Hiddenx2 ____ ____ ____ ____ ____ ____ ____ 
 72
    65
 73
     2
 40
0.75
 49
0.5
 74
     0
 49
-0.25
 74
     0
  0
LTYPE
  5
48A5
330
4864
100
AcDbSymbolTableRecord
100
AcDbLinetypeTableRecord
  2
PHANTOM
 70
     0
  3
Phantom ______  __  __  ______  __  __  ______ 
 72
    65
 73
     6
 40
2.5
 49
1.25
 74
     0
 49
-0.25
 74
     0
 49
0.25
 74
     0
 49
-0.25
 74
     0
 49
0.25
 74
     0
 49
-0.25
 74
     0
  0
LTYPE
  5
48A6
330
4864
100
AcDbSymbolTableRecord
100
AcDbLinetypeTableRecord
  2
PHANTOM2
 70
     0
  3
Phantom2 ___ _ _ ___ _ _ ___ _ _ ___ _ _
 72
    65
 73
     6
 40
1.25
 49
0.625
 74
     0
 49
-0.125
 74
     0
 49
0.125
 74
     0
 49
-0.125
 74
     0
 49
0.125
 74
     0
 49
-0.125
 74
     0
  0
LTYPE
  5
48A7
330
4864
100
AcDbSymbolTableRecord
100
AcDbLinetypeTableRecord
  2
PHANTOMX2
 70
     0
  3
Phantomx2 ____________    ____    ____   _
 72
    65
 73
     6
 40
5.0
 49
2.5
 74
     0
 49
-0.5
 74
     0
 49
0.5
 74
     0
 49
-0.5
 74
     0
 49
0.5
 74
     0
 49
-0.5
 74
     0
  0
ENDTAB
  0
TABLE
  2
LAYER
  5
4861
330
0
100
AcDbSymbolTable
 70
     5
  0
LAYER
  5
486F
330
4861
100
AcDbSymbolTableRecord
100
AcDbLayerTableRecord
  2
0
 70
     0
 62
     7
  6
CONTINUOUS
  0
LAYER
  5
9E
330
4861
100
AcDbSymbolTableRecord
100
AcDbLayerTableRecord
  2
DEFPOINTS
 70
     0
 62
     7
  6
CONTINUOUS
  0
LAYER
  5
377
330
4861
100
AcDbSymbolTableRecord
100
AcDbLayerTableRecord
  2
V0-OBRYS
 70
     0
 62
    90
  6
CONTINUOUS
  0
LAYER
  5
378
330
4861
100
AcDbSymbolTableRecord
100
AcDbLayerTableRecord
  2
V0-VYPLNE
 70
     0
 62
    63
  6
DASHDOT
  0
LAYER
  5
1540
330
4861
100
AcDbSymbolTableRecord
100
AcDbLayerTableRecord
  2
VO-OBRYS
 70
     0
 62
    90
  6
CONTINUOUS
  0
ENDTAB
  0
TABLE
  2
STYLE
  5
4862
330
0
100
AcDbSymbolTable
 70
     7
  0
STYLE
  5
4870
330
4862
100
AcDbSymbolTableRecord
100
AcDbTextStyleTableRecord
  2
STANDARD
 70
     0
 40
0.0
 41
1.0
 50
0.0
 71
     0
 42
0.2
  3
ISOCP.shx
  4

1001
ACAD
1000
ISOCP.shx
1071
        0
  0
STYLE
  5
331
330
4862
100
AcDbSymbolTableRecord
100
AcDbTextStyleTableRecord
  2
ED20
 70
     0
 40
20.0
 41
1.0
 50
0.0
 71
     0
 42
0.2
  3
ISOCP.shx
  4

1001
ACAD
1000
ISOCP.shx
1071
        0
  0
STYLE
  5
648
330
4862
100
AcDbSymbolTableRecord
100
AcDbTextStyleTableRecord
  2
ED10
 70
     0
 40
10.0
 41
1.0
 50
0.0
 71
     0
 42
0.2
  3
ISOCP.shx
  4

1001
ACAD
1000
ISOCP.shx
1071
        0
  0
STYLE
  5
F38
330
4862
100
AcDbSymbolTableRecord
100
AcDbTextStyleTableRecord
  2
ED30
 70
     0
 40
30.0
 41
1.0
 50
0.0
 71
     0
 42
0.2
  3
ISOCP.shx
  4

1001
ACAD
1000
ISOCP.shx
1071
        0
  0
STYLE
  5
F39
330
4862
100
AcDbSymbolTableRecord
100
AcDbTextStyleTableRecord
  2
ED40
 70
     0
 40
40.0
 41
1.0
 50
0.0
 71
     0
 42
0.2
  3
ISOCP.shx
  4

1001
ACAD
1000
ISOCP.shx
1071
        0
  0
STYLE
  5
1B9D
330
4862
100
AcDbSymbolTableRecord
100
AcDbTextStyleTableRecord
  2
VD_RECOV_1_1B9D_
 70
     0
 40
0.0
 41
1.0
 50
0.0
 71
     0
 42
0.2
  3
ltypeshp.shx
  4

1001
ACAD
1000
ltypeshp.shx
1071
        0
  0
STYLE
  5
426E
330
4862
100
AcDbSymbolTableRecord
100
AcDbTextStyleTableRecord
  2
ED50
 70
     0
 40
50.0
 41
1.0
 50
0.0
 71
     0
 42
0.2
  3
ISOCP.shx
  4

1001
ACAD
1000
ISOCP.shx
1071
        0
  0
ENDTAB
  0
TABLE
  2
VIEW
  5
4865
330
0
100
AcDbSymbolTable
 70
     0
  0
ENDTAB
  0
TABLE
  2
UCS
  5
4866
330
0
100
AcDbSymbolTable
 70
     0
  0
ENDTAB
  0
TABLE
  2
APPID
  5
4868
330
0
100
AcDbSymbolTable
 70
     7
  0
APPID
  5
4871
330
4868
100
AcDbSymbolTableRecord
100
AcDbRegAppTableRecord
  2
ACAD
 70
     0
  0
APPID
  5
4889
330
4868
100
AcDbSymbolTableRecord
100
AcDbRegAppTableRecord
  2
VD_INVISIBLE_NOT_FOR_READ
 70
     0
  0
APPID
  5
488A
330
4868
100
AcDbSymbolTableRecord
100
AcDbRegAppTableRecord
  2
VD_TEMPHATCH
 70
     0
  0
APPID
  5
488B
330
4868
100
AcDbSymbolTableRecord
100
AcDbRegAppTableRecord
  2
VDEXTRAPARAM
 70
     0
  0
APPID
  5
488C
330
4868
100
AcDbSymbolTableRecord
100
AcDbRegAppTableRecord
  2
PE_URL
 70
     0
  0
APPID
  5
488D
330
4868
100
AcDbSymbolTableRecord
100
AcDbRegAppTableRecord
  2
VD_UNKNOWN
 70
     0
  0
APPID
  5
48B2
330
4868
100
AcDbSymbolTableRecord
100
AcDbRegAppTableRecord
  2
CONTENTBLOCKICON
 70
     0
  0
ENDTAB
  0
TABLE
  2
DIMSTYLE
  5
4869
330
0
100
AcDbSymbolTable
 70
     5
  0
DIMSTYLE
105
4886
330
4869
100
AcDbSymbolTableRecord
100
AcDbDimStyleTableRecord
  2
STANDARD
 70
     0
  3

  4

  5
OPEN
  6

  7

 40
1.0
 41
15.0
 42
0.625
 43
0.38
 44
1.25
 45
0.0
 46
0.0
 47
0.0
 48
0.0
140
15.0
141
0.09
142
0.0
143
25.4
144
1.0
145
0.0
146
1.0
147
3.0
 71
     0
 72
     0
 73
     0
 74
     0
 75
     0
 76
     0
 77
     1
 78
     0
170
     0
171
     2
172
     1
173
     0
174
     1
175
     0
176
     0
177
     0
178
     0
270
     2
271
     0
272
     4
273
     2
274
     2
340
331
275
     0
280
     0
281
     0
282
     0
283
     1
284
     0
285
     0
286
     0
287
     3
288
     1
  0
DIMSTYLE
105
FE9
330
4869
100
AcDbSymbolTableRecord
100
AcDbDimStyleTableRecord
  2
ED20
 70
     0
  3

  4

  5
OPEN
  6

  7

 40
1.0
 41
20.0
 42
1.0
 43
0.38
 44
1.25
 45
0.0
 46
0.0
 47
0.0
 48
0.0
140
20.0
141
0.09
142
0.0
143
25.4
144
1.0
145
0.0
146
1.0
147
2.0
 71
     0
 72
     0
 73
     0
 74
     0
 75
     0
 76
     0
 77
     1
 78
     0
170
     0
171
     2
172
     1
173
     0
174
     1
175
     0
176
     0
177
    41
178
    41
270
     2
271
     0
272
     4
273
     2
274
     2
340
331
275
     0
280
     0
281
     0
282
     0
283
     1
284
     0
285
     0
286
     0
287
     3
288
     1
  0
DIMSTYLE
105
302B
330
4869
100
AcDbSymbolTableRecord
100
AcDbDimStyleTableRecord
  2
ED40
 70
     0
  3

  4

  5
OPEN
  6

  7

 40
1.0
 41
40.0
 42
1.0
 43
0.38
 44
1.25
 45
0.0
 46
0.0
 47
0.0
 48
0.0
140
40.0
141
0.09
142
0.0
143
25.4
144
1.0
145
0.0
146
1.0
147
2.0
 71
     0
 72
     0
 73
     0
 74
     0
 75
     0
 76
     0
 77
     1
 78
     0
170
     0
171
     2
172
     1
173
     0
174
     1
175
     0
176
     0
177
    41
178
    41
270
     2
271
     0
272
     4
273
     2
274
     2
340
F39
275
     0
280
     0
281
     0
282
     0
283
     1
284
     0
285
     0
286
     0
287
     3
288
     1
  0
DIMSTYLE
105
3042
330
4869
100
AcDbSymbolTableRecord
100
AcDbDimStyleTableRecord
  2
ED30
 70
     0
  3

  4

  5
OPEN
  6

  7

 40
1.0
 41
40.0
 42
1.0
 43
0.38
 44
1.25
 45
0.0
 46
0.0
 47
0.0
 48
0.0
140
40.0
141
0.09
142
0.0
143
25.4
144
1.0
145
0.0
146
1.0
147
2.0
 71
     0
 72
     0
 73
     0
 74
     0
 75
     0
 76
     0
 77
     1
 78
     0
170
     0
171
     2
172
     1
173
     0
174
     1
175
     0
176
     0
177
    41
178
    41
270
     2
271
     0
272
     4
273
     2
274
     2
340
F39
275
     0
280
     0
281
     0
282
     0
283
     1
284
     0
285
     0
286
     0
287
     3
288
     1
  0
DIMSTYLE
105
426F
102
{ACAD_REACTORS
330
4220
330
424C
330
42C6
330
4346
330
4353
102
}
330
4869
100
AcDbSymbolTableRecord
100
AcDbDimStyleTableRecord
  2
ED50
 70
     0
  3

  4

  5
OPEN
  6

  7

 40
1.0
 41
30.0
 42
1.0
 43
0.38
 44
1.25
 45
0.0
 46
0.0
 47
0.0
 48
0.0
140
30.0
141
0.09
142
0.0
143
25.4
144
1.0
145
0.0
146
1.0
147
2.0
 71
     0
 72
     0
 73
     0
 74
     0
 75
     0
 76
     0
 77
     1
 78
     0
170
     0
171
     2
172
     1
173
     0
174
     1
175
     0
176
     0
177
    41
178
    41
270
     2
271
     0
272
     4
273
     2
274
     2
340
F38
275
     0
280
     0
281
     0
282
     0
283
     1
284
     0
285
     0
286
     0
287
     3
288
     1
  0
ENDTAB
  0
TABLE
  2
BLOCK_RECORD
  5
4860
330
0
100
AcDbSymbolTable
 70
    11
  0
BLOCK_RECORD
  5
487E
330
4860
100
AcDbSymbolTableRecord
100
AcDbBlockTableRecord
  2
*MODEL_SPACE
  0
BLOCK_RECORD
  5
487A
330
4860
100
AcDbSymbolTableRecord
100
AcDbBlockTableRecord
  2
*PAPER_SPACE
  0
BLOCK_RECORD
  5
90
330
4860
100
AcDbSymbolTableRecord
100
AcDbBlockTableRecord
  2
_OPEN
  0
BLOCK_RECORD
  5
2DC7
330
4860
100
AcDbSymbolTableRecord
100
AcDbBlockTableRecord
  2
ASVORK
  0
BLOCK_RECORD
  5
2E4F
330
4860
100
AcDbSymbolTableRecord
100
AcDbBlockTableRecord
  2
ASVORKP
1001
CONTENTBLOCKICON
1071
        0
1004
2800000020000000200000000100040000000000000200000000000000000000000000000000000000000000000080000080000000808000800000008000800080800000C0C0C000808080000000FF0000FF000000FFFF00FF000000FF00FF00FFFF0000FFFFFF00FFFFFFFFFFFFFFFFFFFFFFFFFFFFFFFF
1004
FFFFFFFFFFFFFFFFFFFFFFFFFFFFFFFFFFFFFFFFFFFFFFFFFFFFFFFFFFFFFFFFFFFFFFFFFFFFFFFFFFFFFFFFFFFFFFFFFFFAAAAAAAAAAAAAAAAAAAAAAAAAAAFFFAAFFFFFFFFFFFFFFFFFFFFFFFFFFAAFAAAAFFFFFFFFFFFFFFFFFFFFFFFFAAAFAFAFFFFFFFFFFFFFFFFFFFFFFFFFFAFAAFFFFFFFFFFFFFFF
1004
FFFFFFFFFFFFFFFAAFFFFFFFFFFFFFFFFFFFFFFFFFFFFFFAAFFFFFFFFFFFFFFFFFFFFFFFFFFFFFFAAFFFFFFFFFFFFFFFFFFFFFFFFFFFFFFAAFFFFFFFFFFFFFFFFFFFFFFFFFFFFFFAAFFFFFFFFFFFFFFFFFFFFFFFFFFFFFFAAFFFFFFFFFFFFFFFFFFFFFFFFFFFFFFAAFFFFFFFFFFFFFFFFFFFFFFFFFFFFFFA
1004
AFFFFFFFFFFFFFFFFFFFFFFFFFFFFFFAAFFFFFFFFFFFFFFFFFFFFFFFFFFFFFFAAFFFFFFFFFFFFFFFFFFFFFFFFFFFFFFAAFFFFFFFFFFFFFFFFFFFFFFFFFFFFFFAAFFFFFFFFFFFFFFFFFFFFFFFFFFFFFFAAFFFFFFFFFFFFFFFFFFFFFFFFFFFFFFAAFFFFFFFFFFFFFFFFFFFFFFFFFFFFFFAAFFFFFFFFFFFFFFF
1004
FFFFFFFFFFFFFFFAAFFFFFFFFFFFFFFFFFFFFFFFFFFFFFFAFAAFFFFFFFFFFFFFFFFFFFFFFFFFFAAAFAAAFFFFFFFFFFFFFFFFFFFFFFFFAAAAFAAAAAAAAAAAAAAAAAAAAAAAAAAAAFAFFFFFFFFFFFFFFFFFFFFFFFFFFFFFFFFFFFFFFFFFFFFFFFFFFFFFFFFFFFFFFFFFFFFFFFFFFFFFFFFFFFFFFFFFFFFFFFFF
1004
FFFFFFFFFFFFFFFFFFFFFFFFFFFFFFFF
  0
BLOCK_RECORD
  5
485C
330
4860
100
AcDbSymbolTableRecord
100
AcDbBlockTableRecord
  2
VDDIM_DEFAULT
  0
BLOCK_RECORD
  5
485E
330
4860
100
AcDbSymbolTableRecord
100
AcDbBlockTableRecord
  2
VDDIM_NONE
  0
BLOCK_RECORD
  5
48B4
330
4860
100
AcDbSymbolTableRecord
100
AcDbBlockTableRecord
  2
*D6
  0
BLOCK_RECORD
  5
48C0
330
4860
100
AcDbSymbolTableRecord
100
AcDbBlockTableRecord
  2
*D7
  0
BLOCK_RECORD
  5
48CC
330
4860
100
AcDbSymbolTableRecord
100
AcDbBlockTableRecord
  2
*D8
  0
BLOCK_RECORD
  5
48D8
330
4860
100
AcDbSymbolTableRecord
100
AcDbBlockTableRecord
  2
*D9
  0
BLOCK_RECORD
  5
48E4
330
4860
100
AcDbSymbolTableRecord
100
AcDbBlockTableRecord
  2
*D10
  0
ENDTAB
  0
ENDSEC
  0
SECTION
  2
BLOCKS
  0
BLOCK
  5
487F
330
487E
100
AcDbEntity
  8
0
100
AcDbBlockBegin
  2
*MODEL_SPACE
 70
     0
 71
     0
 10
0.0
 20
0.0
 30
0.0
  3
*MODEL_SPACE
  1

  0
ENDBLK
  5
4880
330
487E
100
AcDbEntity
  8
0
100
AcDbBlockEnd
  0
BLOCK
  5
487B
330
487A
100
AcDbEntity
 67
     1
  8
0
100
AcDbBlockBegin
  2
*PAPER_SPACE
 70
     0
 71
     0
 10
0.0
 20
0.0
 30
0.0
  3
*PAPER_SPACE
  1

  0
ENDBLK
  5
487C
330
487A
100
AcDbEntity
 67
     1
  8
0
100
AcDbBlockEnd
  0
BLOCK
  5
48A8
330
90
100
AcDbEntity
  8
0
100
AcDbBlockBegin
  2
_OPEN
 70
     0
 71
     0
 10
0.0
 20
0.0
 30
0.0
  3
_OPEN
  1

  0
LINE
  5
92
330
90
100
AcDbEntity
  8
0
  6
BYBLOCK
 62
     0
100
AcDbLine
 10
-1.0
 20
0.166667
 30
0.0
 11
0.0
 21
0.0
 31
0.0
  0
LINE
  5
93
330
90
100
AcDbEntity
  8
0
  6
BYBLOCK
 62
     0
100
AcDbLine
 10
0.0
 20
0.0
 30
0.0
 11
-1.0
 21
-0.166667
 31
0.0
  0
LINE
  5
94
330
90
100
AcDbEntity
  8
0
  6
BYBLOCK
 62
     0
100
AcDbLine
 10
0.0
 20
0.0
 30
0.0
 11
-1.0
 21
0.0
 31
0.0
  0
ENDBLK
  5
48A9
330
90
100
AcDbEntity
  8
0
100
AcDbBlockEnd
  0
BLOCK
  5
48AA
330
2DC7
100
AcDbEntity
  8
0
100
AcDbBlockBegin
  2
ASVORK
 70
     0
 71
     0
 10
0.0
 20
0.0
 30
0.0
  3
ASVORK
  1

  0
LINE
  5
32D1
330
2DC7
100
AcDbEntity
  8
V0-OBRYS
  6
CONTINUOUS
 62
    90
100
AcDbLine
 10
0.0
 20
30.0
 30
0.0
 11
80.0
 21
30.0
 31
0.0
  0
LINE
  5
32D2
330
2DC7
100
AcDbEntity
  8
V0-OBRYS
  6
CONTINUOUS
 62
    90
100
AcDbLine
 10
80.0
 20
0.0
 30
0.0
 11
0.0
 21
0.0
 31
0.0
  0
LINE
  5
32D3
330
2DC7
100
AcDbEntity
  8
V0-OBRYS
  6
CONTINUOUS
 62
    90
100
AcDbLine
 10
0.0
 20
40.0
 30
0.0
 11
80.0
 21
40.0
 31
0.0
  0
LINE
  5
32D4
330
2DC7
100
AcDbEntity
  8
V0-OBRYS
  6
CONTINUOUS
 62
    90
100
AcDbLine
 10
0.0
 20
0.0
 30
0.0
 11
0.0
 21
40.0
 31
0.0
  0
LINE
  5
32D5
330
2DC7
100
AcDbEntity
  8
V0-OBRYS
  6
CONTINUOUS
 62
    90
100
AcDbLine
 10
80.0
 20
40.0
 30
0.0
 11
80.0
 21
0.0
 31
0.0
  0
ENDBLK
  5
48AB
330
2DC7
100
AcDbEntity
  8
0
100
AcDbBlockEnd
  0
BLOCK
  5
48AC
330
2E4F
100
AcDbEntity
  8
0
100
AcDbBlockBegin
  2
ASVORKP
 70
     0
 71
     0
 10
0.0
 20
0.0
 30
0.0
  3
ASVORKP
  1

  0
LINE
  5
334B
330
2E4F
100
AcDbEntity
  8
V0-OBRYS
  6
CONTINUOUS
 62
    90
100
AcDbLine
 10
75.0
 20
-30.0
 30
0.0
 11
5.0
 21
-30.0
 31
0.0
  0
LINE
  5
334C
330
2E4F
100
AcDbEntity
  8
V0-OBRYS
  6
CONTINUOUS
 62
    90
100
AcDbLine
 10
5.0
 20
30.0
 30
0.0
 11
75.0
 21
30.0
 31
0.0
  0
CIRCLE
  5
334D
330
2E4F
100
AcDbEntity
  8
V0-OBRYS
  6
CONTINUOUS
 62
    90
100
AcDbCircle
 10
4.669164
 20
-25.534884
 30
0.0
 40
2.347961
  0
CIRCLE
  5
334E
330
2E4F
100
AcDbEntity
  8
V0-OBRYS
  6
CONTINUOUS
 62
    90
100
AcDbCircle
 10
4.669164
 20
25.534884
 30
0.0
 40
2.347961
  0
ARC
  5
334F
330
2E4F
100
AcDbEntity
  8
V0-OBRYS
  6
CONTINUOUS
 62
    90
100
AcDbCircle
 10
5.0
 20
25.0
 30
0.0
 40
5.0
100
AcDbArc
 50
90.0
 51
180.0
  0
LINE
  5
3350
330
2E4F
100
AcDbEntity
  8
V0-OBRYS
  6
CONTINUOUS
 62
    90
100
AcDbLine
 10
0.0
 20
-25.0
 30
0.0
 11
0.0
 21
25.0
 31
0.0
  0
ARC
  5
3351
330
2E4F
100
AcDbEntity
  8
V0-OBRYS
  6
CONTINUOUS
 62
    90
100
AcDbCircle
 10
5.0
 20
-25.0
 30
0.0
 40
5.0
100
AcDbArc
 50
180.0
 51
270.0
  0
ARC
  5
3352
330
2E4F
100
AcDbEntity
  8
V0-OBRYS
  6
CONTINUOUS
 62
    90
100
AcDbCircle
 10
75.0
 20
25.0
 30
0.0
 40
5.0
100
AcDbArc
 50
0.0
 51
90.0
  0
LINE
  5
3353
330
2E4F
100
AcDbEntity
  8
V0-OBRYS
  6
CONTINUOUS
 62
    90
100
AcDbLine
 10
80.0
 20
25.0
 30
0.0
 11
80.0
 21
-25.0
 31
0.0
  0
ARC
  5
3354
330
2E4F
100
AcDbEntity
  8
V0-OBRYS
  6
CONTINUOUS
 62
    90
100
AcDbCircle
 10
75.0
 20
-25.0
 30
0.0
 40
5.0
100
AcDbArc
 50
270.0
 51
0.0
  0
CIRCLE
  5
3355
330
2E4F
100
AcDbEntity
  8
V0-OBRYS
  6
CONTINUOUS
 62
    90
100
AcDbCircle
 10
75.33083600000001
 20
-25.534884
 30
0.0
 40
2.347961
  0
CIRCLE
  5
3356
330
2E4F
100
AcDbEntity
  8
V0-OBRYS
  6
CONTINUOUS
 62
    90
100
AcDbCircle
 10
75.33083600000001
 20
25.534884
 30
0.0
 40
2.347961
  0
ENDBLK
  5
48AD
330
2E4F
100
AcDbEntity
  8
0
100
AcDbBlockEnd
  0
BLOCK
  5
48AE
330
485C
100
AcDbEntity
  8
0
100
AcDbBlockBegin
  2
VDDIM_DEFAULT
 70
     0
 71
     0
 10
0.0
 20
0.0
 30
0.0
  3
VDDIM_DEFAULT
  1

  0
LWPOLYLINE
  5
485D
330
485C
100
AcDbEntity
  8
0
  6
CONTINUOUS
 62
     0
100
AcDbPolyline
 90
        4
 70
     0
 43
0.0
 10
0.0
 20
0.0
 10
-1.0
 20
-0.1665
 10
-1.0
 20
0.1665
 10
0.0
 20
0.0
1001
VDEXTRAPARAM
1071
        1
1071
        0
1071
        0
1040
1.0
1000

1000

1040
0.0
1040
0.0
  0
HATCH
  5
48B3
330
485C
100
AcDbEntity
  8
0
  6
CONTINUOUS
 62
     0
100
AcDbHatch
 10
0.0
 20
0.0
 30
0.0
210
0.0
220
0.0
230
1.0
  2
SOLID
 70
     1
 71
     0
 91
        1
 92
        2
 72
     0
 73
     1
 93
        3
 10
0.0
 20
0.0
 10
-1.0
 20
-0.1665
 10
-1.0
 20
0.1665
 97
        0
 75
     0
 76
     1
 98
        1
 10
0.0
 20
0.0
1001
VDEXTRAPARAM
1071
        1
1071
        0
1071
        0
1040
1.0
1000

1000

1040
0.0
1040
0.0
1001
VD_TEMPHATCH
1000
VD_TEMPHATCH
  0
ENDBLK
  5
48AF
330
485C
100
AcDbEntity
  8
0
100
AcDbBlockEnd
  0
BLOCK
  5
48B0
330
485E
100
AcDbEntity
  8
0
100
AcDbBlockBegin
  2
VDDIM_NONE
 70
     0
 71
     0
 10
0.0
 20
0.0
 30
0.0
  3
VDDIM_NONE
  1

  0
ENDBLK
  5
48B1
330
485E
100
AcDbEntity
  8
0
100
AcDbBlockEnd
  0
BLOCK
  5
48BE
330
48B4
100
AcDbEntity
  8
0
100
AcDbBlockBegin
  2
*D6
 70
     1
 71
     0
 10
0.0
 20
0.0
 30
0.0
  3
*D6
  1

  0
LINE
  5
48B5
330
48B4
100
AcDbEntity
  8
V0-VYPLNE
 62
    41
100
AcDbLine
 10
4039.307635
 20
127.750819
 30
0.0
 11
3894.927954999963
 21
127.750819
 31
0.0
  0
LINE
  5
48B6
330
48B4
100
AcDbEntity
  8
V0-VYPLNE
 62
    41
100
AcDbLine
 10
4044.268255
 20
-502.247921
 30
0.0
 11
3894.927954999963
 21
-502.247921
 31
0.0
  0
LINE
  5
48B7
330
48B4
100
AcDbEntity
  8
V0-VYPLNE
 62
     0
100
AcDbLine
 10
3896.177954999963
 20
77.75081899999987
 30
0.0
 11
3896.177954999963
 21
-452.2479209999997
 31
0.0
  0
INSERT
  5
48B8
330
48B4
100
AcDbEntity
  8
V0-VYPLNE
 62
     0
100
AcDbBlockReference
  2
_OPEN
 10
3896.177954999963
 20
127.7508189999999
 30
0.0
 41
50.0
 42
50.0
 43
50.0
 50
90.0
  0
INSERT
  5
48B9
330
48B4
100
AcDbEntity
  8
V0-VYPLNE
 62
     0
100
AcDbBlockReference
  2
_OPEN
 10
3896.177954999963
 20
-502.2479209999997
 30
0.0
 41
50.0
 42
50.0
 43
50.0
 50
270.0
  0
MTEXT
  5
48BA
330
48B4
100
AcDbEntity
  8
V0-VYPLNE
 62
    41
100
AcDbMText
 10
3869.177954999963
 20
-187.248551
 30
0.0
 40
50.0
 41
0.0
 71
     5
 72
     1
  1
%%c\A1;630
  7
ED30
 11
0.0
 21
1.0
 31
0.0
  0
POINT
  5
48BB
330
48B4
100
AcDbEntity
  8
DEFPOINTS
 62
     0
100
AcDbPoint
 10
4040.307635
 20
127.750819
 30
0.0
  0
POINT
  5
48BC
330
48B4
100
AcDbEntity
  8
DEFPOINTS
 62
     0
100
AcDbPoint
 10
4045.268255
 20
-502.247921
 30
0.0
  0
POINT
  5
48BD
330
48B4
100
AcDbEntity
  8
DEFPOINTS
 62
     0
100
AcDbPoint
 10
3896.177954999963
 20
-502.247921
 30
0.0
  0
ENDBLK
  5
48BF
330
48B4
100
AcDbEntity
  8
0
100
AcDbBlockEnd
  0
BLOCK
  5
48CA
330
48C0
100
AcDbEntity
  8
0
100
AcDbBlockBegin
  2
*D7
 70
     1
 71
     0
 10
0.0
 20
0.0
 30
0.0
  3
*D7
  1

  0
LINE
  5
48C1
330
48C0
100
AcDbEntity
  8
V0-VYPLNE
 62
    41
100
AcDbLine
 10
4040.307635
 20
-550.279236
 30
0.0
 11
4040.307635
 21
-612.9874209999107
 31
0.0
  0
LINE
  5
48C2
330
48C0
100
AcDbEntity
  8
V0-VYPLNE
 62
    41
100
AcDbLine
 10
4279.944835
 20
-550.279236
 30
0.0
 11
4279.944835
 21
-612.9874209999107
 31
0.0
  0
LINE
  5
48C3
330
48C0
100
AcDbEntity
  8
V0-VYPLNE
 62
     0
100
AcDbLine
 10
4090.307635
 20
-611.7374209999107
 30
0.0
 11
4229.944835
 21
-611.7374209999107
 31
0.0
  0
INSERT
  5
48C4
330
48C0
100
AcDbEntity
  8
V0-VYPLNE
 62
     0
100
AcDbBlockReference
  2
_OPEN
 10
4040.307635
 20
-611.7374209999107
 30
0.0
 41
50.0
 42
50.0
 43
50.0
 50
180.0
  0
INSERT
  5
48C5
330
48C0
100
AcDbEntity
  8
V0-VYPLNE
 62
     0
100
AcDbBlockReference
  2
_OPEN
 10
4279.944835
 20
-611.7374209999107
 30
0.0
 41
50.0
 42
50.0
 43
50.0
  0
MTEXT
  5
48C6
330
48C0
100
AcDbEntity
  8
V0-VYPLNE
 62
    41
100
AcDbMText
 10
4160.126235
 20
-584.7374209999107
 30
0.0
 40
50.0
 41
0.0
 71
     5
 72
     1
  1
\A1;240
  7
ED30
  0
POINT
  5
48C7
330
48C0
100
AcDbEntity
  8
DEFPOINTS
 62
     0
100
AcDbPoint
 10
4040.307635
 20
-549.279236
 30
0.0
  0
POINT
  5
48C8
330
48C0
100
AcDbEntity
  8
DEFPOINTS
 62
     0
100
AcDbPoint
 10
4279.944835
 20
-549.279236
 30
0.0
  0
POINT
  5
48C9
330
48C0
100
AcDbEntity
  8
DEFPOINTS
 62
     0
100
AcDbPoint
 10
4279.944835
 20
-611.7374209999107
 30
0.0
  0
ENDBLK
  5
48CB
330
48C0
100
AcDbEntity
  8
0
100
AcDbBlockEnd
  0
BLOCK
  5
48D6
330
48CC
100
AcDbEntity
  8
0
100
AcDbBlockBegin
  2
*D8
 70
     1
 71
     0
 10
0.0
 20
0.0
 30
0.0
  3
*D8
  1

  0
LINE
  5
48CD
330
48CC
100
AcDbEntity
  8
V0-VYPLNE
 62
    41
100
AcDbLine
 10
4091.736361
 20
-97.268351
 30
0.0
 11
4001.431606999831
 21
-97.268351
 31
0.0
  0
LINE
  5
48CE
330
48CC
100
AcDbEntity
  8
V0-VYPLNE
 62
    41
100
AcDbLine
 10
4091.736361
 20
-277.228751
 30
0.0
 11
4001.431606999831
 21
-277.228751
 31
0.0
  0
LINE
  5
48CF
330
48CC
100
AcDbEntity
  8
V0-VYPLNE
 62
     0
100
AcDbLine
 10
4002.681606999831
 20
-147.2683509999997
 30
0.0
 11
4002.681606999831
 21
-227.2287509999997
 31
0.0
  0
INSERT
  5
48D0
330
48CC
100
AcDbEntity
  8
V0-VYPLNE
 62
     0
100
AcDbBlockReference
  2
_OPEN
 10
4002.681606999831
 20
-97.26835099999971
 30
0.0
 41
50.0
 42
50.0
 43
50.0
 50
90.0
  0
INSERT
  5
48D1
330
48CC
100
AcDbEntity
  8
V0-VYPLNE
 62
     0
100
AcDbBlockReference
  2
_OPEN
 10
4002.681606999831
 20
-277.2287509999997
 30
0.0
 41
50.0
 42
50.0
 43
50.0
 50
270.0
  0
MTEXT
  5
48D2
330
48CC
100
AcDbEntity
  8
V0-VYPLNE
 62
    41
100
AcDbMText
 10
3975.681606999831
 20
-187.248551
 30
0.0
 40
50.0
 41
0.0
 71
     5
 72
     1
  1
%%c\A1;180
  7
ED30
 11
0.0
 21
1.0
 31
0.0
  0
POINT
  5
48D3
330
48CC
100
AcDbEntity
  8
DEFPOINTS
 62
     0
100
AcDbPoint
 10
4092.736361
 20
-97.268351
 30
0.0
  0
POINT
  5
48D4
330
48CC
100
AcDbEntity
  8
DEFPOINTS
 62
     0
100
AcDbPoint
 10
4092.736361
 20
-277.228751
 30
0.0
  0
POINT
  5
48D5
330
48CC
100
AcDbEntity
  8
DEFPOINTS
 62
     0
100
AcDbPoint
 10
4002.681606999831
 20
-277.228751
 30
0.0
  0
ENDBLK
  5
48D7
330
48CC
100
AcDbEntity
  8
0
100
AcDbBlockEnd
  0
BLOCK
  5
48E2
330
48D8
100
AcDbEntity
  8
0
100
AcDbBlockBegin
  2
*D9
 70
     1
 71
     0
 10
0.0
 20
0.0
 30
0.0
  3
*D9
  1

  0
LINE
  5
48D9
330
48D8
100
AcDbEntity
  8
V0-VYPLNE
 62
    41
100
AcDbLine
 10
4275.984215
 20
174.782134
 30
0.0
 11
4489.38493499998
 21
174.7821339999999
 31
0.0
  0
LINE
  5
48DA
330
48D8
100
AcDbEntity
  8
V0-VYPLNE
 62
    41
100
AcDbLine
 10
4280.944835
 20
-550.279236
 30
0.0
 11
4489.38493499998
 21
-550.279236
 31
0.0
  0
LINE
  5
48DB
330
48D8
100
AcDbEntity
  8
V0-VYPLNE
 62
     0
100
AcDbLine
 10
4488.13493499998
 20
124.782134
 30
0.0
 11
4488.13493499998
 21
-500.2792359999994
 31
0.0
  0
INSERT
  5
48DC
330
48D8
100
AcDbEntity
  8
V0-VYPLNE
 62
     0
100
AcDbBlockReference
  2
_OPEN
 10
4488.13493499998
 20
174.782134
 30
0.0
 41
50.0
 42
50.0
 43
50.0
 50
90.0
  0
INSERT
  5
48DD
330
48D8
100
AcDbEntity
  8
V0-VYPLNE
 62
     0
100
AcDbBlockReference
  2
_OPEN
 10
4488.13493499998
 20
-550.2792359999994
 30
0.0
 41
50.0
 42
50.0
 43
50.0
 50
270.0
  0
MTEXT
  5
48DE
330
48D8
100
AcDbEntity
  8
V0-VYPLNE
 62
    41
100
AcDbMText
 10
4461.13493499998
 20
-187.748551
 30
0.0
 40
50.0
 41
0.0
 71
     5
 72
     1
  1
%%c\A1;725
  7
ED30
 11
0.0
 21
1.0
 31
0.0
  0
POINT
  5
48DF
330
48D8
100
AcDbEntity
  8
DEFPOINTS
 62
     0
100
AcDbPoint
 10
4274.984215
 20
174.782134
 30
0.0
  0
POINT
  5
48E0
330
48D8
100
AcDbEntity
  8
DEFPOINTS
 62
     0
100
AcDbPoint
 10
4279.944835
 20
-550.279236
 30
0.0
  0
POINT
  5
48E1
330
48D8
100
AcDbEntity
  8
DEFPOINTS
 62
     0
100
AcDbPoint
 10
4488.13493499998
 20
-550.279236
 30
0.0
  0
ENDBLK
  5
48E3
330
48D8
100
AcDbEntity
  8
0
100
AcDbBlockEnd
  0
BLOCK
  5
48EE
330
48E4
100
AcDbEntity
  8
0
100
AcDbBlockBegin
  2
*D10
 70
     1
 71
     0
 10
0.0
 20
0.0
 30
0.0
  3
*D10
  1

  0
LINE
  5
48E5
330
48E4
100
AcDbEntity
  8
V0-VYPLNE
 62
    41
100
AcDbLine
 10
4309.395541
 20
157.876709
 30
0.0
 11
4411.797393000219
 21
157.876709
 31
0.0
  0
LINE
  5
48E6
330
48E4
100
AcDbEntity
  8
V0-VYPLNE
 62
    41
100
AcDbLine
 10
4309.395541
 20
-532.3738110000001
 30
0.0
 11
4411.797393000219
 21
-532.3738110000001
 31
0.0
  0
LINE
  5
48E7
330
48E4
100
AcDbEntity
  8
V0-VYPLNE
 62
     0
100
AcDbLine
 10
4410.547393000219
 20
107.8767090000001
 30
0.0
 11
4410.547393000219
 21
-482.3738109999999
 31
0.0
  0
INSERT
  5
48E8
330
48E4
100
AcDbEntity
  8
V0-VYPLNE
 62
     0
100
AcDbBlockReference
  2
_OPEN
 10
4410.547393000219
 20
157.8767090000001
 30
0.0
 41
50.0
 42
50.0
 43
50.0
 50
90.0
  0
INSERT
  5
48E9
330
48E4
100
AcDbEntity
  8
V0-VYPLNE
 62
     0
100
AcDbBlockReference
  2
_OPEN
 10
4410.547393000219
 20
-532.3738109999999
 30
0.0
 41
50.0
 42
50.0
 43
50.0
 50
270.0
  0
MTEXT
  5
48EA
330
48E4
100
AcDbEntity
  8
V0-VYPLNE
 62
    41
100
AcDbMText
 10
4383.547393000219
 20
-187.248551
 30
0.0
 40
50.0
 41
0.0
 71
     5
 72
     1
  1
%%c\A1;690
  7
ED30
 11
0.0
 21
1.0
 31
0.0
  0
POINT
  5
48EB
330
48E4
100
AcDbEntity
  8
DEFPOINTS
 62
     0
100
AcDbPoint
 10
4308.395541
 20
157.876709
 30
0.0
  0
POINT
  5
48EC
330
48E4
100
AcDbEntity
  8
DEFPOINTS
 62
     0
100
AcDbPoint
 10
4308.395541
 20
-532.3738110000001
 30
0.0
  0
POINT
  5
48ED
330
48E4
100
AcDbEntity
  8
DEFPOINTS
 62
     0
100
AcDbPoint
 10
4410.547393000219
 20
-532.3738110000001
 30
0.0
  0
ENDBLK
  5
48EF
330
48E4
100
AcDbEntity
  8
0
100
AcDbBlockEnd
  0
ENDSEC
  0
SECTION
  2
ENTITIES
  0
TEXT
  5
1347
330
487E
100
AcDbEntity
  8
V0-VYPLNE
 62
     6
100
AcDbText
 10
4798.130971
 20
-1130.432774
 30
0.0
 40
90.0
  1
TCB-630
  7
ED40
100
AcDbText
  0
TEXT
  5
1348
330
487E
100
AcDbEntity
  8
V0-VYPLNE
  6
CONTINUOUS
 62
    51
100
AcDbText
 10
4616.876507
 20
-1255.68089
 30
0.0
 40
67.5
  1
AXIALNI VENTILATOR
  7
ED30
100
AcDbText
  0
TEXT
  5
2455
330
487E
100
AcDbEntity
  8
V0-VYPLNE
  6
CONTINUOUS
 62
    51
100
AcDbText
 10
4804.701663
 20
-1366.566124
 30
0.0
 40
67.5
  1
DO POTRUBI
  7
ED30
100
AcDbText
  0
LINE
  5
4219
330
487E
100
AcDbEntity
  8
V0-OBRYS
  6
CONTINUOUS
 62
    90
100
AcDbLine
 10
4274.984215
 20
-502.247921
 30
0.0
 11
4274.984215
 21
174.782134
 31
0.0
  0
LINE
  5
421A
330
487E
100
AcDbEntity
  8
V0-OBRYS
  6
CONTINUOUS
 62
    90
100
AcDbLine
 10
4045.268255
 20
-502.247921
 30
0.0
 11
4045.268255
 21
174.782134
 31
0.0
  0
LINE
  5
421B
330
487E
100
AcDbEntity
  8
V0-OBRYS
  6
CONTINUOUS
 62
    90
100
AcDbLine
 10
4040.307635
 20
-187.248551
 30
0.0
 11
4040.307635
 21
174.782134
 31
0.0
  0
LINE
  5
421C
330
487E
100
AcDbEntity
  8
V0-OBRYS
  6
CONTINUOUS
 62
    90
100
AcDbLine
 10
4279.944835
 20
-187.248551
 30
0.0
 11
4279.944835
 21
174.782134
 31
0.0
  0
LINE
  5
421D
330
487E
100
AcDbEntity
  8
V0-OBRYS
  6
CONTINUOUS
 62
    90
100
AcDbLine
 10
4274.984215
 20
127.750819
 30
0.0
 11
4045.268255
 21
127.750819
 31
0.0
  0
LINE
  5
421E
330
487E
100
AcDbEntity
  8
V0-VYPLNE
 48
3.0
100
AcDbLine
 10
4341.925916
 20
-187.248551
 30
0.0
 11
4020.670004
 21
-187.248551
 31
0.0
  0
LINE
  5
421F
330
487E
100
AcDbEntity
  8
V0-OBRYS
  6
CONTINUOUS
 62
    90
100
AcDbLine
 10
4274.984215
 20
-502.247921
 30
0.0
 11
4045.268255
 21
-502.247921
 31
0.0
  0
DIMENSION
  5
4220
330
487E
100
AcDbEntity
  8
V0-VYPLNE
  6
CONTINUOUS
 62
    41
100
AcDbDimension
  2
*D6
 10
3896.177954999963
 20
-502.247921
 30
0.0
 11
3869.177954999963
 21
-187.248551
 31
0.0
 70
    32
  1
%%c<>
  3
ED50
100
AcDbAlignedDimension
 13
4040.307635
 23
127.750819
 33
0.0
 14
4045.268255
 24
-502.247921
 34
0.0
 50
90.0
100
AcDbRotatedDimension
1001
ACAD
1000
DSTYLE
1002
{
1070
    41
1040
50.0
1070
   140
1040
50.0
1002
}
  0
LINE
  5
4221
330
487E
100
AcDbEntity
  8
V0-OBRYS
  6
CONTINUOUS
 62
    90
100
AcDbLine
 10
4040.307635
 20
-187.248551
 30
0.0
 11
4040.307635
 21
-549.279236
 31
0.0
  0
LINE
  5
4222
330
487E
100
AcDbEntity
  8
V0-OBRYS
  6
CONTINUOUS
 62
    90
100
AcDbLine
 10
4045.268255
 20
-502.247921
 30
0.0
 11
4045.268255
 21
-549.279236
 31
0.0
  0
LINE
  5
4223
330
487E
100
AcDbEntity
  8
V0-VYPLNE
  6
DASHDOT
 62
    63
 48
3.0
100
AcDbLine
 10
4015.504535
 20
-532.3738110000001
 30
0.0
 11
4086.55499
 21
-532.3738110000001
 31
0.0
  0
LINE
  5
4224
330
487E
100
AcDbEntity
  8
V0-OBRYS
  6
CONTINUOUS
 62
    90
100
AcDbLine
 10
4279.944835
 20
-187.248551
 30
0.0
 11
4279.944835
 21
-549.279236
 31
0.0
  0
LINE
  5
4225
330
487E
100
AcDbEntity
  8
V0-OBRYS
  6
CONTINUOUS
 62
    90
100
AcDbLine
 10
4274.984215
 20
-502.247921
 30
0.0
 11
4274.984215
 21
-549.279236
 31
0.0
  0
LINE
  5
4226
330
487E
100
AcDbEntity
  8
V0-VYPLNE
  6
DASHDOT
 62
    63
 48
3.0
100
AcDbLine
 10
4251.616294
 20
-532.3738110000001
 30
0.0
 11
4308.395541
 21
-532.3738110000001
 31
0.0
  0
LINE
  5
4227
330
487E
100
AcDbEntity
  8
V0-VYPLNE
  6
DASHDOT
 62
    63
 48
3.0
100
AcDbLine
 10
4015.504535
 20
157.876709
 30
0.0
 11
4086.55499
 21
157.876709
 31
0.0
  0
LINE
  5
4228
330
487E
100
AcDbEntity
  8
V0-VYPLNE
  6
DASHDOT
 62
    63
 48
3.0
100
AcDbLine
 10
4251.616294
 20
157.876709
 30
0.0
 11
4308.395541
 21
157.876709
 31
0.0
  0
DIMENSION
  5
424C
330
487E
100
AcDbEntity
  8
V0-VYPLNE
  6
CONTINUOUS
 62
    41
100
AcDbDimension
  2
*D7
 10
4279.944835
 20
-611.7374209999107
 30
0.0
 11
4160.126235
 21
-584.7374209999107
 31
0.0
 70
    32
  3
ED50
100
AcDbAlignedDimension
 13
4040.307635
 23
-549.279236
 33
0.0
 14
4279.944835
 24
-549.279236
 34
0.0
100
AcDbRotatedDimension
1001
ACAD
1000
DSTYLE
1002
{
1070
    41
1040
50.0
1070
   140
1040
50.0
1002
}
  0
LINE
  5
428E
330
487E
100
AcDbEntity
  8
V0-VYPLNE
  6
DASHED
 62
    52
 48
2.0
100
AcDbLine
 10
4272.201738
 20
-33.086749
 30
0.0
 11
4248.808268
 21
123.953978
 31
0.0
  0
LINE
  5
428F
330
487E
100
AcDbEntity
  8
V0-VYPLNE
  6
DASHED
 62
    52
 48
2.0
100
AcDbLine
 10
4167.687583
 20
-33.086749
 30
0.0
 11
4191.081054
 21
123.953978
 31
0.0
  0
LINE
  5
4290
330
487E
100
AcDbEntity
  8
V0-VYPLNE
  6
DASHED
 62
    52
 48
2.0
100
AcDbLine
 10
4272.201738
 20
-338.929312
 30
0.0
 11
4248.808268
 21
-495.970039
 31
0.0
  0
LINE
  5
4291
330
487E
100
AcDbEntity
  8
V0-VYPLNE
  6
DASHED
 62
    52
 48
2.0
100
AcDbLine
 10
4167.687583
 20
-338.929312
 30
0.0
 11
4191.081054
 21
-495.970039
 31
0.0
  0
LINE
  5
4292
330
487E
100
AcDbEntity
  8
V0-VYPLNE
  6
DASHED
 62
    52
 48
2.0
100
AcDbLine
 10
4191.081054
 20
-495.970039
 30
0.0
 11
4248.808268
 21
-495.970039
 31
0.0
  0
LINE
  5
4293
330
487E
100
AcDbEntity
  8
V0-VYPLNE
  6
DASHED
 62
    52
 48
2.0
100
AcDbLine
 10
4167.744661
 20
-186.008031
 30
0.0
 11
4167.744661
 21
-327.368031
 31
0.0
  0
ELLIPSE
  5
4294
330
487E
100
AcDbEntity
  8
V0-VYPLNE
  6
DASHED
 62
    52
 48
2.0
100
AcDbEllipse
 10
2731.189344
 20
-169.796026
 30
0.0
 11
-4.547473508864641E-12
 21
1654.747515841289
 31
0.0
210
0.0
220
0.0
230
-1.0
 40
0.9354839999999999
 41
1.58059375167705
 42
1.660762687017188
  0
LINE
  5
4295
330
487E
100
AcDbEntity
  8
V0-VYPLNE
  6
DASHED
 62
    52
 48
2.0
100
AcDbLine
 10
4219.944661000001
 20
-334.454943
 30
0.0
 11
4219.944661000001
 21
-186.008031
 31
0.0
  0
LINE
  5
4296
330
487E
100
AcDbEntity
  8
V0-VYPLNE
  6
DASHED
 62
    52
 48
2.0
100
AcDbLine
 10
4168.665701
 20
-202.982062
 30
0.0
 11
4276.123522
 21
-168.451676
 31
0.0
  0
ELLIPSE
  5
4297
330
487E
100
AcDbEntity
  8
V0-VYPLNE
  6
DASHED
 62
    52
 48
2.0
100
AcDbEllipse
 10
4219.944661000001
 20
-111.236138
 30
0.0
 11
-5.456968210637569E-12
 21
223.2188053462982
 31
0.0
210
0.0
220
0.0
230
-1.0
 40
0.935484
 41
2.929991421004501
 42
3.394251156505874
  0
LINE
  5
4298
330
487E
100
AcDbEntity
  8
V0-VYPLNE
  6
DASHED
 62
    52
 48
2.0
100
AcDbLine
 10
4176.599383
 20
-329.411692
 30
0.0
 11
4167.687583
 21
-338.929312
 31
0.0
  0
ELLIPSE
  5
4299
330
487E
100
AcDbEntity
  8
V0-VYPLNE
  6
DASHED
 62
    52
 48
2.0
100
AcDbEllipse
 10
4261.365421
 20
-317.352813
 30
0.0
 11
-9.094947017729282E-13
 21
12.39999999999998
 31
0.0
210
0.0
220
0.0
230
-1.0
 40
0.9354840000000001
 41
1.660762687017189
 42
2.929991421004509
  0
LINE
  5
429A
330
487E
100
AcDbEntity
  8
V0-VYPLNE
  6
DASHED
 62
    52
 48
2.0
100
AcDbLine
 10
4263.289938
 20
-329.411692
 30
0.0
 11
4272.201738
 21
-338.929312
 31
0.0
  0
ELLIPSE
  5
429B
330
487E
100
AcDbEntity
  8
V0-VYPLNE
  6
DASHED
 62
    52
 48
2.0
100
AcDbEllipse
 10
4219.944661000001
 20
-260.779923
 30
0.0
 11
-5.456968210637569E-12
 21
223.2188053462982
 31
0.0
210
0.0
220
0.0
230
-1.0
 40
0.935484
 41
-0.2526585029160829
 42
0.2116012325852751
  0
LINE
  5
429C
330
487E
100
AcDbEntity
  8
V0-VYPLNE
  6
DASHED
 62
    52
 48
2.0
100
AcDbLine
 10
4219.944661000001
 20
-37.561118
 30
0.0
 11
4219.944661000001
 21
-186.008031
 31
0.0
  0
LINE
  5
429D
330
487E
100
AcDbEntity
  8
V0-VYPLNE
  6
DASHED
 62
    52
 48
2.0
100
AcDbLine
 10
4167.744661
 20
-186.008031
 30
0.0
 11
4167.744661
 21
-44.648031
 31
0.0
  0
ELLIPSE
  5
429E
330
487E
100
AcDbEntity
  8
V0-VYPLNE
  6
DASHED
 62
    52
 48
2.0
100
AcDbEllipse
 10
4219.944661000001
 20
-186.504134
 30
0.0
 11
9.094947017729281E-13
 21
10.50927496922142
 31
0.0
210
0.0
220
0.0
230
-1.0
 40
0.9354839999999999
 41
0.0
 42
6.283185307179586
  0
LINE
  5
429F
330
487E
100
AcDbEntity
  8
V0-VYPLNE
  6
DASHED
 62
    52
 48
2.0
100
AcDbLine
 10
4176.599383
 20
-42.604369
 30
0.0
 11
4167.687583
 21
-33.086749
 31
0.0
  0
ELLIPSE
  5
42A0
330
487E
100
AcDbEntity
  8
V0-VYPLNE
  6
DASHED
 62
    52
 48
2.0
100
AcDbEllipse
 10
2731.189344
 20
-202.220036
 30
0.0
 11
-3.183231456205249E-12
 21
1654.747515841289
 31
0.0
210
0.0
220
0.0
230
-1.0
 40
0.9354839999999999
 41
1.480829966572604
 42
1.560998901912743
  0
LINE
  5
42A1
330
487E
100
AcDbEntity
  8
V0-VYPLNE
  6
DASHED
 62
    52
 48
2.0
100
AcDbLine
 10
4263.289938
 20
-42.604369
 30
0.0
 11
4272.201738
 21
-33.086749
 31
0.0
  0
LINE
  5
42A2
330
487E
100
AcDbEntity
  8
V0-VYPLNE
  6
DASHED
 62
    52
 48
2.0
100
AcDbLine
 10
4191.081054
 20
123.953978
 30
0.0
 11
4248.808268
 21
123.953978
 31
0.0
  0
LINE
  5
42BC
330
487E
100
AcDbEntity
  8
V0-VYPLNE
  6
DASHED
 62
    52
 48
2.0
100
AcDbLine
 10
4092.484114
 20
-102.783051
 30
0.0
 11
4062.922774
 21
-124.744285
 31
0.0
  0
LINE
  5
42BD
330
487E
100
AcDbEntity
  8
V0-VYPLNE
  6
DASHED
 62
    52
 48
2.0
100
AcDbLine
 10
4091.726128
 20
-118.686016
 30
0.0
 11
4063.680754
 21
-133.831695
 31
0.0
  0
LINE
  5
42BE
330
487E
100
AcDbEntity
  8
V0-VYPLNE
  6
DASHED
 62
    52
 48
2.0
100
AcDbLine
 10
4091.726128
 20
-155.792929
 30
0.0
 11
4062.922774
 21
-158.822067
 31
0.0
  0
LINE
  5
42BF
330
487E
100
AcDbEntity
  8
V0-VYPLNE
  6
DASHED
 62
    52
 48
2.0
100
AcDbLine
 10
4091.726128
 20
-173.967746
 30
0.0
 11
4062.922774
 21
-174.725029
 31
0.0
  0
LINE
  5
42C0
330
487E
100
AcDbEntity
  8
V0-VYPLNE
  6
DASHED
 62
    52
 48
2.0
100
AcDbLine
 10
4092.484114
 20
-137.618116
 30
0.0
 11
4062.164788
 21
-144.433672
 31
0.0
  0
LINE
  5
42C1
330
487E
100
AcDbEntity
  8
V0-VYPLNE
  6
DASHED
 62
    52
 48
2.0
100
AcDbLine
 10
4092.484114
 20
-236.878986
 30
0.0
 11
4062.164788
 21
-230.063431
 31
0.0
  0
LINE
  5
42C2
330
487E
100
AcDbEntity
  8
V0-VYPLNE
  6
DASHED
 62
    52
 48
2.0
100
AcDbLine
 10
4091.726128
 20
-200.529357
 30
0.0
 11
4062.922774
 21
-199.772073
 31
0.0
  0
LINE
  5
42C3
330
487E
100
AcDbEntity
  8
V0-VYPLNE
  6
DASHED
 62
    52
 48
2.0
100
AcDbLine
 10
4091.726128
 20
-218.704173
 30
0.0
 11
4062.922774
 21
-215.675035
 31
0.0
  0
LINE
  5
42C4
330
487E
100
AcDbEntity
  8
V0-VYPLNE
  6
DASHED
 62
    52
 48
2.0
100
AcDbLine
 10
4091.726128
 20
-255.811086
 30
0.0
 11
4063.680754
 21
-240.665408
 31
0.0
  0
LINE
  5
42C5
330
487E
100
AcDbEntity
  8
V0-VYPLNE
  6
DASHED
 62
    52
 48
2.0
100
AcDbLine
 10
4092.484114
 20
-271.714052
 30
0.0
 11
4062.922774
 21
-249.752818
 31
0.0
  0
DIMENSION
  5
42C6
330
487E
100
AcDbEntity
  8
V0-VYPLNE
  6
CONTINUOUS
 62
    41
100
AcDbDimension
  2
*D8
 10
4002.681606999831
 20
-277.228751
 30
0.0
 11
3975.681606999831
 21
-187.248551
 31
0.0
 70
    32
  1
%%c<>
  3
ED50
100
AcDbAlignedDimension
 13
4092.736361
 23
-97.268351
 33
0.0
 14
4092.736361
 24
-277.228751
 34
0.0
 50
90.0
100
AcDbRotatedDimension
1001
ACAD
1000
DSTYLE
1002
{
1070
    41
1040
50.0
1070
   140
1040
50.0
1002
}
  0
LINE
  5
42C7
330
487E
100
AcDbEntity
  8
V0-VYPLNE
  6
DASHED
 62
    52
 48
2.0
100
AcDbLine
 10
4062.742961
 20
-187.248551
 30
0.0
 11
4062.742961
 21
-261.442751
 31
0.0
  0
ARC
  5
42C8
330
487E
100
AcDbEntity
  8
V0-VYPLNE
  6
DASHED
 62
    52
 48
2.0
100
AcDbCircle
 10
4078.528961
 20
-261.442751
 30
0.0
 40
15.786
100
AcDbArc
 50
180.0
 51
270.0
  0
LINE
  5
42C9
330
487E
100
AcDbEntity
  8
V0-VYPLNE
  6
DASHED
 62
    52
 48
2.0
100
AcDbLine
 10
4062.742961
 20
-187.248551
 30
0.0
 11
4062.742961
 21
-113.054351
 31
0.0
  0
ARC
  5
42CA
330
487E
100
AcDbEntity
  8
V0-VYPLNE
  6
DASHED
 62
    52
 48
2.0
100
AcDbCircle
 10
4078.528961
 20
-113.054351
 30
0.0
 40
15.786
100
AcDbArc
 50
90.0
 51
180.0
  0
LINE
  5
42CB
330
487E
100
AcDbEntity
  8
V0-VYPLNE
  6
DASHED
 62
    52
 48
2.0
100
AcDbLine
 10
4159.944605
 20
-269.335751
 30
0.0
 11
4159.944605
 21
-187.248551
 31
0.0
  0
LINE
  5
42CC
330
487E
100
AcDbEntity
  8
V0-VYPLNE
  6
DASHED
 62
    52
 48
2.0
100
AcDbLine
 10
4092.736361
 20
-187.248551
 30
0.0
 11
4092.736361
 21
-277.228751
 31
0.0
  0
LINE
  5
42CD
330
487E
100
AcDbEntity
  8
V0-VYPLNE
  6
DASHED
 62
    52
 48
2.0
100
AcDbLine
 10
4092.736361
 20
-200.529357
 30
0.0
 11
4159.186625
 21
-200.529357
 31
0.0
  0
LINE
  5
42CE
330
487E
100
AcDbEntity
  8
V0-VYPLNE
  6
DASHED
 62
    52
 48
2.0
100
AcDbLine
 10
4092.736361
 20
-218.704173
 30
0.0
 11
4159.944605
 21
-218.704173
 31
0.0
  0
LINE
  5
42CF
330
487E
100
AcDbEntity
  8
V0-VYPLNE
  6
DASHED
 62
    52
 48
2.0
100
AcDbLine
 10
4092.736361
 20
-236.878986
 30
0.0
 11
4159.186625
 21
-236.878986
 31
0.0
  0
LINE
  5
42D0
330
487E
100
AcDbEntity
  8
V0-VYPLNE
  6
DASHED
 62
    52
 48
2.0
100
AcDbLine
 10
4092.736361
 20
-255.811086
 30
0.0
 11
4159.944605
 21
-255.811086
 31
0.0
  0
LINE
  5
42D1
330
487E
100
AcDbEntity
  8
V0-VYPLNE
  6
DASHED
 62
    52
 48
2.0
100
AcDbLine
 10
4092.736361
 20
-277.228751
 30
0.0
 11
4152.051605
 21
-277.228751
 31
0.0
  0
LINE
  5
42D2
330
487E
100
AcDbEntity
  8
V0-VYPLNE
  6
DASHED
 62
    52
 48
2.0
100
AcDbLine
 10
4092.736361
 20
-271.714052
 30
0.0
 11
4159.944605
 21
-271.714052
 31
0.0
  0
LINE
  5
42D3
330
487E
100
AcDbEntity
  8
V0-VYPLNE
  6
DASHED
 62
    52
 48
2.0
100
AcDbLine
 10
4091.726128
 20
-218.704173
 30
0.0
 11
4096.274026
 21
-218.704173
 31
0.0
  0
ARC
  5
42D4
330
487E
100
AcDbEntity
  8
V0-VYPLNE
  6
DASHED
 62
    52
 48
2.0
100
AcDbCircle
 10
4152.051605
 20
-269.335751
 30
0.0
 40
7.893
100
AcDbArc
 50
270.0
 51
0.0
  0
LINE
  5
42D5
330
487E
100
AcDbEntity
  8
V0-VYPLNE
  6
DASHED
 62
    52
 48
2.0
100
AcDbLine
 10
4092.736361
 20
-102.783051
 30
0.0
 11
4159.944605
 21
-102.783051
 31
0.0
  0
LINE
  5
42D6
330
487E
100
AcDbEntity
  8
V0-VYPLNE
  6
DASHED
 62
    52
 48
2.0
100
AcDbLine
 10
4092.736361
 20
-97.268351
 30
0.0
 11
4152.051605
 21
-97.268351
 31
0.0
  0
LINE
  5
42D7
330
487E
100
AcDbEntity
  8
V0-VYPLNE
  6
DASHED
 62
    52
 48
2.0
100
AcDbLine
 10
4092.736361
 20
-118.686016
 30
0.0
 11
4159.944605
 21
-118.686016
 31
0.0
  0
LINE
  5
42D8
330
487E
100
AcDbEntity
  8
V0-VYPLNE
  6
DASHED
 62
    52
 48
2.0
100
AcDbLine
 10
4092.736361
 20
-137.618116
 30
0.0
 11
4159.186625
 21
-137.618116
 31
0.0
  0
LINE
  5
42D9
330
487E
100
AcDbEntity
  8
V0-VYPLNE
  6
DASHED
 62
    52
 48
2.0
100
AcDbLine
 10
4092.736361
 20
-155.792929
 30
0.0
 11
4159.944605
 21
-155.792929
 31
0.0
  0
LINE
  5
42DA
330
487E
100
AcDbEntity
  8
V0-VYPLNE
  6
DASHED
 62
    52
 48
2.0
100
AcDbLine
 10
4092.736361
 20
-173.967746
 30
0.0
 11
4159.186625
 21
-173.967746
 31
0.0
  0
LINE
  5
42DB
330
487E
100
AcDbEntity
  8
V0-VYPLNE
  6
DASHED
 62
    52
 48
2.0
100
AcDbLine
 10
4092.736361
 20
-187.248551
 30
0.0
 11
4092.736361
 21
-97.268351
 31
0.0
  0
LINE
  5
42DC
330
487E
100
AcDbEntity
  8
V0-VYPLNE
  6
DASHED
 62
    52
 48
2.0
100
AcDbLine
 10
4091.726128
 20
-155.792929
 30
0.0
 11
4096.274026
 21
-155.792929
 31
0.0
  0
LINE
  5
42DD
330
487E
100
AcDbEntity
  8
V0-VYPLNE
  6
DASHED
 62
    52
 48
2.0
100
AcDbLine
 10
4159.944605
 20
-105.161351
 30
0.0
 11
4159.944605
 21
-187.248551
 31
0.0
  0
ARC
  5
42DE
330
487E
100
AcDbEntity
  8
V0-VYPLNE
  6
DASHED
 62
    52
 48
2.0
100
AcDbCircle
 10
4152.051605
 20
-105.161351
 30
0.0
 40
7.893
100
AcDbArc
 50
0.0
 51
90.0
  0
LINE
  5
430F
330
487E
100
AcDbEntity
  8
V0-VYPLNE
  6
DASHED
 62
    52
100
AcDbLine
 10
4064.825573
 20
-331.732648
 30
0.0
 11
4096.510432
 21
-315.644379
 31
0.0
  0
LINE
  5
4310
330
487E
100
AcDbEntity
  8
V0-VYPLNE
  6
DASHED
 62
    52
100
AcDbLine
 10
4064.825573
 20
-337.251955
 30
0.0
 11
4101.431682
 21
-318.664877
 31
0.0
  0
LINE
  5
4311
330
487E
100
AcDbEntity
  8
V0-VYPLNE
  6
DASHED
 62
    52
100
AcDbLine
 10
4069.746823
 20
-493.6226
 30
0.0
 11
4094.416302
 21
-493.6226
 31
0.0
  0
LINE
  5
4312
330
487E
100
AcDbEntity
  8
V0-VYPLNE
  6
DASHED
 62
    52
100
AcDbLine
 10
4064.825573
 20
-498.54385
 30
0.0
 11
4094.416302
 21
-498.54385
 31
0.0
  0
LINE
  5
4313
330
487E
100
AcDbEntity
  8
V0-VYPLNE
  6
DASHED
 62
    52
100
AcDbLine
 10
4064.825573
 20
124.046747
 30
0.0
 11
4094.416302
 21
124.046747
 31
0.0
  0
LINE
  5
4314
330
487E
100
AcDbEntity
  8
V0-VYPLNE
  6
DASHED
 62
    52
100
AcDbLine
 10
4069.746823
 20
119.125497
 30
0.0
 11
4094.416302
 21
119.125497
 31
0.0
  0
LINE
  5
4315
330
487E
100
AcDbEntity
  8
V0-VYPLNE
  6
DASHED
 62
    52
100
AcDbLine
 10
4064.825573
 20
-37.245148
 30
0.0
 11
4101.431682
 21
-55.832226
 31
0.0
  0
LINE
  5
4316
330
487E
100
AcDbEntity
  8
V0-VYPLNE
  6
DASHED
 62
    52
100
AcDbLine
 10
4064.825573
 20
-42.764455
 30
0.0
 11
4096.510432
 21
-58.852724
 31
0.0
  0
LINE
  5
4317
330
487E
100
AcDbEntity
  8
V0-VYPLNE
  6
DASHED
 62
    52
100
AcDbLine
 10
4064.825573
 20
-499.747926
 30
0.0
 11
4064.825573
 21
-331.732648
 31
0.0
  0
LINE
  5
4318
330
487E
100
AcDbEntity
  8
V0-VYPLNE
  6
DASHED
 62
    52
100
AcDbLine
 10
4069.746823
 20
-493.6226
 30
0.0
 11
4069.746823
 21
-334.492301
 31
0.0
  0
LINE
  5
431A
330
487E
100
AcDbEntity
  8
V0-VYPLNE
  6
DASHED
 62
    52
100
AcDbLine
 10
4064.825573
 20
-499.747926
 30
0.0
 11
4064.825573
 21
-498.54385
 31
0.0
  0
LINE
  5
431B
330
487E
100
AcDbEntity
  8
V0-VYPLNE
  6
DASHED
 62
    52
100
AcDbLine
 10
4069.746823
 20
119.125497
 30
0.0
 11
4069.746823
 21
-40.00480099999999
 31
0.0
  0
LINE
  5
431C
330
487E
100
AcDbEntity
  8
V0-VYPLNE
  6
DASHED
 62
    52
100
AcDbLine
 10
4064.825573
 20
119.125497
 30
0.0
 11
4064.825573
 21
-42.764455
 31
0.0
  0
LINE
  5
431D
330
487E
100
AcDbEntity
  8
V0-VYPLNE
  6
DASHED
 62
    52
100
AcDbLine
 10
4064.825573
 20
125.250824
 30
0.0
 11
4064.825573
 21
124.046747
 31
0.0
  0
LINE
  5
431E
330
487E
100
AcDbEntity
  8
V0-VYPLNE
  6
DASHED
 62
    52
100
AcDbLine
 10
4101.431682
 20
-55.832226
 30
0.0
 11
4101.431682
 21
-97.023783
 31
0.0
  0
LINE
  5
431F
330
487E
100
AcDbEntity
  8
V0-VYPLNE
  6
DASHED
 62
    52
100
AcDbLine
 10
4096.510432
 20
-58.852724
 30
0.0
 11
4096.510432
 21
-97.023783
 31
0.0
  0
LINE
  5
4320
330
487E
100
AcDbEntity
  8
V0-VYPLNE
  6
DASHED
 62
    52
100
AcDbLine
 10
4096.510432
 20
-315.644379
 30
0.0
 11
4096.510432
 21
-277.47332
 31
0.0
  0
LINE
  5
4321
330
487E
100
AcDbEntity
  8
V0-VYPLNE
  6
DASHED
 62
    52
100
AcDbLine
 10
4101.431682
 20
-318.664877
 30
0.0
 11
4101.431682
 21
-277.47332
 31
0.0
  0
DIMENSION
  5
4346
330
487E
100
AcDbEntity
  8
V0-VYPLNE
  6
CONTINUOUS
 62
    41
100
AcDbDimension
  2
*D9
 10
4488.13493499998
 20
-550.279236
 30
0.0
 11
4461.13493499998
 21
-187.748551
 31
0.0
 70
    32
  1
%%c<>
  3
ED50
100
AcDbAlignedDimension
 13
4274.984215
 23
174.782134
 33
0.0
 14
4279.944835
 24
-550.279236
 34
0.0
 50
90.0
100
AcDbRotatedDimension
1001
ACAD
1000
DSTYLE
1002
{
1070
    41
1040
50.0
1070
   140
1040
50.0
1002
}
  0
DIMENSION
  5
4353
330
487E
100
AcDbEntity
  8
V0-VYPLNE
  6
CONTINUOUS
 62
    41
100
AcDbDimension
  2
*D10
 10
4410.547393000219
 20
-532.3738110000001
 30
0.0
 11
4383.547393000219
 21
-187.248551
 31
0.0
 70
    32
  1
%%c<>
  3
ED50
100
AcDbAlignedDimension
 13
4308.395541
 23
157.876709
 33
0.0
 14
4308.395541
 24
-532.3738110000001
 34
0.0
 50
90.0
100
AcDbRotatedDimension
1001
ACAD
1000
DSTYLE
1002
{
1070
    41
1040
50.0
1070
   140
1040
50.0
1002
}
  0
LINE
  5
43B8
330
487E
100
AcDbEntity
  8
V0-OBRYS
  6
CONTINUOUS
 62
    90
100
AcDbLine
 10
4040.307635
 20
-1221.396538
 30
0.0
 11
4040.307635
 21
-1583.427223
 31
0.0
  0
LINE
  5
43B9
330
487E
100
AcDbEntity
  8
V0-OBRYS
  6
CONTINUOUS
 62
    90
100
AcDbLine
 10
4279.944835
 20
-1221.396538
 30
0.0
 11
4279.944835
 21
-1583.427223
 31
0.0
  0
LINE
  5
43BC
330
487E
100
AcDbEntity
  8
V0-VYPLNE
  6
DASHED
 62
    52
100
AcDbLine
 10
4064.825573
 20
-1533.895913
 30
0.0
 11
4064.825573
 21
-1365.880635
 31
0.0
  0
LINE
  5
43BD
330
487E
100
AcDbEntity
  8
V0-VYPLNE
  6
DASHED
 62
    52
100
AcDbLine
 10
4069.746823
 20
-1527.770586
 30
0.0
 11
4069.746823
 21
-1368.640288
 31
0.0
  0
LINE
  5
43BE
330
487E
100
AcDbEntity
  8
V0-VYPLNE
  6
DASHED
 62
    52
 48
2.0
100
AcDbLine
 10
4272.201738
 20
-1373.077299
 30
0.0
 11
4248.808268
 21
-1530.118026
 31
0.0
  0
LINE
  5
43BF
330
487E
100
AcDbEntity
  8
V0-VYPLNE
  6
DASHED
 62
    52
 48
2.0
100
AcDbLine
 10
4167.687583
 20
-1373.077299
 30
0.0
 11
4191.081054
 21
-1530.118026
 31
0.0
  0
LINE
  5
43C1
330
487E
100
AcDbEntity
  8
V0-OBRYS
  6
CONTINUOUS
 62
    90
100
AcDbLine
 10
4274.984215
 20
-1536.395908
 30
0.0
 11
4045.268255
 21
-1536.395908
 31
0.0
  0
LINE
  5
43C2
330
487E
100
AcDbEntity
  8
V0-OBRYS
  6
CONTINUOUS
 62
    90
100
AcDbLine
 10
4045.268255
 20
-1536.395908
 30
0.0
 11
4045.268255
 21
-1583.427223
 31
0.0
  0
LINE
  5
43C3
330
487E
100
AcDbEntity
  8
V0-VYPLNE
  6
DASHDOT
 62
    63
 48
3.0
100
AcDbLine
 10
4015.504535
 20
-1566.521798
 30
0.0
 11
4086.55499
 21
-1566.521798
 31
0.0
  0
LINE
  5
43C4
330
487E
100
AcDbEntity
  8
V0-VYPLNE
  6
DASHED
 62
    52
100
AcDbLine
 10
4064.825573
 20
-1532.691836
 30
0.0
 11
4094.416302
 21
-1532.691836
 31
0.0
  0
LINE
  5
43C5
330
487E
100
AcDbEntity
  8
V0-VYPLNE
  6
DASHED
 62
    52
100
AcDbLine
 10
4069.746823
 20
-1527.770586
 30
0.0
 11
4094.416302
 21
-1527.770586
 31
0.0
  0
LINE
  5
43C6
330
487E
100
AcDbEntity
  8
V0-VYPLNE
  6
DASHED
 62
    52
100
AcDbLine
 10
4064.825573
 20
-1533.895913
 30
0.0
 11
4064.825573
 21
-1532.691836
 31
0.0
  0
LINE
  5
43C8
330
487E
100
AcDbEntity
  8
V0-OBRYS
  6
CONTINUOUS
 62
    90
100
AcDbLine
 10
4274.984215
 20
-1536.395908
 30
0.0
 11
4274.984215
 21
-1583.427223
 31
0.0
  0
LINE
  5
43C9
330
487E
100
AcDbEntity
  8
V0-VYPLNE
  6
DASHDOT
 62
    63
 48
3.0
100
AcDbLine
 10
4251.616294
 20
-1566.521798
 30
0.0
 11
4308.395541
 21
-1566.521798
 31
0.0
  0
LINE
  5
43CA
330
487E
100
AcDbEntity
  8
V0-VYPLNE
  6
DASHED
 62
    52
 48
2.0
100
AcDbLine
 10
4191.081054
 20
-1530.118026
 30
0.0
 11
4248.808268
 21
-1530.118026
 31
0.0
  0
LINE
  5
43CB
330
487E
100
AcDbEntity
  8
V0-OBRYS
  6
CONTINUOUS
 62
    90
100
AcDbLine
 10
4040.307635
 20
-1221.396538
 30
0.0
 11
4040.307635
 21
-859.365853
 31
0.0
  0
LINE
  5
43CC
330
487E
100
AcDbEntity
  8
V0-OBRYS
  6
CONTINUOUS
 62
    90
100
AcDbLine
 10
4279.944835
 20
-1221.396538
 30
0.0
 11
4279.944835
 21
-859.365853
 31
0.0
  0
LINE
  5
43CD
330
487E
100
AcDbEntity
  8
V0-VYPLNE
  6
DASHED
 62
    52
100
AcDbLine
 10
4069.746823
 20
-915.02249
 30
0.0
 11
4069.746823
 21
-1074.152788
 31
0.0
  0
LINE
  5
43CE
330
487E
100
AcDbEntity
  8
V0-VYPLNE
  6
DASHED
 62
    52
100
AcDbLine
 10
4064.825573
 20
-915.02249
 30
0.0
 11
4064.825573
 21
-1076.912441
 31
0.0
  0
LINE
  5
43CF
330
487E
100
AcDbEntity
  8
V0-VYPLNE
  6
DASHED
 62
    52
 48
2.0
100
AcDbLine
 10
4272.201738
 20
-1067.234736
 30
0.0
 11
4248.808268
 21
-910.1940090000001
 31
0.0
  0
LINE
  5
43D0
330
487E
100
AcDbEntity
  8
V0-VYPLNE
  6
DASHED
 62
    52
 48
2.0
100
AcDbLine
 10
4167.687583
 20
-1067.234736
 30
0.0
 11
4191.081054
 21
-910.1940090000001
 31
0.0
  0
LINE
  5
43D2
330
487E
100
AcDbEntity
  8
V0-VYPLNE
  6
DASHED
 62
    52
 48
2.0
100
AcDbLine
 10
4159.944605
 20
-1139.309338
 30
0.0
 11
4159.944605
 21
-1221.396538
 31
0.0
  0
LINE
  5
43D3
330
487E
100
AcDbEntity
  8
V0-VYPLNE
  6
DASHED
 62
    52
 48
2.0
100
AcDbLine
 10
4092.736361
 20
-1221.396538
 30
0.0
 11
4092.736361
 21
-1131.416338
 31
0.0
  0
LINE
  5
43D4
330
487E
100
AcDbEntity
  8
V0-VYPLNE
  6
DASHED
 62
    52
 48
2.0
100
AcDbLine
 10
4062.742961
 20
-1221.396538
 30
0.0
 11
4062.742961
 21
-1147.202338
 31
0.0
  0
LINE
  5
43D5
330
487E
100
AcDbEntity
  8
V0-VYPLNE
  6
DASHED
 62
    52
 48
2.0
100
AcDbLine
 10
4091.726128
 20
-1208.115733
 30
0.0
 11
4062.922774
 21
-1208.873016
 31
0.0
  0
ELLIPSE
  5
43D6
330
487E
100
AcDbEntity
  8
V0-VYPLNE
  6
DASHED
 62
    52
 48
2.0
100
AcDbEllipse
 10
2731.189344
 20
-1236.368023
 30
0.0
 11
-3.183231456205249E-12
 21
1654.747515841289
 31
0.0
210
0.0
220
0.0
230
-1.0
 40
0.9354839999999999
 41
1.480829966572604
 42
1.560998901912743
  0
LINE
  5
43D7
330
487E
100
AcDbEntity
  8
V0-VYPLNE
  6
DASHED
 62
    52
 48
2.0
100
AcDbLine
 10
4168.665701
 20
-1237.130048
 30
0.0
 11
4276.123522
 21
-1202.599663
 31
0.0
  0
LINE
  5
43D8
330
487E
100
AcDbEntity
  8
V0-VYPLNE
  6
DASHED
 62
    52
 48
2.0
100
AcDbLine
 10
4219.944661000001
 20
-1071.709105
 30
0.0
 11
4219.944661000001
 21
-1220.156017
 31
0.0
  0
LINE
  5
43D9
330
487E
100
AcDbEntity
  8
V0-VYPLNE
  6
DASHED
 62
    52
 48
2.0
100
AcDbLine
 10
4167.744661
 20
-1220.156017
 30
0.0
 11
4167.744661
 21
-1078.796017
 31
0.0
  0
LINE
  5
43DA
330
487E
100
AcDbEntity
  8
V0-VYPLNE
 48
3.0
100
AcDbLine
 10
4341.925916
 20
-1221.396538
 30
0.0
 11
4020.670004
 21
-1221.396538
 31
0.0
  0
LINE
  5
43DB
330
487E
100
AcDbEntity
  8
V0-VYPLNE
  6
DASHED
 62
    52
 48
2.0
100
AcDbLine
 10
4092.736361
 20
-1305.862039
 30
0.0
 11
4159.944605
 21
-1305.862039
 31
0.0
  0
LINE
  5
43DC
330
487E
100
AcDbEntity
  8
V0-VYPLNE
  6
DASHED
 62
    52
 48
2.0
100
AcDbLine
 10
4092.736361
 20
-1311.376738
 30
0.0
 11
4152.051605
 21
-1311.376738
 31
0.0
  0
LINE
  5
43DD
330
487E
100
AcDbEntity
  8
V0-VYPLNE
  6
DASHED
 62
    52
 48
2.0
100
AcDbLine
 10
4092.736361
 20
-1289.959073
 30
0.0
 11
4159.944605
 21
-1289.959073
 31
0.0
  0
LINE
  5
43DE
330
487E
100
AcDbEntity
  8
V0-VYPLNE
  6
DASHED
 62
    52
 48
2.0
100
AcDbLine
 10
4092.736361
 20
-1271.026973
 30
0.0
 11
4159.186625
 21
-1271.026973
 31
0.0
  0
LINE
  5
43DF
330
487E
100
AcDbEntity
  8
V0-VYPLNE
  6
DASHED
 62
    52
 48
2.0
100
AcDbLine
 10
4092.736361
 20
-1252.85216
 30
0.0
 11
4159.944605
 21
-1252.85216
 31
0.0
  0
LINE
  5
43E0
330
487E
100
AcDbEntity
  8
V0-VYPLNE
  6
DASHED
 62
    52
 48
2.0
100
AcDbLine
 10
4092.736361
 20
-1234.677344
 30
0.0
 11
4159.186625
 21
-1234.677344
 31
0.0
  0
LINE
  5
43E1
330
487E
100
AcDbEntity
  8
V0-VYPLNE
  6
DASHED
 62
    52
100
AcDbLine
 10
4101.431682
 20
-1352.812864
 30
0.0
 11
4101.431682
 21
-1311.621307
 31
0.0
  0
LINE
  5
43E2
330
487E
100
AcDbEntity
  8
V0-VYPLNE
  6
DASHED
 62
    52
100
AcDbLine
 10
4064.825573
 20
-1365.880635
 30
0.0
 11
4096.510432
 21
-1349.792365
 31
0.0
  0
LINE
  5
43E3
330
487E
100
AcDbEntity
  8
V0-VYPLNE
  6
DASHED
 62
    52
100
AcDbLine
 10
4064.825573
 20
-1371.399941
 30
0.0
 11
4101.431682
 21
-1352.812864
 31
0.0
  0
LINE
  5
43E4
330
487E
100
AcDbEntity
  8
V0-VYPLNE
  6
DASHED
 62
    52
 48
2.0
100
AcDbLine
 10
4092.736361
 20
-1221.396538
 30
0.0
 11
4092.736361
 21
-1311.376738
 31
0.0
  0
LINE
  5
43E5
330
487E
100
AcDbEntity
  8
V0-VYPLNE
  6
DASHED
 62
    52
 48
2.0
100
AcDbLine
 10
4062.742961
 20
-1221.396538
 30
0.0
 11
4062.742961
 21
-1295.590738
 31
0.0
  0
LINE
  5
43E6
330
487E
100
AcDbEntity
  8
V0-VYPLNE
  6
DASHED
 62
    52
 48
2.0
100
AcDbLine
 10
4091.726128
 20
-1289.959073
 30
0.0
 11
4063.680754
 21
-1274.813394
 31
0.0
  0
LINE
  5
43E7
330
487E
100
AcDbEntity
  8
V0-VYPLNE
  6
DASHED
 62
    52
100
AcDbLine
 10
4096.510432
 20
-1349.792365
 30
0.0
 11
4096.510432
 21
-1311.621307
 31
0.0
  0
ARC
  5
43E8
330
487E
100
AcDbEntity
  8
V0-VYPLNE
  6
DASHED
 62
    52
 48
2.0
100
AcDbCircle
 10
4078.528961
 20
-1295.590738
 30
0.0
 40
15.786
100
AcDbArc
 50
180.0
 51
270.0
  0
LINE
  5
43E9
330
487E
100
AcDbEntity
  8
V0-VYPLNE
  6
DASHED
 62
    52
 48
2.0
100
AcDbLine
 10
4092.484114
 20
-1305.862039
 30
0.0
 11
4062.922774
 21
-1283.900804
 31
0.0
  0
LINE
  5
43EA
330
487E
100
AcDbEntity
  8
V0-VYPLNE
  6
DASHED
 62
    52
 48
2.0
100
AcDbLine
 10
4091.726128
 20
-1252.85216
 30
0.0
 11
4062.922774
 21
-1249.823022
 31
0.0
  0
LINE
  5
43EB
330
487E
100
AcDbEntity
  8
V0-VYPLNE
  6
DASHED
 62
    52
 48
2.0
100
AcDbLine
 10
4092.484114
 20
-1271.026973
 30
0.0
 11
4062.164788
 21
-1264.211417
 31
0.0
  0
LINE
  5
43EC
330
487E
100
AcDbEntity
  8
V0-VYPLNE
  6
DASHED
 62
    52
 48
2.0
100
AcDbLine
 10
4091.726128
 20
-1252.85216
 30
0.0
 11
4096.274026
 21
-1252.85216
 31
0.0
  0
LINE
  5
43ED
330
487E
100
AcDbEntity
  8
V0-VYPLNE
  6
DASHED
 62
    52
 48
2.0
100
AcDbLine
 10
4091.726128
 20
-1234.677344
 30
0.0
 11
4062.922774
 21
-1233.92006
 31
0.0
  0
ELLIPSE
  5
43EE
330
487E
100
AcDbEntity
  8
V0-VYPLNE
  6
DASHED
 62
    52
 48
2.0
100
AcDbEllipse
 10
2731.189344
 20
-1203.944012
 30
0.0
 11
-4.547473508864641E-12
 21
1654.747515841289
 31
0.0
210
0.0
220
0.0
230
-1.0
 40
0.9354839999999999
 41
1.58059375167705
 42
1.660762687017188
  0
LINE
  5
43EF
330
487E
100
AcDbEntity
  8
V0-VYPLNE
  6
DASHED
 62
    52
 48
2.0
100
AcDbLine
 10
4167.744661
 20
-1220.156017
 30
0.0
 11
4167.744661
 21
-1361.516017
 31
0.0
  0
LINE
  5
43F0
330
487E
100
AcDbEntity
  8
V0-VYPLNE
  6
DASHED
 62
    52
 48
2.0
100
AcDbLine
 10
4219.944661000001
 20
-1368.60293
 30
0.0
 11
4219.944661000001
 21
-1220.156017
 31
0.0
  0
ELLIPSE
  5
43F1
330
487E
100
AcDbEntity
  8
V0-VYPLNE
  6
DASHED
 62
    52
 48
2.0
100
AcDbEllipse
 10
4219.944661000001
 20
-1145.384125
 30
0.0
 11
-5.456968210637569E-12
 21
223.2188053462983
 31
0.0
210
0.0
220
0.0
230
-1.0
 40
0.935484
 41
2.929991421004501
 42
3.394251156505874
  0
LINE
  5
43F2
330
487E
100
AcDbEntity
  8
V0-VYPLNE
  6
DASHED
 62
    52
 48
2.0
100
AcDbLine
 10
4176.599383
 20
-1363.559679
 30
0.0
 11
4167.687583
 21
-1373.077299
 31
0.0
  0
ELLIPSE
  5
43F3
330
487E
100
AcDbEntity
  8
V0-VYPLNE
  6
DASHED
 62
    52
 48
2.0
100
AcDbEllipse
 10
4261.365421
 20
-1351.5008
 30
0.0
 11
-9.094947017729282E-13
 21
12.39999999999986
 31
0.0
210
0.0
220
0.0
230
-1.0
 40
0.935484
 41
1.660762687017189
 42
2.929991421004508
  0
LINE
  5
43F4
330
487E
100
AcDbEntity
  8
V0-VYPLNE
  6
DASHED
 62
    52
 48
2.0
100
AcDbLine
 10
4263.289938
 20
-1363.559679
 30
0.0
 11
4272.201738
 21
-1373.077299
 31
0.0
  0
LINE
  5
43F5
330
487E
100
AcDbEntity
  8
V0-VYPLNE
  6
DASHED
 62
    52
 48
2.0
100
AcDbLine
 10
4159.944605
 20
-1303.483738
 30
0.0
 11
4159.944605
 21
-1221.396538
 31
0.0
  0
ARC
  5
43F6
330
487E
100
AcDbEntity
  8
V0-VYPLNE
  6
DASHED
 62
    52
 48
2.0
100
AcDbCircle
 10
4152.051605
 20
-1303.483738
 30
0.0
 40
7.893
100
AcDbArc
 50
270.0
 51
0.0
  0
ELLIPSE
  5
43F7
330
487E
100
AcDbEntity
  8
V0-VYPLNE
  6
DASHED
 62
    52
 48
2.0
100
AcDbEllipse
 10
4219.944661000001
 20
-1220.65212
 30
0.0
 11
9.094947017729282E-13
 21
10.50927496922145
 31
0.0
210
0.0
220
0.0
230
-1.0
 40
0.935484
 41
0.0
 42
6.283185307179586
  0
LINE
  5
43F8
330
487E
100
AcDbEntity
  8
V0-VYPLNE
  6
DASHED
 62
    52
 48
2.0
100
AcDbLine
 10
4092.736361
 20
-1208.115733
 30
0.0
 11
4159.186625
 21
-1208.115733
 31
0.0
  0
LINE
  5
43F9
330
487E
100
AcDbEntity
  8
V0-VYPLNE
  6
DASHED
 62
    52
 48
2.0
100
AcDbLine
 10
4092.736361
 20
-1189.940916
 30
0.0
 11
4159.944605
 21
-1189.940916
 31
0.0
  0
LINE
  5
43FA
330
487E
100
AcDbEntity
  8
V0-VYPLNE
  6
DASHED
 62
    52
 48
2.0
100
AcDbLine
 10
4092.736361
 20
-1171.766103
 30
0.0
 11
4159.186625
 21
-1171.766103
 31
0.0
  0
LINE
  5
43FB
330
487E
100
AcDbEntity
  8
V0-VYPLNE
  6
DASHED
 62
    52
 48
2.0
100
AcDbLine
 10
4092.736361
 20
-1152.834003
 30
0.0
 11
4159.944605
 21
-1152.834003
 31
0.0
  0
LINE
  5
43FC
330
487E
100
AcDbEntity
  8
V0-VYPLNE
  6
DASHED
 62
    52
 48
2.0
100
AcDbLine
 10
4092.736361
 20
-1131.416338
 30
0.0
 11
4152.051605
 21
-1131.416338
 31
0.0
  0
LINE
  5
43FD
330
487E
100
AcDbEntity
  8
V0-VYPLNE
  6
DASHED
 62
    52
 48
2.0
100
AcDbLine
 10
4092.736361
 20
-1136.931037
 30
0.0
 11
4159.944605
 21
-1136.931037
 31
0.0
  0
ARC
  5
43FE
330
487E
100
AcDbEntity
  8
V0-VYPLNE
  6
DASHED
 62
    52
 48
2.0
100
AcDbCircle
 10
4078.528961
 20
-1147.202338
 30
0.0
 40
15.786
100
AcDbArc
 50
90.0
 51
180.0
  0
LINE
  5
43FF
330
487E
100
AcDbEntity
  8
V0-VYPLNE
  6
DASHED
 62
    52
 48
2.0
100
AcDbLine
 10
4092.484114
 20
-1136.931037
 30
0.0
 11
4062.922774
 21
-1158.892272
 31
0.0
  0
LINE
  5
4400
330
487E
100
AcDbEntity
  8
V0-VYPLNE
  6
DASHED
 62
    52
 48
2.0
100
AcDbLine
 10
4092.484114
 20
-1171.766103
 30
0.0
 11
4062.164788
 21
-1178.581659
 31
0.0
  0
LINE
  5
4401
330
487E
100
AcDbEntity
  8
V0-VYPLNE
  6
DASHED
 62
    52
 48
2.0
100
AcDbLine
 10
4091.726128
 20
-1189.940916
 30
0.0
 11
4062.922774
 21
-1192.970054
 31
0.0
  0
LINE
  5
4402
330
487E
100
AcDbEntity
  8
V0-VYPLNE
  6
DASHED
 62
    52
 48
2.0
100
AcDbLine
 10
4091.726128
 20
-1189.940916
 30
0.0
 11
4096.274026
 21
-1189.940916
 31
0.0
  0
LINE
  5
4403
330
487E
100
AcDbEntity
  8
V0-VYPLNE
  6
DASHED
 62
    52
 48
2.0
100
AcDbLine
 10
4091.726128
 20
-1152.834003
 30
0.0
 11
4063.680754
 21
-1167.979682
 31
0.0
  0
LINE
  5
4404
330
487E
100
AcDbEntity
  8
V0-VYPLNE
  6
DASHED
 62
    52
100
AcDbLine
 10
4101.431682
 20
-1089.980213
 30
0.0
 11
4101.431682
 21
-1131.171769
 31
0.0
  0
LINE
  5
4405
330
487E
100
AcDbEntity
  8
V0-VYPLNE
  6
DASHED
 62
    52
100
AcDbLine
 10
4096.510432
 20
-1093.000711
 30
0.0
 11
4096.510432
 21
-1131.171769
 31
0.0
  0
LINE
  5
4406
330
487E
100
AcDbEntity
  8
V0-VYPLNE
  6
DASHED
 62
    52
100
AcDbLine
 10
4064.825573
 20
-1071.393135
 30
0.0
 11
4101.431682
 21
-1089.980213
 31
0.0
  0
LINE
  5
4407
330
487E
100
AcDbEntity
  8
V0-VYPLNE
  6
DASHED
 62
    52
100
AcDbLine
 10
4064.825573
 20
-1076.912441
 30
0.0
 11
4096.510432
 21
-1093.000711
 31
0.0
  0
ARC
  5
4408
330
487E
100
AcDbEntity
  8
V0-VYPLNE
  6
DASHED
 62
    52
 48
2.0
100
AcDbCircle
 10
4152.051605
 20
-1139.309338
 30
0.0
 40
7.893
100
AcDbArc
 50
0.0
 51
90.0
  0
ELLIPSE
  5
4409
330
487E
100
AcDbEntity
  8
V0-VYPLNE
  6
DASHED
 62
    52
 48
2.0
100
AcDbEllipse
 10
4219.944661000001
 20
-1294.92791
 30
0.0
 11
-5.456968210637569E-12
 21
223.2188053462983
 31
0.0
210
0.0
220
0.0
230
-1.0
 40
0.935484
 41
-0.2526585029160829
 42
0.2116012325852751
  0
LINE
  5
440A
330
487E
100
AcDbEntity
  8
V0-VYPLNE
  6
DASHED
 62
    52
 48
2.0
100
AcDbLine
 10
4176.599383
 20
-1076.752356
 30
0.0
 11
4167.687583
 21
-1067.234736
 31
0.0
  0
LINE
  5
440B
330
487E
100
AcDbEntity
  8
V0-VYPLNE
  6
DASHED
 62
    52
 48
2.0
100
AcDbLine
 10
4263.289938
 20
-1076.752356
 30
0.0
 11
4272.201738
 21
-1067.234736
 31
0.0
  0
LINE
  5
440C
330
487E
100
AcDbEntity
  8
V0-OBRYS
  6
CONTINUOUS
 62
    90
100
AcDbLine
 10
4274.984215
 20
-906.397168
 30
0.0
 11
4045.268255
 21
-906.397168
 31
0.0
  0
LINE
  5
440D
330
487E
100
AcDbEntity
  8
V0-VYPLNE
  6
DASHDOT
 62
    63
 48
3.0
100
AcDbLine
 10
4015.504535
 20
-876.2712780000001
 30
0.0
 11
4086.55499
 21
-876.2712780000001
 31
0.0
  0
LINE
  5
440E
330
487E
100
AcDbEntity
  8
V0-OBRYS
  6
CONTINUOUS
 62
    90
100
AcDbLine
 10
4045.268255
 20
-1536.395908
 30
0.0
 11
4045.268255
 21
-859.365853
 31
0.0
  0
LINE
  5
440F
330
487E
100
AcDbEntity
  8
V0-VYPLNE
  6
DASHED
 62
    52
100
AcDbLine
 10
4069.746823
 20
-915.02249
 30
0.0
 11
4094.416302
 21
-915.02249
 31
0.0
  0
LINE
  5
4410
330
487E
100
AcDbEntity
  8
V0-VYPLNE
  6
DASHED
 62
    52
100
AcDbLine
 10
4064.825573
 20
-910.10124
 30
0.0
 11
4094.416302
 21
-910.10124
 31
0.0
  0
LINE
  5
4411
330
487E
100
AcDbEntity
  8
V0-VYPLNE
  6
DASHED
 62
    52
100
AcDbLine
 10
4064.825573
 20
-908.897163
 30
0.0
 11
4064.825573
 21
-910.10124
 31
0.0
  0
LINE
  5
4412
330
487E
100
AcDbEntity
  8
V0-VYPLNE
  6
DASHED
 62
    52
 48
2.0
100
AcDbLine
 10
4191.081054
 20
-910.1940090000001
 30
0.0
 11
4248.808268
 21
-910.1940090000001
 31
0.0
  0
LINE
  5
4413
330
487E
100
AcDbEntity
  8
V0-OBRYS
  6
CONTINUOUS
 62
    90
100
AcDbLine
 10
4274.984215
 20
-1536.395908
 30
0.0
 11
4274.984215
 21
-859.365853
 31
0.0
  0
LINE
  5
4414
330
487E
100
AcDbEntity
  8
V0-VYPLNE
  6
DASHDOT
 62
    63
 48
3.0
100
AcDbLine
 10
4251.616294
 20
-876.2712780000001
 30
0.0
 11
4308.395541
 21
-876.2712780000001
 31
0.0
  0
INSERT
  5
4451
330
487E
100
AcDbEntity
  8
V0-VYPLNE
  6
CONTINUOUS
 62
    41
100
AcDbBlockReference
  2
ASVORK
 10
4099.944528
 20
127.751449
 30
0.0
  0
INSERT
  5
4452
330
487E
100
AcDbEntity
  8
V0-VYPLNE
  6
CONTINUOUS
 62
    41
100
AcDbBlockReference
  2
ASVORKP
 10
4099.092855
 20
-1221.396538
 30
0.0
  0
LINE
  5
4456
330
487E
100
AcDbEntity
  8
V0-VYPLNE
 48
3.0
100
AcDbLine
 10
5079.944685
 20
-187.248551
 30
0.0
 11
5079.944685
 21
195.507814
 31
0.0
  0
CIRCLE
  5
4457
330
487E
100
AcDbEntity
  8
V0-VYPLNE
  6
DASHDOT
 62
    63
 48
3.0
100
AcDbCircle
 10
5079.944685
 20
-187.248551
 30
0.0
 40
345.105373
  0
CIRCLE
  5
4458
330
487E
100
AcDbEntity
  8
V0-OBRYS
  6
CONTINUOUS
 62
    90
100
AcDbCircle
 10
5079.944685
 20
-187.248551
 30
0.0
 40
362.544432
  0
LINE
  5
4459
330
487E
100
AcDbEntity
  8
V0-OBRYS
  6
CONTINUOUS
 62
    90
100
AcDbLine
 10
5291.648698
 20
37.866995
 30
0.0
 11
5246.674809
 21
6.438352999999999
 31
0.0
  0
LINE
  5
445A
330
487E
100
AcDbEntity
  8
V0-OBRYS
  6
CONTINUOUS
 62
    90
100
AcDbLine
 10
5302.913446
 20
-70.484377
 30
0.0
 11
5270.979903
 21
-99.436134
 31
0.0
  0
LINE
  5
445B
330
487E
100
AcDbEntity
  8
V0-OBRYS
  6
CONTINUOUS
 62
    90
100
AcDbLine
 10
5286.263909
 20
-182.324442
 30
0.0
 11
5245.523809
 21
-170.270625
 31
0.0
  0
LINE
  5
445C
330
487E
100
AcDbEntity
  8
V0-OBRYS
  6
CONTINUOUS
 62
    90
100
AcDbLine
 10
5310.253341
 20
-288.771277
 30
0.0
 11
5267.707707
 21
-281.855753
 31
0.0
  0
LINE
  5
445D
330
487E
100
AcDbEntity
  8
VO-OBRYS
  6
CONTINUOUS
100
AcDbLine
 10
5179.918368
 20
-254.704214
 30
0.0
 11
5318.347671
 21
-393.133517
 31
0.0
  0
LINE
  5
445E
330
487E
100
AcDbEntity
  8
VO-OBRYS
  6
CONTINUOUS
100
AcDbLine
 10
5179.593619
 20
-248.902209
 30
0.0
 11
5320.868868
 21
-390.177458
 31
0.0
  0
LINE
  5
445F
330
487E
100
AcDbEntity
  8
VO-OBRYS
  6
CONTINUOUS
100
AcDbLine
 10
5147.400347
 20
-287.222234
 30
0.0
 11
5285.829651
 21
-425.651537
 31
0.0
  0
LINE
  5
4460
330
487E
100
AcDbEntity
  8
V0-VYPLNE
 48
3.0
100
AcDbLine
 10
5079.944685
 20
-187.248551
 30
0.0
 11
5321.441081
 21
-428.744948
 31
0.0
  0
CIRCLE
  5
4461
330
487E
100
AcDbEntity
  8
V0-OBRYS
  6
CONTINUOUS
 62
    90
100
AcDbCircle
 10
5079.944685
 20
-187.248551
 30
0.0
 40
314.99937
  0
CIRCLE
  5
4462
330
487E
100
AcDbEntity
  8
V0-OBRYS
  6
CONTINUOUS
 62
    90
100
AcDbCircle
 10
5079.944685
 20
-187.248551
 30
0.0
 40
251.692155
  0
CIRCLE
  5
4463
330
487E
100
AcDbEntity
  8
V0-OBRYS
  6
CONTINUOUS
 62
    90
100
AcDbCircle
 10
5079.944685
 20
-187.248551
 30
0.0
 40
255.565161
  0
LINE
  5
4464
330
487E
100
AcDbEntity
  8
VO-OBRYS
  6
CONTINUOUS
100
AcDbLine
 10
5179.918368
 20
-119.792888
 30
0.0
 11
5318.347671
 21
18.636415
 31
0.0
  0
LINE
  5
4465
330
487E
100
AcDbEntity
  8
VO-OBRYS
  6
CONTINUOUS
100
AcDbLine
 10
5147.400347
 20
-87.274868
 30
0.0
 11
5285.829651
 21
51.15443500000001
 31
0.0
  0
LINE
  5
4466
330
487E
100
AcDbEntity
  8
V0-VYPLNE
 48
3.0
100
AcDbLine
 10
5079.944685
 20
-187.248551
 30
0.0
 11
5298.457383
 21
31.26414700000001
 31
0.0
  0
LINE
  5
4467
330
487E
100
AcDbEntity
  8
VO-OBRYS
  6
CONTINUOUS
100
AcDbLine
 10
5179.593619
 20
-125.594894
 30
0.0
 11
5320.868868
 21
15.68035500000001
 31
0.0
  0
LINE
  5
4468
330
487E
100
AcDbEntity
  8
V0-VYPLNE
 48
3.0
100
AcDbLine
 10
5455.489847
 20
-187.248551
 30
0.0
 11
4661.304464
 21
-187.248551
 31
0.0
  0
LINE
  5
4469
330
487E
100
AcDbEntity
  8
V0-OBRYS
  6
CONTINUOUS
 62
    90
100
AcDbLine
 10
5194.877674
 20
-302.230298
 30
0.0
 11
5182.074412
 21
-270.683031
 31
0.0
  0
LINE
  5
446A
330
487E
100
AcDbEntity
  8
V0-OBRYS
  6
CONTINUOUS
 62
    90
100
AcDbLine
 10
5068.76625
 20
-334.234859
 30
0.0
 11
5072.366298
 21
-286.897486
 31
0.0
  0
LINE
  5
446B
330
487E
100
AcDbEntity
  8
V0-OBRYS
  6
CONTINUOUS
 62
    90
100
AcDbLine
 10
5091.123119
 20
-334.234859
 30
0.0
 11
5087.523072
 21
-286.897486
 31
0.0
  0
LINE
  5
446C
330
487E
100
AcDbEntity
  8
V0-OBRYS
  6
CONTINUOUS
 62
    90
100
AcDbLine
 10
5103.219543
 20
-283.465901
 30
0.0
 11
5114.845283
 21
-331.526253
 31
0.0
  0
LINE
  5
446D
330
487E
100
AcDbEntity
  8
V0-OBRYS
  6
CONTINUOUS
 62
    90
100
AcDbLine
 10
5135.856346
 20
-324.077592
 30
0.0
 11
5117.389826
 21
-278.885655
 31
0.0
  0
LINE
  5
446E
330
487E
100
AcDbEntity
  8
V0-OBRYS
  6
CONTINUOUS
 62
    90
100
AcDbLine
 10
5130.730532
 20
-272.220871
 30
0.0
 11
5156.867409
 21
-315.951777
 31
0.0
  0
LINE
  5
446F
330
487E
100
AcDbEntity
  8
V0-OBRYS
  6
CONTINUOUS
 62
    90
100
AcDbLine
 10
4965.011695
 20
-302.230298
 30
0.0
 11
4977.814957
 21
-270.683031
 31
0.0
  0
LINE
  5
4470
330
487E
100
AcDbEntity
  8
V0-OBRYS
  6
CONTINUOUS
 62
    90
100
AcDbLine
 10
4986.244973
 20
-300.367441
 30
0.0
 11
5016.618995
 21
-263.336358
 31
0.0
  0
LINE
  5
4471
330
487E
100
AcDbEntity
  8
V0-OBRYS
  6
CONTINUOUS
 62
    90
100
AcDbLine
 10
5029.158837
 20
-272.220871
 30
0.0
 11
5003.02196
 21
-315.951777
 31
0.0
  0
LINE
  5
4472
330
487E
100
AcDbEntity
  8
V0-OBRYS
  6
CONTINUOUS
 62
    90
100
AcDbLine
 10
5024.033023
 20
-324.077592
 30
0.0
 11
5042.499543
 21
-278.885655
 31
0.0
  0
LINE
  5
4473
330
487E
100
AcDbEntity
  8
V0-OBRYS
  6
CONTINUOUS
 62
    90
100
AcDbLine
 10
5056.669826
 20
-283.465901
 30
0.0
 11
5045.044086
 21
-331.526253
 31
0.0
  0
LINE
  5
4474
330
487E
100
AcDbEntity
  8
V0-OBRYS
  6
CONTINUOUS
 62
    90
100
AcDbLine
 10
4791.531984
 20
-298.215721
 30
0.0
 11
4845.688435
 21
-289.412933
 31
0.0
  0
ARC
  5
4475
330
487E
100
AcDbEntity
  8
V0-OBRYS
  6
CONTINUOUS
 62
    90
100
AcDbCircle
 10
5079.944685
 20
-187.248551
 30
0.0
 40
309.023621
100
AcDbArc
 50
184.66999
 51
201.044296
  0
LINE
  5
4476
330
487E
100
AcDbEntity
  8
VO-OBRYS
  6
CONTINUOUS
100
AcDbLine
 10
4979.971002
 20
-254.704214
 30
0.0
 11
4841.541698
 21
-393.133517
 31
0.0
  0
LINE
  5
4477
330
487E
100
AcDbEntity
  8
VO-OBRYS
  6
CONTINUOUS
100
AcDbLine
 10
4980.29575
 20
-248.902209
 30
0.0
 11
4839.020501
 21
-390.177458
 31
0.0
  0
LINE
  5
4478
330
487E
100
AcDbEntity
  8
VO-OBRYS
  6
CONTINUOUS
100
AcDbLine
 10
5012.489022
 20
-287.222234
 30
0.0
 11
4874.059718
 21
-425.651537
 31
0.0
  0
LINE
  5
4479
330
487E
100
AcDbEntity
  8
V0-VYPLNE
 48
3.0
100
AcDbLine
 10
5079.944685
 20
-187.248551
 30
0.0
 11
4857.206494
 21
-409.986742
 31
0.0
  0
LINE
  5
447A
330
487E
100
AcDbEntity
  8
VO-OBRYS
  6
CONTINUOUS
100
AcDbLine
 10
5018.291027
 20
-286.897486
 30
0.0
 11
4877.015778
 21
-428.172734
 31
0.0
  0
LINE
  5
447B
330
487E
100
AcDbEntity
  8
V0-VYPLNE
  6
DASHDOT
 48
3.0
100
AcDbLine
 10
5079.944685
 20
-187.248551
 30
0.0
 11
5079.944685
 21
-592.779236
 31
0.0
  0
LINE
  5
447C
330
487E
100
AcDbEntity
  8
VO-OBRYS
  6
CONTINUOUS
100
AcDbLine
 10
5141.598342
 20
-286.897486
 30
0.0
 11
5282.873591
 21
-428.172734
 31
0.0
  0
ARC
  5
447D
330
487E
100
AcDbEntity
  8
V0-OBRYS
  6
CONTINUOUS
 62
    90
100
AcDbCircle
 10
5079.944685
 20
-187.248551
 30
0.0
 40
116.601681
100
AcDbArc
 50
238.716649
 51
329.134287
  0
LINE
  5
447E
330
487E
100
AcDbEntity
  8
V0-OBRYS
  6
CONTINUOUS
 62
    90
100
AcDbLine
 10
5172.655822
 20
-299.931066
 30
0.0
 11
5142.751864
 21
-263.764926
 31
0.0
  0
LINE
  5
447F
330
487E
100
AcDbEntity
  8
V0-OBRYS
  6
CONTINUOUS
 62
    90
100
AcDbLine
 10
4986.879934
 20
-481.925579
 30
0.0
 11
5013.763632
 21
-434.095912
 31
0.0
  0
LINE
  5
4480
330
487E
100
AcDbEntity
  8
V0-OBRYS
  6
CONTINUOUS
 62
    90
100
AcDbLine
 10
4907.58183
 20
-443.737625
 30
0.0
 11
4928.214858
 21
-392.897794
 31
0.0
  0
ARC
  5
4481
330
487E
100
AcDbEntity
  8
V0-OBRYS
  6
CONTINUOUS
 62
    90
100
AcDbCircle
 10
5079.944685
 20
-187.248551
 30
0.0
 40
309.023621
100
AcDbArc
 50
236.098561
 51
252.472867
  0
LINE
  5
4482
330
487E
100
AcDbEntity
  8
V0-OBRYS
  6
CONTINUOUS
 62
    90
100
AcDbLine
 10
4929.718849
 20
-389.191957
 30
0.0
 11
4945.92828
 21
-349.25188
 31
0.0
  0
LINE
  5
4483
330
487E
100
AcDbEntity
  8
V0-OBRYS
  6
CONTINUOUS
 62
    90
100
AcDbLine
 10
4947.456929
 20
-345.485284
 30
0.0
 11
4963.433912
 21
-306.11796
 31
0.0
  0
LINE
  5
4484
330
487E
100
AcDbEntity
  8
V0-OBRYS
  6
CONTINUOUS
 62
    90
100
AcDbLine
 10
5173.009435
 20
-481.925579
 30
0.0
 11
5146.125737
 21
-434.095912
 31
0.0
  0
LINE
  5
4485
330
487E
100
AcDbEntity
  8
V0-OBRYS
  6
CONTINUOUS
 62
    90
100
AcDbLine
 10
5144.16612
 20
-430.609493
 30
0.0
 11
5123.046126
 21
-393.034219
 31
0.0
  0
LINE
  5
4486
330
487E
100
AcDbEntity
  8
V0-OBRYS
  6
CONTINUOUS
 62
    90
100
AcDbLine
 10
5015.723249
 20
-430.609493
 30
0.0
 11
5036.843244
 21
-393.034219
 31
0.0
  0
LINE
  5
4487
330
487E
100
AcDbEntity
  8
V0-OBRYS
  6
CONTINUOUS
 62
    90
100
AcDbLine
 10
5061.707881
 20
-348.796727
 30
0.0
 11
5078.389825
 21
-319.117335
 31
0.0
  0
LINE
  5
4488
330
487E
100
AcDbEntity
  8
V0-OBRYS
  6
CONTINUOUS
 62
    90
100
AcDbLine
 10
5078.389825
 20
-319.117335
 30
0.0
 11
5070.212629
 21
-305.301482
 31
0.0
  0
LINE
  5
4489
330
487E
100
AcDbEntity
  8
V0-OBRYS
  6
CONTINUOUS
 62
    90
100
AcDbLine
 10
5038.834989
 20
-389.490639
 30
0.0
 11
5059.652117
 21
-352.454205
 31
0.0
  0
LINE
  5
448A
330
487E
100
AcDbEntity
  8
V0-OBRYS
  6
CONTINUOUS
 62
    90
100
AcDbLine
 10
5098.181488
 20
-348.796727
 30
0.0
 11
5081.499544
 21
-319.117335
 31
0.0
  0
LINE
  5
448B
330
487E
100
AcDbEntity
  8
V0-OBRYS
  6
CONTINUOUS
 62
    90
100
AcDbLine
 10
5121.05438
 20
-389.490639
 30
0.0
 11
5100.237252
 21
-352.454205
 31
0.0
  0
LINE
  5
448C
330
487E
100
AcDbEntity
  8
V0-OBRYS
  6
CONTINUOUS
 62
    90
100
AcDbLine
 10
5081.499544
 20
-319.117335
 30
0.0
 11
5089.67674
 21
-305.301482
 31
0.0
  0
LINE
  5
448D
330
487E
100
AcDbEntity
  8
V0-OBRYS
  6
CONTINUOUS
 62
    90
100
AcDbLine
 10
5252.307539
 20
-443.737625
 30
0.0
 11
5231.674511
 21
-392.897794
 31
0.0
  0
ARC
  5
448E
330
487E
100
AcDbEntity
  8
V0-OBRYS
  6
CONTINUOUS
 62
    90
100
AcDbCircle
 10
5079.944685
 20
-187.248551
 30
0.0
 40
309.023621
100
AcDbArc
 50
287.527133
 51
303.901439
  0
LINE
  5
448F
330
487E
100
AcDbEntity
  8
V0-OBRYS
  6
CONTINUOUS
 62
    90
100
AcDbLine
 10
5230.17052
 20
-389.191957
 30
0.0
 11
5213.961089
 21
-349.25188
 31
0.0
  0
LINE
  5
4490
330
487E
100
AcDbEntity
  8
V0-OBRYS
  6
CONTINUOUS
 62
    90
100
AcDbLine
 10
5212.43244
 20
-345.485284
 30
0.0
 11
5196.455457
 21
-306.11796
 31
0.0
  0
LINE
  5
4491
330
487E
100
AcDbEntity
  8
V0-OBRYS
  6
CONTINUOUS
 62
    90
100
AcDbLine
 10
4987.233547
 20
-74.566036
 30
0.0
 11
5017.137505
 21
-110.732177
 31
0.0
  0
POINT
  5
4492
330
487E
100
AcDbEntity
  8
V0-VYPLNE
  6
DASHED
 62
    52
100
AcDbPoint
 10
5079.944685
 20
-187.248551
 30
0.0
  0
ARC
  5
4493
330
487E
100
AcDbEntity
  8
V0-OBRYS
  6
CONTINUOUS
 62
    90
100
AcDbCircle
 10
5079.944685
 20
-187.248551
 30
0.0
 40
116.601681
100
AcDbArc
 50
148.716649
 51
239.134287
  0
CIRCLE
  5
4494
330
487E
100
AcDbEntity
  8
V0-OBRYS
  6
CONTINUOUS
 62
    90
100
AcDbCircle
 10
5079.944685
 20
-187.248551
 30
0.0
 40
98.992411
  0
ARC
  5
4495
330
487E
100
AcDbEntity
  8
V0-OBRYS
  6
CONTINUOUS
 62
    90
100
AcDbCircle
 10
5079.944685
 20
-187.248551
 30
0.0
 40
116.601681
100
AcDbArc
 50
58.71664899999999
 51
149.134287
  0
LINE
  5
4496
330
487E
100
AcDbEntity
  8
VO-OBRYS
  6
CONTINUOUS
100
AcDbLine
 10
5018.291027
 20
-87.599617
 30
0.0
 11
4877.015778
 21
53.67563200000001
 31
0.0
  0
LINE
  5
4497
330
487E
100
AcDbEntity
  8
V0-VYPLNE
 48
3.0
100
AcDbLine
 10
5079.944685
 20
-187.248551
 30
0.0
 11
4839.821731
 21
52.874402
 31
0.0
  0
LINE
  5
4498
330
487E
100
AcDbEntity
  8
V0-OBRYS
  6
CONTINUOUS
 62
    90
100
AcDbLine
 10
4993.420766
 20
-49.611326
 30
0.0
 11
5021.328084
 21
-69.113511
 31
0.0
  0
LINE
  5
4499
330
487E
100
AcDbEntity
  8
V0-OBRYS
  6
CONTINUOUS
 62
    90
100
AcDbLine
 10
5020.386989
 20
-87.599617
 30
0.0
 11
5003.02196
 21
-58.545326
 31
0.0
  0
LINE
  5
449A
330
487E
100
AcDbEntity
  8
V0-OBRYS
  6
CONTINUOUS
 62
    90
100
AcDbLine
 10
5029.158837
 20
-102.276232
 30
0.0
 11
5003.02196
 21
-58.545326
 31
0.0
  0
LINE
  5
449B
330
487E
100
AcDbEntity
  8
V0-OBRYS
  6
CONTINUOUS
 62
    90
100
AcDbLine
 10
4856.975923
 20
-70.484377
 30
0.0
 11
4888.909466
 21
-99.436134
 31
0.0
  0
LINE
  5
449C
330
487E
100
AcDbEntity
  8
VO-OBRYS
  6
CONTINUOUS
100
AcDbLine
 10
5012.489022
 20
-87.274868
 30
0.0
 11
4878.296733
 21
46.91741999999999
 31
0.0
  0
LINE
  5
449D
330
487E
100
AcDbEntity
  8
VO-OBRYS
  6
CONTINUOUS
100
AcDbLine
 10
4979.971002
 20
-119.792888
 30
0.0
 11
4841.541698
 21
18.636415
 31
0.0
  0
LINE
  5
449E
330
487E
100
AcDbEntity
  8
VO-OBRYS
  6
CONTINUOUS
100
AcDbLine
 10
4980.29575
 20
-125.594894
 30
0.0
 11
4839.020501
 21
15.68035500000001
 31
0.0
  0
LINE
  5
449F
330
487E
100
AcDbEntity
  8
V0-OBRYS
  6
CONTINUOUS
 62
    90
100
AcDbLine
 10
4873.625461
 20
-182.324442
 30
0.0
 11
4914.36556
 21
-170.270625
 31
0.0
  0
LINE
  5
44A0
330
487E
100
AcDbEntity
  8
V0-OBRYS
  6
CONTINUOUS
 62
    90
100
AcDbLine
 10
4849.636028
 20
-288.771277
 30
0.0
 11
4892.181662
 21
-281.855753
 31
0.0
  0
LINE
  5
44A1
330
487E
100
AcDbEntity
  8
V0-OBRYS
  6
CONTINUOUS
 62
    90
100
AcDbLine
 10
4828.394695
 20
-195.706917
 30
0.0
 11
4869.72752
 21
-183.47773
 31
0.0
  0
LINE
  5
44A2
330
487E
100
AcDbEntity
  8
V0-OBRYS
  6
CONTINUOUS
 62
    90
100
AcDbLine
 10
4771.94697
 20
-212.408167
 30
0.0
 11
4824.559633
 21
-196.841602
 31
0.0
  0
LINE
  5
44A3
330
487E
100
AcDbEntity
  8
V0-OBRYS
  6
CONTINUOUS
 62
    90
100
AcDbLine
 10
4942.270774
 20
-273.714085
 30
0.0
 11
4975.876079
 21
-268.251755
 31
0.0
  0
LINE
  5
44A4
330
487E
100
AcDbEntity
  8
V0-OBRYS
  6
CONTINUOUS
 62
    90
100
AcDbLine
 10
4932.958376
 20
-198.426986
 30
0.0
 11
4980.29575
 21
-194.826938
 31
0.0
  0
LINE
  5
44A5
330
487E
100
AcDbEntity
  8
V0-OBRYS
  6
CONTINUOUS
 62
    90
100
AcDbLine
 10
4983.727335
 20
-210.52341
 30
0.0
 11
4935.666983
 21
-222.14915
 31
0.0
  0
LINE
  5
44A6
330
487E
100
AcDbEntity
  8
V0-OBRYS
  6
CONTINUOUS
 62
    90
100
AcDbLine
 10
4943.115644
 20
-243.160213
 30
0.0
 11
4988.307581
 21
-224.693692
 31
0.0
  0
LINE
  5
44A7
330
487E
100
AcDbEntity
  8
V0-OBRYS
  6
CONTINUOUS
 62
    90
100
AcDbLine
 10
4896.193978
 20
-281.203576
 30
0.0
 11
4938.129494
 21
-274.387224
 31
0.0
  0
LINE
  5
44A8
330
487E
100
AcDbEntity
  8
V0-OBRYS
  6
CONTINUOUS
 62
    90
100
AcDbLine
 10
4977.814957
 20
-270.683031
 30
0.0
 11
4993.715024
 21
-268.462177
 31
0.0
  0
LINE
  5
44A9
330
487E
100
AcDbEntity
  8
V0-OBRYS
  6
CONTINUOUS
 62
    90
100
AcDbLine
 10
4975.876079
 20
-268.251755
 30
0.0
 11
4981.579349
 21
-253.244523
 31
0.0
  0
LINE
  5
44AA
330
487E
100
AcDbEntity
  8
V0-OBRYS
  6
CONTINUOUS
 62
    90
100
AcDbLine
 10
4994.972365
 20
-238.034398
 30
0.0
 11
4951.241459
 21
-264.171276
 31
0.0
  0
LINE
  5
44AB
330
487E
100
AcDbEntity
  8
V0-OBRYS
  6
CONTINUOUS
 62
    90
100
AcDbLine
 10
4967.26217
 20
-279.959689
 30
0.0
 11
5003.42831
 21
-250.055731
 31
0.0
  0
LINE
  5
44AC
330
487E
100
AcDbEntity
  8
V0-OBRYS
  6
CONTINUOUS
 62
    90
100
AcDbLine
 10
4943.115644
 20
-131.33689
 30
0.0
 11
4988.307581
 21
-149.80341
 31
0.0
  0
LINE
  5
44AD
330
487E
100
AcDbEntity
  8
V0-OBRYS
  6
CONTINUOUS
 62
    90
100
AcDbLine
 10
4983.727335
 20
-163.973693
 30
0.0
 11
4935.666983
 21
-152.347953
 31
0.0
  0
LINE
  5
44AE
330
487E
100
AcDbEntity
  8
V0-OBRYS
  6
CONTINUOUS
 62
    90
100
AcDbLine
 10
4932.958376
 20
-176.070116
 30
0.0
 11
4980.29575
 21
-179.670164
 31
0.0
  0
LINE
  5
44AF
330
487E
100
AcDbEntity
  8
V0-OBRYS
  6
CONTINUOUS
 62
    90
100
AcDbLine
 10
4926.504929
 20
-133.521132
 30
0.0
 11
4951.728116
 21
-156.389111
 31
0.0
  0
LINE
  5
44B0
330
487E
100
AcDbEntity
  8
V0-OBRYS
  6
CONTINUOUS
 62
    90
100
AcDbLine
 10
4918.388788
 20
-169.080269
 30
0.0
 11
4951.036138
 21
-159.420862
 31
0.0
  0
LINE
  5
44B1
330
487E
100
AcDbEntity
  8
V0-OBRYS
  6
CONTINUOUS
 62
    90
100
AcDbLine
 10
4891.920996
 20
-102.166464
 30
0.0
 11
4923.396602
 21
-130.703044
 31
0.0
  0
LINE
  5
44B2
330
487E
100
AcDbEntity
  8
V0-OBRYS
  6
CONTINUOUS
 62
    90
100
AcDbLine
 10
4994.972365
 20
-136.462704
 30
0.0
 11
4951.241459
 21
-110.325827
 31
0.0
  0
LINE
  5
44B3
330
487E
100
AcDbEntity
  8
V0-OBRYS
  6
CONTINUOUS
 62
    90
100
AcDbLine
 10
4966.825795
 20
-93.54884
 30
0.0
 11
5003.856877
 21
-123.922861
 31
0.0
  0
LINE
  5
44B4
330
487E
100
AcDbEntity
  8
V0-OBRYS
  6
CONTINUOUS
 62
    90
100
AcDbLine
 10
4951.036138
 20
-159.420862
 30
0.0
 11
4962.686001
 21
-170.467355
 31
0.0
  0
LINE
  5
44B5
330
487E
100
AcDbEntity
  8
V0-OBRYS
  6
CONTINUOUS
 62
    90
100
AcDbLine
 10
4951.728116
 20
-156.389111
 30
0.0
 11
4967.017173
 21
-151.49125
 31
0.0
  0
LINE
  5
44B6
330
487E
100
AcDbEntity
  8
V0-OBRYS
  6
CONTINUOUS
 62
    90
100
AcDbLine
 10
4868.240671
 20
37.866995
 30
0.0
 11
4913.21456
 21
6.438352999999999
 31
0.0
  0
ARC
  5
44B7
330
487E
100
AcDbEntity
  8
V0-OBRYS
  6
CONTINUOUS
 62
    90
100
AcDbCircle
 10
5079.944685
 20
-187.248551
 30
0.0
 40
309.023621
100
AcDbArc
 50
133.241418
 51
149.615725
  0
LINE
  5
44B8
330
487E
100
AcDbEntity
  8
V0-OBRYS
  6
CONTINUOUS
 62
    90
100
AcDbLine
 10
4813.36468
 20
-30.945321
 30
0.0
 11
4854.012972
 21
-67.79809
 31
0.0
  0
LINE
  5
44B9
330
487E
100
AcDbEntity
  8
V0-OBRYS
  6
CONTINUOUS
 62
    90
100
AcDbLine
 10
4916.492815
 20
4.147445
 30
0.0
 11
4951.824573
 21
-20.543086
 31
0.0
  0
LINE
  5
44BA
330
487E
100
AcDbEntity
  8
V0-OBRYS
  6
CONTINUOUS
 62
    90
100
AcDbLine
 10
4955.156576
 20
-22.871555
 30
0.0
 11
4989.981666
 21
-47.208015
 31
0.0
  0
LINE
  5
44BB
330
487E
100
AcDbEntity
  8
V0-OBRYS
  6
CONTINUOUS
 62
    90
100
AcDbLine
 10
5138.561285
 20
-69.113511
 30
0.0
 11
5139.934211
 21
-85.109116
 31
0.0
  0
LINE
  5
44BC
330
487E
100
AcDbEntity
  8
V0-OBRYS
  6
CONTINUOUS
 62
    90
100
AcDbLine
 10
5021.328084
 20
-69.113511
 30
0.0
 11
5019.955159
 21
-85.109116
 31
0.0
  0
ARC
  5
44BD
330
487E
100
AcDbEntity
  8
V0-OBRYS
  6
CONTINUOUS
 62
    90
100
AcDbCircle
 10
5079.944685
 20
-187.248551
 30
0.0
 40
116.601681
100
AcDbArc
 50
328.716649
 51
59.134287
  0
LINE
  5
44BE
330
487E
100
AcDbEntity
  8
V0-OBRYS
  6
CONTINUOUS
 62
    90
100
AcDbLine
 10
5173.644396
 20
-74.129662
 30
0.0
 11
5143.270374
 21
-111.160744
 31
0.0
  0
LINE
  5
44BF
330
487E
100
AcDbEntity
  8
V0-OBRYS
  6
CONTINUOUS
 62
    90
100
AcDbLine
 10
5091.123119
 20
-40.262243
 30
0.0
 11
5087.523072
 21
-87.599617
 31
0.0
  0
LINE
  5
44C0
330
487E
100
AcDbEntity
  8
V0-OBRYS
  6
CONTINUOUS
 62
    90
100
AcDbLine
 10
5103.219543
 20
-91.03120199999999
 30
0.0
 11
5114.845283
 21
-42.97085
 31
0.0
  0
LINE
  5
44C1
330
487E
100
AcDbEntity
  8
V0-OBRYS
  6
CONTINUOUS
 62
    90
100
AcDbLine
 10
5135.856346
 20
-50.419511
 30
0.0
 11
5117.389826
 21
-95.611447
 31
0.0
  0
LINE
  5
44C2
330
487E
100
AcDbEntity
  8
V0-OBRYS
  6
CONTINUOUS
 62
    90
100
AcDbLine
 10
5139.50238
 20
-87.599617
 30
0.0
 11
5156.867409
 21
-58.545326
 31
0.0
  0
LINE
  5
44C3
330
487E
100
AcDbEntity
  8
V0-OBRYS
  6
CONTINUOUS
 62
    90
100
AcDbLine
 10
5024.033023
 20
-50.419511
 30
0.0
 11
5039.225715
 21
-87.599617
 31
0.0
  0
LINE
  5
44C4
330
487E
100
AcDbEntity
  8
V0-OBRYS
  6
CONTINUOUS
 62
    90
100
AcDbLine
 10
5055.83973
 20
-87.599617
 30
0.0
 11
5045.044086
 21
-42.97085
 31
0.0
  0
LINE
  5
44C5
330
487E
100
AcDbEntity
  8
V0-OBRYS
  6
CONTINUOUS
 62
    90
100
AcDbLine
 10
5068.76625
 20
-40.262243
 30
0.0
 11
5072.366298
 21
-87.599617
 31
0.0
  0
LINE
  5
44C6
330
487E
100
AcDbEntity
  8
V0-OBRYS
  6
CONTINUOUS
 62
    90
100
AcDbLine
 10
5024.033023
 20
-50.419511
 30
0.0
 11
5042.499543
 21
-95.611447
 31
0.0
  0
LINE
  5
44C7
330
487E
100
AcDbEntity
  8
V0-OBRYS
  6
CONTINUOUS
 62
    90
100
AcDbLine
 10
5056.669826
 20
-91.03120199999999
 30
0.0
 11
5045.044086
 21
-42.97085
 31
0.0
  0
LINE
  5
44C8
330
487E
100
AcDbEntity
  8
V0-OBRYS
  6
CONTINUOUS
 62
    90
100
AcDbLine
 10
5068.76625
 20
-40.262243
 30
0.0
 11
5072.366298
 21
-87.599617
 31
0.0
  0
LINE
  5
44C9
330
487E
100
AcDbEntity
  8
VO-OBRYS
  6
CONTINUOUS
100
AcDbLine
 10
5128.317948
 20
-100.880011
 30
0.0
 11
5282.873591
 21
53.67563200000001
 31
0.0
  0
LINE
  5
44CA
330
487E
100
AcDbEntity
  8
V0-OBRYS
  6
CONTINUOUS
 62
    90
100
AcDbLine
 10
5176.162034
 20
-210.52341
 30
0.0
 11
5224.222386
 21
-222.14915
 31
0.0
  0
LINE
  5
44CB
330
487E
100
AcDbEntity
  8
V0-OBRYS
  6
CONTINUOUS
 62
    90
100
AcDbLine
 10
5226.930993
 20
-198.426986
 30
0.0
 11
5179.593619
 21
-194.826938
 31
0.0
  0
LINE
  5
44CC
330
487E
100
AcDbEntity
  8
V0-OBRYS
  6
CONTINUOUS
 62
    90
100
AcDbLine
 10
5217.618595
 20
-273.714085
 30
0.0
 11
5184.01329
 21
-268.251755
 31
0.0
  0
LINE
  5
44CD
330
487E
100
AcDbEntity
  8
V0-OBRYS
  6
CONTINUOUS
 62
    90
100
AcDbLine
 10
5184.01329
 20
-268.251755
 30
0.0
 11
5178.31002
 21
-253.244523
 31
0.0
  0
LINE
  5
44CE
330
487E
100
AcDbEntity
  8
V0-OBRYS
  6
CONTINUOUS
 62
    90
100
AcDbLine
 10
5182.074412
 20
-270.683031
 30
0.0
 11
5166.174345
 21
-268.462177
 31
0.0
  0
LINE
  5
44CF
330
487E
100
AcDbEntity
  8
V0-OBRYS
  6
CONTINUOUS
 62
    90
100
AcDbLine
 10
5164.917004
 20
-238.034398
 30
0.0
 11
5208.64791
 21
-264.171276
 31
0.0
  0
LINE
  5
44D0
330
487E
100
AcDbEntity
  8
V0-OBRYS
  6
CONTINUOUS
 62
    90
100
AcDbLine
 10
5216.773725
 20
-243.160213
 30
0.0
 11
5171.581788
 21
-224.693692
 31
0.0
  0
LINE
  5
44D1
330
487E
100
AcDbEntity
  8
V0-OBRYS
  6
CONTINUOUS
 62
    90
100
AcDbLine
 10
5193.063574
 20
-280.948263
 30
0.0
 11
5156.032492
 21
-250.574241
 31
0.0
  0
LINE
  5
44D2
330
487E
100
AcDbEntity
  8
V0-OBRYS
  6
CONTINUOUS
 62
    90
100
AcDbLine
 10
5263.695391
 20
-281.203576
 30
0.0
 11
5221.759875
 21
-274.387224
 31
0.0
  0
LINE
  5
44D3
330
487E
100
AcDbEntity
  8
V0-OBRYS
  6
CONTINUOUS
 62
    90
100
AcDbLine
 10
5226.930993
 20
-176.070116
 30
0.0
 11
5179.593619
 21
-179.670164
 31
0.0
  0
LINE
  5
44D4
330
487E
100
AcDbEntity
  8
V0-OBRYS
  6
CONTINUOUS
 62
    90
100
AcDbLine
 10
5176.162034
 20
-163.973693
 30
0.0
 11
5224.222386
 21
-152.347953
 31
0.0
  0
LINE
  5
44D5
330
487E
100
AcDbEntity
  8
V0-OBRYS
  6
CONTINUOUS
 62
    90
100
AcDbLine
 10
5241.500581
 20
-169.080269
 30
0.0
 11
5208.853231
 21
-159.420862
 31
0.0
  0
LINE
  5
44D6
330
487E
100
AcDbEntity
  8
V0-OBRYS
  6
CONTINUOUS
 62
    90
100
AcDbLine
 10
5233.38444
 20
-133.521132
 30
0.0
 11
5208.161253
 21
-156.389111
 31
0.0
  0
LINE
  5
44D7
330
487E
100
AcDbEntity
  8
V0-OBRYS
  6
CONTINUOUS
 62
    90
100
AcDbLine
 10
5164.917004
 20
-136.462704
 30
0.0
 11
5208.64791
 21
-110.325827
 31
0.0
  0
LINE
  5
44D8
330
487E
100
AcDbEntity
  8
V0-OBRYS
  6
CONTINUOUS
 62
    90
100
AcDbLine
 10
5208.161253
 20
-156.389111
 30
0.0
 11
5192.872196
 21
-151.49125
 31
0.0
  0
LINE
  5
44D9
330
487E
100
AcDbEntity
  8
V0-OBRYS
  6
CONTINUOUS
 62
    90
100
AcDbLine
 10
5208.853231
 20
-159.420862
 30
0.0
 11
5197.203368
 21
-170.467355
 31
0.0
  0
LINE
  5
44DA
330
487E
100
AcDbEntity
  8
V0-OBRYS
  6
CONTINUOUS
 62
    90
100
AcDbLine
 10
5216.773725
 20
-131.33689
 30
0.0
 11
5171.581788
 21
-149.80341
 31
0.0
  0
LINE
  5
44DB
330
487E
100
AcDbEntity
  8
V0-OBRYS
  6
CONTINUOUS
 62
    90
100
AcDbLine
 10
5192.6272
 20
-94.537414
 30
0.0
 11
5156.461059
 21
-124.441372
 31
0.0
  0
LINE
  5
44DC
330
487E
100
AcDbEntity
  8
V0-OBRYS
  6
CONTINUOUS
 62
    90
100
AcDbLine
 10
5267.968373
 20
-102.166464
 30
0.0
 11
5236.492767
 21
-130.703044
 31
0.0
  0
LINE
  5
44DD
330
487E
100
AcDbEntity
  8
V0-OBRYS
  6
CONTINUOUS
 62
    90
100
AcDbLine
 10
5166.468603
 20
-49.611326
 30
0.0
 11
5138.561285
 21
-69.113511
 31
0.0
  0
LINE
  5
44DE
330
487E
100
AcDbEntity
  8
V0-OBRYS
  6
CONTINUOUS
 62
    90
100
AcDbLine
 10
5127.673526
 20
59.876718
 30
0.0
 11
5130.398683
 21
16.858943
 31
0.0
  0
LINE
  5
44DF
330
487E
100
AcDbEntity
  8
V0-OBRYS
  6
CONTINUOUS
 62
    90
100
AcDbLine
 10
5032.215843
 20
59.876718
 30
0.0
 11
5029.490686
 21
16.858943
 31
0.0
  0
LINE
  5
44E0
330
487E
100
AcDbEntity
  8
V0-OBRYS
  6
CONTINUOUS
 62
    90
100
AcDbLine
 10
5029.233687
 20
12.802102
 30
0.0
 11
5026.547609
 21
-29.598785
 31
0.0
  0
LINE
  5
44E1
330
487E
100
AcDbEntity
  8
V0-OBRYS
  6
CONTINUOUS
 62
    90
100
AcDbLine
 10
5024.129843
 20
-67.76425500000001
 30
0.0
 11
5037.491716000001
 21
-76.663955
 31
0.0
  0
LINE
  5
44E2
330
487E
100
AcDbEntity
  8
V0-OBRYS
  6
CONTINUOUS
 62
    90
100
AcDbLine
 10
5026.28235
 20
-33.786021
 30
0.0
 11
5024.129843
 21
-67.76425500000001
 31
0.0
  0
LINE
  5
44E3
330
487E
100
AcDbEntity
  8
V0-OBRYS
  6
CONTINUOUS
 62
    90
100
AcDbLine
 10
5130.655682
 20
12.802102
 30
0.0
 11
5133.34176
 21
-29.598785
 31
0.0
  0
LINE
  5
44E4
330
487E
100
AcDbEntity
  8
V0-OBRYS
  6
CONTINUOUS
 62
    90
100
AcDbLine
 10
5135.759526
 20
-67.76425500000001
 30
0.0
 11
5122.397653
 21
-76.663955
 31
0.0
  0
LINE
  5
44E5
330
487E
100
AcDbEntity
  8
V0-OBRYS
  6
CONTINUOUS
 62
    90
100
AcDbLine
 10
5133.607019
 20
-33.786021
 30
0.0
 11
5135.759526
 21
-67.76425500000001
 31
0.0
  0
ARC
  5
44E6
330
487E
100
AcDbEntity
  8
V0-OBRYS
  6
CONTINUOUS
 62
    90
100
AcDbCircle
 10
5079.944685
 20
-187.248551
 30
0.0
 40
309.023621
100
AcDbArc
 50
81.81284700000001
 51
98.187153
  0
LINE
  5
44E7
330
487E
100
AcDbEntity
  8
V0-OBRYS
  6
CONTINUOUS
 62
    90
100
AcDbLine
 10
5035.937557
 20
118.625559
 30
0.0
 11
5035.50887
 21
111.858551
 31
0.0
  0
LINE
  5
44E8
330
487E
100
AcDbEntity
  8
V0-OBRYS
  6
CONTINUOUS
 62
    90
100
AcDbLine
 10
5035.258393
 20
107.904665
 30
0.0
 11
5032.468697
 21
63.868119
 31
0.0
  0
LINE
  5
44E9
330
487E
100
AcDbEntity
  8
V0-OBRYS
  6
CONTINUOUS
 62
    90
100
AcDbLine
 10
5123.951812
 20
118.625559
 30
0.0
 11
5127.420672
 21
63.868119
 31
0.0
  0
LINE
  5
44EA
330
487E
100
AcDbEntity
  8
V0-OBRYS
  6
CONTINUOUS
 62
    90
100
AcDbLine
 10
5243.396554
 20
4.147445
 30
0.0
 11
5208.064796
 21
-20.543086
 31
0.0
  0
LINE
  5
44EB
330
487E
100
AcDbEntity
  8
V0-OBRYS
  6
CONTINUOUS
 62
    90
100
AcDbLine
 10
5204.732793
 20
-22.871555
 30
0.0
 11
5169.907703
 21
-47.208015
 31
0.0
  0
LINE
  5
44EC
330
487E
100
AcDbEntity
  8
V0-OBRYS
  6
CONTINUOUS
 62
    90
100
AcDbLine
 10
5368.357385
 20
-298.215721
 30
0.0
 11
5314.200934
 21
-289.412933
 31
0.0
  0
ARC
  5
44ED
330
487E
100
AcDbEntity
  8
V0-OBRYS
  6
CONTINUOUS
 62
    90
100
AcDbCircle
 10
5079.944685
 20
-187.248551
 30
0.0
 40
309.023621
100
AcDbArc
 50
338.955704
 51
355.33001
  0
LINE
  5
44EE
330
487E
100
AcDbEntity
  8
V0-OBRYS
  6
CONTINUOUS
 62
    90
100
AcDbLine
 10
5331.494674
 20
-195.706917
 30
0.0
 11
5290.161849
 21
-183.47773
 31
0.0
  0
LINE
  5
44EF
330
487E
100
AcDbEntity
  8
V0-OBRYS
  6
CONTINUOUS
 62
    90
100
AcDbLine
 10
5387.942399
 20
-212.408167
 30
0.0
 11
5335.329736
 21
-196.841602
 31
0.0
  0
ARC
  5
44F0
330
487E
100
AcDbEntity
  8
V0-OBRYS
  6
CONTINUOUS
 62
    90
100
AcDbCircle
 10
5079.944685
 20
-187.248551
 30
0.0
 40
309.023621
100
AcDbArc
 50
30.384275
 51
46.758582
  0
LINE
  5
44F1
330
487E
100
AcDbEntity
  8
V0-OBRYS
  6
CONTINUOUS
 62
    90
100
AcDbLine
 10
5346.524689
 20
-30.945321
 30
0.0
 11
5305.876397
 21
-67.79809
 31
0.0
  0
CIRCLE
  5
44F2
330
487E
100
AcDbEntity
  8
V0-OBRYS
  6
CONTINUOUS
 62
    90
100
AcDbCircle
 10
5079.944685
 20
157.856822
 30
0.0
 40
5.909339
  0
CIRCLE
  5
453F
330
487E
100
AcDbEntity
  8
V0-OBRYS
  6
CONTINUOUS
 62
    90
100
AcDbCircle
 10
4907.391998
 20
111.621469
 30
0.0
 40
5.909339
  0
CIRCLE
  5
4540
330
487E
100
AcDbEntity
  8
V0-OBRYS
  6
CONTINUOUS
 62
    90
100
AcDbCircle
 10
4781.074665
 20
-14.695865
 30
0.0
 40
5.909339
  0
CIRCLE
  5
4541
330
487E
100
AcDbEntity
  8
V0-OBRYS
  6
CONTINUOUS
 62
    90
100
AcDbCircle
 10
4734.839312
 20
-187.248551
 30
0.0
 40
5.909339
  0
CIRCLE
  5
4542
330
487E
100
AcDbEntity
  8
V0-OBRYS
  6
CONTINUOUS
 62
    90
100
AcDbCircle
 10
4781.074665
 20
-359.801238
 30
0.0
 40
5.909339
  0
CIRCLE
  5
4543
330
487E
100
AcDbEntity
  8
V0-OBRYS
  6
CONTINUOUS
 62
    90
100
AcDbCircle
 10
4907.391998
 20
-486.118571
 30
0.0
 40
5.909339
  0
CIRCLE
  5
4544
330
487E
100
AcDbEntity
  8
V0-OBRYS
  6
CONTINUOUS
 62
    90
100
AcDbCircle
 10
5079.944685
 20
-532.353924
 30
0.0
 40
5.909339
  0
CIRCLE
  5
4545
330
487E
100
AcDbEntity
  8
V0-OBRYS
  6
CONTINUOUS
 62
    90
100
AcDbCircle
 10
5252.497371
 20
-486.118571
 30
0.0
 40
5.909339
  0
CIRCLE
  5
4546
330
487E
100
AcDbEntity
  8
V0-OBRYS
  6
CONTINUOUS
 62
    90
100
AcDbCircle
 10
5378.814704
 20
-359.801238
 30
0.0
 40
5.909339
  0
CIRCLE
  5
4547
330
487E
100
AcDbEntity
  8
V0-OBRYS
  6
CONTINUOUS
 62
    90
100
AcDbCircle
 10
5425.050057
 20
-187.248551
 30
0.0
 40
5.909339
  0
CIRCLE
  5
4548
330
487E
100
AcDbEntity
  8
V0-OBRYS
  6
CONTINUOUS
 62
    90
100
AcDbCircle
 10
5378.814704
 20
-14.695865
 30
0.0
 40
5.909339
  0
CIRCLE
  5
4549
330
487E
100
AcDbEntity
  8
V0-OBRYS
  6
CONTINUOUS
 62
    90
100
AcDbCircle
 10
5252.497371
 20
111.621469
 30
0.0
 40
5.909339
  0
LINE
  5
4555
330
487E
100
AcDbEntity
  8
V0-OBRYS
  6
CONTINUOUS
 62
    90
100
AcDbLine
 10
4040.307635
 20
174.782134
 30
0.0
 11
4045.268255
 21
174.782134
 31
0.0
  0
LINE
  5
4556
330
487E
100
AcDbEntity
  8
V0-OBRYS
  6
CONTINUOUS
 62
    90
100
AcDbLine
 10
4275.984215
 20
174.782134
 30
0.0
 11
4279.944835
 21
174.782134
 31
0.0
  0
LINE
  5
4557
330
487E
100
AcDbEntity
  8
V0-OBRYS
  6
CONTINUOUS
 62
    90
100
AcDbLine
 10
4040.307635
 20
-549.279236
 30
0.0
 11
4045.268255
 21
-549.279236
 31
0.0
  0
LINE
  5
4558
330
487E
100
AcDbEntity
  8
V0-OBRYS
  6
CONTINUOUS
 62
    90
100
AcDbLine
 10
4274.984215
 20
-549.279236
 30
0.0
 11
4279.944835
 21
-549.279236
 31
0.0
  0
LINE
  5
4559
330
487E
100
AcDbEntity
  8
V0-OBRYS
  6
CONTINUOUS
 62
    90
100
AcDbLine
 10
4040.307635
 20
-859.365853
 30
0.0
 11
4045.268255
 21
-859.365853
 31
0.0
  0
LINE
  5
455A
330
487E
100
AcDbEntity
  8
V0-OBRYS
  6
CONTINUOUS
 62
    90
100
AcDbLine
 10
4274.984215
 20
-859.365853
 30
0.0
 11
4279.944835
 21
-859.365853
 31
0.0
  0
LINE
  5
455B
330
487E
100
AcDbEntity
  8
V0-OBRYS
  6
CONTINUOUS
 62
    90
100
AcDbLine
 10
4040.307635
 20
-1583.427223
 30
0.0
 11
4045.268255
 21
-1583.427223
 31
0.0
  0
LINE
  5
455C
330
487E
100
AcDbEntity
  8
V0-OBRYS
  6
CONTINUOUS
 62
    90
100
AcDbLine
 10
4274.984215
 20
-1583.427223
 30
0.0
 11
4279.944835
 21
-1583.427223
 31
0.0
  0
POINT
  5
4562
330
487E
100
AcDbEntity
  8
V0-VYPLNE
  6
CONTINUOUS
 62
    41
100
AcDbPoint
 10
4040.307635
 20
-187.248551
 30
0.0
  0
POINT
  5
4563
330
487E
100
AcDbEntity
  8
V0-VYPLNE
  6
CONTINUOUS
 62
    41
100
AcDbPoint
 10
4279.944835
 20
-187.248551
 30
0.0
  0
POINT
  5
4564
330
487E
100
AcDbEntity
  8
V0-VYPLNE
  6
CONTINUOUS
 62
    41
100
AcDbPoint
 10
4040.307635
 20
-1221.396538
 30
0.0
  0
POINT
  5
4565
330
487E
100
AcDbEntity
  8
V0-VYPLNE
  6
CONTINUOUS
 62
    41
100
AcDbPoint
 10
4279.944835
 20
-1221.396538
 30
0.0
  0
LWPOLYLINE
  5
4854
330
487E
100
AcDbEntity
  8
V0-VYPLNE
  6
CONTINUOUS
 62
    41
100
AcDbPolyline
 90
        4
 70
     1
 43
0.0
 10
4887.794457487037
 20
-532.8666281819536
 10
4907.391998
 20
-486.118571
 10
4904.015316060263
 20
-536.6956652574037
 10
4904.015316060263
 20
-536.6956652574037
1001
VDEXTRAPARAM
1071
       65
1071
        0
1071
        0
1040
1.0
1000

1000

1040
0.0
1040
0.0
  0
HATCH
  5
48F0
330
487E
100
AcDbEntity
  8
V0-VYPLNE
  6
CONTINUOUS
 62
    41
100
AcDbHatch
 10
0.0
 20
0.0
 30
0.0
210
0.0
220
0.0
230
1.0
  2
SOLID
 70
     1
 71
     0
 91
        1
 92
        2
 72
     0
 73
     1
 93
        3
 10
4887.794457487037
 20
-532.8666281819536
 10
4907.391998
 20
-486.118571
 10
4904.015316060263
 20
-536.6956652574037
 97
        0
 75
     0
 76
     1
 98
        1
 10
0.0
 20
0.0
1001
VDEXTRAPARAM
1071
       65
1071
        0
1071
        0
1040
1.0
1000

1000

1040
0.0
1040
0.0
1001
VD_TEMPHATCH
1000
VD_TEMPHATCH
  0
LWPOLYLINE
  5
4855
330
487E
100
AcDbEntity
  8
V0-VYPLNE
  6
CONTINUOUS
 62
    41
100
AcDbPolyline
 90
        3
 70
     0
 43
0.0
 10
4895.90488677365
 20
-534.7811467196787
 10
4868.320629
 20
-651.635681
 10
4378.317676
 20
-651.635681
  0
TEXT
  5
485A
330
487E
100
AcDbEntity
  8
V0-VYPLNE
  6
CONTINUOUS
 62
    41
100
AcDbText
 10
4192.511105190476
 20
-649.630759
 30
0.0
 40
50.0
  1
12 OTVORU %%c12
  7
ED50
100
AcDbText
  0
VIEWPORT
  5
48F1
330
487A
100
AcDbEntity
 67
     1
  8
0
 60
     1
100
AcDbViewport
 10
261.517699
 20
148.5
 30
0.0
 40
297.0
 41
297.0
 68
     0
 69
     1
1001
VD_INVISIBLE_NOT_FOR_READ
1000
VD_INVISIBLE_NOT_FOR_READ
1001
ACAD
1000
MVIEW
1002
{
1070
    16
1010
0.0
1020
0.0
1030
0.0
1010
0.0
1020
0.0
1030
1.0
1040
6.2831853071796
1040
297.0
1040
261.517699
1040
148.5
1040
0.0
1040
0.0
1040
0.0
1070
     0
1070
   100
1070
     0
1070
     1
1070
     0
1070
     0
1070
     0
1070
     0
1040
0.0
1040
0.0
1040
0.0
1040
1.0
1040
1.0
1040
0.0
1040
0.0
1070
     0
1002
{
1002
}
1002
}
  0
VIEWPORT
  5
48F2
330
487A
100
AcDbEntity
 67
     1
  8
0
 60
     1
100
AcDbViewport
 10
261.517699
 20
148.5
 30
0.0
 40
297.0
 41
297.0
 68
     0
 69
     2
1001
VD_INVISIBLE_NOT_FOR_READ
1000
VD_INVISIBLE_NOT_FOR_READ
1001
ACAD
1000
MVIEW
1002
{
1070
    16
1010
0.0
1020
0.0
1030
0.0
1010
0.0
1020
0.0
1030
1.0
1040
6.2831853071796
1040
297.0
1040
261.517699
1040
148.5
1040
0.0
1040
0.0
1040
0.0
1070
     0
1070
   100
1070
     0
1070
     1
1070
     0
1070
     0
1070
     0
1070
     0
1040
0.0
1040
0.0
1040
0.0
1040
1.0
1040
1.0
1040
0.0
1040
0.0
1070
     0
1002
{
1002
}
1002
}
  0
ENDSEC
  0
SECTION
  2
OBJECTS
  0
DICTIONARY
  5
486B
330
0
100
AcDbDictionary
  3
ACAD_GROUP
350
486C
  3
ACAD_LAYOUT
350
4879
  3
ACAD_MLINESTYLE
350
4876
  3
ACAD_PLOTSETTINGS
350
4878
  3
ACDBHEADERROUNDTRIPXREC
350
48F3
  3
VECTORDRAW_OBJECTS
350
488E
  0
DICTIONARY
  5
4913
330
4888
100
AcDbDictionary
280
     1
  3
ACAD_XREC_ROUNDTRIP
360
4914
  0
DICTIONARY
  5
486C
102
{ACAD_REACTORS
330
486B
102
}
330
486B
100
AcDbDictionary
  0
DICTIONARY
  5
4879
102
{ACAD_REACTORS
330
486B
102
}
330
486B
100
AcDbDictionary
  0
DICTIONARY
  5
4876
102
{ACAD_REACTORS
330
486B
102
}
330
486B
100
AcDbDictionary
  3
STANDARD
350
4877
  0
DICTIONARY
  5
4878
102
{ACAD_REACTORS
330
486B
102
}
330
486B
100
AcDbDictionary
  0
DICTIONARY
  5
48F3
102
{ACAD_REACTORS
330
486B
102
}
330
486B
100
AcDbDictionary
  3
CEPSNTYPE
350
48FC
  3
DIMSTYLEDATA
350
4912
  3
FINGERPRINTGUID
350
48FD
  3
HYPERLINKBASE
350
48F6
  3
INSUNITS
350
48FB
  3
LAYOUTDICT
350
48F8
  3
LWETCUNION
350
48FA
  3
PLOTSETDICT
350
48F9
  3
PSVPSCALE
350
48FF
  3
PUCSBASE
350
4902
  3
PUCSORGBACK
350
4908
  3
PUCSORGBOTTOM
350
4904
  3
PUCSORGFRONT
350
4907
  3
PUCSORGLEFT
350
4905
  3
PUCSORGRIGHT
350
4906
  3
PUCSORGTOP
350
4903
  3
PUCSORTHOREF
350
4900
  3
PUCSORTHOVIEW
350
4901
  3
STYLESHEET
350
48F7
  3
TSTACKALIGN
350
48F4
  3
TSTACKSIZE
350
48F5
  3
UCSBASE
350
490B
  3
UCSORGBACK
350
4911
  3
UCSORGBOTTOM
350
490D
  3
UCSORGFRONT
350
4910
  3
UCSORGLEFT
350
490E
  3
UCSORGRIGHT
350
490F
  3
UCSORGTOP
350
490C
  3
UCSORTHOREF
350
4909
  3
UCSORTHOVIEW
350
490A
  3
VERSIONGUID
350
48FE
  0
DICTIONARY
  5
488E
102
{ACAD_REACTORS
330
486B
102
}
330
486B
100
AcDbDictionary
  3
SERIALNO
350
488F
  0
XRECORD
  5
4914
102
{ACAD_REACTORS
330
4913
102
}
330
4913
100
AcDbXrecord
102
UCS
 74
     0
 71
     1
 10
0.0
 20
0.0
 30
0.0
 10
1.0
 20
0.0
 30
0.0
 10
0.0
 20
1.0
 30
0.0
146
0.0
 79
     0
102
VIEW
281
     0
  0
MLINESTYLE
  5
4877
102
{ACAD_REACTORS
330
4876
102
}
330
4876
100
AcDbMlineStyle
  2
Standard
 70
     0
  3

 62
   256
 51
90.0
 52
90.0
 71
     2
 49
0.5
 62
   256
  6
BYLAYER
 49
-0.5
 62
   256
  6
BYLAYER
  0
XRECORD
  5
48FC
102
{ACAD_REACTORS
330
48F3
102
}
330
48F3
100
AcDbXrecord
 90
        0
  0
XRECORD
  5
4912
102
{ACAD_REACTORS
330
48F3
102
}
330
48F3
100
AcDbXrecord
1000
DSTYLE
1002
{
1070
    41
 40
30.0
1070
   342
340
90
1070
   177
 70
    41
1070
   178
 70
    41
1070
   271
 70
     0
1070
    44
 40
1.25
1070
    42
 40
1.0
1070
   147
 40
2.0
1070
    77
 70
     1
1070
    73
 70
     0
1070
   174
 70
     1
1070
   172
 70
     1
1070
    74
 70
     0
1070
   340
340
F38
1070
   140
 40
30.0
1070
   288
 70
     1
1002
}
  0
XRECORD
  5
48FD
102
{ACAD_REACTORS
330
48F3
102
}
330
48F3
100
AcDbXrecord
  1
{FAEB1C30-E019-11D5-929B-00C0DF256EC4}
  0
XRECORD
  5
48F6
102
{ACAD_REACTORS
330
48F3
102
}
330
48F3
100
AcDbXrecord
  1

  0
XRECORD
  5
48FB
102
{ACAD_REACTORS
330
48F3
102
}
330
48F3
100
AcDbXrecord
 90
        1
  0
XRECORD
  5
48F8
102
{ACAD_REACTORS
330
48F3
102
}
330
48F3
100
AcDbXrecord
340
4879
  0
XRECORD
  5
48FA
102
{ACAD_REACTORS
330
48F3
102
}
330
48F3
100
AcDbXrecord
 90
     2560
  0
XRECORD
  5
48F9
102
{ACAD_REACTORS
330
48F3
102
}
330
48F3
100
AcDbXrecord
340
4878
  0
XRECORD
  5
48FF
102
{ACAD_REACTORS
330
48F3
102
}
330
48F3
100
AcDbXrecord
 40
0.0
  0
XRECORD
  5
4902
102
{ACAD_REACTORS
330
48F3
102
}
330
48F3
100
AcDbXrecord
340
0
  0
XRECORD
  5
4908
102
{ACAD_REACTORS
330
48F3
102
}
330
48F3
100
AcDbXrecord
 10
0.0
 20
0.0
 30
0.0
  0
XRECORD
  5
4904
102
{ACAD_REACTORS
330
48F3
102
}
330
48F3
100
AcDbXrecord
 10
0.0
 20
0.0
 30
0.0
  0
XRECORD
  5
4907
102
{ACAD_REACTORS
330
48F3
102
}
330
48F3
100
AcDbXrecord
 10
0.0
 20
0.0
 30
0.0
  0
XRECORD
  5
4905
102
{ACAD_REACTORS
330
48F3
102
}
330
48F3
100
AcDbXrecord
 10
0.0
 20
0.0
 30
0.0
  0
XRECORD
  5
4906
102
{ACAD_REACTORS
330
48F3
102
}
330
48F3
100
AcDbXrecord
 10
0.0
 20
0.0
 30
0.0
  0
XRECORD
  5
4903
102
{ACAD_REACTORS
330
48F3
102
}
330
48F3
100
AcDbXrecord
 10
0.0
 20
0.0
 30
0.0
  0
XRECORD
  5
4900
102
{ACAD_REACTORS
330
48F3
102
}
330
48F3
100
AcDbXrecord
340
0
  0
XRECORD
  5
4901
102
{ACAD_REACTORS
330
48F3
102
}
330
48F3
100
AcDbXrecord
 70
     0
  0
XRECORD
  5
48F7
102
{ACAD_REACTORS
330
48F3
102
}
330
48F3
100
AcDbXrecord
  1

  0
XRECORD
  5
48F4
102
{ACAD_REACTORS
330
48F3
102
}
330
48F3
100
AcDbXrecord
 90
        1
  0
XRECORD
  5
48F5
102
{ACAD_REACTORS
330
48F3
102
}
330
48F3
100
AcDbXrecord
 90
       70
  0
XRECORD
  5
490B
102
{ACAD_REACTORS
330
48F3
102
}
330
48F3
100
AcDbXrecord
340
0
  0
XRECORD
  5
4911
102
{ACAD_REACTORS
330
48F3
102
}
330
48F3
100
AcDbXrecord
 10
0.0
 20
0.0
 30
0.0
  0
XRECORD
  5
490D
102
{ACAD_REACTORS
330
48F3
102
}
330
48F3
100
AcDbXrecord
 10
0.0
 20
0.0
 30
0.0
  0
XRECORD
  5
4910
102
{ACAD_REACTORS
330
48F3
102
}
330
48F3
100
AcDbXrecord
 10
0.0
 20
0.0
 30
0.0
  0
XRECORD
  5
490E
102
{ACAD_REACTORS
330
48F3
102
}
330
48F3
100
AcDbXrecord
 10
0.0
 20
0.0
 30
0.0
  0
XRECORD
  5
490F
102
{ACAD_REACTORS
330
48F3
102
}
330
48F3
100
AcDbXrecord
 10
0.0
 20
0.0
 30
0.0
  0
XRECORD
  5
490C
102
{ACAD_REACTORS
330
48F3
102
}
330
48F3
100
AcDbXrecord
 10
0.0
 20
0.0
 30
0.0
  0
XRECORD
  5
4909
102
{ACAD_REACTORS
330
48F3
102
}
330
48F3
100
AcDbXrecord
340
0
  0
XRECORD
  5
490A
102
{ACAD_REACTORS
330
48F3
102
}
330
48F3
100
AcDbXrecord
 70
     0
  0
XRECORD
  5
48FE
102
{ACAD_REACTORS
330
48F3
102
}
330
48F3
100
AcDbXrecord
  1
{FAEB1C32-E019-11D5-929B-00C0DF256EC4}
  0
XRECORD
  5
488F
102
{ACAD_REACTORS
330
488E
102
}
330
488E
100
AcDbXrecord
1000
rInJVR9YY4Q8hfPWdUq5j5319
1070
     4
1070
     6
  0
ENDSEC
  0
EOF
