  0
SECTION
  2
HEADER
  9
$ACADVER
  1
AC1014
  9
$ACADMAINTVER
 70
     9
  9
$DWGCODEPAGE
  3
ANSI_1250
  9
$INSBASE
 10
0.0
 20
0.0
 30
0.0
  9
$EXTMIN
 10
3952.638647230686
 20
-1303.631687
 30
0.0
  9
$EXTMAX
 10
5388.838981362637
 20
242.353918
 30
0.0
  9
$LIMMIN
 10
0.0
 20
0.0
  9
$LIMMAX
 10
0.0
 20
0.0
  9
$ORTHOMODE
 70
     0
  9
$REGENMODE
 70
     1
  9
$FILLMODE
 70
     1
  9
$QTEXTMODE
 70
     0
  9
$MIRRTEXT
 70
     1
  9
$DRAGMODE
 70
     2
  9
$LTSCALE
 40
1.0
  9
$OSMODE
 70
    37
  9
$ATTMODE
 70
     1
  9
$TEXTSIZE
 40
0.2
  9
$TRACEWID
 40
0.05
  9
$TEXTSTYLE
  7
ED30
  9
$CLAYER
  8
V0-VYPLNE
  9
$CELTYPE
  6
CONTINUOUS
  9
$CECOLOR
 62
    41
  9
$CELTSCALE
 40
1.0
  9
$DELOBJ
 70
     1
  9
$DISPSILH
 70
     0
  9
$DIMSCALE
 40
1.0
  9
$DIMASZ
 40
40.0
  9
$DIMEXO
 40
1.0
  9
$DIMDLI
 40
0.38
  9
$DIMRND
 40
0.0
  9
$DIMDLE
 40
0.0
  9
$DIMEXE
 40
1.25
  9
$DIMTP
 40
0.0
  9
$DIMTM
 40
0.0
  9
$DIMTXT
 40
40.0
  9
$DIMCEN
 40
0.09
  9
$DIMTSZ
 40
0.0
  9
$DIMTOL
 70
     0
  9
$DIMLIM
 70
     0
  9
$DIMTIH
 70
     0
  9
$DIMTOH
 70
     0
  9
$DIMSE1
 70
     0
  9
$DIMSE2
 70
     0
  9
$DIMTAD
 70
     1
  9
$DIMZIN
 70
     0
  9
$DIMBLK
  1
OPEN
  9
$DIMASO
 70
     1
  9
$DIMSHO
 70
     1
  9
$DIMPOST
  1

  9
$DIMAPOST
  1

  9
$DIMALT
 70
     0
  9
$DIMALTD
 70
     2
  9
$DIMALTF
 40
25.4
  9
$DIMLFAC
 40
1.0
  9
$DIMTOFL
 70
     1
  9
$DIMTVP
 40
0.0
  9
$DIMTIX
 70
     1
  9
$DIMSOXD
 70
     0
  9
$DIMSAH
 70
     0
  9
$DIMBLK1
  1

  9
$DIMBLK2
  1

  9
$DIMSTYLE
  2
ED30
  9
$DIMCLRD
 70
     0
  9
$DIMCLRE
 70
    41
  9
$DIMCLRT
 70
    41
  9
$DIMTFAC
 40
1.0
  9
$DIMGAP
 40
2.0
  9
$DIMJUST
 70
     0
  9
$DIMSD1
 70
     0
  9
$DIMSD2
 70
     0
  9
$DIMTOLJ
 70
     1
  9
$DIMTZIN
 70
     0
  9
$DIMALTZ
 70
     0
  9
$DIMALTTZ
 70
     0
  9
$DIMFIT
 70
     3
  9
$DIMUPT
 70
     1
  9
$DIMUNIT
 70
     2
  9
$DIMDEC
 70
     0
  9
$DIMTDEC
 70
     4
  9
$DIMALTU
 70
     2
  9
$DIMALTTD
 70
     2
  9
$DIMTXSTY
  7
ED40
  9
$DIMAUNIT
 70
     0
  9
$LUNITS
 70
     2
  9
$LUPREC
 70
     4
  9
$SKETCHINC
 40
0.1
  9
$FILLETRAD
 40
0.5
  9
$AUNITS
 70
     0
  9
$AUPREC
 70
     0
  9
$MENU
  1
.
  9
$ELEVATION
 40
0.0
  9
$PELEVATION
 40
0.0
  9
$THICKNESS
 40
0.0
  9
$LIMCHECK
 70
     0
  9
$BLIPMODE
 70
     0
  9
$CHAMFERA
 40
0.5
  9
$CHAMFERB
 40
0.5
  9
$CHAMFERC
 40
1.0
  9
$CHAMFERD
 40
0.0
  9
$SKPOLY
 70
     0
  9
$TDCREATE
 40
2455576.656388518
  9
$TDUPDATE
 40
2455576.65638853
  9
$TDINDWG
 40
0.0000000116
  9
$TDUSRTIMER
 40
0.0000000116
  9
$USRTIMER
 70
     1
  9
$ANGBASE
 50
0.0
  9
$ANGDIR
 70
     0
  9
$PDMODE
 70
    35
  9
$PDSIZE
 40
20.0
  9
$PLINEWID
 40
0.0
  9
$COORDS
 70
     1
  9
$SPLFRAME
 70
     0
  9
$SPLINETYPE
 70
     6
  9
$SPLINESEGS
 70
     8
  9
$ATTDIA
 70
     0
  9
$ATTREQ
 70
     1
  9
$HANDLING
 70
     1
  9
$HANDSEED
  5
45E7
  9
$SURFTAB1
 70
     6
  9
$SURFTAB2
 70
     6
  9
$SURFTYPE
 70
     6
  9
$SURFU
 70
     6
  9
$SURFV
 70
     6
  9
$UCSNAME
  2

  9
$UCSORG
 10
0.0
 20
0.0
 30
0.0
  9
$UCSXDIR
 10
1.0
 20
0.0
 30
0.0
  9
$UCSYDIR
 10
0.0
 20
1.0
 30
0.0
  9
$PUCSNAME
  2

  9
$PUCSORG
 10
0.0
 20
0.0
 30
0.0
  9
$PUCSXDIR
 10
1.0
 20
0.0
 30
0.0
  9
$PUCSYDIR
 10
0.0
 20
1.0
 30
0.0
  9
$USERI1
 70
     0
  9
$USERI2
 70
     0
  9
$USERI3
 70
     0
  9
$USERI4
 70
     0
  9
$USERI5
 70
     0
  9
$USERR1
 40
0.0
  9
$USERR2
 40
0.0
  9
$USERR3
 40
0.0
  9
$USERR4
 40
0.0
  9
$USERR5
 40
0.0
  9
$WORLDVIEW
 70
     1
  9
$SHADEDGE
 70
     3
  9
$SHADEDIF
 70
    70
  9
$TILEMODE
 70
     1
  9
$MAXACTVP
 70
    64
  9
$PINSBASE
 10
0.0
 20
0.0
 30
0.0
  9
$PLIMCHECK
 70
     0
  9
$PEXTMIN
 10
1.000000000000000E+20
 20
1.000000000000000E+20
 30
1.000000000000000E+20
  9
$PEXTMAX
 10
-1.000000000000000E+20
 20
-1.000000000000000E+20
 30
-1.000000000000000E+20
  9
$PLIMMIN
 10
0.0
 20
0.0
  9
$PLIMMAX
 10
0.0
 20
0.0
  9
$UNITMODE
 70
     0
  9
$VISRETAIN
 70
     1
  9
$PLINEGEN
 70
     0
  9
$PSLTSCALE
 70
     1
  9
$TREEDEPTH
 70
  3020
  9
$PICKSTYLE
 70
     1
  9
$CMLSTYLE
  2
STANDARD
  9
$CMLJUST
 70
     0
  9
$CMLSCALE
 40
1.0
  9
$PROXYGRAPHICS
 70
     1
  9
$MEASUREMENT
 70
     0
  0
ENDSEC
  0
SECTION
  2
CLASSES
  0
CLASS
  1
ACDBDICTIONARYWDFLT
  2
AcDbDictionaryWithDefault
  3
ObjectDBX Classes
 90
        0
280
     0
281
     0
  0
CLASS
  1
XRECORD
  2
AcDbXrecord
  3
AutoCAD 2000
 90
        0
280
     0
281
     0
  0
CLASS
  1
LWPOLYLINE
  2
AcDbPolyline
  3
AutoCAD 2000
 90
        0
280
     0
281
     1
  0
CLASS
  1
HATCH
  2
AcDbHatch
  3
AutoCAD 2000
 90
        0
280
     0
281
     1
  0
CLASS
  1
ACDBPLACEHOLDER
  2
AcDbPlaceHolder
  3
ObjectDBX Classes
 90
        0
280
     0
281
     0
  0
CLASS
  1
LAYOUT
  2
AcDbLayout
  3
ObjectDBX Classes
 90
        0
280
     0
281
     0
  0
ENDSEC
  0
SECTION
  2
TABLES
  0
TABLE
  2
VPORT
  5
4537
330
0
100
AcDbSymbolTable
 70
     2
  0
VPORT
  5
4558
102
{ACAD_XDICTIONARY
360
45E5
102
}
330
4537
100
AcDbSymbolTableRecord
100
AcDbViewportTableRecord
  2
*ACTIVE
 70
     0
 10
0.0
 20
0.0
 11
1.0
 21
1.0
 12
4680.886906
 22
-488.408053
 13
0.0
 23
0.0
 14
10.0
 24
10.0
 15
10.0
 25
10.0
 16
0.0
 26
0.0
 36
1.0
 17
0.0
 27
0.0
 37
0.0
 40
1733.292107
 41
0.0102445264037962
 42
50.0
 43
0.0
 44
0.0
 50
0.0
 51
0.0000000000007958
 71
     0
 72
   100
 73
     1
 74
     3
 75
     0
 76
     0
 77
     0
 78
     0
  0
ENDTAB
  0
TABLE
  2
LTYPE
  5
4534
330
0
100
AcDbSymbolTable
 70
    25
  0
LTYPE
  5
4543
330
4534
100
AcDbSymbolTableRecord
100
AcDbLinetypeTableRecord
  2
BYBLOCK
 70
     0
  3

 72
    65
 73
     0
 40
0.0
  0
LTYPE
  5
4544
330
4534
100
AcDbSymbolTableRecord
100
AcDbLinetypeTableRecord
  2
BYLAYER
 70
     0
  3

 72
    65
 73
     0
 40
0.0
  0
LTYPE
  5
4545
330
4534
100
AcDbSymbolTableRecord
100
AcDbLinetypeTableRecord
  2
CONTINUOUS
 70
     0
  3
Solid line
 72
    65
 73
     0
 40
0.0
  0
LTYPE
  5
4560
330
4534
100
AcDbSymbolTableRecord
100
AcDbLinetypeTableRecord
  2
CENTER
 70
     0
  3
Center ____ _ ____ _ ____ _ ____ _ ____ _ ____
 72
    65
 73
     4
 40
2.0
 49
1.25
 74
     0
 49
-0.25
 74
     0
 49
0.25
 74
     0
 49
-0.25
 74
     0
  0
LTYPE
  5
4561
330
4534
100
AcDbSymbolTableRecord
100
AcDbLinetypeTableRecord
  2
DASHDOT
 70
     0
  3
Dashdot __ . __ . __ . __ . __ . __ . __ . __
 72
    65
 73
     4
 40
1.0
 49
0.5
 74
     0
 49
-0.25
 74
     0
 49
0.0
 74
     0
 49
-0.25
 74
     0
  0
LTYPE
  5
4562
330
4534
100
AcDbSymbolTableRecord
100
AcDbLinetypeTableRecord
  2
DASHED
 70
     0
  3
Dashed __ __ __ __ __ __ __ __ __ __ __ __ __ _
 72
    65
 73
     2
 40
0.75
 49
0.5
 74
     0
 49
-0.25
 74
     0
  0
LTYPE
  5
4563
330
4534
100
AcDbSymbolTableRecord
100
AcDbLinetypeTableRecord
  2
HIDDEN
 70
     0
  3
Hidden __ __ __ __ __ __ __ __ __ __ __ __ __ __
 72
    65
 73
     2
 40
0.375
 49
0.25
 74
     0
 49
-0.125
 74
     0
  0
LTYPE
  5
4564
330
4534
100
AcDbSymbolTableRecord
100
AcDbLinetypeTableRecord
  2
HIDDEN2
 70
     0
  3
Hidden2 _ _ _ _ _ _ _ _ _ _ _ _ _ _ _ _ _ 
 72
    65
 73
     2
 40
0.1875
 49
0.125
 74
     0
 49
-0.0625
 74
     0
  0
LTYPE
  5
4565
330
4534
100
AcDbSymbolTableRecord
100
AcDbLinetypeTableRecord
  2
BORDER
 70
     0
  3
Border __ __ . __ __ . __ __ . __ __ . __ __ .
 72
    65
 73
     6
 40
1.75
 49
0.5
 74
     0
 49
-0.25
 74
     0
 49
0.5
 74
     0
 49
-0.25
 74
     0
 49
0.0
 74
     0
 49
-0.25
 74
     0
  0
LTYPE
  5
4566
330
4534
100
AcDbSymbolTableRecord
100
AcDbLinetypeTableRecord
  2
BORDER2
 70
     0
  3
Border2 __.__.__.__.__.__.__.__.__.__.__.
 72
    65
 73
     6
 40
0.875
 49
0.25
 74
     0
 49
-0.125
 74
     0
 49
0.25
 74
     0
 49
-0.125
 74
     0
 49
0.0
 74
     0
 49
-0.125
 74
     0
  0
LTYPE
  5
4567
330
4534
100
AcDbSymbolTableRecord
100
AcDbLinetypeTableRecord
  2
BORDERX2
 70
     0
  3
Borderx2  ____  ____  .  ____  ____  .  ___
 72
    65
 73
     6
 40
3.5
 49
1.0
 74
     0
 49
-0.5
 74
     0
 49
1.0
 74
     0
 49
-0.5
 74
     0
 49
0.0
 74
     0
 49
-0.5
 74
     0
  0
LTYPE
  5
4568
330
4534
100
AcDbSymbolTableRecord
100
AcDbLinetypeTableRecord
  2
CENTER2
 70
     0
  3
Center2  ___ _ ___ _ ___ _ ___ _ ___ _ ___
 72
    65
 73
     4
 40
1.125
 49
0.75
 74
     0
 49
-0.125
 74
     0
 49
0.125
 74
     0
 49
-0.125
 74
     0
  0
LTYPE
  5
4569
330
4534
100
AcDbSymbolTableRecord
100
AcDbLinetypeTableRecord
  2
CENTERX2
 70
     0
  3
Centerx2  ________  __  ________  __  _____
 72
    65
 73
     4
 40
4.0
 49
2.5
 74
     0
 49
-0.5
 74
     0
 49
0.5
 74
     0
 49
-0.5
 74
     0
  0
LTYPE
  5
456A
330
4534
100
AcDbSymbolTableRecord
100
AcDbLinetypeTableRecord
  2
DASHDOT2
 70
     0
  3
Dashdot2  _._._._._._._._._._._._._._._.
 72
    65
 73
     4
 40
0.5
 49
0.25
 74
     0
 49
-0.125
 74
     0
 49
0.0
 74
     0
 49
-0.125
 74
     0
  0
LTYPE
  5
456B
330
4534
100
AcDbSymbolTableRecord
100
AcDbLinetypeTableRecord
  2
DASHDOTX2
 70
     0
  3
Dashdotx2 ____  .  ____  .  ____  .  ___
 72
    65
 73
     4
 40
2.0
 49
1.0
 74
     0
 49
-0.5
 74
     0
 49
0.0
 74
     0
 49
-0.5
 74
     0
  0
LTYPE
  5
456C
330
4534
100
AcDbSymbolTableRecord
100
AcDbLinetypeTableRecord
  2
DASHED2
 70
     0
  3
Dashed2 _ _ _ _ _ _ _ _ _ _ _ _ _ _ _ _ _ 
 72
    65
 73
     2
 40
0.375
 49
0.25
 74
     0
 49
-0.125
 74
     0
  0
LTYPE
  5
456D
330
4534
100
AcDbSymbolTableRecord
100
AcDbLinetypeTableRecord
  2
DASHEDX2
 70
     0
  3
Dashedx2 ____  ____  ____  ____  ____  ___
 72
    65
 73
     2
 40
1.5
 49
1.0
 74
     0
 49
-0.5
 74
     0
  0
LTYPE
  5
456E
330
4534
100
AcDbSymbolTableRecord
100
AcDbLinetypeTableRecord
  2
DIVIDE
 70
     0
  3
Divide ____ . . ____ . . ____ . . ____ . . ____
 72
    65
 73
     6
 40
1.25
 49
0.5
 74
     0
 49
-0.25
 74
     0
 49
0.0
 74
     0
 49
-0.25
 74
     0
 49
0.0
 74
     0
 49
-0.25
 74
     0
  0
LTYPE
  5
456F
330
4534
100
AcDbSymbolTableRecord
100
AcDbLinetypeTableRecord
  2
DIVIDE2
 70
     0
  3
Divide2 __..__..__..__..__..__..__..__.._
 72
    65
 73
     6
 40
0.625
 49
0.25
 74
     0
 49
-0.125
 74
     0
 49
0.0
 74
     0
 49
-0.125
 74
     0
 49
0.0
 74
     0
 49
-0.125
 74
     0
  0
LTYPE
  5
4570
330
4534
100
AcDbSymbolTableRecord
100
AcDbLinetypeTableRecord
  2
DIVIDEX2
 70
     0
  3
Dividex2 ________  .  .  ________  .  .  _
 72
    65
 73
     6
 40
2.5
 49
1.0
 74
     0
 49
-0.5
 74
     0
 49
0.0
 74
     0
 49
-0.5
 74
     0
 49
0.0
 74
     0
 49
-0.5
 74
     0
  0
LTYPE
  5
4571
330
4534
100
AcDbSymbolTableRecord
100
AcDbLinetypeTableRecord
  2
DOT
 70
     0
  3
Dot . . . . . . . . . . . . . . . . . . . . . . . .
 72
    65
 73
     2
 40
0.25
 49
0.0
 74
     0
 49
-0.25
 74
     0
  0
LTYPE
  5
4572
330
4534
100
AcDbSymbolTableRecord
100
AcDbLinetypeTableRecord
  2
DOT2
 70
     0
  3
Dot2 ........................................
 72
    65
 73
     2
 40
0.125
 49
0.0
 74
     0
 49
-0.125
 74
     0
  0
LTYPE
  5
4573
330
4534
100
AcDbSymbolTableRecord
100
AcDbLinetypeTableRecord
  2
DOTX2
 70
     0
  3
Dotx2 .  .  .  .  .  .  .  .  .  .  .  .  .  .
 72
    65
 73
     2
 40
0.5
 49
0.0
 74
     0
 49
-0.5
 74
     0
  0
LTYPE
  5
4574
330
4534
100
AcDbSymbolTableRecord
100
AcDbLinetypeTableRecord
  2
HIDDENX2
 70
     0
  3
Hiddenx2 ____ ____ ____ ____ ____ ____ ____ 
 72
    65
 73
     2
 40
0.75
 49
0.5
 74
     0
 49
-0.25
 74
     0
  0
LTYPE
  5
4575
330
4534
100
AcDbSymbolTableRecord
100
AcDbLinetypeTableRecord
  2
PHANTOM
 70
     0
  3
Phantom ______  __  __  ______  __  __  ______ 
 72
    65
 73
     6
 40
2.5
 49
1.25
 74
     0
 49
-0.25
 74
     0
 49
0.25
 74
     0
 49
-0.25
 74
     0
 49
0.25
 74
     0
 49
-0.25
 74
     0
  0
LTYPE
  5
4576
330
4534
100
AcDbSymbolTableRecord
100
AcDbLinetypeTableRecord
  2
PHANTOM2
 70
     0
  3
Phantom2 ___ _ _ ___ _ _ ___ _ _ ___ _ _
 72
    65
 73
     6
 40
1.25
 49
0.625
 74
     0
 49
-0.125
 74
     0
 49
0.125
 74
     0
 49
-0.125
 74
     0
 49
0.125
 74
     0
 49
-0.125
 74
     0
  0
LTYPE
  5
4577
330
4534
100
AcDbSymbolTableRecord
100
AcDbLinetypeTableRecord
  2
PHANTOMX2
 70
     0
  3
Phantomx2 ____________    ____    ____   _
 72
    65
 73
     6
 40
5.0
 49
2.5
 74
     0
 49
-0.5
 74
     0
 49
0.5
 74
     0
 49
-0.5
 74
     0
 49
0.5
 74
     0
 49
-0.5
 74
     0
  0
ENDTAB
  0
TABLE
  2
LAYER
  5
4531
330
0
100
AcDbSymbolTable
 70
     5
  0
LAYER
  5
453F
330
4531
100
AcDbSymbolTableRecord
100
AcDbLayerTableRecord
  2
0
 70
     0
 62
     7
  6
CONTINUOUS
  0
LAYER
  5
9E
330
4531
100
AcDbSymbolTableRecord
100
AcDbLayerTableRecord
  2
DEFPOINTS
 70
     0
 62
     7
  6
CONTINUOUS
  0
LAYER
  5
377
330
4531
100
AcDbSymbolTableRecord
100
AcDbLayerTableRecord
  2
V0-OBRYS
 70
     0
 62
    90
  6
CONTINUOUS
  0
LAYER
  5
378
330
4531
100
AcDbSymbolTableRecord
100
AcDbLayerTableRecord
  2
V0-VYPLNE
 70
     0
 62
    63
  6
DASHDOT
  0
LAYER
  5
1540
330
4531
100
AcDbSymbolTableRecord
100
AcDbLayerTableRecord
  2
VO-OBRYS
 70
     0
 62
    90
  6
CONTINUOUS
  0
ENDTAB
  0
TABLE
  2
STYLE
  5
4532
330
0
100
AcDbSymbolTable
 70
     6
  0
STYLE
  5
4540
330
4532
100
AcDbSymbolTableRecord
100
AcDbTextStyleTableRecord
  2
STANDARD
 70
     0
 40
0.0
 41
1.0
 50
0.0
 71
     0
 42
0.2
  3
ISOCP.shx
  4

1001
ACAD
1000
ISOCP.shx
1071
        0
  0
STYLE
  5
331
330
4532
100
AcDbSymbolTableRecord
100
AcDbTextStyleTableRecord
  2
ED20
 70
     0
 40
20.0
 41
1.0
 50
0.0
 71
     0
 42
0.2
  3
ISOCP.shx
  4

1001
ACAD
1000
ISOCP.shx
1071
        0
  0
STYLE
  5
648
330
4532
100
AcDbSymbolTableRecord
100
AcDbTextStyleTableRecord
  2
ED10
 70
     0
 40
10.0
 41
1.0
 50
0.0
 71
     0
 42
0.2
  3
ISOCP.shx
  4

1001
ACAD
1000
ISOCP.shx
1071
        0
  0
STYLE
  5
F38
330
4532
100
AcDbSymbolTableRecord
100
AcDbTextStyleTableRecord
  2
ED30
 70
     0
 40
30.0
 41
1.0
 50
0.0
 71
     0
 42
0.2
  3
ISOCP.shx
  4

1001
ACAD
1000
ISOCP.shx
1071
        0
  0
STYLE
  5
F39
330
4532
100
AcDbSymbolTableRecord
100
AcDbTextStyleTableRecord
  2
ED40
 70
     0
 40
40.0
 41
1.0
 50
0.0
 71
     0
 42
0.2
  3
ISOCP.shx
  4

1001
ACAD
1000
ISOCP.shx
1071
        0
  0
STYLE
  5
1B9D
330
4532
100
AcDbSymbolTableRecord
100
AcDbTextStyleTableRecord
  2
VD_RECOV_1_1B9D_
 70
     0
 40
0.0
 41
1.0
 50
0.0
 71
     0
 42
0.2
  3
ltypeshp.shx
  4

1001
ACAD
1000
ltypeshp.shx
1071
        0
  0
ENDTAB
  0
TABLE
  2
VIEW
  5
4535
330
0
100
AcDbSymbolTable
 70
     0
  0
ENDTAB
  0
TABLE
  2
UCS
  5
4536
330
0
100
AcDbSymbolTable
 70
     0
  0
ENDTAB
  0
TABLE
  2
APPID
  5
4538
330
0
100
AcDbSymbolTable
 70
     7
  0
APPID
  5
4541
330
4538
100
AcDbSymbolTableRecord
100
AcDbRegAppTableRecord
  2
ACAD
 70
     0
  0
APPID
  5
4559
330
4538
100
AcDbSymbolTableRecord
100
AcDbRegAppTableRecord
  2
VD_INVISIBLE_NOT_FOR_READ
 70
     0
  0
APPID
  5
455A
330
4538
100
AcDbSymbolTableRecord
100
AcDbRegAppTableRecord
  2
VD_TEMPHATCH
 70
     0
  0
APPID
  5
455B
330
4538
100
AcDbSymbolTableRecord
100
AcDbRegAppTableRecord
  2
VDEXTRAPARAM
 70
     0
  0
APPID
  5
455C
330
4538
100
AcDbSymbolTableRecord
100
AcDbRegAppTableRecord
  2
PE_URL
 70
     0
  0
APPID
  5
455D
330
4538
100
AcDbSymbolTableRecord
100
AcDbRegAppTableRecord
  2
VD_UNKNOWN
 70
     0
  0
APPID
  5
4582
330
4538
100
AcDbSymbolTableRecord
100
AcDbRegAppTableRecord
  2
CONTENTBLOCKICON
 70
     0
  0
ENDTAB
  0
TABLE
  2
DIMSTYLE
  5
4539
330
0
100
AcDbSymbolTable
 70
     4
  0
DIMSTYLE
105
4556
330
4539
100
AcDbSymbolTableRecord
100
AcDbDimStyleTableRecord
  2
STANDARD
 70
     0
  3

  4

  5
OPEN
  6

  7

 40
1.0
 41
15.0
 42
0.625
 43
0.38
 44
1.25
 45
0.0
 46
0.0
 47
0.0
 48
0.0
140
15.0
141
0.09
142
0.0
143
25.4
144
1.0
145
0.0
146
1.0
147
3.0
 71
     0
 72
     0
 73
     0
 74
     0
 75
     0
 76
     0
 77
     1
 78
     0
170
     0
171
     2
172
     1
173
     0
174
     1
175
     0
176
     0
177
     0
178
     0
270
     2
271
     0
272
     4
273
     2
274
     2
340
331
275
     0
280
     0
281
     0
282
     0
283
     1
284
     0
285
     0
286
     0
287
     3
288
     1
  0
DIMSTYLE
105
FE9
330
4539
100
AcDbSymbolTableRecord
100
AcDbDimStyleTableRecord
  2
ED20
 70
     0
  3

  4

  5
OPEN
  6

  7

 40
1.0
 41
20.0
 42
1.0
 43
0.38
 44
1.25
 45
0.0
 46
0.0
 47
0.0
 48
0.0
140
20.0
141
0.09
142
0.0
143
25.4
144
1.0
145
0.0
146
1.0
147
2.0
 71
     0
 72
     0
 73
     0
 74
     0
 75
     0
 76
     0
 77
     1
 78
     0
170
     0
171
     2
172
     1
173
     0
174
     1
175
     0
176
     0
177
    41
178
    41
270
     2
271
     0
272
     4
273
     2
274
     2
340
331
275
     0
280
     0
281
     0
282
     0
283
     1
284
     0
285
     0
286
     0
287
     3
288
     1
  0
DIMSTYLE
105
302B
330
4539
100
AcDbSymbolTableRecord
100
AcDbDimStyleTableRecord
  2
ED40
 70
     0
  3

  4

  5
OPEN
  6

  7

 40
1.0
 41
40.0
 42
1.0
 43
0.38
 44
1.25
 45
0.0
 46
0.0
 47
0.0
 48
0.0
140
40.0
141
0.09
142
0.0
143
25.4
144
1.0
145
0.0
146
1.0
147
2.0
 71
     0
 72
     0
 73
     0
 74
     0
 75
     0
 76
     0
 77
     1
 78
     0
170
     0
171
     2
172
     1
173
     0
174
     1
175
     0
176
     0
177
    41
178
    41
270
     2
271
     0
272
     4
273
     2
274
     2
340
F39
275
     0
280
     0
281
     0
282
     0
283
     1
284
     0
285
     0
286
     0
287
     3
288
     1
  0
DIMSTYLE
105
3042
102
{ACAD_REACTORS
330
3EFA
330
3F26
330
3F6B
330
41CF
330
41DC
102
}
330
4539
100
AcDbSymbolTableRecord
100
AcDbDimStyleTableRecord
  2
ED30
 70
     0
  3

  4

  5
OPEN
  6

  7

 40
1.0
 41
40.0
 42
1.0
 43
0.38
 44
1.25
 45
0.0
 46
0.0
 47
0.0
 48
0.0
140
40.0
141
0.09
142
0.0
143
25.4
144
1.0
145
0.0
146
1.0
147
2.0
 71
     0
 72
     0
 73
     0
 74
     0
 75
     0
 76
     0
 77
     1
 78
     0
170
     0
171
     2
172
     1
173
     0
174
     1
175
     0
176
     0
177
    41
178
    41
270
     2
271
     0
272
     4
273
     2
274
     2
340
F39
275
     0
280
     0
281
     0
282
     0
283
     1
284
     0
285
     0
286
     0
287
     3
288
     1
  0
ENDTAB
  0
TABLE
  2
BLOCK_RECORD
  5
4530
330
0
100
AcDbSymbolTable
 70
    11
  0
BLOCK_RECORD
  5
454E
330
4530
100
AcDbSymbolTableRecord
100
AcDbBlockTableRecord
  2
*MODEL_SPACE
  0
BLOCK_RECORD
  5
454A
330
4530
100
AcDbSymbolTableRecord
100
AcDbBlockTableRecord
  2
*PAPER_SPACE
  0
BLOCK_RECORD
  5
90
330
4530
100
AcDbSymbolTableRecord
100
AcDbBlockTableRecord
  2
_OPEN
  0
BLOCK_RECORD
  5
2DC7
330
4530
100
AcDbSymbolTableRecord
100
AcDbBlockTableRecord
  2
ASVORK
  0
BLOCK_RECORD
  5
2E4F
330
4530
100
AcDbSymbolTableRecord
100
AcDbBlockTableRecord
  2
ASVORKP
1001
CONTENTBLOCKICON
1071
        0
1004
2800000020000000200000000100040000000000000200000000000000000000000000000000000000000000000080000080000000808000800000008000800080800000C0C0C000808080000000FF0000FF000000FFFF00FF000000FF00FF00FFFF0000FFFFFF00FFFFFFFFFFFFFFFFFFFFFFFFFFFFFFFF
1004
FFFFFFFFFFFFFFFFFFFFFFFFFFFFFFFFFFFFFFFFFFFFFFFFFFFFFFFFFFFFFFFFFFFFFFFFFFFFFFFFFFFFFFFFFFFFFFFFFFFAAAAAAAAAAAAAAAAAAAAAAAAAAAFFFAAFFFFFFFFFFFFFFFFFFFFFFFFFFAAFAAAAFFFFFFFFFFFFFFFFFFFFFFFFAAAFAFAFFFFFFFFFFFFFFFFFFFFFFFFFFAFAAFFFFFFFFFFFFFFF
1004
FFFFFFFFFFFFFFFAAFFFFFFFFFFFFFFFFFFFFFFFFFFFFFFAAFFFFFFFFFFFFFFFFFFFFFFFFFFFFFFAAFFFFFFFFFFFFFFFFFFFFFFFFFFFFFFAAFFFFFFFFFFFFFFFFFFFFFFFFFFFFFFAAFFFFFFFFFFFFFFFFFFFFFFFFFFFFFFAAFFFFFFFFFFFFFFFFFFFFFFFFFFFFFFAAFFFFFFFFFFFFFFFFFFFFFFFFFFFFFFA
1004
AFFFFFFFFFFFFFFFFFFFFFFFFFFFFFFAAFFFFFFFFFFFFFFFFFFFFFFFFFFFFFFAAFFFFFFFFFFFFFFFFFFFFFFFFFFFFFFAAFFFFFFFFFFFFFFFFFFFFFFFFFFFFFFAAFFFFFFFFFFFFFFFFFFFFFFFFFFFFFFAAFFFFFFFFFFFFFFFFFFFFFFFFFFFFFFAAFFFFFFFFFFFFFFFFFFFFFFFFFFFFFFAAFFFFFFFFFFFFFFF
1004
FFFFFFFFFFFFFFFAAFFFFFFFFFFFFFFFFFFFFFFFFFFFFFFAFAAFFFFFFFFFFFFFFFFFFFFFFFFFFAAAFAAAFFFFFFFFFFFFFFFFFFFFFFFFAAAAFAAAAAAAAAAAAAAAAAAAAAAAAAAAAFAFFFFFFFFFFFFFFFFFFFFFFFFFFFFFFFFFFFFFFFFFFFFFFFFFFFFFFFFFFFFFFFFFFFFFFFFFFFFFFFFFFFFFFFFFFFFFFFFF
1004
FFFFFFFFFFFFFFFFFFFFFFFFFFFFFFFF
  0
BLOCK_RECORD
  5
452C
330
4530
100
AcDbSymbolTableRecord
100
AcDbBlockTableRecord
  2
VDDIM_DEFAULT
  0
BLOCK_RECORD
  5
452E
330
4530
100
AcDbSymbolTableRecord
100
AcDbBlockTableRecord
  2
VDDIM_NONE
  0
BLOCK_RECORD
  5
4584
330
4530
100
AcDbSymbolTableRecord
100
AcDbBlockTableRecord
  2
*D6
  0
BLOCK_RECORD
  5
4590
330
4530
100
AcDbSymbolTableRecord
100
AcDbBlockTableRecord
  2
*D7
  0
BLOCK_RECORD
  5
459D
330
4530
100
AcDbSymbolTableRecord
100
AcDbBlockTableRecord
  2
*D8
  0
BLOCK_RECORD
  5
45AA
330
4530
100
AcDbSymbolTableRecord
100
AcDbBlockTableRecord
  2
*D9
  0
BLOCK_RECORD
  5
45B6
330
4530
100
AcDbSymbolTableRecord
100
AcDbBlockTableRecord
  2
*D10
  0
ENDTAB
  0
ENDSEC
  0
SECTION
  2
BLOCKS
  0
BLOCK
  5
454F
330
454E
100
AcDbEntity
  8
0
100
AcDbBlockBegin
  2
*MODEL_SPACE
 70
     0
 71
     0
 10
0.0
 20
0.0
 30
0.0
  3
*MODEL_SPACE
  1

  0
ENDBLK
  5
4550
330
454E
100
AcDbEntity
  8
0
100
AcDbBlockEnd
  0
BLOCK
  5
454B
330
454A
100
AcDbEntity
 67
     1
  8
0
100
AcDbBlockBegin
  2
*PAPER_SPACE
 70
     0
 71
     0
 10
0.0
 20
0.0
 30
0.0
  3
*PAPER_SPACE
  1

  0
ENDBLK
  5
454C
330
454A
100
AcDbEntity
 67
     1
  8
0
100
AcDbBlockEnd
  0
BLOCK
  5
4578
330
90
100
AcDbEntity
  8
0
100
AcDbBlockBegin
  2
_OPEN
 70
     0
 71
     0
 10
0.0
 20
0.0
 30
0.0
  3
_OPEN
  1

  0
LINE
  5
92
330
90
100
AcDbEntity
  8
0
  6
BYBLOCK
 62
     0
100
AcDbLine
 10
-1.0
 20
0.166667
 30
0.0
 11
0.0
 21
0.0
 31
0.0
  0
LINE
  5
93
330
90
100
AcDbEntity
  8
0
  6
BYBLOCK
 62
     0
100
AcDbLine
 10
0.0
 20
0.0
 30
0.0
 11
-1.0
 21
-0.166667
 31
0.0
  0
LINE
  5
94
330
90
100
AcDbEntity
  8
0
  6
BYBLOCK
 62
     0
100
AcDbLine
 10
0.0
 20
0.0
 30
0.0
 11
-1.0
 21
0.0
 31
0.0
  0
ENDBLK
  5
4579
330
90
100
AcDbEntity
  8
0
100
AcDbBlockEnd
  0
BLOCK
  5
457A
330
2DC7
100
AcDbEntity
  8
0
100
AcDbBlockBegin
  2
ASVORK
 70
     0
 71
     0
 10
0.0
 20
0.0
 30
0.0
  3
ASVORK
  1

  0
LINE
  5
32D1
330
2DC7
100
AcDbEntity
  8
V0-OBRYS
  6
CONTINUOUS
 62
    90
100
AcDbLine
 10
0.0
 20
30.0
 30
0.0
 11
80.0
 21
30.0
 31
0.0
  0
LINE
  5
32D2
330
2DC7
100
AcDbEntity
  8
V0-OBRYS
  6
CONTINUOUS
 62
    90
100
AcDbLine
 10
80.0
 20
0.0
 30
0.0
 11
0.0
 21
0.0
 31
0.0
  0
LINE
  5
32D3
330
2DC7
100
AcDbEntity
  8
V0-OBRYS
  6
CONTINUOUS
 62
    90
100
AcDbLine
 10
0.0
 20
40.0
 30
0.0
 11
80.0
 21
40.0
 31
0.0
  0
LINE
  5
32D4
330
2DC7
100
AcDbEntity
  8
V0-OBRYS
  6
CONTINUOUS
 62
    90
100
AcDbLine
 10
0.0
 20
0.0
 30
0.0
 11
0.0
 21
40.0
 31
0.0
  0
LINE
  5
32D5
330
2DC7
100
AcDbEntity
  8
V0-OBRYS
  6
CONTINUOUS
 62
    90
100
AcDbLine
 10
80.0
 20
40.0
 30
0.0
 11
80.0
 21
0.0
 31
0.0
  0
ENDBLK
  5
457B
330
2DC7
100
AcDbEntity
  8
0
100
AcDbBlockEnd
  0
BLOCK
  5
457C
330
2E4F
100
AcDbEntity
  8
0
100
AcDbBlockBegin
  2
ASVORKP
 70
     0
 71
     0
 10
0.0
 20
0.0
 30
0.0
  3
ASVORKP
  1

  0
LINE
  5
334B
330
2E4F
100
AcDbEntity
  8
V0-OBRYS
  6
CONTINUOUS
 62
    90
100
AcDbLine
 10
75.0
 20
-30.0
 30
0.0
 11
5.0
 21
-30.0
 31
0.0
  0
LINE
  5
334C
330
2E4F
100
AcDbEntity
  8
V0-OBRYS
  6
CONTINUOUS
 62
    90
100
AcDbLine
 10
5.0
 20
30.0
 30
0.0
 11
75.0
 21
30.0
 31
0.0
  0
CIRCLE
  5
334D
330
2E4F
100
AcDbEntity
  8
V0-OBRYS
  6
CONTINUOUS
 62
    90
100
AcDbCircle
 10
4.669164
 20
-25.534884
 30
0.0
 40
2.347961
  0
CIRCLE
  5
334E
330
2E4F
100
AcDbEntity
  8
V0-OBRYS
  6
CONTINUOUS
 62
    90
100
AcDbCircle
 10
4.669164
 20
25.534884
 30
0.0
 40
2.347961
  0
ARC
  5
334F
330
2E4F
100
AcDbEntity
  8
V0-OBRYS
  6
CONTINUOUS
 62
    90
100
AcDbCircle
 10
5.0
 20
25.0
 30
0.0
 40
5.0
100
AcDbArc
 50
90.0
 51
180.0
  0
LINE
  5
3350
330
2E4F
100
AcDbEntity
  8
V0-OBRYS
  6
CONTINUOUS
 62
    90
100
AcDbLine
 10
0.0
 20
-25.0
 30
0.0
 11
0.0
 21
25.0
 31
0.0
  0
ARC
  5
3351
330
2E4F
100
AcDbEntity
  8
V0-OBRYS
  6
CONTINUOUS
 62
    90
100
AcDbCircle
 10
5.0
 20
-25.0
 30
0.0
 40
5.0
100
AcDbArc
 50
180.0
 51
270.0
  0
ARC
  5
3352
330
2E4F
100
AcDbEntity
  8
V0-OBRYS
  6
CONTINUOUS
 62
    90
100
AcDbCircle
 10
75.0
 20
25.0
 30
0.0
 40
5.0
100
AcDbArc
 50
0.0
 51
90.0
  0
LINE
  5
3353
330
2E4F
100
AcDbEntity
  8
V0-OBRYS
  6
CONTINUOUS
 62
    90
100
AcDbLine
 10
80.0
 20
25.0
 30
0.0
 11
80.0
 21
-25.0
 31
0.0
  0
ARC
  5
3354
330
2E4F
100
AcDbEntity
  8
V0-OBRYS
  6
CONTINUOUS
 62
    90
100
AcDbCircle
 10
75.0
 20
-25.0
 30
0.0
 40
5.0
100
AcDbArc
 50
270.0
 51
0.0
  0
CIRCLE
  5
3355
330
2E4F
100
AcDbEntity
  8
V0-OBRYS
  6
CONTINUOUS
 62
    90
100
AcDbCircle
 10
75.33083600000001
 20
-25.534884
 30
0.0
 40
2.347961
  0
CIRCLE
  5
3356
330
2E4F
100
AcDbEntity
  8
V0-OBRYS
  6
CONTINUOUS
 62
    90
100
AcDbCircle
 10
75.33083600000001
 20
25.534884
 30
0.0
 40
2.347961
  0
ENDBLK
  5
457D
330
2E4F
100
AcDbEntity
  8
0
100
AcDbBlockEnd
  0
BLOCK
  5
457E
330
452C
100
AcDbEntity
  8
0
100
AcDbBlockBegin
  2
VDDIM_DEFAULT
 70
     0
 71
     0
 10
0.0
 20
0.0
 30
0.0
  3
VDDIM_DEFAULT
  1

  0
LWPOLYLINE
  5
452D
330
452C
100
AcDbEntity
  8
0
  6
CONTINUOUS
 62
     0
100
AcDbPolyline
 90
        4
 70
     0
 43
0.0
 10
0.0
 20
0.0
 10
-1.0
 20
-0.1665
 10
-1.0
 20
0.1665
 10
0.0
 20
0.0
1001
VDEXTRAPARAM
1071
        1
1071
        0
1071
        0
1040
1.0
1000

1000

1040
0.0
1040
0.0
  0
HATCH
  5
4583
330
452C
100
AcDbEntity
  8
0
  6
CONTINUOUS
 62
     0
100
AcDbHatch
 10
0.0
 20
0.0
 30
0.0
210
0.0
220
0.0
230
1.0
  2
SOLID
 70
     1
 71
     0
 91
        1
 92
        2
 72
     0
 73
     1
 93
        3
 10
0.0
 20
0.0
 10
-1.0
 20
-0.1665
 10
-1.0
 20
0.1665
 97
        0
 75
     0
 76
     1
 98
        1
 10
0.0
 20
0.0
1001
VDEXTRAPARAM
1071
        1
1071
        0
1071
        0
1040
1.0
1000

1000

1040
0.0
1040
0.0
1001
VD_TEMPHATCH
1000
VD_TEMPHATCH
  0
ENDBLK
  5
457F
330
452C
100
AcDbEntity
  8
0
100
AcDbBlockEnd
  0
BLOCK
  5
4580
330
452E
100
AcDbEntity
  8
0
100
AcDbBlockBegin
  2
VDDIM_NONE
 70
     0
 71
     0
 10
0.0
 20
0.0
 30
0.0
  3
VDDIM_NONE
  1

  0
ENDBLK
  5
4581
330
452E
100
AcDbEntity
  8
0
100
AcDbBlockEnd
  0
BLOCK
  5
458E
330
4584
100
AcDbEntity
  8
0
100
AcDbBlockBegin
  2
*D6
 70
     1
 71
     0
 10
0.0
 20
0.0
 30
0.0
  3
*D6
  1

  0
LINE
  5
4585
330
4584
100
AcDbEntity
  8
V0-VYPLNE
 62
    41
100
AcDbLine
 10
4134.123149
 20
182.125478
 30
0.0
 11
4005.757877999917
 21
182.125478
 31
0.0
  0
LINE
  5
4586
330
4584
100
AcDbEntity
  8
V0-VYPLNE
 62
    41
100
AcDbLine
 10
4138.532589
 20
-377.873402
 30
0.0
 11
4005.757877999917
 21
-377.873402
 31
0.0
  0
LINE
  5
4587
330
4584
100
AcDbEntity
  8
V0-VYPLNE
 62
     0
100
AcDbLine
 10
4007.007877999917
 20
152.1254779999999
 30
0.0
 11
4007.007877999917
 21
-347.8734020000002
 31
0.0
  0
INSERT
  5
4588
330
4584
100
AcDbEntity
  8
V0-VYPLNE
 62
     0
100
AcDbBlockReference
  2
_OPEN
 10
4007.007877999917
 20
182.1254779999999
 30
0.0
 41
30.0
 42
30.0
 43
30.0
 50
89.99999999999996
  0
INSERT
  5
4589
330
4584
100
AcDbEntity
  8
V0-VYPLNE
 62
     0
100
AcDbBlockReference
  2
_OPEN
 10
4007.007877999917
 20
-377.8734020000002
 30
0.0
 41
30.0
 42
30.0
 43
30.0
 50
269.9999999999999
  0
MTEXT
  5
458A
330
4584
100
AcDbEntity
  8
V0-VYPLNE
 62
    41
100
AcDbMText
 10
3990.007877999917
 20
-97.87396200000001
 30
0.0
 40
30.0
 41
0.0
 71
     5
 72
     1
  1
\A1;560
  7
ED40
 11
0.0
 21
1.0
 31
0.0
  0
POINT
  5
458B
330
4584
100
AcDbEntity
  8
DEFPOINTS
 62
     0
100
AcDbPoint
 10
4135.123149
 20
182.125478
 30
0.0
  0
POINT
  5
458C
330
4584
100
AcDbEntity
  8
DEFPOINTS
 62
     0
100
AcDbPoint
 10
4139.532589
 20
-377.873402
 30
0.0
  0
POINT
  5
458D
330
4584
100
AcDbEntity
  8
DEFPOINTS
 62
     0
100
AcDbPoint
 10
4007.007877999917
 20
-377.873402
 30
0.0
  0
ENDBLK
  5
458F
330
4584
100
AcDbEntity
  8
0
100
AcDbBlockEnd
  0
BLOCK
  5
459B
330
4590
100
AcDbEntity
  8
0
100
AcDbBlockBegin
  2
*D7
 70
     1
 71
     0
 10
0.0
 20
0.0
 30
0.0
  3
*D7
  1

  0
LINE
  5
4591
330
4590
100
AcDbEntity
  8
V0-VYPLNE
 62
    41
100
AcDbLine
 10
4135.123149
 20
-425.845682
 30
0.0
 11
4135.123149
 21
-507.2812370001338
 31
0.0
  0
LINE
  5
4592
330
4590
100
AcDbEntity
  8
V0-VYPLNE
 62
    41
100
AcDbLine
 10
4374.689549
 20
-425.845682
 30
0.0
 11
4374.689549
 21
-507.2812370001338
 31
0.0
  0
LINE
  5
4593
330
4590
100
AcDbEntity
  8
V0-VYPLNE
 62
     0
100
AcDbLine
 10
4165.123149
 20
-506.0312370001338
 30
0.0
 11
4204.183381428572
 21
-506.0312370001338
 31
0.0
  0
LINE
  5
4594
330
4590
100
AcDbEntity
  8
V0-VYPLNE
 62
     0
100
AcDbLine
 10
4344.689549
 20
-506.0312370001338
 30
0.0
 11
4285.326238571429
 21
-506.0312370001338
 31
0.0
  0
INSERT
  5
4595
330
4590
100
AcDbEntity
  8
V0-VYPLNE
 62
     0
100
AcDbBlockReference
  2
_OPEN
 10
4135.123149
 20
-506.0312370001338
 30
0.0
 41
30.0
 42
30.0
 43
30.0
 50
180.0
  0
INSERT
  5
4596
330
4590
100
AcDbEntity
  8
V0-VYPLNE
 62
     0
100
AcDbBlockReference
  2
_OPEN
 10
4374.689549
 20
-506.0312370001338
 30
0.0
 41
30.0
 42
30.0
 43
30.0
  0
MTEXT
  5
4597
330
4590
100
AcDbEntity
  8
V0-VYPLNE
 62
    41
100
AcDbMText
 10
4244.75481
 20
-506.031237
 30
0.0
 40
30.0
 41
0.0
 71
     5
 72
     1
  1
\A1;240
  7
ED40
  0
POINT
  5
4598
330
4590
100
AcDbEntity
  8
DEFPOINTS
 62
     0
100
AcDbPoint
 10
4135.123149
 20
-424.845682
 30
0.0
  0
POINT
  5
4599
330
4590
100
AcDbEntity
  8
DEFPOINTS
 62
     0
100
AcDbPoint
 10
4374.689549
 20
-424.845682
 30
0.0
  0
POINT
  5
459A
330
4590
100
AcDbEntity
  8
DEFPOINTS
 62
     0
100
AcDbPoint
 10
4374.689549
 20
-506.0312370001338
 30
0.0
  0
ENDBLK
  5
459C
330
4590
100
AcDbEntity
  8
0
100
AcDbBlockEnd
  0
BLOCK
  5
45A8
330
459D
100
AcDbEntity
  8
0
100
AcDbBlockBegin
  2
*D8
 70
     1
 71
     0
 10
0.0
 20
0.0
 30
0.0
  3
*D8
  1

  0
LINE
  5
459E
330
459D
100
AcDbEntity
  8
V0-VYPLNE
 62
    41
100
AcDbLine
 10
4196.481109
 20
-7.893762
 30
0.0
 11
4069.307912999997
 21
-7.893762000000038
 31
0.0
  0
LINE
  5
459F
330
459D
100
AcDbEntity
  8
V0-VYPLNE
 62
    41
100
AcDbLine
 10
4196.481109
 20
-187.854162
 30
0.0
 11
4069.307912999997
 21
-187.854162
 31
0.0
  0
LINE
  5
45A0
330
459D
100
AcDbEntity
  8
V0-VYPLNE
 62
     0
100
AcDbLine
 10
4070.557912999997
 20
-37.8937619999997
 30
0.0
 11
4070.557912999997
 21
-46.12109999999977
 31
0.0
  0
LINE
  5
45A1
330
459D
100
AcDbEntity
  8
V0-VYPLNE
 62
     0
100
AcDbLine
 10
4070.557912999997
 20
-157.8541619999996
 30
0.0
 11
4070.557912999997
 21
-150.1211000000002
 31
0.0
  0
INSERT
  5
45A2
330
459D
100
AcDbEntity
  8
V0-VYPLNE
 62
     0
100
AcDbBlockReference
  2
_OPEN
 10
4070.557912999997
 20
-7.893761999999697
 30
0.0
 41
30.0
 42
30.0
 43
30.0
 50
90.0
  0
INSERT
  5
45A3
330
459D
100
AcDbEntity
  8
V0-VYPLNE
 62
     0
100
AcDbBlockReference
  2
_OPEN
 10
4070.557912999997
 20
-187.8541619999996
 30
0.0
 41
30.0
 42
30.0
 43
30.0
 50
270.0
  0
MTEXT
  5
45A4
330
459D
100
AcDbEntity
  8
V0-VYPLNE
 62
    41
100
AcDbMText
 10
4070.557913
 20
-98.1211
 30
0.0
 40
30.0
 41
0.0
 71
     5
 72
     1
  1
%%c\A1;180
  7
ED40
 11
0.0
 21
1.0
 31
0.0
  0
POINT
  5
45A5
330
459D
100
AcDbEntity
  8
DEFPOINTS
 62
     0
100
AcDbPoint
 10
4197.481109
 20
-7.893762
 30
0.0
  0
POINT
  5
45A6
330
459D
100
AcDbEntity
  8
DEFPOINTS
 62
     0
100
AcDbPoint
 10
4197.481109
 20
-187.854162
 30
0.0
  0
POINT
  5
45A7
330
459D
100
AcDbEntity
  8
DEFPOINTS
 62
     0
100
AcDbPoint
 10
4070.557912999997
 20
-187.854162
 30
0.0
  0
ENDBLK
  5
45A9
330
459D
100
AcDbEntity
  8
0
100
AcDbBlockEnd
  0
BLOCK
  5
45B4
330
45AA
100
AcDbEntity
  8
0
100
AcDbBlockBegin
  2
*D9
 70
     1
 71
     0
 10
0.0
 20
0.0
 30
0.0
  3
*D9
  1

  0
LINE
  5
45AB
330
45AA
100
AcDbEntity
  8
V0-VYPLNE
 62
    41
100
AcDbLine
 10
4375.689549
 20
229.097758
 30
0.0
 11
4569.860838999972
 21
229.0977580000001
 31
0.0
  0
LINE
  5
45AC
330
45AA
100
AcDbEntity
  8
V0-VYPLNE
 62
    41
100
AcDbLine
 10
4375.689549
 20
-425.845682
 30
0.0
 11
4569.860838999972
 21
-425.845682
 31
0.0
  0
LINE
  5
45AD
330
45AA
100
AcDbEntity
  8
V0-VYPLNE
 62
     0
100
AcDbLine
 10
4568.610838999972
 20
199.0977580000008
 30
0.0
 11
4568.610838999972
 21
-395.8456820000001
 31
0.0
  0
INSERT
  5
45AE
330
45AA
100
AcDbEntity
  8
V0-VYPLNE
 62
     0
100
AcDbBlockReference
  2
_OPEN
 10
4568.610838999972
 20
229.0977580000008
 30
0.0
 41
30.0
 42
30.0
 43
30.0
 50
90.0
  0
INSERT
  5
45AF
330
45AA
100
AcDbEntity
  8
V0-VYPLNE
 62
     0
100
AcDbBlockReference
  2
_OPEN
 10
4568.610838999972
 20
-425.8456820000001
 30
0.0
 41
30.0
 42
30.0
 43
30.0
 50
270.0
  0
MTEXT
  5
45B0
330
45AA
100
AcDbEntity
  8
V0-VYPLNE
 62
    41
100
AcDbMText
 10
4551.610838999972
 20
-98.37396199999995
 30
0.0
 40
30.0
 41
0.0
 71
     5
 72
     1
  1
\A1;655
  7
ED40
 11
0.0
 21
1.0
 31
0.0
  0
POINT
  5
45B1
330
45AA
100
AcDbEntity
  8
DEFPOINTS
 62
     0
100
AcDbPoint
 10
4374.689549
 20
229.097758
 30
0.0
  0
POINT
  5
45B2
330
45AA
100
AcDbEntity
  8
DEFPOINTS
 62
     0
100
AcDbPoint
 10
4374.689549
 20
-425.845682
 30
0.0
  0
POINT
  5
45B3
330
45AA
100
AcDbEntity
  8
DEFPOINTS
 62
     0
100
AcDbPoint
 10
4568.610838999972
 20
-425.845682
 30
0.0
  0
ENDBLK
  5
45B5
330
45AA
100
AcDbEntity
  8
0
100
AcDbBlockEnd
  0
BLOCK
  5
45C0
330
45B6
100
AcDbEntity
  8
0
100
AcDbBlockBegin
  2
*D10
 70
     1
 71
     0
 10
0.0
 20
0.0
 30
0.0
  3
*D10
  1

  0
LINE
  5
45B7
330
45B6
100
AcDbEntity
  8
V0-VYPLNE
 62
    41
100
AcDbLine
 10
4400.979065
 20
212.015158
 30
0.0
 11
4491.934483999852
 21
212.015158
 31
0.0
  0
LINE
  5
45B8
330
45B6
100
AcDbEntity
  8
V0-VYPLNE
 62
    41
100
AcDbLine
 10
4400.979065
 20
-407.763082
 30
0.0
 11
4491.934483999852
 21
-407.763082
 31
0.0
  0
LINE
  5
45B9
330
45B6
100
AcDbEntity
  8
V0-VYPLNE
 62
     0
100
AcDbLine
 10
4490.684483999852
 20
182.0151580000002
 30
0.0
 11
4490.684483999852
 21
-377.7630819999995
 31
0.0
  0
INSERT
  5
45BA
330
45B6
100
AcDbEntity
  8
V0-VYPLNE
 62
     0
100
AcDbBlockReference
  2
_OPEN
 10
4490.684483999852
 20
212.0151580000002
 30
0.0
 41
30.0
 42
30.0
 43
30.0
 50
90.0
  0
INSERT
  5
45BB
330
45B6
100
AcDbEntity
  8
V0-VYPLNE
 62
     0
100
AcDbBlockReference
  2
_OPEN
 10
4490.684483999852
 20
-407.7630819999995
 30
0.0
 41
30.0
 42
30.0
 43
30.0
 50
270.0
  0
MTEXT
  5
45BC
330
45B6
100
AcDbEntity
  8
V0-VYPLNE
 62
    41
100
AcDbMText
 10
4473.684483999852
 20
-97.87396200000001
 30
0.0
 40
30.0
 41
0.0
 71
     5
 72
     1
  1
\A1;620
  7
ED40
 11
0.0
 21
1.0
 31
0.0
  0
POINT
  5
45BD
330
45B6
100
AcDbEntity
  8
DEFPOINTS
 62
     0
100
AcDbPoint
 10
4399.979065
 20
212.015158
 30
0.0
  0
POINT
  5
45BE
330
45B6
100
AcDbEntity
  8
DEFPOINTS
 62
     0
100
AcDbPoint
 10
4399.979065
 20
-407.763082
 30
0.0
  0
POINT
  5
45BF
330
45B6
100
AcDbEntity
  8
DEFPOINTS
 62
     0
100
AcDbPoint
 10
4490.684483999852
 20
-407.763082
 30
0.0
  0
ENDBLK
  5
45C1
330
45B6
100
AcDbEntity
  8
0
100
AcDbBlockEnd
  0
ENDSEC
  0
SECTION
  2
ENTITIES
  0
TEXT
  5
1347
330
454E
100
AcDbEntity
  8
V0-VYPLNE
 62
     6
100
AcDbText
 10
4867.312653
 20
-882.006948
 30
0.0
 40
60.0
  1
TCB-560
  7
ED40
100
AcDbText
  0
TEXT
  5
1348
330
454E
100
AcDbEntity
  8
V0-VYPLNE
  6
CONTINUOUS
 62
    51
100
AcDbText
 10
4746.476344
 20
-965.505692
 30
0.0
 40
45.0
  1
AXIALNI VENTILATOR
  7
ED30
100
AcDbText
  0
TEXT
  5
2455
330
454E
100
AcDbEntity
  8
V0-VYPLNE
  6
CONTINUOUS
 62
    51
100
AcDbText
 10
4871.693114
 20
-1039.429182
 30
0.0
 40
45.0
  1
DO POTRUBI
  7
ED30
100
AcDbText
  0
LINE
  5
3EF3
330
454E
100
AcDbEntity
  8
V0-OBRYS
  6
CONTINUOUS
 62
    90
100
AcDbLine
 10
4370.280109
 20
-377.873402
 30
0.0
 11
4370.280109
 21
229.0977580000001
 31
0.0
  0
LINE
  5
3EF4
330
454E
100
AcDbEntity
  8
V0-OBRYS
  6
CONTINUOUS
 62
    90
100
AcDbLine
 10
4139.532589
 20
-377.873402
 30
0.0
 11
4139.532589
 21
229.0977580000001
 31
0.0
  0
LINE
  5
3EF5
330
454E
100
AcDbEntity
  8
V0-OBRYS
  6
CONTINUOUS
 62
    90
100
AcDbLine
 10
4135.123149
 20
-97.87396200000001
 30
0.0
 11
4135.123149
 21
229.097758
 31
0.0
  0
LINE
  5
3EF6
330
454E
100
AcDbEntity
  8
V0-OBRYS
  6
CONTINUOUS
 62
    90
100
AcDbLine
 10
4374.689549
 20
-97.87396200000001
 30
0.0
 11
4374.689549
 21
229.097758
 31
0.0
  0
LINE
  5
3EF7
330
454E
100
AcDbEntity
  8
V0-OBRYS
  6
CONTINUOUS
 62
    90
100
AcDbLine
 10
4370.280109
 20
182.125478
 30
0.0
 11
4139.532589
 21
182.125478
 31
0.0
  0
LINE
  5
3EF8
330
454E
100
AcDbEntity
  8
V0-VYPLNE
  6
DASHDOT
 62
    63
 48
2.0
100
AcDbLine
 10
4429.783843
 20
-97.87396200000001
 30
0.0
 11
4099.175206
 21
-97.87396200000001
 31
0.0
  0
LINE
  5
3EF9
330
454E
100
AcDbEntity
  8
V0-OBRYS
  6
CONTINUOUS
 62
    90
100
AcDbLine
 10
4370.280109
 20
-377.873402
 30
0.0
 11
4139.532589
 21
-377.873402
 31
0.0
  0
DIMENSION
  5
3EFA
330
454E
100
AcDbEntity
  8
V0-VYPLNE
  6
CONTINUOUS
 62
    41
100
AcDbDimension
  2
*D6
 10
4007.007877999917
 20
-377.873402
 30
0.0
 11
3990.007877999917
 21
-97.87396200000001
 31
0.0
 70
    32
  3
ED30
100
AcDbAlignedDimension
 13
4135.123149
 23
182.125478
 33
0.0
 14
4139.532589
 24
-377.873402
 34
0.0
 50
90.0
100
AcDbRotatedDimension
1001
ACAD
1000
DSTYLE
1002
{
1070
    41
1040
30.0
1070
   140
1040
30.0
1002
}
  0
LINE
  5
3EFB
330
454E
100
AcDbEntity
  8
V0-OBRYS
  6
CONTINUOUS
 62
    90
100
AcDbLine
 10
4135.123149
 20
-97.87396200000001
 30
0.0
 11
4135.123149
 21
-424.845682
 31
0.0
  0
LINE
  5
3EFC
330
454E
100
AcDbEntity
  8
V0-OBRYS
  6
CONTINUOUS
 62
    90
100
AcDbLine
 10
4139.532589
 20
-377.873402
 30
0.0
 11
4139.532589
 21
-424.845682
 31
0.0
  0
LINE
  5
3EFD
330
454E
100
AcDbEntity
  8
V0-VYPLNE
  6
DASHDOT
 62
    63
 48
2.0
100
AcDbLine
 10
4113.075949
 20
-407.763082
 30
0.0
 11
4176.231908
 21
-407.763082
 31
0.0
  0
LINE
  5
3EFE
330
454E
100
AcDbEntity
  8
V0-OBRYS
  6
CONTINUOUS
 62
    90
100
AcDbLine
 10
4374.689549
 20
-97.87396200000001
 30
0.0
 11
4374.689549
 21
-424.845682
 31
0.0
  0
LINE
  5
3EFF
330
454E
100
AcDbEntity
  8
V0-OBRYS
  6
CONTINUOUS
 62
    90
100
AcDbLine
 10
4370.280109
 20
-377.873402
 30
0.0
 11
4370.280109
 21
-424.845682
 31
0.0
  0
LINE
  5
3F00
330
454E
100
AcDbEntity
  8
V0-VYPLNE
  6
DASHDOT
 62
    63
 48
2.0
100
AcDbLine
 10
4349.508623
 20
-407.763082
 30
0.0
 11
4399.979065
 21
-407.763082
 31
0.0
  0
LINE
  5
3F01
330
454E
100
AcDbEntity
  8
V0-VYPLNE
  6
DASHDOT
 62
    63
 48
2.0
100
AcDbLine
 10
4113.075949
 20
212.015158
 30
0.0
 11
4176.231908
 21
212.015158
 31
0.0
  0
LINE
  5
3F02
330
454E
100
AcDbEntity
  8
V0-VYPLNE
  6
DASHDOT
 62
    63
 48
2.0
100
AcDbLine
 10
4349.508623
 20
212.015158
 30
0.0
 11
4399.979065
 21
212.015158
 31
0.0
  0
DIMENSION
  5
3F26
330
454E
100
AcDbEntity
  8
V0-VYPLNE
  6
CONTINUOUS
 62
    41
100
AcDbDimension
  2
*D7
 10
4374.689549
 20
-506.0312370001338
 30
0.0
 11
4244.75481
 21
-506.031237
 31
0.0
 70
   160
  3
ED30
100
AcDbAlignedDimension
 13
4135.123149
 23
-424.845682
 33
0.0
 14
4374.689549
 24
-424.845682
 34
0.0
100
AcDbRotatedDimension
1001
ACAD
1000
DSTYLE
1002
{
1070
    41
1040
30.0
1070
   140
1040
30.0
1002
}
  0
LINE
  5
3F33
330
454E
100
AcDbEntity
  8
V0-VYPLNE
  6
DASHED
 62
    52
 48
2.0
100
AcDbLine
 10
4354.738594
 20
38.882475
 30
0.0
 11
4334.571809
 21
178.192797
 31
0.0
  0
LINE
  5
3F34
330
454E
100
AcDbEntity
  8
V0-VYPLNE
  6
DASHED
 62
    52
 48
2.0
100
AcDbLine
 10
4264.640185
 20
38.882475
 30
0.0
 11
4284.80697
 21
178.192797
 31
0.0
  0
LINE
  5
3F35
330
454E
100
AcDbEntity
  8
V0-VYPLNE
  6
DASHED
 62
    52
 48
2.0
100
AcDbLine
 10
4354.738594
 20
-232.429476
 30
0.0
 11
4334.571809
 21
-371.739799
 31
0.0
  0
LINE
  5
3F36
330
454E
100
AcDbEntity
  8
V0-VYPLNE
  6
DASHED
 62
    52
 48
2.0
100
AcDbLine
 10
4264.640185
 20
-232.429476
 30
0.0
 11
4284.80697
 21
-371.739799
 31
0.0
  0
LINE
  5
3F37
330
454E
100
AcDbEntity
  8
V0-VYPLNE
  6
DASHED
 62
    52
 48
2.0
100
AcDbLine
 10
4284.80697
 20
-371.739799
 30
0.0
 11
4334.571809
 21
-371.739799
 31
0.0
  0
LINE
  5
3F38
330
454E
100
AcDbEntity
  8
V0-VYPLNE
  6
DASHED
 62
    52
 48
2.0
100
AcDbLine
 10
4264.68939
 20
-96.773501
 30
0.0
 11
4264.68939
 21
-222.173501
 31
0.0
  0
ELLIPSE
  5
3F39
330
454E
100
AcDbEntity
  8
V0-VYPLNE
  6
DASHED
 62
    52
 48
2.0
100
AcDbEllipse
 10
3026.279634
 20
-82.39188300000001
 30
0.0
 11
4.547473508864641E-13
 21
1467.921183407595
 31
0.0
210
0.0
220
0.0
230
-1.0
 40
0.909091
 41
1.580593751677049
 42
1.660762687017188
  0
LINE
  5
3F3A
330
454E
100
AcDbEntity
  8
V0-VYPLNE
  6
DASHED
 62
    52
 48
2.0
100
AcDbLine
 10
4309.68939
 20
-228.460278
 30
0.0
 11
4309.68939
 21
-96.77350099999998
 31
0.0
  0
LINE
  5
3F3B
330
454E
100
AcDbEntity
  8
V0-VYPLNE
  6
DASHED
 62
    52
 48
2.0
100
AcDbLine
 10
4265.48339
 20
-111.831109
 30
0.0
 11
4358.119442
 21
-81.199315
 31
0.0
  0
ELLIPSE
  5
3F3C
330
454E
100
AcDbEntity
  8
V0-VYPLNE
  6
DASHED
 62
    52
 48
2.0
100
AcDbEllipse
 10
4309.68939
 20
-30.443596
 30
0.0
 11
2.728484105318785E-12
 21
198.0166821620388
 31
0.0
210
0.0
220
0.0
230
-1.0
 40
0.909091
 41
2.929991421004501
 42
3.394251156505873
  0
LINE
  5
3F3D
330
454E
100
AcDbEntity
  8
V0-VYPLNE
  6
DASHED
 62
    52
 48
2.0
100
AcDbLine
 10
4272.322771
 20
-223.986426
 30
0.0
 11
4264.640185
 21
-232.429476
 31
0.0
  0
ELLIPSE
  5
3F3E
330
454E
100
AcDbEntity
  8
V0-VYPLNE
  6
DASHED
 62
    52
 48
2.0
100
AcDbEllipse
 10
4345.396942
 20
-213.289033
 30
0.0
 11
2.728484105318785E-12
 21
11.0
 31
0.0
210
0.0
220
0.0
230
-1.0
 40
0.909091
 41
1.660762687017187
 42
2.929991421004503
  0
LINE
  5
3F3F
330
454E
100
AcDbEntity
  8
V0-VYPLNE
  6
DASHED
 62
    52
 48
2.0
100
AcDbLine
 10
4347.056008
 20
-223.986426
 30
0.0
 11
4354.738594
 21
-232.429476
 31
0.0
  0
ELLIPSE
  5
3F40
330
454E
100
AcDbEntity
  8
V0-VYPLNE
  6
DASHED
 62
    52
 48
2.0
100
AcDbEllipse
 10
4309.68939
 20
-163.103405
 30
0.0
 11
2.728484105318785E-12
 21
198.0166821620388
 31
0.0
210
0.0
220
0.0
230
-1.0
 40
0.9090909999999999
 41
-0.2526585029160832
 42
0.2116012325852755
  0
LINE
  5
3F41
330
454E
100
AcDbEntity
  8
V0-VYPLNE
  6
DASHED
 62
    52
 48
2.0
100
AcDbLine
 10
4309.68939
 20
34.913277
 30
0.0
 11
4309.68939
 21
-96.77350100000001
 31
0.0
  0
LINE
  5
3F42
330
454E
100
AcDbEntity
  8
V0-VYPLNE
  6
DASHED
 62
    52
 48
2.0
100
AcDbLine
 10
4264.68939
 20
-96.773501
 30
0.0
 11
4264.68939
 21
28.626499
 31
0.0
  0
ELLIPSE
  5
3F43
330
454E
100
AcDbEntity
  8
V0-VYPLNE
  6
DASHED
 62
    52
 48
2.0
100
AcDbEllipse
 10
4309.68939
 20
-97.21359200000001
 30
0.0
 11
-3.637978807091713E-12
 21
9.322743924309307
 31
0.0
210
0.0
220
0.0
230
-1.0
 40
0.9090910000000001
 41
0.0
 42
6.283185307179586
  0
LINE
  5
3F44
330
454E
100
AcDbEntity
  8
V0-VYPLNE
  6
DASHED
 62
    52
 48
2.0
100
AcDbLine
 10
4272.322771
 20
30.439425
 30
0.0
 11
4264.640185
 21
38.882475
 31
0.0
  0
ELLIPSE
  5
3F45
330
454E
100
AcDbEntity
  8
V0-VYPLNE
  6
DASHED
 62
    52
 48
2.0
100
AcDbEllipse
 10
3026.279634
 20
-111.155118
 30
0.0
 11
4.547473508864641E-13
 21
1467.921183407595
 31
0.0
210
0.0
220
0.0
230
-1.0
 40
0.909091
 41
1.480829966572604
 42
1.560998901912743
  0
LINE
  5
3F46
330
454E
100
AcDbEntity
  8
V0-VYPLNE
  6
DASHED
 62
    52
 48
2.0
100
AcDbLine
 10
4347.056008
 20
30.439425
 30
0.0
 11
4354.738594
 21
38.882475
 31
0.0
  0
LINE
  5
3F47
330
454E
100
AcDbEntity
  8
V0-VYPLNE
  6
DASHED
 62
    52
 48
2.0
100
AcDbLine
 10
4284.80697
 20
178.192797
 30
0.0
 11
4334.571809
 21
178.192797
 31
0.0
  0
LINE
  5
3F61
330
454E
100
AcDbEntity
  8
V0-VYPLNE
  6
DASHED
 62
    52
 48
2.0
100
AcDbLine
 10
4197.228861
 20
-13.408462
 30
0.0
 11
4167.667521
 21
-35.369696
 31
0.0
  0
LINE
  5
3F62
330
454E
100
AcDbEntity
  8
V0-VYPLNE
  6
DASHED
 62
    52
 48
2.0
100
AcDbLine
 10
4196.470875
 20
-29.311427
 30
0.0
 11
4168.425501
 21
-44.457106
 31
0.0
  0
LINE
  5
3F63
330
454E
100
AcDbEntity
  8
V0-VYPLNE
  6
DASHED
 62
    52
 48
2.0
100
AcDbLine
 10
4196.470875
 20
-66.418341
 30
0.0
 11
4167.667521
 21
-69.447478
 31
0.0
  0
LINE
  5
3F64
330
454E
100
AcDbEntity
  8
V0-VYPLNE
  6
DASHED
 62
    52
 48
2.0
100
AcDbLine
 10
4196.470875
 20
-84.59315700000001
 30
0.0
 11
4167.667521
 21
-85.350441
 31
0.0
  0
LINE
  5
3F65
330
454E
100
AcDbEntity
  8
V0-VYPLNE
  6
DASHED
 62
    52
 48
2.0
100
AcDbLine
 10
4197.228861
 20
-48.243527
 30
0.0
 11
4166.909535
 21
-55.059083
 31
0.0
  0
LINE
  5
3F66
330
454E
100
AcDbEntity
  8
V0-VYPLNE
  6
DASHED
 62
    52
 48
2.0
100
AcDbLine
 10
4197.228861
 20
-147.504397
 30
0.0
 11
4166.909535
 21
-140.688842
 31
0.0
  0
LINE
  5
3F67
330
454E
100
AcDbEntity
  8
V0-VYPLNE
  6
DASHED
 62
    52
 48
2.0
100
AcDbLine
 10
4196.470875
 20
-111.154768
 30
0.0
 11
4167.667521
 21
-110.397484
 31
0.0
  0
LINE
  5
3F68
330
454E
100
AcDbEntity
  8
V0-VYPLNE
  6
DASHED
 62
    52
 48
2.0
100
AcDbLine
 10
4196.470875
 20
-129.329584
 30
0.0
 11
4167.667521
 21
-126.300447
 31
0.0
  0
LINE
  5
3F69
330
454E
100
AcDbEntity
  8
V0-VYPLNE
  6
DASHED
 62
    52
 48
2.0
100
AcDbLine
 10
4196.470875
 20
-166.436497
 30
0.0
 11
4168.425501
 21
-151.290819
 31
0.0
  0
LINE
  5
3F6A
330
454E
100
AcDbEntity
  8
V0-VYPLNE
  6
DASHED
 62
    52
 48
2.0
100
AcDbLine
 10
4197.228861
 20
-182.339463
 30
0.0
 11
4167.667521
 21
-160.378229
 31
0.0
  0
DIMENSION
  5
3F6B
330
454E
100
AcDbEntity
  8
V0-VYPLNE
  6
CONTINUOUS
 62
    41
100
AcDbDimension
  2
*D8
 10
4070.557912999997
 20
-187.854162
 30
0.0
 11
4070.557913
 21
-98.1211
 31
0.0
 70
   160
  1
%%c<>
  3
ED30
100
AcDbAlignedDimension
 13
4197.481109
 23
-7.893762
 33
0.0
 14
4197.481109
 24
-187.854162
 34
0.0
 50
90.0
100
AcDbRotatedDimension
1001
ACAD
1000
DSTYLE
1002
{
1070
    41
1040
30.0
1070
   140
1040
30.0
1002
}
  0
LINE
  5
3F6C
330
454E
100
AcDbEntity
  8
V0-VYPLNE
  6
DASHED
 62
    52
 48
2.0
100
AcDbLine
 10
4167.487709
 20
-97.87396200000001
 30
0.0
 11
4167.487709
 21
-172.068162
 31
0.0
  0
ARC
  5
3F6D
330
454E
100
AcDbEntity
  8
V0-VYPLNE
  6
DASHED
 62
    52
 48
2.0
100
AcDbCircle
 10
4183.273709
 20
-172.068162
 30
0.0
 40
15.786
100
AcDbArc
 50
180.0
 51
270.0
  0
LINE
  5
3F6E
330
454E
100
AcDbEntity
  8
V0-VYPLNE
  6
DASHED
 62
    52
 48
2.0
100
AcDbLine
 10
4167.487709
 20
-97.87396200000001
 30
0.0
 11
4167.487709
 21
-23.679762
 31
0.0
  0
ARC
  5
3F6F
330
454E
100
AcDbEntity
  8
V0-VYPLNE
  6
DASHED
 62
    52
 48
2.0
100
AcDbCircle
 10
4183.273709
 20
-23.679762
 30
0.0
 40
15.786
100
AcDbArc
 50
90.0
 51
180.0
  0
LINE
  5
3F70
330
454E
100
AcDbEntity
  8
V0-VYPLNE
  6
DASHED
 62
    52
 48
2.0
100
AcDbLine
 10
4264.689353
 20
-179.961162
 30
0.0
 11
4264.689353
 21
-97.87396200000001
 31
0.0
  0
LINE
  5
3F71
330
454E
100
AcDbEntity
  8
V0-VYPLNE
  6
DASHED
 62
    52
 48
2.0
100
AcDbLine
 10
4197.481109
 20
-97.87396200000001
 30
0.0
 11
4197.481109
 21
-187.854162
 31
0.0
  0
LINE
  5
3F72
330
454E
100
AcDbEntity
  8
V0-VYPLNE
  6
DASHED
 62
    52
 48
2.0
100
AcDbLine
 10
4197.481109
 20
-111.154768
 30
0.0
 11
4263.931373
 21
-111.154768
 31
0.0
  0
LINE
  5
3F73
330
454E
100
AcDbEntity
  8
V0-VYPLNE
  6
DASHED
 62
    52
 48
2.0
100
AcDbLine
 10
4197.481109
 20
-129.329584
 30
0.0
 11
4264.689353
 21
-129.329584
 31
0.0
  0
LINE
  5
3F74
330
454E
100
AcDbEntity
  8
V0-VYPLNE
  6
DASHED
 62
    52
 48
2.0
100
AcDbLine
 10
4197.481109
 20
-147.504397
 30
0.0
 11
4263.931373
 21
-147.504397
 31
0.0
  0
LINE
  5
3F75
330
454E
100
AcDbEntity
  8
V0-VYPLNE
  6
DASHED
 62
    52
 48
2.0
100
AcDbLine
 10
4197.481109
 20
-166.436497
 30
0.0
 11
4264.689353
 21
-166.436497
 31
0.0
  0
LINE
  5
3F76
330
454E
100
AcDbEntity
  8
V0-VYPLNE
  6
DASHED
 62
    52
 48
2.0
100
AcDbLine
 10
4183.273709
 20
-187.854162
 30
0.0
 11
4256.796353
 21
-187.854162
 31
0.0
  0
LINE
  5
3F77
330
454E
100
AcDbEntity
  8
V0-VYPLNE
  6
DASHED
 62
    52
 48
2.0
100
AcDbLine
 10
4197.481109
 20
-182.339463
 30
0.0
 11
4264.689353
 21
-182.339463
 31
0.0
  0
LINE
  5
3F78
330
454E
100
AcDbEntity
  8
V0-VYPLNE
  6
DASHED
 62
    52
 48
2.0
100
AcDbLine
 10
4196.470875
 20
-129.329584
 30
0.0
 11
4201.018774
 21
-129.329584
 31
0.0
  0
ARC
  5
3F79
330
454E
100
AcDbEntity
  8
V0-VYPLNE
  6
DASHED
 62
    52
 48
2.0
100
AcDbCircle
 10
4256.796353
 20
-179.961162
 30
0.0
 40
7.893
100
AcDbArc
 50
270.0
 51
0.0
  0
LINE
  5
3F7A
330
454E
100
AcDbEntity
  8
V0-VYPLNE
  6
DASHED
 62
    52
 48
2.0
100
AcDbLine
 10
4197.481109
 20
-13.408462
 30
0.0
 11
4264.689353
 21
-13.408462
 31
0.0
  0
LINE
  5
3F7B
330
454E
100
AcDbEntity
  8
V0-VYPLNE
  6
DASHED
 62
    52
 48
2.0
100
AcDbLine
 10
4183.273709
 20
-7.893762
 30
0.0
 11
4256.796353
 21
-7.893762
 31
0.0
  0
LINE
  5
3F7C
330
454E
100
AcDbEntity
  8
V0-VYPLNE
  6
DASHED
 62
    52
 48
2.0
100
AcDbLine
 10
4197.481109
 20
-29.311427
 30
0.0
 11
4264.689353
 21
-29.311427
 31
0.0
  0
LINE
  5
3F7D
330
454E
100
AcDbEntity
  8
V0-VYPLNE
  6
DASHED
 62
    52
 48
2.0
100
AcDbLine
 10
4197.481109
 20
-48.243527
 30
0.0
 11
4263.931373
 21
-48.243527
 31
0.0
  0
LINE
  5
3F7E
330
454E
100
AcDbEntity
  8
V0-VYPLNE
  6
DASHED
 62
    52
 48
2.0
100
AcDbLine
 10
4197.481109
 20
-66.418341
 30
0.0
 11
4264.689353
 21
-66.418341
 31
0.0
  0
LINE
  5
3F7F
330
454E
100
AcDbEntity
  8
V0-VYPLNE
  6
DASHED
 62
    52
 48
2.0
100
AcDbLine
 10
4197.481109
 20
-84.59315700000001
 30
0.0
 11
4263.931373
 21
-84.59315700000001
 31
0.0
  0
LINE
  5
3F80
330
454E
100
AcDbEntity
  8
V0-VYPLNE
  6
DASHED
 62
    52
 48
2.0
100
AcDbLine
 10
4197.481109
 20
-97.87396200000001
 30
0.0
 11
4197.481109
 21
-7.893761999999995
 31
0.0
  0
LINE
  5
3F81
330
454E
100
AcDbEntity
  8
V0-VYPLNE
  6
DASHED
 62
    52
 48
2.0
100
AcDbLine
 10
4196.470875
 20
-66.418341
 30
0.0
 11
4201.018774
 21
-66.418341
 31
0.0
  0
LINE
  5
3F82
330
454E
100
AcDbEntity
  8
V0-VYPLNE
  6
DASHED
 62
    52
 48
2.0
100
AcDbLine
 10
4264.689353
 20
-15.786762
 30
0.0
 11
4264.689353
 21
-97.87396200000001
 31
0.0
  0
ARC
  5
3F83
330
454E
100
AcDbEntity
  8
V0-VYPLNE
  6
DASHED
 62
    52
 48
2.0
100
AcDbCircle
 10
4256.796353
 20
-15.786762
 30
0.0
 40
7.893
100
AcDbArc
 50
0.0
 51
90.0
  0
LINE
  5
3FBE
330
454E
100
AcDbEntity
  8
V0-VYPLNE
  6
DASHED
 62
    52
100
AcDbLine
 10
4167.142738
 20
-248.37584
 30
0.0
 11
4195.278893
 21
-234.089457
 31
0.0
  0
LINE
  5
3FBF
330
454E
100
AcDbEntity
  8
V0-VYPLNE
  6
DASHED
 62
    52
100
AcDbLine
 10
4167.142738
 20
-253.276985
 30
0.0
 11
4199.648963
 21
-236.77166
 31
0.0
  0
LINE
  5
3FC0
330
454E
100
AcDbEntity
  8
V0-VYPLNE
  6
DASHED
 62
    52
100
AcDbLine
 10
4171.512808
 20
-369.934117
 30
0.0
 11
4193.419306
 21
-369.934117
 31
0.0
  0
LINE
  5
3FC1
330
454E
100
AcDbEntity
  8
V0-VYPLNE
  6
DASHED
 62
    52
100
AcDbLine
 10
4167.142738
 20
-374.304187
 30
0.0
 11
4193.419306
 21
-374.304187
 31
0.0
  0
LINE
  5
3FC2
330
454E
100
AcDbEntity
  8
V0-VYPLNE
  6
DASHED
 62
    52
100
AcDbLine
 10
4167.142738
 20
178.556263
 30
0.0
 11
4193.419306
 21
178.556263
 31
0.0
  0
LINE
  5
3FC3
330
454E
100
AcDbEntity
  8
V0-VYPLNE
  6
DASHED
 62
    52
100
AcDbLine
 10
4171.512808
 20
174.186193
 30
0.0
 11
4193.419306
 21
174.186193
 31
0.0
  0
LINE
  5
3FC4
330
454E
100
AcDbEntity
  8
V0-VYPLNE
  6
DASHED
 62
    52
100
AcDbLine
 10
4167.142738
 20
57.52906
 30
0.0
 11
4199.648963
 21
41.023735
 31
0.0
  0
LINE
  5
3FC5
330
454E
100
AcDbEntity
  8
V0-VYPLNE
  6
DASHED
 62
    52
100
AcDbLine
 10
4167.142738
 20
52.627915
 30
0.0
 11
4195.278893
 21
38.341532
 31
0.0
  0
LINE
  5
3FC6
330
454E
100
AcDbEntity
  8
V0-VYPLNE
  6
DASHED
 62
    52
100
AcDbLine
 10
4167.142738
 20
-375.373407
 30
0.0
 11
4167.142738
 21
-248.37584
 31
0.0
  0
LINE
  5
3FC7
330
454E
100
AcDbEntity
  8
V0-VYPLNE
  6
DASHED
 62
    52
100
AcDbLine
 10
4171.512808
 20
-369.934117
 30
0.0
 11
4171.512808
 21
-250.826412
 31
0.0
  0
LINE
  5
3FC9
330
454E
100
AcDbEntity
  8
V0-VYPLNE
  6
DASHED
 62
    52
100
AcDbLine
 10
4167.142738
 20
-375.373407
 30
0.0
 11
4167.142738
 21
-374.304187
 31
0.0
  0
LINE
  5
3FCA
330
454E
100
AcDbEntity
  8
V0-VYPLNE
  6
DASHED
 62
    52
100
AcDbLine
 10
4171.512808
 20
174.186193
 30
0.0
 11
4171.512808
 21
55.07848799999999
 31
0.0
  0
LINE
  5
3FCB
330
454E
100
AcDbEntity
  8
V0-VYPLNE
  6
DASHED
 62
    52
100
AcDbLine
 10
4167.142738
 20
174.186193
 30
0.0
 11
4167.142738
 21
52.627915
 31
0.0
  0
LINE
  5
3FCC
330
454E
100
AcDbEntity
  8
V0-VYPLNE
  6
DASHED
 62
    52
100
AcDbLine
 10
4167.142738
 20
179.625483
 30
0.0
 11
4167.142738
 21
178.556263
 31
0.0
  0
LINE
  5
3FCD
330
454E
100
AcDbEntity
  8
V0-VYPLNE
  6
DASHED
 62
    52
100
AcDbLine
 10
4199.648963
 20
41.023735
 30
0.0
 11
4199.648963
 21
-7.893762000000002
 31
0.0
  0
LINE
  5
3FCE
330
454E
100
AcDbEntity
  8
V0-VYPLNE
  6
DASHED
 62
    52
100
AcDbLine
 10
4195.278893
 20
38.341532
 30
0.0
 11
4195.278893
 21
-7.893762000000002
 31
0.0
  0
LINE
  5
3FCF
330
454E
100
AcDbEntity
  8
V0-VYPLNE
  6
DASHED
 62
    52
100
AcDbLine
 10
4195.278893
 20
-234.089457
 30
0.0
 11
4195.278893
 21
-187.854162
 31
0.0
  0
LINE
  5
3FD0
330
454E
100
AcDbEntity
  8
V0-VYPLNE
  6
DASHED
 62
    52
100
AcDbLine
 10
4199.648963
 20
-236.77166
 30
0.0
 11
4199.648963
 21
-187.854162
 31
0.0
  0
LINE
  5
406A
330
454E
100
AcDbEntity
  8
V0-OBRYS
  6
CONTINUOUS
 62
    90
100
AcDbLine
 10
4135.123149
 20
-976.6599670000001
 30
0.0
 11
4135.123149
 21
-1303.631687
 31
0.0
  0
LINE
  5
406B
330
454E
100
AcDbEntity
  8
V0-OBRYS
  6
CONTINUOUS
 62
    90
100
AcDbLine
 10
4139.532589
 20
-1256.659407
 30
0.0
 11
4139.532589
 21
-1303.631687
 31
0.0
  0
LINE
  5
406C
330
454E
100
AcDbEntity
  8
V0-OBRYS
  6
CONTINUOUS
 62
    90
100
AcDbLine
 10
4370.280109
 20
-1256.659407
 30
0.0
 11
4370.280109
 21
-1303.631687
 31
0.0
  0
LINE
  5
406D
330
454E
100
AcDbEntity
  8
V0-OBRYS
  6
CONTINUOUS
 62
    90
100
AcDbLine
 10
4374.689549
 20
-976.6599670000001
 30
0.0
 11
4374.689549
 21
-1303.631687
 31
0.0
  0
LINE
  5
406F
330
454E
100
AcDbEntity
  8
V0-VYPLNE
  6
DASHDOT
 62
    63
 48
2.0
100
AcDbLine
 10
4429.783843
 20
-976.6599670000001
 30
0.0
 11
4099.175206
 21
-976.6599670000001
 31
0.0
  0
ELLIPSE
  5
4070
330
454E
100
AcDbEntity
  8
V0-VYPLNE
  6
DASHED
 62
    52
 48
2.0
100
AcDbEllipse
 10
4309.68939
 20
-1041.88941
 30
0.0
 11
2.728484105318785E-12
 21
198.0166821620388
 31
0.0
210
0.0
220
0.0
230
-1.0
 40
0.909091
 41
-0.2526585029160832
 42
0.2116012325852755
  0
ELLIPSE
  5
4071
330
454E
100
AcDbEntity
  8
V0-VYPLNE
  6
DASHED
 62
    52
 48
2.0
100
AcDbEllipse
 10
4309.68939
 20
-909.2296
 30
0.0
 11
2.728484105318785E-12
 21
198.0166821620388
 31
0.0
210
0.0
220
0.0
230
-1.0
 40
0.909091
 41
2.929991421004501
 42
3.394251156505873
  0
LINE
  5
4072
330
454E
100
AcDbEntity
  8
V0-VYPLNE
  6
DASHED
 62
    52
 48
2.0
100
AcDbLine
 10
4284.80697
 20
-1250.525803
 30
0.0
 11
4334.571809
 21
-1250.525803
 31
0.0
  0
LINE
  5
4073
330
454E
100
AcDbEntity
  8
V0-VYPLNE
  6
DASHED
 62
    52
 48
2.0
100
AcDbLine
 10
4265.48339
 20
-990.617113
 30
0.0
 11
4358.119442
 21
-959.98532
 31
0.0
  0
LINE
  5
4074
330
454E
100
AcDbEntity
  8
V0-VYPLNE
  6
DASHED
 62
    52
 48
2.0
100
AcDbLine
 10
4284.80697
 20
-700.593207
 30
0.0
 11
4334.571809
 21
-700.593207
 31
0.0
  0
LINE
  5
4075
330
454E
100
AcDbEntity
  8
V0-OBRYS
  6
CONTINUOUS
 62
    90
100
AcDbLine
 10
4370.280109
 20
-696.660527
 30
0.0
 11
4139.532589
 21
-696.660527
 31
0.0
  0
LINE
  5
4076
330
454E
100
AcDbEntity
  8
V0-OBRYS
  6
CONTINUOUS
 62
    90
100
AcDbLine
 10
4370.280109
 20
-1256.659407
 30
0.0
 11
4139.532589
 21
-1256.659407
 31
0.0
  0
LINE
  5
4077
330
454E
100
AcDbEntity
  8
V0-VYPLNE
  6
DASHED
 62
    52
100
AcDbLine
 10
4195.278893
 20
-840.444472
 30
0.0
 11
4195.278893
 21
-886.679767
 31
0.0
  0
LINE
  5
4078
330
454E
100
AcDbEntity
  8
V0-VYPLNE
  6
DASHED
 62
    52
100
AcDbLine
 10
4199.648963
 20
-837.7622699999999
 30
0.0
 11
4199.648963
 21
-886.679767
 31
0.0
  0
LINE
  5
4079
330
454E
100
AcDbEntity
  8
V0-VYPLNE
  6
DASHED
 62
    52
 48
2.0
100
AcDbLine
 10
4309.68939
 20
-843.8727280000001
 30
0.0
 11
4309.68939
 21
-975.5595049999999
 31
0.0
  0
LINE
  5
407A
330
454E
100
AcDbEntity
  8
V0-VYPLNE
  6
DASHED
 62
    52
 48
2.0
100
AcDbLine
 10
4264.68939
 20
-975.5595049999999
 30
0.0
 11
4264.68939
 21
-850.159505
 31
0.0
  0
LINE
  5
407B
330
454E
100
AcDbEntity
  8
V0-OBRYS
  6
CONTINUOUS
 62
    90
100
AcDbLine
 10
4135.123149
 20
-976.6599670000001
 30
0.0
 11
4135.123149
 21
-649.6882470000001
 31
0.0
  0
LINE
  5
407C
330
454E
100
AcDbEntity
  8
V0-VYPLNE
  6
DASHED
 62
    52
100
AcDbLine
 10
4195.278893
 20
-1112.875462
 30
0.0
 11
4195.278893
 21
-1066.640167
 31
0.0
  0
LINE
  5
407D
330
454E
100
AcDbEntity
  8
V0-VYPLNE
  6
DASHED
 62
    52
100
AcDbLine
 10
4199.648963
 20
-1115.557664
 30
0.0
 11
4199.648963
 21
-1066.640167
 31
0.0
  0
LINE
  5
407E
330
454E
100
AcDbEntity
  8
V0-VYPLNE
  6
DASHED
 62
    52
 48
2.0
100
AcDbLine
 10
4264.68939
 20
-975.5595049999999
 30
0.0
 11
4264.68939
 21
-1100.959505
 31
0.0
  0
LINE
  5
407F
330
454E
100
AcDbEntity
  8
V0-VYPLNE
  6
DASHED
 62
    52
 48
2.0
100
AcDbLine
 10
4309.68939
 20
-1107.246282
 30
0.0
 11
4309.68939
 21
-975.5595049999999
 31
0.0
  0
LINE
  5
4080
330
454E
100
AcDbEntity
  8
V0-VYPLNE
  6
DASHED
 62
    52
100
AcDbLine
 10
4171.512808
 20
-1248.720122
 30
0.0
 11
4171.512808
 21
-1129.612417
 31
0.0
  0
LINE
  5
4081
330
454E
100
AcDbEntity
  8
V0-VYPLNE
  6
DASHED
 62
    52
100
AcDbLine
 10
4167.142738
 20
-1254.159412
 30
0.0
 11
4167.142738
 21
-1127.161845
 31
0.0
  0
LINE
  5
4082
330
454E
100
AcDbEntity
  8
V0-VYPLNE
  6
DASHED
 62
    52
 48
2.0
100
AcDbLine
 10
4264.640185
 20
-1111.215481
 30
0.0
 11
4284.80697
 21
-1250.525803
 31
0.0
  0
LINE
  5
4083
330
454E
100
AcDbEntity
  8
V0-VYPLNE
  6
DASHDOT
 62
    63
 48
2.0
100
AcDbLine
 10
4113.075949
 20
-1286.549087
 30
0.0
 11
4176.231908
 21
-1286.549087
 31
0.0
  0
LINE
  5
4084
330
454E
100
AcDbEntity
  8
V0-VYPLNE
  6
DASHED
 62
    52
100
AcDbLine
 10
4167.142738
 20
-1253.090192
 30
0.0
 11
4193.419306
 21
-1253.090192
 31
0.0
  0
LINE
  5
4085
330
454E
100
AcDbEntity
  8
V0-VYPLNE
  6
DASHED
 62
    52
100
AcDbLine
 10
4171.512808
 20
-1248.720122
 30
0.0
 11
4193.419306
 21
-1248.720122
 31
0.0
  0
LINE
  5
4086
330
454E
100
AcDbEntity
  8
V0-VYPLNE
  6
DASHED
 62
    52
100
AcDbLine
 10
4167.142738
 20
-1254.159412
 30
0.0
 11
4167.142738
 21
-1253.090192
 31
0.0
  0
LINE
  5
4088
330
454E
100
AcDbEntity
  8
V0-VYPLNE
  6
DASHED
 62
    52
100
AcDbLine
 10
4167.142738
 20
-1132.062989
 30
0.0
 11
4199.648963
 21
-1115.557664
 31
0.0
  0
LINE
  5
4089
330
454E
100
AcDbEntity
  8
V0-VYPLNE
  6
DASHED
 62
    52
100
AcDbLine
 10
4167.142738
 20
-1127.161845
 30
0.0
 11
4195.278893
 21
-1112.875462
 31
0.0
  0
LINE
  5
408A
330
454E
100
AcDbEntity
  8
V0-VYPLNE
  6
DASHED
 62
    52
 48
2.0
100
AcDbLine
 10
4272.322771
 20
-1102.772431
 30
0.0
 11
4264.640185
 21
-1111.215481
 31
0.0
  0
LINE
  5
408B
330
454E
100
AcDbEntity
  8
V0-VYPLNE
  6
DASHED
 62
    52
 48
2.0
100
AcDbLine
 10
4197.481109
 20
-976.6599670000001
 30
0.0
 11
4197.481109
 21
-1066.640167
 31
0.0
  0
LINE
  5
408C
330
454E
100
AcDbEntity
  8
V0-VYPLNE
  6
DASHED
 62
    52
 48
2.0
100
AcDbLine
 10
4264.689353
 20
-1058.747167
 30
0.0
 11
4264.689353
 21
-976.6599670000001
 31
0.0
  0
LINE
  5
408D
330
454E
100
AcDbEntity
  8
V0-VYPLNE
  6
DASHED
 62
    52
 48
2.0
100
AcDbLine
 10
4167.487709
 20
-976.6599670000001
 30
0.0
 11
4167.487709
 21
-1050.854167
 31
0.0
  0
ELLIPSE
  5
408E
330
454E
100
AcDbEntity
  8
V0-VYPLNE
  6
DASHED
 62
    52
 48
2.0
100
AcDbEllipse
 10
4309.68939
 20
-975.999596
 30
0.0
 11
-3.637978807091713E-12
 21
9.322743924309293
 31
0.0
210
0.0
220
0.0
230
-1.0
 40
0.9090910000000001
 41
0.0
 42
6.283185307179586
  0
LINE
  5
408F
330
454E
100
AcDbEntity
  8
V0-VYPLNE
  6
DASHED
 62
    52
 48
2.0
100
AcDbLine
 10
4196.470875
 20
-1045.222502
 30
0.0
 11
4168.425501
 21
-1030.076823
 31
0.0
  0
LINE
  5
4090
330
454E
100
AcDbEntity
  8
V0-VYPLNE
  6
DASHED
 62
    52
 48
2.0
100
AcDbLine
 10
4183.273709
 20
-1066.640167
 30
0.0
 11
4256.796353
 21
-1066.640167
 31
0.0
  0
LINE
  5
4091
330
454E
100
AcDbEntity
  8
V0-VYPLNE
  6
DASHED
 62
    52
 48
2.0
100
AcDbLine
 10
4197.481109
 20
-1061.125468
 30
0.0
 11
4264.689353
 21
-1061.125468
 31
0.0
  0
LINE
  5
4092
330
454E
100
AcDbEntity
  8
V0-VYPLNE
  6
DASHED
 62
    52
 48
2.0
100
AcDbLine
 10
4197.481109
 20
-1045.222502
 30
0.0
 11
4264.689353
 21
-1045.222502
 31
0.0
  0
ARC
  5
4093
330
454E
100
AcDbEntity
  8
V0-VYPLNE
  6
DASHED
 62
    52
 48
2.0
100
AcDbCircle
 10
4183.273709
 20
-1050.854167
 30
0.0
 40
15.786
100
AcDbArc
 50
180.0
 51
270.0
  0
LINE
  5
4094
330
454E
100
AcDbEntity
  8
V0-VYPLNE
  6
DASHED
 62
    52
 48
2.0
100
AcDbLine
 10
4197.228861
 20
-1061.125468
 30
0.0
 11
4167.667521
 21
-1039.164233
 31
0.0
  0
ARC
  5
4095
330
454E
100
AcDbEntity
  8
V0-VYPLNE
  6
DASHED
 62
    52
 48
2.0
100
AcDbCircle
 10
4256.796353
 20
-1058.747167
 30
0.0
 40
7.893
100
AcDbArc
 50
270.0
 51
0.0
  0
LINE
  5
4096
330
454E
100
AcDbEntity
  8
V0-VYPLNE
  6
DASHED
 62
    52
 48
2.0
100
AcDbLine
 10
4197.481109
 20
-1026.290402
 30
0.0
 11
4263.931373
 21
-1026.290402
 31
0.0
  0
LINE
  5
4097
330
454E
100
AcDbEntity
  8
V0-VYPLNE
  6
DASHED
 62
    52
 48
2.0
100
AcDbLine
 10
4197.481109
 20
-1008.115589
 30
0.0
 11
4264.689353
 21
-1008.115589
 31
0.0
  0
LINE
  5
4098
330
454E
100
AcDbEntity
  8
V0-VYPLNE
  6
DASHED
 62
    52
 48
2.0
100
AcDbLine
 10
4197.481109
 20
-989.940773
 30
0.0
 11
4263.931373
 21
-989.940773
 31
0.0
  0
LINE
  5
4099
330
454E
100
AcDbEntity
  8
V0-VYPLNE
  6
DASHED
 62
    52
 48
2.0
100
AcDbLine
 10
4196.470875
 20
-1008.115589
 30
0.0
 11
4167.667521
 21
-1005.086451
 31
0.0
  0
LINE
  5
409A
330
454E
100
AcDbEntity
  8
V0-VYPLNE
  6
DASHED
 62
    52
 48
2.0
100
AcDbLine
 10
4197.228861
 20
-1026.290402
 30
0.0
 11
4166.909535
 21
-1019.474846
 31
0.0
  0
LINE
  5
409B
330
454E
100
AcDbEntity
  8
V0-VYPLNE
  6
DASHED
 62
    52
 48
2.0
100
AcDbLine
 10
4196.470875
 20
-1008.115589
 30
0.0
 11
4201.018774
 21
-1008.115589
 31
0.0
  0
LINE
  5
409C
330
454E
100
AcDbEntity
  8
V0-VYPLNE
  6
DASHED
 62
    52
 48
2.0
100
AcDbLine
 10
4196.470875
 20
-989.940773
 30
0.0
 11
4167.667521
 21
-989.183489
 31
0.0
  0
LINE
  5
409D
330
454E
100
AcDbEntity
  8
V0-VYPLNE
  6
DASHED
 62
    52
 48
2.0
100
AcDbLine
 10
4264.689353
 20
-894.572767
 30
0.0
 11
4264.689353
 21
-976.6599670000001
 31
0.0
  0
LINE
  5
409E
330
454E
100
AcDbEntity
  8
V0-VYPLNE
  6
DASHED
 62
    52
 48
2.0
100
AcDbLine
 10
4197.481109
 20
-976.6599670000001
 30
0.0
 11
4197.481109
 21
-886.679767
 31
0.0
  0
LINE
  5
409F
330
454E
100
AcDbEntity
  8
V0-VYPLNE
  6
DASHED
 62
    52
 48
2.0
100
AcDbLine
 10
4167.487709
 20
-976.6599670000001
 30
0.0
 11
4167.487709
 21
-902.465767
 31
0.0
  0
LINE
  5
40A0
330
454E
100
AcDbEntity
  8
V0-VYPLNE
  6
DASHED
 62
    52
 48
2.0
100
AcDbLine
 10
4196.470875
 20
-908.097432
 30
0.0
 11
4168.425501
 21
-923.243111
 31
0.0
  0
LINE
  5
40A1
330
454E
100
AcDbEntity
  8
V0-VYPLNE
  6
DASHED
 62
    52
 48
2.0
100
AcDbLine
 10
4197.481109
 20
-963.379162
 30
0.0
 11
4263.931373
 21
-963.379162
 31
0.0
  0
LINE
  5
40A2
330
454E
100
AcDbEntity
  8
V0-VYPLNE
  6
DASHED
 62
    52
 48
2.0
100
AcDbLine
 10
4197.481109
 20
-945.204345
 30
0.0
 11
4264.689353
 21
-945.204345
 31
0.0
  0
LINE
  5
40A3
330
454E
100
AcDbEntity
  8
V0-VYPLNE
  6
DASHED
 62
    52
 48
2.0
100
AcDbLine
 10
4197.481109
 20
-927.029532
 30
0.0
 11
4263.931373
 21
-927.029532
 31
0.0
  0
LINE
  5
40A4
330
454E
100
AcDbEntity
  8
V0-VYPLNE
  6
DASHED
 62
    52
 48
2.0
100
AcDbLine
 10
4196.470875
 20
-963.379162
 30
0.0
 11
4167.667521
 21
-964.136445
 31
0.0
  0
LINE
  5
40A5
330
454E
100
AcDbEntity
  8
V0-VYPLNE
  6
DASHED
 62
    52
 48
2.0
100
AcDbLine
 10
4197.228861
 20
-927.029532
 30
0.0
 11
4166.909535
 21
-933.845088
 31
0.0
  0
LINE
  5
40A6
330
454E
100
AcDbEntity
  8
V0-VYPLNE
  6
DASHED
 62
    52
 48
2.0
100
AcDbLine
 10
4196.470875
 20
-945.204345
 30
0.0
 11
4167.667521
 21
-948.233483
 31
0.0
  0
LINE
  5
40A7
330
454E
100
AcDbEntity
  8
V0-VYPLNE
  6
DASHED
 62
    52
 48
2.0
100
AcDbLine
 10
4196.470875
 20
-945.204345
 30
0.0
 11
4201.018774
 21
-945.204345
 31
0.0
  0
LINE
  5
40A8
330
454E
100
AcDbEntity
  8
V0-VYPLNE
  6
DASHED
 62
    52
 48
2.0
100
AcDbLine
 10
4183.273709
 20
-886.679767
 30
0.0
 11
4256.796353
 21
-886.679767
 31
0.0
  0
LINE
  5
40A9
330
454E
100
AcDbEntity
  8
V0-VYPLNE
  6
DASHED
 62
    52
 48
2.0
100
AcDbLine
 10
4197.481109
 20
-908.097432
 30
0.0
 11
4264.689353
 21
-908.097432
 31
0.0
  0
LINE
  5
40AA
330
454E
100
AcDbEntity
  8
V0-VYPLNE
  6
DASHED
 62
    52
 48
2.0
100
AcDbLine
 10
4197.481109
 20
-892.194466
 30
0.0
 11
4264.689353
 21
-892.194466
 31
0.0
  0
ARC
  5
40AB
330
454E
100
AcDbEntity
  8
V0-VYPLNE
  6
DASHED
 62
    52
 48
2.0
100
AcDbCircle
 10
4183.273709
 20
-902.465767
 30
0.0
 40
15.786
100
AcDbArc
 50
90.0
 51
180.0
  0
LINE
  5
40AC
330
454E
100
AcDbEntity
  8
V0-VYPLNE
  6
DASHED
 62
    52
 48
2.0
100
AcDbLine
 10
4197.228861
 20
-892.194466
 30
0.0
 11
4167.667521
 21
-914.155701
 31
0.0
  0
ARC
  5
40AD
330
454E
100
AcDbEntity
  8
V0-VYPLNE
  6
DASHED
 62
    52
 48
2.0
100
AcDbCircle
 10
4256.796353
 20
-894.572767
 30
0.0
 40
7.893
100
AcDbArc
 50
0.0
 51
90.0
  0
LINE
  5
40AE
330
454E
100
AcDbEntity
  8
V0-OBRYS
  6
CONTINUOUS
 62
    90
100
AcDbLine
 10
4139.532589
 20
-1256.659407
 30
0.0
 11
4139.532589
 21
-649.6882470000001
 31
0.0
  0
LINE
  5
40AF
330
454E
100
AcDbEntity
  8
V0-VYPLNE
  6
DASHED
 62
    52
100
AcDbLine
 10
4167.142738
 20
-704.599812
 30
0.0
 11
4167.142738
 21
-826.158089
 31
0.0
  0
LINE
  5
40B0
330
454E
100
AcDbEntity
  8
V0-VYPLNE
  6
DASHED
 62
    52
100
AcDbLine
 10
4171.512808
 20
-704.599812
 30
0.0
 11
4171.512808
 21
-823.7075170000001
 31
0.0
  0
LINE
  5
40B1
330
454E
100
AcDbEntity
  8
V0-VYPLNE
  6
DASHED
 62
    52
 48
2.0
100
AcDbLine
 10
4264.640185
 20
-839.9035300000001
 30
0.0
 11
4284.80697
 21
-700.593207
 31
0.0
  0
LINE
  5
40B2
330
454E
100
AcDbEntity
  8
V0-VYPLNE
  6
DASHED
 62
    52
100
AcDbLine
 10
4167.142738
 20
-826.158089
 30
0.0
 11
4195.278893
 21
-840.444472
 31
0.0
  0
LINE
  5
40B3
330
454E
100
AcDbEntity
  8
V0-VYPLNE
  6
DASHED
 62
    52
100
AcDbLine
 10
4167.142738
 20
-821.256945
 30
0.0
 11
4199.648963
 21
-837.7622699999999
 31
0.0
  0
LINE
  5
40B4
330
454E
100
AcDbEntity
  8
V0-VYPLNE
  6
DASHED
 62
    52
 48
2.0
100
AcDbLine
 10
4272.322771
 20
-848.34658
 30
0.0
 11
4264.640185
 21
-839.9035300000001
 31
0.0
  0
LINE
  5
40B5
330
454E
100
AcDbEntity
  8
V0-VYPLNE
  6
DASHDOT
 62
    63
 48
2.0
100
AcDbLine
 10
4113.075949
 20
-666.770847
 30
0.0
 11
4176.231908
 21
-666.770847
 31
0.0
  0
LINE
  5
40B6
330
454E
100
AcDbEntity
  8
V0-VYPLNE
  6
DASHED
 62
    52
100
AcDbLine
 10
4171.512808
 20
-704.599812
 30
0.0
 11
4193.419306
 21
-704.599812
 31
0.0
  0
LINE
  5
40B7
330
454E
100
AcDbEntity
  8
V0-VYPLNE
  6
DASHED
 62
    52
100
AcDbLine
 10
4167.142738
 20
-700.229742
 30
0.0
 11
4193.419306
 21
-700.229742
 31
0.0
  0
LINE
  5
40B8
330
454E
100
AcDbEntity
  8
V0-VYPLNE
  6
DASHED
 62
    52
100
AcDbLine
 10
4167.142738
 20
-699.160522
 30
0.0
 11
4167.142738
 21
-700.229742
 31
0.0
  0
ELLIPSE
  5
40B9
330
454E
100
AcDbEntity
  8
V0-VYPLNE
  6
DASHED
 62
    52
 48
2.0
100
AcDbEllipse
 10
3026.279634
 20
-989.941123
 30
0.0
 11
4.547473508864641E-13
 21
1467.921183407595
 31
0.0
210
0.0
220
0.0
230
-1.0
 40
0.909091
 41
1.480829966572604
 42
1.560998901912743
  0
LINE
  5
40BA
330
454E
100
AcDbEntity
  8
V0-OBRYS
  6
CONTINUOUS
 62
    90
100
AcDbLine
 10
4374.689549
 20
-976.6599670000001
 30
0.0
 11
4374.689549
 21
-649.6882470000001
 31
0.0
  0
ELLIPSE
  5
40BB
330
454E
100
AcDbEntity
  8
V0-VYPLNE
  6
DASHED
 62
    52
 48
2.0
100
AcDbEllipse
 10
4345.396942
 20
-1092.075038
 30
0.0
 11
2.728484105318785E-12
 21
11.0
 31
0.0
210
0.0
220
0.0
230
-1.0
 40
0.909091
 41
1.660762687017187
 42
2.929991421004503
  0
LINE
  5
40BC
330
454E
100
AcDbEntity
  8
V0-VYPLNE
  6
DASHED
 62
    52
 48
2.0
100
AcDbLine
 10
4354.738594
 20
-1111.215481
 30
0.0
 11
4334.571809
 21
-1250.525803
 31
0.0
  0
LINE
  5
40BD
330
454E
100
AcDbEntity
  8
V0-VYPLNE
  6
DASHDOT
 62
    63
 48
2.0
100
AcDbLine
 10
4349.508623
 20
-1286.549087
 30
0.0
 11
4399.979065
 21
-1286.549087
 31
0.0
  0
LINE
  5
40BE
330
454E
100
AcDbEntity
  8
V0-VYPLNE
  6
DASHED
 62
    52
 48
2.0
100
AcDbLine
 10
4347.056008
 20
-1102.772431
 30
0.0
 11
4354.738594
 21
-1111.215481
 31
0.0
  0
ELLIPSE
  5
40BF
330
454E
100
AcDbEntity
  8
V0-VYPLNE
  6
DASHED
 62
    52
 48
2.0
100
AcDbEllipse
 10
3026.279634
 20
-961.1778880000001
 30
0.0
 11
4.547473508864641E-13
 21
1467.921183407595
 31
0.0
210
0.0
220
0.0
230
-1.0
 40
0.909091
 41
1.580593751677049
 42
1.660762687017188
  0
LINE
  5
40C0
330
454E
100
AcDbEntity
  8
V0-OBRYS
  6
CONTINUOUS
 62
    90
100
AcDbLine
 10
4370.280109
 20
-1256.659407
 30
0.0
 11
4370.280109
 21
-649.6882470000001
 31
0.0
  0
LINE
  5
40C1
330
454E
100
AcDbEntity
  8
V0-VYPLNE
  6
DASHED
 62
    52
 48
2.0
100
AcDbLine
 10
4354.738594
 20
-839.9035300000001
 30
0.0
 11
4334.571809
 21
-700.593207
 31
0.0
  0
LINE
  5
40C2
330
454E
100
AcDbEntity
  8
V0-VYPLNE
  6
DASHED
 62
    52
 48
2.0
100
AcDbLine
 10
4347.056008
 20
-848.34658
 30
0.0
 11
4354.738594
 21
-839.9035300000001
 31
0.0
  0
LINE
  5
40C3
330
454E
100
AcDbEntity
  8
V0-VYPLNE
  6
DASHDOT
 62
    63
 48
2.0
100
AcDbLine
 10
4349.508623
 20
-666.770847
 30
0.0
 11
4399.979065
 21
-666.770847
 31
0.0
  0
LINE
  5
40D0
330
454E
100
AcDbEntity
  8
V0-VYPLNE
 48
2.0
100
AcDbLine
 10
5024.689141
 20
-97.87396200000001
 30
0.0
 11
5024.689141
 21
242.353918
 31
0.0
  0
CIRCLE
  5
40D1
330
454E
100
AcDbEntity
  8
V0-VYPLNE
  6
DASHDOT
 62
    63
 48
2.0
100
AcDbCircle
 10
5024.689141
 20
-97.87396200000001
 30
0.0
 40
309.979223
  0
CIRCLE
  5
40D2
330
454E
100
AcDbEntity
  8
V0-OBRYS
  6
CONTINUOUS
 62
    90
100
AcDbCircle
 10
5024.689141
 20
-97.87396200000001
 30
0.0
 40
327.308322
  0
LINE
  5
40D3
330
454E
100
AcDbEntity
  8
V0-OBRYS
  6
CONTINUOUS
 62
    90
100
AcDbLine
 10
5212.870487
 20
102.228745
 30
0.0
 11
5172.893696
 21
74.292175
 31
0.0
  0
LINE
  5
40D4
330
454E
100
AcDbEntity
  8
V0-OBRYS
  6
CONTINUOUS
 62
    90
100
AcDbLine
 10
5222.883596
 20
5.916415
 30
0.0
 11
5194.498224
 21
-19.818481
 31
0.0
  0
LINE
  5
40D5
330
454E
100
AcDbEntity
  8
V0-OBRYS
  6
CONTINUOUS
 62
    90
100
AcDbLine
 10
5208.084007
 20
-93.496977
 30
0.0
 11
5171.870585
 21
-82.782473
 31
0.0
  0
LINE
  5
40D6
330
454E
100
AcDbEntity
  8
V0-OBRYS
  6
CONTINUOUS
 62
    90
100
AcDbLine
 10
5229.407947
 20
-188.116385
 30
0.0
 11
5191.589606
 21
-181.969253
 31
0.0
  0
LINE
  5
40D7
330
454E
100
AcDbEntity
  8
VO-OBRYS
  6
CONTINUOUS
100
AcDbLine
 10
5113.554637
 20
-157.834552
 30
0.0
 11
5236.602907
 21
-280.882821
 31
0.0
  0
LINE
  5
40D8
330
454E
100
AcDbEntity
  8
VO-OBRYS
  6
CONTINUOUS
100
AcDbLine
 10
5113.265972
 20
-152.677214
 30
0.0
 11
5238.843971
 21
-278.255213
 31
0.0
  0
LINE
  5
40D9
330
454E
100
AcDbEntity
  8
VO-OBRYS
  6
CONTINUOUS
100
AcDbLine
 10
5084.649731
 20
-186.739459
 30
0.0
 11
5207.698
 21
-309.787728
 31
0.0
  0
LINE
  5
40DA
330
454E
100
AcDbEntity
  8
V0-VYPLNE
 48
2.0
100
AcDbLine
 10
5024.689141
 20
-97.87396200000001
 30
0.0
 11
5239.352605
 21
-312.537426
 31
0.0
  0
CIRCLE
  5
40DB
330
454E
100
AcDbEntity
  8
V0-OBRYS
  6
CONTINUOUS
 62
    90
100
AcDbCircle
 10
5024.689141
 20
-97.87396200000001
 30
0.0
 40
279.99944
  0
CIRCLE
  5
40DC
330
454E
100
AcDbEntity
  8
V0-OBRYS
  6
CONTINUOUS
 62
    90
100
AcDbCircle
 10
5024.689141
 20
-97.87396200000001
 30
0.0
 40
223.72636
  0
CIRCLE
  5
40DD
330
454E
100
AcDbEntity
  8
V0-OBRYS
  6
CONTINUOUS
 62
    90
100
AcDbCircle
 10
5024.689141
 20
-97.87396200000001
 30
0.0
 40
227.169032
  0
LINE
  5
40DE
330
454E
100
AcDbEntity
  8
VO-OBRYS
  6
CONTINUOUS
100
AcDbLine
 10
5113.554637
 20
-37.913373
 30
0.0
 11
5236.602907
 21
85.134896
 31
0.0
  0
LINE
  5
40DF
330
454E
100
AcDbEntity
  8
VO-OBRYS
  6
CONTINUOUS
100
AcDbLine
 10
5084.649731
 20
-9.008466
 30
0.0
 11
5207.698
 21
114.039803
 31
0.0
  0
LINE
  5
40E0
330
454E
100
AcDbEntity
  8
V0-VYPLNE
 48
2.0
100
AcDbLine
 10
5024.689141
 20
-97.87396200000001
 30
0.0
 11
5218.922651
 21
96.35954700000002
 31
0.0
  0
LINE
  5
40E1
330
454E
100
AcDbEntity
  8
VO-OBRYS
  6
CONTINUOUS
100
AcDbLine
 10
5113.265972
 20
-43.070711
 30
0.0
 11
5238.843971
 21
82.507288
 31
0.0
  0
LINE
  5
40E2
330
454E
100
AcDbEntity
  8
V0-VYPLNE
 48
2.0
100
AcDbLine
 10
5358.507064
 20
-97.87396200000001
 30
0.0
 11
4652.564501
 21
-97.87396200000001
 31
0.0
  0
LINE
  5
40E3
330
454E
100
AcDbEntity
  8
V0-OBRYS
  6
CONTINUOUS
 62
    90
100
AcDbLine
 10
5126.851799
 20
-200.07996
 30
0.0
 11
5115.471121
 21
-172.037944
 31
0.0
  0
LINE
  5
40E4
330
454E
100
AcDbEntity
  8
V0-OBRYS
  6
CONTINUOUS
 62
    90
100
AcDbLine
 10
5014.752755
 20
-228.528459
 30
0.0
 11
5017.952797
 21
-186.450793
 31
0.0
  0
LINE
  5
40E5
330
454E
100
AcDbEntity
  8
V0-OBRYS
  6
CONTINUOUS
 62
    90
100
AcDbLine
 10
5034.625528
 20
-228.528459
 30
0.0
 11
5031.425485
 21
-186.450793
 31
0.0
  0
LINE
  5
40E6
330
454E
100
AcDbEntity
  8
V0-OBRYS
  6
CONTINUOUS
 62
    90
100
AcDbLine
 10
5045.377905
 20
-183.400495
 30
0.0
 11
5055.711896
 21
-226.120808
 31
0.0
  0
LINE
  5
40E7
330
454E
100
AcDbEntity
  8
V0-OBRYS
  6
CONTINUOUS
 62
    90
100
AcDbLine
 10
5074.388396
 20
-219.499776
 30
0.0
 11
5057.973711
 21
-179.329166
 31
0.0
  0
LINE
  5
40E8
330
454E
100
AcDbEntity
  8
V0-OBRYS
  6
CONTINUOUS
 62
    90
100
AcDbLine
 10
5069.832117
 20
-173.404913
 30
0.0
 11
5093.064897
 21
-212.27683
 31
0.0
  0
LINE
  5
40E9
330
454E
100
AcDbEntity
  8
V0-OBRYS
  6
CONTINUOUS
 62
    90
100
AcDbLine
 10
4922.526484
 20
-200.07996
 30
0.0
 11
4933.907161
 21
-172.037944
 31
0.0
  0
LINE
  5
40EA
330
454E
100
AcDbEntity
  8
V0-OBRYS
  6
CONTINUOUS
 62
    90
100
AcDbLine
 10
4941.400509
 20
-198.424086
 30
0.0
 11
4968.399639
 21
-165.507569
 31
0.0
  0
LINE
  5
40EB
330
454E
100
AcDbEntity
  8
V0-OBRYS
  6
CONTINUOUS
 62
    90
100
AcDbLine
 10
4979.546166
 20
-173.404913
 30
0.0
 11
4956.313386
 21
-212.27683
 31
0.0
  0
LINE
  5
40EC
330
454E
100
AcDbEntity
  8
V0-OBRYS
  6
CONTINUOUS
 62
    90
100
AcDbLine
 10
4974.989887
 20
-219.499776
 30
0.0
 11
4991.404572
 21
-179.329166
 31
0.0
  0
LINE
  5
40ED
330
454E
100
AcDbEntity
  8
V0-OBRYS
  6
CONTINUOUS
 62
    90
100
AcDbLine
 10
5004.000378
 20
-183.400495
 30
0.0
 11
4993.666387
 21
-226.120808
 31
0.0
  0
LINE
  5
40EE
330
454E
100
AcDbEntity
  8
V0-OBRYS
  6
CONTINUOUS
 62
    90
100
AcDbLine
 10
4768.322297
 20
-196.511447
 30
0.0
 11
4816.461364
 21
-188.686746
 31
0.0
  0
ARC
  5
40EF
330
454E
100
AcDbEntity
  8
V0-OBRYS
  6
CONTINUOUS
 62
    90
100
AcDbCircle
 10
5024.689141
 20
-97.87396200000001
 30
0.0
 40
274.687663
100
AcDbArc
 50
184.66999
 51
201.044296
  0
LINE
  5
40F0
330
454E
100
AcDbEntity
  8
VO-OBRYS
  6
CONTINUOUS
100
AcDbLine
 10
4935.823645
 20
-157.834552
 30
0.0
 11
4812.775376
 21
-280.882821
 31
0.0
  0
LINE
  5
40F1
330
454E
100
AcDbEntity
  8
VO-OBRYS
  6
CONTINUOUS
100
AcDbLine
 10
4936.112311
 20
-152.677214
 30
0.0
 11
4810.534312
 21
-278.255213
 31
0.0
  0
LINE
  5
40F2
330
454E
100
AcDbEntity
  8
VO-OBRYS
  6
CONTINUOUS
100
AcDbLine
 10
4964.728552
 20
-186.739459
 30
0.0
 11
4841.680283
 21
-309.787728
 31
0.0
  0
LINE
  5
40F3
330
454E
100
AcDbEntity
  8
V0-VYPLNE
 48
2.0
100
AcDbLine
 10
5024.689141
 20
-97.87396200000001
 30
0.0
 11
4826.699639
 21
-295.863465
 31
0.0
  0
LINE
  5
40F4
330
454E
100
AcDbEntity
  8
VO-OBRYS
  6
CONTINUOUS
100
AcDbLine
 10
4969.88589
 20
-186.450793
 30
0.0
 11
4844.307891
 21
-312.028792
 31
0.0
  0
LINE
  5
40F5
330
454E
100
AcDbEntity
  8
V0-VYPLNE
  6
DASHDOT
 48
2.0
100
AcDbLine
 10
5024.689141
 20
-97.87396200000001
 30
0.0
 11
5024.689141
 21
-458.345682
 31
0.0
  0
LINE
  5
40F6
330
454E
100
AcDbEntity
  8
VO-OBRYS
  6
CONTINUOUS
100
AcDbLine
 10
5079.492393
 20
-186.450793
 30
0.0
 11
5205.070392
 21
-312.028792
 31
0.0
  0
ARC
  5
40F7
330
454E
100
AcDbEntity
  8
V0-OBRYS
  6
CONTINUOUS
 62
    90
100
AcDbCircle
 10
5024.689141
 20
-97.87396200000001
 30
0.0
 40
103.645939
100
AcDbArc
 50
238.716649
 51
329.134287
  0
LINE
  5
40F8
330
454E
100
AcDbEntity
  8
V0-OBRYS
  6
CONTINUOUS
 62
    90
100
AcDbLine
 10
5107.099041
 20
-198.036198
 30
0.0
 11
5080.517745
 21
-165.888518
 31
0.0
  0
LINE
  5
40F9
330
454E
100
AcDbEntity
  8
V0-OBRYS
  6
CONTINUOUS
 62
    90
100
AcDbLine
 10
4941.964919
 20
-359.809098
 30
0.0
 11
4965.861539
 21
-317.293839
 31
0.0
  0
LINE
  5
40FA
330
454E
100
AcDbEntity
  8
V0-OBRYS
  6
CONTINUOUS
 62
    90
100
AcDbLine
 10
4871.477715
 20
-325.86425
 30
0.0
 11
4889.818184
 21
-280.673289
 31
0.0
  0
ARC
  5
40FB
330
454E
100
AcDbEntity
  8
V0-OBRYS
  6
CONTINUOUS
 62
    90
100
AcDbCircle
 10
5024.689141
 20
-97.87396200000001
 30
0.0
 40
274.687663
100
AcDbArc
 50
236.098561
 51
252.472867
  0
LINE
  5
40FC
330
454E
100
AcDbEntity
  8
V0-OBRYS
  6
CONTINUOUS
 62
    90
100
AcDbLine
 10
4891.155065
 20
-277.379212
 30
0.0
 11
4905.563448
 21
-241.876921
 31
0.0
  0
LINE
  5
40FD
330
454E
100
AcDbEntity
  8
V0-OBRYS
  6
CONTINUOUS
 62
    90
100
AcDbLine
 10
4906.922248
 20
-238.528836
 30
0.0
 11
4921.124010000001
 21
-203.535659
 31
0.0
  0
LINE
  5
40FE
330
454E
100
AcDbEntity
  8
V0-OBRYS
  6
CONTINUOUS
 62
    90
100
AcDbLine
 10
5107.413364
 20
-359.809098
 30
0.0
 11
5083.516744
 21
-317.293839
 31
0.0
  0
LINE
  5
40FF
330
454E
100
AcDbEntity
  8
V0-OBRYS
  6
CONTINUOUS
 62
    90
100
AcDbLine
 10
5081.774862
 20
-314.1948
 30
0.0
 11
5063.001533
 21
-280.794556
 31
0.0
  0
LINE
  5
4100
330
454E
100
AcDbEntity
  8
V0-OBRYS
  6
CONTINUOUS
 62
    90
100
AcDbLine
 10
4967.603421
 20
-314.1948
 30
0.0
 11
4986.376749
 21
-280.794556
 31
0.0
  0
LINE
  5
4101
330
454E
100
AcDbEntity
  8
V0-OBRYS
  6
CONTINUOUS
 62
    90
100
AcDbLine
 10
5008.47865
 20
-241.472341
 30
0.0
 11
5023.307044
 21
-215.090659
 31
0.0
  0
LINE
  5
4102
330
454E
100
AcDbEntity
  8
V0-OBRYS
  6
CONTINUOUS
 62
    90
100
AcDbLine
 10
5023.307044
 20
-215.090659
 30
0.0
 11
5016.038426
 21
-202.809901
 31
0.0
  0
LINE
  5
4103
330
454E
100
AcDbEntity
  8
V0-OBRYS
  6
CONTINUOUS
 62
    90
100
AcDbLine
 10
4988.14719
 20
-277.644707
 30
0.0
 11
5006.651304
 21
-244.723433
 31
0.0
  0
LINE
  5
4104
330
454E
100
AcDbEntity
  8
V0-OBRYS
  6
CONTINUOUS
 62
    90
100
AcDbLine
 10
5040.899633
 20
-241.472341
 30
0.0
 11
5026.071238
 21
-215.090659
 31
0.0
  0
LINE
  5
4105
330
454E
100
AcDbEntity
  8
V0-OBRYS
  6
CONTINUOUS
 62
    90
100
AcDbLine
 10
5061.231093
 20
-277.644707
 30
0.0
 11
5042.726979
 21
-244.723433
 31
0.0
  0
LINE
  5
4106
330
454E
100
AcDbEntity
  8
V0-OBRYS
  6
CONTINUOUS
 62
    90
100
AcDbLine
 10
5026.071238
 20
-215.090659
 30
0.0
 11
5033.339857
 21
-202.809901
 31
0.0
  0
LINE
  5
4107
330
454E
100
AcDbEntity
  8
V0-OBRYS
  6
CONTINUOUS
 62
    90
100
AcDbLine
 10
5177.900568
 20
-325.86425
 30
0.0
 11
5159.560098
 21
-280.673289
 31
0.0
  0
ARC
  5
4108
330
454E
100
AcDbEntity
  8
V0-OBRYS
  6
CONTINUOUS
 62
    90
100
AcDbCircle
 10
5024.689141
 20
-97.87396200000001
 30
0.0
 40
274.687663
100
AcDbArc
 50
287.527133
 51
303.901439
  0
LINE
  5
4109
330
454E
100
AcDbEntity
  8
V0-OBRYS
  6
CONTINUOUS
 62
    90
100
AcDbLine
 10
5158.223218
 20
-277.379212
 30
0.0
 11
5143.814835
 21
-241.876921
 31
0.0
  0
LINE
  5
410A
330
454E
100
AcDbEntity
  8
V0-OBRYS
  6
CONTINUOUS
 62
    90
100
AcDbLine
 10
5142.456035
 20
-238.528836
 30
0.0
 11
5128.254273
 21
-203.535659
 31
0.0
  0
LINE
  5
410B
330
454E
100
AcDbEntity
  8
V0-OBRYS
  6
CONTINUOUS
 62
    90
100
AcDbLine
 10
4942.279242
 20
2.288273
 30
0.0
 11
4968.860537
 21
-29.859407
 31
0.0
  0
POINT
  5
410C
330
454E
100
AcDbEntity
  8
V0-VYPLNE
  6
DASHED
 62
    52
100
AcDbPoint
 10
5024.689141
 20
-97.87396200000001
 30
0.0
  0
ARC
  5
410D
330
454E
100
AcDbEntity
  8
V0-OBRYS
  6
CONTINUOUS
 62
    90
100
AcDbCircle
 10
5024.689141
 20
-97.87396200000001
 30
0.0
 40
103.645939
100
AcDbArc
 50
148.716649
 51
239.134287
  0
CIRCLE
  5
410E
330
454E
100
AcDbEntity
  8
V0-OBRYS
  6
CONTINUOUS
 62
    90
100
AcDbCircle
 10
5024.689141
 20
-97.87396200000001
 30
0.0
 40
87.99325399999999
  0
ARC
  5
410F
330
454E
100
AcDbEntity
  8
V0-OBRYS
  6
CONTINUOUS
 62
    90
100
AcDbCircle
 10
5024.689141
 20
-97.87396200000001
 30
0.0
 40
103.645939
100
AcDbArc
 50
58.71664899999999
 51
149.134287
  0
LINE
  5
4110
330
454E
100
AcDbEntity
  8
VO-OBRYS
  6
CONTINUOUS
100
AcDbLine
 10
4969.88589
 20
-9.297132
 30
0.0
 11
4844.307891
 21
116.280867
 31
0.0
  0
LINE
  5
4111
330
454E
100
AcDbEntity
  8
V0-VYPLNE
 48
2.0
100
AcDbLine
 10
5024.689141
 20
-97.87396200000001
 30
0.0
 11
4811.246516
 21
115.568663
 31
0.0
  0
LINE
  5
4112
330
454E
100
AcDbEntity
  8
V0-OBRYS
  6
CONTINUOUS
 62
    90
100
AcDbLine
 10
4947.778992
 20
24.470238
 30
0.0
 11
4972.585497
 21
7.134961999999998
 31
0.0
  0
LINE
  5
4113
330
454E
100
AcDbEntity
  8
V0-OBRYS
  6
CONTINUOUS
 62
    90
100
AcDbLine
 10
4971.748967
 20
-9.297132
 30
0.0
 11
4956.313386
 21
16.528905
 31
0.0
  0
LINE
  5
4114
330
454E
100
AcDbEntity
  8
V0-OBRYS
  6
CONTINUOUS
 62
    90
100
AcDbLine
 10
4979.546166
 20
-22.343012
 30
0.0
 11
4956.313386
 21
16.528905
 31
0.0
  0
LINE
  5
4115
330
454E
100
AcDbEntity
  8
V0-OBRYS
  6
CONTINUOUS
 62
    90
100
AcDbLine
 10
4826.494687
 20
5.916415
 30
0.0
 11
4854.880058
 21
-19.818481
 31
0.0
  0
LINE
  5
4116
330
454E
100
AcDbEntity
  8
VO-OBRYS
  6
CONTINUOUS
100
AcDbLine
 10
4964.728552
 20
-9.008466
 30
0.0
 11
4845.446518
 21
110.273568
 31
0.0
  0
LINE
  5
4117
330
454E
100
AcDbEntity
  8
VO-OBRYS
  6
CONTINUOUS
100
AcDbLine
 10
4935.823645
 20
-37.913373
 30
0.0
 11
4812.775376
 21
85.134896
 31
0.0
  0
LINE
  5
4118
330
454E
100
AcDbEntity
  8
VO-OBRYS
  6
CONTINUOUS
100
AcDbLine
 10
4936.112311
 20
-43.070711
 30
0.0
 11
4810.534312
 21
82.507288
 31
0.0
  0
LINE
  5
4119
330
454E
100
AcDbEntity
  8
V0-OBRYS
  6
CONTINUOUS
 62
    90
100
AcDbLine
 10
4841.294276
 20
-93.496977
 30
0.0
 11
4877.507697
 21
-82.782473
 31
0.0
  0
LINE
  5
411A
330
454E
100
AcDbEntity
  8
V0-OBRYS
  6
CONTINUOUS
 62
    90
100
AcDbLine
 10
4819.970336
 20
-188.116385
 30
0.0
 11
4857.788677
 21
-181.969253
 31
0.0
  0
LINE
  5
411B
330
454E
100
AcDbEntity
  8
V0-OBRYS
  6
CONTINUOUS
 62
    90
100
AcDbLine
 10
4801.089151
 20
-105.39251
 30
0.0
 11
4837.82944
 21
-94.522121
 31
0.0
  0
LINE
  5
411C
330
454E
100
AcDbEntity
  8
V0-OBRYS
  6
CONTINUOUS
 62
    90
100
AcDbLine
 10
4750.913395
 20
-120.238065
 30
0.0
 11
4797.680206
 21
-106.401118
 31
0.0
  0
LINE
  5
411D
330
454E
100
AcDbEntity
  8
V0-OBRYS
  6
CONTINUOUS
 62
    90
100
AcDbLine
 10
4902.312332
 20
-174.732215
 30
0.0
 11
4932.183715
 21
-169.87681
 31
0.0
  0
LINE
  5
411E
330
454E
100
AcDbEntity
  8
V0-OBRYS
  6
CONTINUOUS
 62
    90
100
AcDbLine
 10
4894.034645
 20
-107.810349
 30
0.0
 11
4936.112311
 21
-104.610306
 31
0.0
  0
LINE
  5
411F
330
454E
100
AcDbEntity
  8
V0-OBRYS
  6
CONTINUOUS
 62
    90
100
AcDbLine
 10
4939.162609
 20
-118.562726
 30
0.0
 11
4896.442296
 21
-128.896717
 31
0.0
  0
LINE
  5
4120
330
454E
100
AcDbEntity
  8
V0-OBRYS
  6
CONTINUOUS
 62
    90
100
AcDbLine
 10
4903.063327
 20
-147.573217
 30
0.0
 11
4943.233938
 21
-131.158532
 31
0.0
  0
LINE
  5
4121
330
454E
100
AcDbEntity
  8
V0-OBRYS
  6
CONTINUOUS
 62
    90
100
AcDbLine
 10
4861.35518
 20
-181.38954
 30
0.0
 11
4898.631194
 21
-175.33056
 31
0.0
  0
LINE
  5
4122
330
454E
100
AcDbEntity
  8
V0-OBRYS
  6
CONTINUOUS
 62
    90
100
AcDbLine
 10
4933.907161
 20
-172.037944
 30
0.0
 11
4948.040554
 21
-170.063852
 31
0.0
  0
LINE
  5
4123
330
454E
100
AcDbEntity
  8
V0-OBRYS
  6
CONTINUOUS
 62
    90
100
AcDbLine
 10
4932.183715
 20
-169.87681
 30
0.0
 11
4937.253288
 21
-156.537048
 31
0.0
  0
LINE
  5
4124
330
454E
100
AcDbEntity
  8
V0-OBRYS
  6
CONTINUOUS
 62
    90
100
AcDbLine
 10
4949.158191
 20
-143.016938
 30
0.0
 11
4910.286274
 21
-166.249718
 31
0.0
  0
LINE
  5
4125
330
454E
100
AcDbEntity
  8
V0-OBRYS
  6
CONTINUOUS
 62
    90
100
AcDbLine
 10
4924.526906
 20
-180.283862
 30
0.0
 11
4956.674586
 21
-153.702566
 31
0.0
  0
LINE
  5
4126
330
454E
100
AcDbEntity
  8
V0-OBRYS
  6
CONTINUOUS
 62
    90
100
AcDbLine
 10
4903.063327
 20
-48.174708
 30
0.0
 11
4943.233938
 21
-64.589393
 31
0.0
  0
LINE
  5
4127
330
454E
100
AcDbEntity
  8
V0-OBRYS
  6
CONTINUOUS
 62
    90
100
AcDbLine
 10
4939.162609
 20
-77.185199
 30
0.0
 11
4896.442296
 21
-66.851208
 31
0.0
  0
LINE
  5
4128
330
454E
100
AcDbEntity
  8
V0-OBRYS
  6
CONTINUOUS
 62
    90
100
AcDbLine
 10
4894.034645
 20
-87.93757600000001
 30
0.0
 11
4936.112311
 21
-91.137618
 31
0.0
  0
LINE
  5
4129
330
454E
100
AcDbEntity
  8
V0-OBRYS
  6
CONTINUOUS
 62
    90
100
AcDbLine
 10
4888.298247
 20
-50.116256
 30
0.0
 11
4910.718858
 21
-70.443349
 31
0.0
  0
LINE
  5
412A
330
454E
100
AcDbEntity
  8
V0-OBRYS
  6
CONTINUOUS
 62
    90
100
AcDbLine
 10
4881.0839
 20
-81.724378
 30
0.0
 11
4910.103767
 21
-73.138239
 31
0.0
  0
LINE
  5
412B
330
454E
100
AcDbEntity
  8
V0-OBRYS
  6
CONTINUOUS
 62
    90
100
AcDbLine
 10
4857.556974
 20
-22.24544
 30
0.0
 11
4885.53529
 21
-47.61129
 31
0.0
  0
LINE
  5
412C
330
454E
100
AcDbEntity
  8
V0-OBRYS
  6
CONTINUOUS
 62
    90
100
AcDbLine
 10
4949.158191
 20
-52.730987
 30
0.0
 11
4910.286274
 21
-29.498207
 31
0.0
  0
LINE
  5
412D
330
454E
100
AcDbEntity
  8
V0-OBRYS
  6
CONTINUOUS
 62
    90
100
AcDbLine
 10
4924.139018
 20
-14.58533
 30
0.0
 11
4957.055535
 21
-41.58446
 31
0.0
  0
LINE
  5
412E
330
454E
100
AcDbEntity
  8
V0-OBRYS
  6
CONTINUOUS
 62
    90
100
AcDbLine
 10
4910.103767
 20
-73.138239
 30
0.0
 11
4920.4592
 21
-82.95734400000001
 31
0.0
  0
LINE
  5
412F
330
454E
100
AcDbEntity
  8
V0-OBRYS
  6
CONTINUOUS
 62
    90
100
AcDbLine
 10
4910.718858
 20
-70.443349
 30
0.0
 11
4924.309131
 21
-66.08969500000001
 31
0.0
  0
LINE
  5
4130
330
454E
100
AcDbEntity
  8
V0-OBRYS
  6
CONTINUOUS
 62
    90
100
AcDbLine
 10
4836.507796
 20
102.228745
 30
0.0
 11
4876.484587
 21
74.292175
 31
0.0
  0
ARC
  5
4131
330
454E
100
AcDbEntity
  8
V0-OBRYS
  6
CONTINUOUS
 62
    90
100
AcDbCircle
 10
5024.689141
 20
-97.87396200000001
 30
0.0
 40
274.687663
100
AcDbArc
 50
133.241418
 51
149.615725
  0
LINE
  5
4132
330
454E
100
AcDbEntity
  8
V0-OBRYS
  6
CONTINUOUS
 62
    90
100
AcDbLine
 10
4787.729138
 20
41.062242
 30
0.0
 11
4823.860953
 21
8.304225000000002
 31
0.0
  0
LINE
  5
4133
330
454E
100
AcDbEntity
  8
V0-OBRYS
  6
CONTINUOUS
 62
    90
100
AcDbLine
 10
4879.39859
 20
72.25581200000001
 30
0.0
 11
4910.804598
 21
50.308674
 31
0.0
  0
LINE
  5
4134
330
454E
100
AcDbEntity
  8
V0-OBRYS
  6
CONTINUOUS
 62
    90
100
AcDbLine
 10
4913.766378
 20
48.238923
 30
0.0
 11
4944.722014
 21
26.606514
 31
0.0
  0
LINE
  5
4135
330
454E
100
AcDbEntity
  8
V0-OBRYS
  6
CONTINUOUS
 62
    90
100
AcDbLine
 10
5076.792786
 20
7.134962
 30
0.0
 11
5078.013165
 21
-7.083353000000001
 31
0.0
  0
LINE
  5
4136
330
454E
100
AcDbEntity
  8
V0-OBRYS
  6
CONTINUOUS
 62
    90
100
AcDbLine
 10
4972.585497
 20
7.134962
 30
0.0
 11
4971.365118
 21
-7.083353000000001
 31
0.0
  0
ARC
  5
4137
330
454E
100
AcDbEntity
  8
V0-OBRYS
  6
CONTINUOUS
 62
    90
100
AcDbCircle
 10
5024.689141
 20
-97.87396200000001
 30
0.0
 40
103.645939
100
AcDbArc
 50
328.716649
 51
59.134287
  0
LINE
  5
4138
330
454E
100
AcDbEntity
  8
V0-OBRYS
  6
CONTINUOUS
 62
    90
100
AcDbLine
 10
5107.977774
 20
2.676161
 30
0.0
 11
5080.978644
 21
-30.240356
 31
0.0
  0
LINE
  5
4139
330
454E
100
AcDbEntity
  8
V0-OBRYS
  6
CONTINUOUS
 62
    90
100
AcDbLine
 10
5034.625528
 20
32.780534
 30
0.0
 11
5031.425485
 21
-9.297131999999998
 31
0.0
  0
LINE
  5
413A
330
454E
100
AcDbEntity
  8
V0-OBRYS
  6
CONTINUOUS
 62
    90
100
AcDbLine
 10
5045.377905
 20
-12.34743
 30
0.0
 11
5055.711896
 21
30.37288300000001
 31
0.0
  0
LINE
  5
413B
330
454E
100
AcDbEntity
  8
V0-OBRYS
  6
CONTINUOUS
 62
    90
100
AcDbLine
 10
5074.388396
 20
23.751851
 30
0.0
 11
5057.973711
 21
-16.418759
 31
0.0
  0
LINE
  5
413C
330
454E
100
AcDbEntity
  8
V0-OBRYS
  6
CONTINUOUS
 62
    90
100
AcDbLine
 10
5077.629315
 20
-9.297132
 30
0.0
 11
5093.064897
 21
16.528905
 31
0.0
  0
LINE
  5
413D
330
454E
100
AcDbEntity
  8
V0-OBRYS
  6
CONTINUOUS
 62
    90
100
AcDbLine
 10
4974.989887
 20
23.751851
 30
0.0
 11
4988.494502
 21
-9.297132000000001
 31
0.0
  0
LINE
  5
413E
330
454E
100
AcDbEntity
  8
V0-OBRYS
  6
CONTINUOUS
 62
    90
100
AcDbLine
 10
5003.262515
 20
-9.297132
 30
0.0
 11
4993.666387
 21
30.372883
 31
0.0
  0
LINE
  5
413F
330
454E
100
AcDbEntity
  8
V0-OBRYS
  6
CONTINUOUS
 62
    90
100
AcDbLine
 10
5014.752755
 20
32.780534
 30
0.0
 11
5017.952797
 21
-9.297131999999998
 31
0.0
  0
LINE
  5
4140
330
454E
100
AcDbEntity
  8
V0-OBRYS
  6
CONTINUOUS
 62
    90
100
AcDbLine
 10
4974.989887
 20
23.751851
 30
0.0
 11
4991.404572
 21
-16.418759
 31
0.0
  0
LINE
  5
4141
330
454E
100
AcDbEntity
  8
V0-OBRYS
  6
CONTINUOUS
 62
    90
100
AcDbLine
 10
5004.000378
 20
-12.34743
 30
0.0
 11
4993.666387
 21
30.37288300000001
 31
0.0
  0
LINE
  5
4142
330
454E
100
AcDbEntity
  8
V0-OBRYS
  6
CONTINUOUS
 62
    90
100
AcDbLine
 10
5014.752755
 20
32.780534
 30
0.0
 11
5017.952797
 21
-9.297131999999998
 31
0.0
  0
LINE
  5
4143
330
454E
100
AcDbEntity
  8
VO-OBRYS
  6
CONTINUOUS
100
AcDbLine
 10
5067.687598
 20
-21.101927
 30
0.0
 11
5205.070392
 21
116.280867
 31
0.0
  0
LINE
  5
4144
330
454E
100
AcDbEntity
  8
V0-OBRYS
  6
CONTINUOUS
 62
    90
100
AcDbLine
 10
5110.215674
 20
-118.562726
 30
0.0
 11
5152.935987
 21
-128.896717
 31
0.0
  0
LINE
  5
4145
330
454E
100
AcDbEntity
  8
V0-OBRYS
  6
CONTINUOUS
 62
    90
100
AcDbLine
 10
5155.343637
 20
-107.810349
 30
0.0
 11
5113.265972
 21
-104.610306
 31
0.0
  0
LINE
  5
4146
330
454E
100
AcDbEntity
  8
V0-OBRYS
  6
CONTINUOUS
 62
    90
100
AcDbLine
 10
5147.065951
 20
-174.732215
 30
0.0
 11
5117.194568
 21
-169.87681
 31
0.0
  0
LINE
  5
4147
330
454E
100
AcDbEntity
  8
V0-OBRYS
  6
CONTINUOUS
 62
    90
100
AcDbLine
 10
5117.194568
 20
-169.87681
 30
0.0
 11
5112.124995
 21
-156.537048
 31
0.0
  0
LINE
  5
4148
330
454E
100
AcDbEntity
  8
V0-OBRYS
  6
CONTINUOUS
 62
    90
100
AcDbLine
 10
5115.471121
 20
-172.037944
 30
0.0
 11
5101.337729
 21
-170.063852
 31
0.0
  0
LINE
  5
4149
330
454E
100
AcDbEntity
  8
V0-OBRYS
  6
CONTINUOUS
 62
    90
100
AcDbLine
 10
5100.220092
 20
-143.016938
 30
0.0
 11
5139.092009
 21
-166.249718
 31
0.0
  0
LINE
  5
414A
330
454E
100
AcDbEntity
  8
V0-OBRYS
  6
CONTINUOUS
 62
    90
100
AcDbLine
 10
5146.314955
 20
-147.573217
 30
0.0
 11
5106.144345
 21
-131.158532
 31
0.0
  0
LINE
  5
414B
330
454E
100
AcDbEntity
  8
V0-OBRYS
  6
CONTINUOUS
 62
    90
100
AcDbLine
 10
5125.239265
 20
-181.162595
 30
0.0
 11
5092.322748
 21
-154.163465
 31
0.0
  0
LINE
  5
414C
330
454E
100
AcDbEntity
  8
V0-OBRYS
  6
CONTINUOUS
 62
    90
100
AcDbLine
 10
5188.023103
 20
-181.38954
 30
0.0
 11
5150.747088
 21
-175.33056
 31
0.0
  0
LINE
  5
414D
330
454E
100
AcDbEntity
  8
V0-OBRYS
  6
CONTINUOUS
 62
    90
100
AcDbLine
 10
5155.343637
 20
-87.93757600000001
 30
0.0
 11
5113.265972
 21
-91.137618
 31
0.0
  0
LINE
  5
414E
330
454E
100
AcDbEntity
  8
V0-OBRYS
  6
CONTINUOUS
 62
    90
100
AcDbLine
 10
5110.215674
 20
-77.185199
 30
0.0
 11
5152.935987
 21
-66.851208
 31
0.0
  0
LINE
  5
414F
330
454E
100
AcDbEntity
  8
V0-OBRYS
  6
CONTINUOUS
 62
    90
100
AcDbLine
 10
5168.294383
 20
-81.724378
 30
0.0
 11
5139.274516
 21
-73.138239
 31
0.0
  0
LINE
  5
4150
330
454E
100
AcDbEntity
  8
V0-OBRYS
  6
CONTINUOUS
 62
    90
100
AcDbLine
 10
5161.080035
 20
-50.116256
 30
0.0
 11
5138.659425
 21
-70.443349
 31
0.0
  0
LINE
  5
4151
330
454E
100
AcDbEntity
  8
V0-OBRYS
  6
CONTINUOUS
 62
    90
100
AcDbLine
 10
5100.220092
 20
-52.730987
 30
0.0
 11
5139.092009
 21
-29.498207
 31
0.0
  0
LINE
  5
4152
330
454E
100
AcDbEntity
  8
V0-OBRYS
  6
CONTINUOUS
 62
    90
100
AcDbLine
 10
5138.659425
 20
-70.443349
 30
0.0
 11
5125.069152
 21
-66.08969500000001
 31
0.0
  0
LINE
  5
4153
330
454E
100
AcDbEntity
  8
V0-OBRYS
  6
CONTINUOUS
 62
    90
100
AcDbLine
 10
5139.274516
 20
-73.138239
 30
0.0
 11
5128.919082
 21
-82.95734400000001
 31
0.0
  0
LINE
  5
4154
330
454E
100
AcDbEntity
  8
V0-OBRYS
  6
CONTINUOUS
 62
    90
100
AcDbLine
 10
5146.314955
 20
-48.174708
 30
0.0
 11
5106.144345
 21
-64.589393
 31
0.0
  0
LINE
  5
4155
330
454E
100
AcDbEntity
  8
V0-OBRYS
  6
CONTINUOUS
 62
    90
100
AcDbLine
 10
5124.851377
 20
-15.464063
 30
0.0
 11
5092.703697
 21
-42.045358
 31
0.0
  0
LINE
  5
4156
330
454E
100
AcDbEntity
  8
V0-OBRYS
  6
CONTINUOUS
 62
    90
100
AcDbLine
 10
5191.821309
 20
-22.24544
 30
0.0
 11
5163.842992
 21
-47.61129
 31
0.0
  0
LINE
  5
4157
330
454E
100
AcDbEntity
  8
V0-OBRYS
  6
CONTINUOUS
 62
    90
100
AcDbLine
 10
5101.599291
 20
24.470238
 30
0.0
 11
5076.792786
 21
7.134961999999998
 31
0.0
  0
LINE
  5
4158
330
454E
100
AcDbEntity
  8
V0-OBRYS
  6
CONTINUOUS
 62
    90
100
AcDbLine
 10
5067.114778
 20
121.792944
 30
0.0
 11
5069.53714
 21
83.55492099999999
 31
0.0
  0
LINE
  5
4159
330
454E
100
AcDbEntity
  8
V0-OBRYS
  6
CONTINUOUS
 62
    90
100
AcDbLine
 10
4982.263505
 20
121.792944
 30
0.0
 11
4979.841143
 21
83.55492099999999
 31
0.0
  0
LINE
  5
415A
330
454E
100
AcDbEntity
  8
V0-OBRYS
  6
CONTINUOUS
 62
    90
100
AcDbLine
 10
4979.612699
 20
79.94884
 30
0.0
 11
4977.225075
 21
42.259163
 31
0.0
  0
LINE
  5
415B
330
454E
100
AcDbEntity
  8
V0-OBRYS
  6
CONTINUOUS
 62
    90
100
AcDbLine
 10
4975.075949
 20
8.334301
 30
0.0
 11
4986.95317
 21
0.4234559999999998
 31
0.0
  0
LINE
  5
415C
330
454E
100
AcDbEntity
  8
V0-OBRYS
  6
CONTINUOUS
 62
    90
100
AcDbLine
 10
4976.989288
 20
38.537175
 30
0.0
 11
4975.075949
 21
8.334301
 31
0.0
  0
LINE
  5
415D
330
454E
100
AcDbEntity
  8
V0-OBRYS
  6
CONTINUOUS
 62
    90
100
AcDbLine
 10
5069.765584
 20
79.94884
 30
0.0
 11
5072.153208
 21
42.259163
 31
0.0
  0
LINE
  5
415E
330
454E
100
AcDbEntity
  8
V0-OBRYS
  6
CONTINUOUS
 62
    90
100
AcDbLine
 10
5074.302334
 20
8.334301
 30
0.0
 11
5062.425113
 21
0.4234559999999998
 31
0.0
  0
LINE
  5
415F
330
454E
100
AcDbEntity
  8
V0-OBRYS
  6
CONTINUOUS
 62
    90
100
AcDbLine
 10
5072.388995
 20
38.537175
 30
0.0
 11
5074.302334
 21
8.334301
 31
0.0
  0
ARC
  5
4160
330
454E
100
AcDbEntity
  8
V0-OBRYS
  6
CONTINUOUS
 62
    90
100
AcDbCircle
 10
5024.689141
 20
-97.87396200000001
 30
0.0
 40
274.687663
100
AcDbArc
 50
81.81284700000001
 51
98.187153
  0
LINE
  5
4161
330
454E
100
AcDbEntity
  8
V0-OBRYS
  6
CONTINUOUS
 62
    90
100
AcDbLine
 10
4985.571694
 20
174.014135
 30
0.0
 11
4985.190639
 21
167.999018
 31
0.0
  0
LINE
  5
4162
330
454E
100
AcDbEntity
  8
V0-OBRYS
  6
CONTINUOUS
 62
    90
100
AcDbLine
 10
4984.967993
 20
164.484452
 30
0.0
 11
4982.488263
 21
125.340855
 31
0.0
  0
LINE
  5
4163
330
454E
100
AcDbEntity
  8
V0-OBRYS
  6
CONTINUOUS
 62
    90
100
AcDbLine
 10
5063.806588
 20
174.014135
 30
0.0
 11
5066.890019
 21
125.340855
 31
0.0
  0
LINE
  5
4164
330
454E
100
AcDbEntity
  8
V0-OBRYS
  6
CONTINUOUS
 62
    90
100
AcDbLine
 10
5169.979692
 20
72.25581200000001
 30
0.0
 11
5138.573685
 21
50.308674
 31
0.0
  0
LINE
  5
4165
330
454E
100
AcDbEntity
  8
V0-OBRYS
  6
CONTINUOUS
 62
    90
100
AcDbLine
 10
5135.611905
 20
48.238923
 30
0.0
 11
5104.656269
 21
26.606514
 31
0.0
  0
LINE
  5
4166
330
454E
100
AcDbEntity
  8
V0-OBRYS
  6
CONTINUOUS
 62
    90
100
AcDbLine
 10
5281.055986
 20
-196.511447
 30
0.0
 11
5232.916919
 21
-188.686746
 31
0.0
  0
ARC
  5
4167
330
454E
100
AcDbEntity
  8
V0-OBRYS
  6
CONTINUOUS
 62
    90
100
AcDbCircle
 10
5024.689141
 20
-97.87396200000001
 30
0.0
 40
274.687663
100
AcDbArc
 50
338.955704
 51
355.33001
  0
LINE
  5
4168
330
454E
100
AcDbEntity
  8
V0-OBRYS
  6
CONTINUOUS
 62
    90
100
AcDbLine
 10
5248.289132
 20
-105.39251
 30
0.0
 11
5211.548843
 21
-94.522121
 31
0.0
  0
LINE
  5
4169
330
454E
100
AcDbEntity
  8
V0-OBRYS
  6
CONTINUOUS
 62
    90
100
AcDbLine
 10
5298.464888
 20
-120.238065
 30
0.0
 11
5251.698076
 21
-106.401118
 31
0.0
  0
ARC
  5
416A
330
454E
100
AcDbEntity
  8
V0-OBRYS
  6
CONTINUOUS
 62
    90
100
AcDbCircle
 10
5024.689141
 20
-97.87396200000001
 30
0.0
 40
274.687663
100
AcDbArc
 50
30.384275
 51
46.758582
  0
LINE
  5
416B
330
454E
100
AcDbEntity
  8
V0-OBRYS
  6
CONTINUOUS
 62
    90
100
AcDbLine
 10
5261.649145
 20
41.062242
 30
0.0
 11
5225.51733
 21
8.304225000000002
 31
0.0
  0
CIRCLE
  5
416C
330
454E
100
AcDbEntity
  8
V0-OBRYS
  6
CONTINUOUS
 62
    90
100
AcDbCircle
 10
5024.689141
 20
212.10526
 30
0.0
 40
6.050964
  0
CIRCLE
  5
41B1
330
454E
100
AcDbEntity
  8
V0-OBRYS
  6
CONTINUOUS
 62
    90
100
AcDbCircle
 10
4869.69953
 20
170.575919
 30
0.0
 40
6.050964
  0
CIRCLE
  5
41B2
330
454E
100
AcDbEntity
  8
V0-OBRYS
  6
CONTINUOUS
 62
    90
100
AcDbCircle
 10
4756.23926
 20
57.115649
 30
0.0
 40
6.050964
  0
CIRCLE
  5
41B3
330
454E
100
AcDbEntity
  8
V0-OBRYS
  6
CONTINUOUS
 62
    90
100
AcDbCircle
 10
4714.709919
 20
-97.87396200000001
 30
0.0
 40
6.050964
  0
CIRCLE
  5
41B4
330
454E
100
AcDbEntity
  8
V0-OBRYS
  6
CONTINUOUS
 62
    90
100
AcDbCircle
 10
4756.23926
 20
-252.863574
 30
0.0
 40
6.050964
  0
CIRCLE
  5
41B5
330
454E
100
AcDbEntity
  8
V0-OBRYS
  6
CONTINUOUS
 62
    90
100
AcDbCircle
 10
4869.69953
 20
-366.323844
 30
0.0
 40
6.050964
  0
CIRCLE
  5
41B6
330
454E
100
AcDbEntity
  8
V0-OBRYS
  6
CONTINUOUS
 62
    90
100
AcDbCircle
 10
5024.689141
 20
-407.853185
 30
0.0
 40
6.050964
  0
CIRCLE
  5
41B7
330
454E
100
AcDbEntity
  8
V0-OBRYS
  6
CONTINUOUS
 62
    90
100
AcDbCircle
 10
5179.678753
 20
-366.323844
 30
0.0
 40
6.050964
  0
CIRCLE
  5
41B8
330
454E
100
AcDbEntity
  8
V0-OBRYS
  6
CONTINUOUS
 62
    90
100
AcDbCircle
 10
5293.139023
 20
-252.863574
 30
0.0
 40
6.050964
  0
CIRCLE
  5
41B9
330
454E
100
AcDbEntity
  8
V0-OBRYS
  6
CONTINUOUS
 62
    90
100
AcDbCircle
 10
5334.668364
 20
-97.87396200000001
 30
0.0
 40
6.050964
  0
CIRCLE
  5
41BA
330
454E
100
AcDbEntity
  8
V0-OBRYS
  6
CONTINUOUS
 62
    90
100
AcDbCircle
 10
5293.139023
 20
57.115649
 30
0.0
 40
6.050964
  0
CIRCLE
  5
41BB
330
454E
100
AcDbEntity
  8
V0-OBRYS
  6
CONTINUOUS
 62
    90
100
AcDbCircle
 10
5179.678753
 20
170.575919
 30
0.0
 40
6.050964
  0
DIMENSION
  5
41CF
330
454E
100
AcDbEntity
  8
V0-VYPLNE
  6
CONTINUOUS
 62
    41
100
AcDbDimension
  2
*D9
 10
4568.610838999972
 20
-425.845682
 30
0.0
 11
4551.610838999972
 21
-98.37396199999995
 31
0.0
 70
    32
  3
ED30
100
AcDbAlignedDimension
 13
4374.689549
 23
229.097758
 33
0.0
 14
4374.689549
 24
-425.845682
 34
0.0
 50
90.0
100
AcDbRotatedDimension
1001
ACAD
1000
DSTYLE
1002
{
1070
    41
1040
30.0
1070
   140
1040
30.0
1002
}
  0
DIMENSION
  5
41DC
330
454E
100
AcDbEntity
  8
V0-VYPLNE
  6
CONTINUOUS
 62
    41
100
AcDbDimension
  2
*D10
 10
4490.684483999852
 20
-407.763082
 30
0.0
 11
4473.684483999852
 21
-97.87396200000001
 31
0.0
 70
    32
  3
ED30
100
AcDbAlignedDimension
 13
4399.979065
 23
212.015158
 33
0.0
 14
4399.979065
 24
-407.763082
 34
0.0
 50
90.0
100
AcDbRotatedDimension
1001
ACAD
1000
DSTYLE
1002
{
1070
    41
1040
30.0
1070
   140
1040
30.0
1002
}
  0
INSERT
  5
4214
330
454E
100
AcDbEntity
  8
V0-VYPLNE
  6
CONTINUOUS
 62
    41
100
AcDbBlockReference
  2
ASVORK
 10
4184.689275
 20
182.126038
 30
0.0
  0
INSERT
  5
4215
330
454E
100
AcDbEntity
  8
V0-VYPLNE
  6
CONTINUOUS
 62
    41
100
AcDbBlockReference
  2
ASVORKP
 10
4183.723746
 20
-976.468394
 30
0.0
  0
LINE
  5
421B
330
454E
100
AcDbEntity
  8
V0-OBRYS
  6
CONTINUOUS
 62
    90
100
AcDbLine
 10
4135.123149
 20
229.097758
 30
0.0
 11
4139.532589
 21
229.097758
 31
0.0
  0
LINE
  5
421C
330
454E
100
AcDbEntity
  8
V0-OBRYS
  6
CONTINUOUS
 62
    90
100
AcDbLine
 10
4370.280109
 20
229.097758
 30
0.0
 11
4375.689549
 21
229.097758
 31
0.0
  0
LINE
  5
421D
330
454E
100
AcDbEntity
  8
V0-OBRYS
  6
CONTINUOUS
 62
    90
100
AcDbLine
 10
4135.123149
 20
-424.845682
 30
0.0
 11
4139.532589
 21
-424.845682
 31
0.0
  0
LINE
  5
421F
330
454E
100
AcDbEntity
  8
V0-OBRYS
  6
CONTINUOUS
 62
    90
100
AcDbLine
 10
4374.689549
 20
-424.845682
 30
0.0
 11
4370.280109
 21
-424.845682
 31
0.0
  0
LINE
  5
4225
330
454E
100
AcDbEntity
  8
V0-OBRYS
  6
CONTINUOUS
 62
    90
100
AcDbLine
 10
4139.532589
 20
-649.6882470000001
 30
0.0
 11
4135.123149
 21
-649.6882470000001
 31
0.0
  0
LINE
  5
4226
330
454E
100
AcDbEntity
  8
V0-OBRYS
  6
CONTINUOUS
 62
    90
100
AcDbLine
 10
4370.280109
 20
-649.6882470000001
 30
0.0
 11
4374.689549
 21
-649.6882470000001
 31
0.0
  0
LINE
  5
4227
330
454E
100
AcDbEntity
  8
V0-OBRYS
  6
CONTINUOUS
 62
    90
100
AcDbLine
 10
4139.532589
 20
-1303.631687
 30
0.0
 11
4135.123149
 21
-1303.631687
 31
0.0
  0
LINE
  5
4229
330
454E
100
AcDbEntity
  8
V0-OBRYS
  6
CONTINUOUS
 62
    90
100
AcDbLine
 10
4370.280109
 20
-1303.631687
 30
0.0
 11
4374.689549
 21
-1303.631687
 31
0.0
  0
POINT
  5
422F
330
454E
100
AcDbEntity
  8
V0-VYPLNE
  6
CONTINUOUS
 62
    41
100
AcDbPoint
 10
4135.123149
 20
-97.87396200000001
 30
0.0
  0
POINT
  5
4230
330
454E
100
AcDbEntity
  8
V0-VYPLNE
  6
CONTINUOUS
 62
    41
100
AcDbPoint
 10
4374.689549
 20
-97.87396200000001
 30
0.0
  0
POINT
  5
4231
330
454E
100
AcDbEntity
  8
V0-VYPLNE
  6
CONTINUOUS
 62
    41
100
AcDbPoint
 10
4135.123149
 20
-976.6599670000001
 30
0.0
  0
POINT
  5
4232
330
454E
100
AcDbEntity
  8
V0-VYPLNE
  6
CONTINUOUS
 62
    41
100
AcDbPoint
 10
4374.689549
 20
-976.6599670000001
 30
0.0
  0
LWPOLYLINE
  5
4524
330
454E
100
AcDbEntity
  8
V0-VYPLNE
  6
CONTINUOUS
 62
    41
100
AcDbPolyline
 90
        4
 70
     1
 43
0.0
 10
4851.514883879171
 20
-390.7024954282522
 10
4869.69953
 20
-366.323844
 10
4860.404427375946
 20
-395.2824535523993
 10
4860.404427375946
 20
-395.2824535523993
1001
VDEXTRAPARAM
1071
       65
1071
        0
1071
        0
1040
1.0
1000

1000

1040
0.0
1040
0.0
  0
HATCH
  5
45C2
330
454E
100
AcDbEntity
  8
V0-VYPLNE
  6
CONTINUOUS
 62
    41
100
AcDbHatch
 10
0.0
 20
0.0
 30
0.0
210
0.0
220
0.0
230
1.0
  2
SOLID
 70
     1
 71
     0
 91
        1
 92
        2
 72
     0
 73
     1
 93
        3
 10
4851.514883879171
 20
-390.7024954282522
 10
4869.69953
 20
-366.323844
 10
4860.404427375946
 20
-395.2824535523993
 97
        0
 75
     0
 76
     1
 98
        1
 10
0.0
 20
0.0
1001
VDEXTRAPARAM
1071
       65
1071
        0
1071
        0
1040
1.0
1000

1000

1040
0.0
1040
0.0
1001
VD_TEMPHATCH
1000
VD_TEMPHATCH
  0
LWPOLYLINE
  5
4525
330
454E
100
AcDbEntity
  8
V0-VYPLNE
  6
CONTINUOUS
 62
    41
100
AcDbPolyline
 90
        3
 70
     0
 43
0.0
 10
4855.959655627558
 20
-392.9924744903258
 10
4785.207726
 20
-530.319572
 10
4490.405954
 20
-530.319572
  0
TEXT
  5
452A
330
454E
100
AcDbEntity
  8
V0-VYPLNE
  6
CONTINUOUS
 62
    41
100
AcDbText
 10
4378.922011714286
 20
-528.316619
 30
0.0
 40
30.0
  1
12 OTVORU %%c12
  7
ED40
100
AcDbText
  0
VIEWPORT
  5
45C3
330
454A
100
AcDbEntity
 67
     1
  8
0
 60
     1
100
AcDbViewport
 10
261.517699
 20
148.5
 30
0.0
 40
297.0
 41
297.0
 68
     0
 69
     1
1001
VD_INVISIBLE_NOT_FOR_READ
1000
VD_INVISIBLE_NOT_FOR_READ
1001
ACAD
1000
MVIEW
1002
{
1070
    16
1010
0.0
1020
0.0
1030
0.0
1010
0.0
1020
0.0
1030
1.0
1040
6.2831853071796
1040
297.0
1040
261.517699
1040
148.5
1040
0.0
1040
0.0
1040
0.0
1070
     0
1070
   100
1070
     0
1070
     1
1070
     0
1070
     0
1070
     0
1070
     0
1040
0.0
1040
0.0
1040
0.0
1040
1.0
1040
1.0
1040
0.0
1040
0.0
1070
     0
1002
{
1002
}
1002
}
  0
VIEWPORT
  5
45C4
330
454A
100
AcDbEntity
 67
     1
  8
0
 60
     1
100
AcDbViewport
 10
261.517699
 20
148.5
 30
0.0
 40
297.0
 41
297.0
 68
     0
 69
     2
1001
VD_INVISIBLE_NOT_FOR_READ
1000
VD_INVISIBLE_NOT_FOR_READ
1001
ACAD
1000
MVIEW
1002
{
1070
    16
1010
0.0
1020
0.0
1030
0.0
1010
0.0
1020
0.0
1030
1.0
1040
6.2831853071796
1040
297.0
1040
261.517699
1040
148.5
1040
0.0
1040
0.0
1040
0.0
1070
     0
1070
   100
1070
     0
1070
     1
1070
     0
1070
     0
1070
     0
1070
     0
1040
0.0
1040
0.0
1040
0.0
1040
1.0
1040
1.0
1040
0.0
1040
0.0
1070
     0
1002
{
1002
}
1002
}
  0
ENDSEC
  0
SECTION
  2
OBJECTS
  0
DICTIONARY
  5
453B
330
0
100
AcDbDictionary
  3
ACAD_GROUP
350
453C
  3
ACAD_LAYOUT
350
4549
  3
ACAD_MLINESTYLE
350
4546
  3
ACAD_PLOTSETTINGS
350
4548
  3
ACDBHEADERROUNDTRIPXREC
350
45C5
  3
VECTORDRAW_OBJECTS
350
455E
  0
DICTIONARY
  5
45E5
330
4558
100
AcDbDictionary
280
     1
  3
ACAD_XREC_ROUNDTRIP
360
45E6
  0
DICTIONARY
  5
453C
102
{ACAD_REACTORS
330
453B
102
}
330
453B
100
AcDbDictionary
  0
DICTIONARY
  5
4549
102
{ACAD_REACTORS
330
453B
102
}
330
453B
100
AcDbDictionary
  0
DICTIONARY
  5
4546
102
{ACAD_REACTORS
330
453B
102
}
330
453B
100
AcDbDictionary
  3
STANDARD
350
4547
  0
DICTIONARY
  5
4548
102
{ACAD_REACTORS
330
453B
102
}
330
453B
100
AcDbDictionary
  0
DICTIONARY
  5
45C5
102
{ACAD_REACTORS
330
453B
102
}
330
453B
100
AcDbDictionary
  3
CEPSNTYPE
350
45CE
  3
DIMSTYLEDATA
350
45E4
  3
FINGERPRINTGUID
350
45CF
  3
HYPERLINKBASE
350
45C8
  3
INSUNITS
350
45CD
  3
LAYOUTDICT
350
45CA
  3
LWETCUNION
350
45CC
  3
PLOTSETDICT
350
45CB
  3
PSVPSCALE
350
45D1
  3
PUCSBASE
350
45D4
  3
PUCSORGBACK
350
45DA
  3
PUCSORGBOTTOM
350
45D6
  3
PUCSORGFRONT
350
45D9
  3
PUCSORGLEFT
350
45D7
  3
PUCSORGRIGHT
350
45D8
  3
PUCSORGTOP
350
45D5
  3
PUCSORTHOREF
350
45D2
  3
PUCSORTHOVIEW
350
45D3
  3
STYLESHEET
350
45C9
  3
TSTACKALIGN
350
45C6
  3
TSTACKSIZE
350
45C7
  3
UCSBASE
350
45DD
  3
UCSORGBACK
350
45E3
  3
UCSORGBOTTOM
350
45DF
  3
UCSORGFRONT
350
45E2
  3
UCSORGLEFT
350
45E0
  3
UCSORGRIGHT
350
45E1
  3
UCSORGTOP
350
45DE
  3
UCSORTHOREF
350
45DB
  3
UCSORTHOVIEW
350
45DC
  3
VERSIONGUID
350
45D0
  0
DICTIONARY
  5
455E
102
{ACAD_REACTORS
330
453B
102
}
330
453B
100
AcDbDictionary
  3
SERIALNO
350
455F
  0
XRECORD
  5
45E6
102
{ACAD_REACTORS
330
45E5
102
}
330
45E5
100
AcDbXrecord
102
UCS
 74
     0
 71
     1
 10
0.0
 20
0.0
 30
0.0
 10
1.0
 20
0.0
 30
0.0
 10
0.0
 20
1.0
 30
0.0
146
0.0
 79
     0
102
VIEW
281
     0
  0
MLINESTYLE
  5
4547
102
{ACAD_REACTORS
330
4546
102
}
330
4546
100
AcDbMlineStyle
  2
Standard
 70
     0
  3

 62
   256
 51
90.0
 52
90.0
 71
     2
 49
0.5
 62
   256
  6
BYLAYER
 49
-0.5
 62
   256
  6
BYLAYER
  0
XRECORD
  5
45CE
102
{ACAD_REACTORS
330
45C5
102
}
330
45C5
100
AcDbXrecord
 90
        0
  0
XRECORD
  5
45E4
102
{ACAD_REACTORS
330
45C5
102
}
330
45C5
100
AcDbXrecord
1000
DSTYLE
1002
{
1070
    41
 40
40.0
1070
   342
340
90
1070
   177
 70
    41
1070
   178
 70
    41
1070
   271
 70
     0
1070
    44
 40
1.25
1070
    42
 40
1.0
1070
   147
 40
2.0
1070
    77
 70
     1
1070
    73
 70
     0
1070
   174
 70
     1
1070
   172
 70
     1
1070
    74
 70
     0
1070
   340
340
F39
1070
   140
 40
40.0
1070
   288
 70
     1
1002
}
  0
XRECORD
  5
45CF
102
{ACAD_REACTORS
330
45C5
102
}
330
45C5
100
AcDbXrecord
  1
{FAEB1C30-E019-11D5-929B-00C0DF256EC4}
  0
XRECORD
  5
45C8
102
{ACAD_REACTORS
330
45C5
102
}
330
45C5
100
AcDbXrecord
  1

  0
XRECORD
  5
45CD
102
{ACAD_REACTORS
330
45C5
102
}
330
45C5
100
AcDbXrecord
 90
        1
  0
XRECORD
  5
45CA
102
{ACAD_REACTORS
330
45C5
102
}
330
45C5
100
AcDbXrecord
340
4549
  0
XRECORD
  5
45CC
102
{ACAD_REACTORS
330
45C5
102
}
330
45C5
100
AcDbXrecord
 90
     2560
  0
XRECORD
  5
45CB
102
{ACAD_REACTORS
330
45C5
102
}
330
45C5
100
AcDbXrecord
340
4548
  0
XRECORD
  5
45D1
102
{ACAD_REACTORS
330
45C5
102
}
330
45C5
100
AcDbXrecord
 40
0.0
  0
XRECORD
  5
45D4
102
{ACAD_REACTORS
330
45C5
102
}
330
45C5
100
AcDbXrecord
340
0
  0
XRECORD
  5
45DA
102
{ACAD_REACTORS
330
45C5
102
}
330
45C5
100
AcDbXrecord
 10
0.0
 20
0.0
 30
0.0
  0
XRECORD
  5
45D6
102
{ACAD_REACTORS
330
45C5
102
}
330
45C5
100
AcDbXrecord
 10
0.0
 20
0.0
 30
0.0
  0
XRECORD
  5
45D9
102
{ACAD_REACTORS
330
45C5
102
}
330
45C5
100
AcDbXrecord
 10
0.0
 20
0.0
 30
0.0
  0
XRECORD
  5
45D7
102
{ACAD_REACTORS
330
45C5
102
}
330
45C5
100
AcDbXrecord
 10
0.0
 20
0.0
 30
0.0
  0
XRECORD
  5
45D8
102
{ACAD_REACTORS
330
45C5
102
}
330
45C5
100
AcDbXrecord
 10
0.0
 20
0.0
 30
0.0
  0
XRECORD
  5
45D5
102
{ACAD_REACTORS
330
45C5
102
}
330
45C5
100
AcDbXrecord
 10
0.0
 20
0.0
 30
0.0
  0
XRECORD
  5
45D2
102
{ACAD_REACTORS
330
45C5
102
}
330
45C5
100
AcDbXrecord
340
0
  0
XRECORD
  5
45D3
102
{ACAD_REACTORS
330
45C5
102
}
330
45C5
100
AcDbXrecord
 70
     0
  0
XRECORD
  5
45C9
102
{ACAD_REACTORS
330
45C5
102
}
330
45C5
100
AcDbXrecord
  1

  0
XRECORD
  5
45C6
102
{ACAD_REACTORS
330
45C5
102
}
330
45C5
100
AcDbXrecord
 90
        1
  0
XRECORD
  5
45C7
102
{ACAD_REACTORS
330
45C5
102
}
330
45C5
100
AcDbXrecord
 90
       70
  0
XRECORD
  5
45DD
102
{ACAD_REACTORS
330
45C5
102
}
330
45C5
100
AcDbXrecord
340
0
  0
XRECORD
  5
45E3
102
{ACAD_REACTORS
330
45C5
102
}
330
45C5
100
AcDbXrecord
 10
0.0
 20
0.0
 30
0.0
  0
XRECORD
  5
45DF
102
{ACAD_REACTORS
330
45C5
102
}
330
45C5
100
AcDbXrecord
 10
0.0
 20
0.0
 30
0.0
  0
XRECORD
  5
45E2
102
{ACAD_REACTORS
330
45C5
102
}
330
45C5
100
AcDbXrecord
 10
0.0
 20
0.0
 30
0.0
  0
XRECORD
  5
45E0
102
{ACAD_REACTORS
330
45C5
102
}
330
45C5
100
AcDbXrecord
 10
0.0
 20
0.0
 30
0.0
  0
XRECORD
  5
45E1
102
{ACAD_REACTORS
330
45C5
102
}
330
45C5
100
AcDbXrecord
 10
0.0
 20
0.0
 30
0.0
  0
XRECORD
  5
45DE
102
{ACAD_REACTORS
330
45C5
102
}
330
45C5
100
AcDbXrecord
 10
0.0
 20
0.0
 30
0.0
  0
XRECORD
  5
45DB
102
{ACAD_REACTORS
330
45C5
102
}
330
45C5
100
AcDbXrecord
340
0
  0
XRECORD
  5
45DC
102
{ACAD_REACTORS
330
45C5
102
}
330
45C5
100
AcDbXrecord
 70
     0
  0
XRECORD
  5
45D0
102
{ACAD_REACTORS
330
45C5
102
}
330
45C5
100
AcDbXrecord
  1
{FAEB1C32-E019-11D5-929B-00C0DF256EC4}
  0
XRECORD
  5
455F
102
{ACAD_REACTORS
330
455E
102
}
330
455E
100
AcDbXrecord
1000
rInJVR9YY4Q8hfPWdUq5j5319
1070
     4
1070
     6
  0
ENDSEC
  0
EOF
