  0
SECTION
  2
HEADER
  9
$ACADVER
  1
AC1014
  9
$ACADMAINTVER
 70
     9
  9
$DWGCODEPAGE
  3
ANSI_1250
  9
$INSBASE
 10
0.0
 20
0.0
 30
0.0
  9
$EXTMIN
 10
833.7286022307691
 20
-1021.316277
 30
0.0
  9
$EXTMAX
 10
2000.66000589011
 20
144.193221
 30
0.0
  9
$LIMMIN
 10
0.0
 20
0.0
  9
$LIMMAX
 10
0.0
 20
0.0
  9
$ORTHOMODE
 70
     0
  9
$REGENMODE
 70
     1
  9
$FILLMODE
 70
     1
  9
$QTEXTMODE
 70
     0
  9
$MIRRTEXT
 70
     1
  9
$DRAGMODE
 70
     2
  9
$LTSCALE
 40
1.0
  9
$OSMODE
 70
    37
  9
$ATTMODE
 70
     1
  9
$TEXTSIZE
 40
0.2
  9
$TRACEWID
 40
0.05
  9
$TEXTSTYLE
  7
ED30
  9
$CLAYER
  8
V0-VYPLNE
  9
$CELTYPE
  6
CONTINUOUS
  9
$CECOLOR
 62
    41
  9
$CELTSCALE
 40
1.0
  9
$DELOBJ
 70
     1
  9
$DISPSILH
 70
     0
  9
$DIMSCALE
 40
1.0
  9
$DIMASZ
 40
40.0
  9
$DIMEXO
 40
1.0
  9
$DIMDLI
 40
0.38
  9
$DIMRND
 40
0.0
  9
$DIMDLE
 40
0.0
  9
$DIMEXE
 40
1.25
  9
$DIMTP
 40
0.0
  9
$DIMTM
 40
0.0
  9
$DIMTXT
 40
40.0
  9
$DIMCEN
 40
0.09
  9
$DIMTSZ
 40
0.0
  9
$DIMTOL
 70
     0
  9
$DIMLIM
 70
     0
  9
$DIMTIH
 70
     0
  9
$DIMTOH
 70
     0
  9
$DIMSE1
 70
     0
  9
$DIMSE2
 70
     0
  9
$DIMTAD
 70
     1
  9
$DIMZIN
 70
     0
  9
$DIMBLK
  1
OPEN
  9
$DIMASO
 70
     1
  9
$DIMSHO
 70
     1
  9
$DIMPOST
  1

  9
$DIMAPOST
  1

  9
$DIMALT
 70
     0
  9
$DIMALTD
 70
     2
  9
$DIMALTF
 40
25.4
  9
$DIMLFAC
 40
1.0
  9
$DIMTOFL
 70
     1
  9
$DIMTVP
 40
0.0
  9
$DIMTIX
 70
     1
  9
$DIMSOXD
 70
     0
  9
$DIMSAH
 70
     0
  9
$DIMBLK1
  1

  9
$DIMBLK2
  1

  9
$DIMSTYLE
  2
ED30
  9
$DIMCLRD
 70
     0
  9
$DIMCLRE
 70
    41
  9
$DIMCLRT
 70
    41
  9
$DIMTFAC
 40
1.0
  9
$DIMGAP
 40
2.0
  9
$DIMJUST
 70
     0
  9
$DIMSD1
 70
     0
  9
$DIMSD2
 70
     0
  9
$DIMTOLJ
 70
     1
  9
$DIMTZIN
 70
     0
  9
$DIMALTZ
 70
     0
  9
$DIMALTTZ
 70
     0
  9
$DIMFIT
 70
     3
  9
$DIMUPT
 70
     1
  9
$DIMUNIT
 70
     2
  9
$DIMDEC
 70
     0
  9
$DIMTDEC
 70
     4
  9
$DIMALTU
 70
     2
  9
$DIMALTTD
 70
     2
  9
$DIMTXSTY
  7
ED40
  9
$DIMAUNIT
 70
     0
  9
$LUNITS
 70
     2
  9
$LUPREC
 70
     4
  9
$SKETCHINC
 40
0.1
  9
$FILLETRAD
 40
0.5
  9
$AUNITS
 70
     0
  9
$AUPREC
 70
     0
  9
$MENU
  1
.
  9
$ELEVATION
 40
0.0
  9
$PELEVATION
 40
0.0
  9
$THICKNESS
 40
0.0
  9
$LIMCHECK
 70
     0
  9
$BLIPMODE
 70
     0
  9
$CHAMFERA
 40
0.5
  9
$CHAMFERB
 40
0.5
  9
$CHAMFERC
 40
1.0
  9
$CHAMFERD
 40
0.0
  9
$SKPOLY
 70
     0
  9
$TDCREATE
 40
2455576.651511134
  9
$TDUPDATE
 40
2455576.651511146
  9
$TDINDWG
 40
0.0000000116
  9
$TDUSRTIMER
 40
0.0000000116
  9
$USRTIMER
 70
     1
  9
$ANGBASE
 50
0.0
  9
$ANGDIR
 70
     0
  9
$PDMODE
 70
    35
  9
$PDSIZE
 40
20.0
  9
$PLINEWID
 40
0.0
  9
$COORDS
 70
     1
  9
$SPLFRAME
 70
     0
  9
$SPLINETYPE
 70
     6
  9
$SPLINESEGS
 70
     8
  9
$ATTDIA
 70
     0
  9
$ATTREQ
 70
     1
  9
$HANDLING
 70
     1
  9
$HANDSEED
  5
3C4C
  9
$SURFTAB1
 70
     6
  9
$SURFTAB2
 70
     6
  9
$SURFTYPE
 70
     6
  9
$SURFU
 70
     6
  9
$SURFV
 70
     6
  9
$UCSNAME
  2

  9
$UCSORG
 10
0.0
 20
0.0
 30
0.0
  9
$UCSXDIR
 10
1.0
 20
0.0
 30
0.0
  9
$UCSYDIR
 10
0.0
 20
1.0
 30
0.0
  9
$PUCSNAME
  2

  9
$PUCSORG
 10
0.0
 20
0.0
 30
0.0
  9
$PUCSXDIR
 10
1.0
 20
0.0
 30
0.0
  9
$PUCSYDIR
 10
0.0
 20
1.0
 30
0.0
  9
$USERI1
 70
     0
  9
$USERI2
 70
     0
  9
$USERI3
 70
     0
  9
$USERI4
 70
     0
  9
$USERI5
 70
     0
  9
$USERR1
 40
0.0
  9
$USERR2
 40
0.0
  9
$USERR3
 40
0.0
  9
$USERR4
 40
0.0
  9
$USERR5
 40
0.0
  9
$WORLDVIEW
 70
     1
  9
$SHADEDGE
 70
     3
  9
$SHADEDIF
 70
    70
  9
$TILEMODE
 70
     1
  9
$MAXACTVP
 70
    64
  9
$PINSBASE
 10
0.0
 20
0.0
 30
0.0
  9
$PLIMCHECK
 70
     0
  9
$PEXTMIN
 10
1.000000000000000E+20
 20
1.000000000000000E+20
 30
1.000000000000000E+20
  9
$PEXTMAX
 10
-1.000000000000000E+20
 20
-1.000000000000000E+20
 30
-1.000000000000000E+20
  9
$PLIMMIN
 10
0.0
 20
0.0
  9
$PLIMMAX
 10
0.0
 20
0.0
  9
$UNITMODE
 70
     0
  9
$VISRETAIN
 70
     1
  9
$PLINEGEN
 70
     0
  9
$PSLTSCALE
 70
     1
  9
$TREEDEPTH
 70
  3020
  9
$PICKSTYLE
 70
     1
  9
$CMLSTYLE
  2
STANDARD
  9
$CMLJUST
 70
     0
  9
$CMLSCALE
 40
1.0
  9
$PROXYGRAPHICS
 70
     1
  9
$MEASUREMENT
 70
     0
  0
ENDSEC
  0
SECTION
  2
CLASSES
  0
CLASS
  1
ACDBDICTIONARYWDFLT
  2
AcDbDictionaryWithDefault
  3
ObjectDBX Classes
 90
        0
280
     0
281
     0
  0
CLASS
  1
XRECORD
  2
AcDbXrecord
  3
AutoCAD 2000
 90
        0
280
     0
281
     0
  0
CLASS
  1
LWPOLYLINE
  2
AcDbPolyline
  3
AutoCAD 2000
 90
        0
280
     0
281
     1
  0
CLASS
  1
HATCH
  2
AcDbHatch
  3
AutoCAD 2000
 90
        0
280
     0
281
     1
  0
CLASS
  1
ACDBPLACEHOLDER
  2
AcDbPlaceHolder
  3
ObjectDBX Classes
 90
        0
280
     0
281
     0
  0
CLASS
  1
LAYOUT
  2
AcDbLayout
  3
ObjectDBX Classes
 90
        0
280
     0
281
     0
  0
ENDSEC
  0
SECTION
  2
TABLES
  0
TABLE
  2
VPORT
  5
3B99
330
0
100
AcDbSymbolTable
 70
     2
  0
VPORT
  5
3BBA
102
{ACAD_XDICTIONARY
360
3C4A
102
}
330
3B99
100
AcDbSymbolTableRecord
100
AcDbViewportTableRecord
  2
*ACTIVE
 70
     0
 10
0.0
 20
0.0
 11
1.0
 21
1.0
 12
1405.139489
 22
-447.488573
 13
0.0
 23
0.0
 14
10.0
 24
10.0
 15
10.0
 25
10.0
 16
0.0
 26
0.0
 36
1.0
 17
0.0
 27
0.0
 37
0.0
 40
1435.013748
 41
0.0123739279713528
 42
50.0
 43
0.0
 44
0.0
 50
0.0
 51
0.0000000000007958
 71
     0
 72
   100
 73
     1
 74
     3
 75
     0
 76
     0
 77
     0
 78
     0
  0
ENDTAB
  0
TABLE
  2
LTYPE
  5
3B96
330
0
100
AcDbSymbolTable
 70
    25
  0
LTYPE
  5
3BA5
330
3B96
100
AcDbSymbolTableRecord
100
AcDbLinetypeTableRecord
  2
BYBLOCK
 70
     0
  3

 72
    65
 73
     0
 40
0.0
  0
LTYPE
  5
3BA6
330
3B96
100
AcDbSymbolTableRecord
100
AcDbLinetypeTableRecord
  2
BYLAYER
 70
     0
  3

 72
    65
 73
     0
 40
0.0
  0
LTYPE
  5
3BA7
330
3B96
100
AcDbSymbolTableRecord
100
AcDbLinetypeTableRecord
  2
CONTINUOUS
 70
     0
  3
Solid line
 72
    65
 73
     0
 40
0.0
  0
LTYPE
  5
3BC2
330
3B96
100
AcDbSymbolTableRecord
100
AcDbLinetypeTableRecord
  2
CENTER
 70
     0
  3
Center ____ _ ____ _ ____ _ ____ _ ____ _ ____
 72
    65
 73
     4
 40
2.0
 49
1.25
 74
     0
 49
-0.25
 74
     0
 49
0.25
 74
     0
 49
-0.25
 74
     0
  0
LTYPE
  5
3BC3
330
3B96
100
AcDbSymbolTableRecord
100
AcDbLinetypeTableRecord
  2
DASHDOT
 70
     0
  3
Dashdot __ . __ . __ . __ . __ . __ . __ . __
 72
    65
 73
     4
 40
1.0
 49
0.5
 74
     0
 49
-0.25
 74
     0
 49
0.0
 74
     0
 49
-0.25
 74
     0
  0
LTYPE
  5
3BC4
330
3B96
100
AcDbSymbolTableRecord
100
AcDbLinetypeTableRecord
  2
DASHED
 70
     0
  3
Dashed __ __ __ __ __ __ __ __ __ __ __ __ __ _
 72
    65
 73
     2
 40
0.75
 49
0.5
 74
     0
 49
-0.25
 74
     0
  0
LTYPE
  5
3BC5
330
3B96
100
AcDbSymbolTableRecord
100
AcDbLinetypeTableRecord
  2
HIDDEN
 70
     0
  3
Hidden __ __ __ __ __ __ __ __ __ __ __ __ __ __
 72
    65
 73
     2
 40
0.375
 49
0.25
 74
     0
 49
-0.125
 74
     0
  0
LTYPE
  5
3BC6
330
3B96
100
AcDbSymbolTableRecord
100
AcDbLinetypeTableRecord
  2
HIDDEN2
 70
     0
  3
Hidden2 _ _ _ _ _ _ _ _ _ _ _ _ _ _ _ _ _ 
 72
    65
 73
     2
 40
0.1875
 49
0.125
 74
     0
 49
-0.0625
 74
     0
  0
LTYPE
  5
3BC7
330
3B96
100
AcDbSymbolTableRecord
100
AcDbLinetypeTableRecord
  2
BORDER
 70
     0
  3
Border __ __ . __ __ . __ __ . __ __ . __ __ .
 72
    65
 73
     6
 40
1.75
 49
0.5
 74
     0
 49
-0.25
 74
     0
 49
0.5
 74
     0
 49
-0.25
 74
     0
 49
0.0
 74
     0
 49
-0.25
 74
     0
  0
LTYPE
  5
3BC8
330
3B96
100
AcDbSymbolTableRecord
100
AcDbLinetypeTableRecord
  2
BORDER2
 70
     0
  3
Border2 __.__.__.__.__.__.__.__.__.__.__.
 72
    65
 73
     6
 40
0.875
 49
0.25
 74
     0
 49
-0.125
 74
     0
 49
0.25
 74
     0
 49
-0.125
 74
     0
 49
0.0
 74
     0
 49
-0.125
 74
     0
  0
LTYPE
  5
3BC9
330
3B96
100
AcDbSymbolTableRecord
100
AcDbLinetypeTableRecord
  2
BORDERX2
 70
     0
  3
Borderx2  ____  ____  .  ____  ____  .  ___
 72
    65
 73
     6
 40
3.5
 49
1.0
 74
     0
 49
-0.5
 74
     0
 49
1.0
 74
     0
 49
-0.5
 74
     0
 49
0.0
 74
     0
 49
-0.5
 74
     0
  0
LTYPE
  5
3BCA
330
3B96
100
AcDbSymbolTableRecord
100
AcDbLinetypeTableRecord
  2
CENTER2
 70
     0
  3
Center2  ___ _ ___ _ ___ _ ___ _ ___ _ ___
 72
    65
 73
     4
 40
1.125
 49
0.75
 74
     0
 49
-0.125
 74
     0
 49
0.125
 74
     0
 49
-0.125
 74
     0
  0
LTYPE
  5
3BCB
330
3B96
100
AcDbSymbolTableRecord
100
AcDbLinetypeTableRecord
  2
CENTERX2
 70
     0
  3
Centerx2  ________  __  ________  __  _____
 72
    65
 73
     4
 40
4.0
 49
2.5
 74
     0
 49
-0.5
 74
     0
 49
0.5
 74
     0
 49
-0.5
 74
     0
  0
LTYPE
  5
3BCC
330
3B96
100
AcDbSymbolTableRecord
100
AcDbLinetypeTableRecord
  2
DASHDOT2
 70
     0
  3
Dashdot2  _._._._._._._._._._._._._._._.
 72
    65
 73
     4
 40
0.5
 49
0.25
 74
     0
 49
-0.125
 74
     0
 49
0.0
 74
     0
 49
-0.125
 74
     0
  0
LTYPE
  5
3BCD
330
3B96
100
AcDbSymbolTableRecord
100
AcDbLinetypeTableRecord
  2
DASHDOTX2
 70
     0
  3
Dashdotx2 ____  .  ____  .  ____  .  ___
 72
    65
 73
     4
 40
2.0
 49
1.0
 74
     0
 49
-0.5
 74
     0
 49
0.0
 74
     0
 49
-0.5
 74
     0
  0
LTYPE
  5
3BCE
330
3B96
100
AcDbSymbolTableRecord
100
AcDbLinetypeTableRecord
  2
DASHED2
 70
     0
  3
Dashed2 _ _ _ _ _ _ _ _ _ _ _ _ _ _ _ _ _ 
 72
    65
 73
     2
 40
0.375
 49
0.25
 74
     0
 49
-0.125
 74
     0
  0
LTYPE
  5
3BCF
330
3B96
100
AcDbSymbolTableRecord
100
AcDbLinetypeTableRecord
  2
DASHEDX2
 70
     0
  3
Dashedx2 ____  ____  ____  ____  ____  ___
 72
    65
 73
     2
 40
1.5
 49
1.0
 74
     0
 49
-0.5
 74
     0
  0
LTYPE
  5
3BD0
330
3B96
100
AcDbSymbolTableRecord
100
AcDbLinetypeTableRecord
  2
DIVIDE
 70
     0
  3
Divide ____ . . ____ . . ____ . . ____ . . ____
 72
    65
 73
     6
 40
1.25
 49
0.5
 74
     0
 49
-0.25
 74
     0
 49
0.0
 74
     0
 49
-0.25
 74
     0
 49
0.0
 74
     0
 49
-0.25
 74
     0
  0
LTYPE
  5
3BD1
330
3B96
100
AcDbSymbolTableRecord
100
AcDbLinetypeTableRecord
  2
DIVIDE2
 70
     0
  3
Divide2 __..__..__..__..__..__..__..__.._
 72
    65
 73
     6
 40
0.625
 49
0.25
 74
     0
 49
-0.125
 74
     0
 49
0.0
 74
     0
 49
-0.125
 74
     0
 49
0.0
 74
     0
 49
-0.125
 74
     0
  0
LTYPE
  5
3BD2
330
3B96
100
AcDbSymbolTableRecord
100
AcDbLinetypeTableRecord
  2
DIVIDEX2
 70
     0
  3
Dividex2 ________  .  .  ________  .  .  _
 72
    65
 73
     6
 40
2.5
 49
1.0
 74
     0
 49
-0.5
 74
     0
 49
0.0
 74
     0
 49
-0.5
 74
     0
 49
0.0
 74
     0
 49
-0.5
 74
     0
  0
LTYPE
  5
3BD3
330
3B96
100
AcDbSymbolTableRecord
100
AcDbLinetypeTableRecord
  2
DOT
 70
     0
  3
Dot . . . . . . . . . . . . . . . . . . . . . . . .
 72
    65
 73
     2
 40
0.25
 49
0.0
 74
     0
 49
-0.25
 74
     0
  0
LTYPE
  5
3BD4
330
3B96
100
AcDbSymbolTableRecord
100
AcDbLinetypeTableRecord
  2
DOT2
 70
     0
  3
Dot2 ........................................
 72
    65
 73
     2
 40
0.125
 49
0.0
 74
     0
 49
-0.125
 74
     0
  0
LTYPE
  5
3BD5
330
3B96
100
AcDbSymbolTableRecord
100
AcDbLinetypeTableRecord
  2
DOTX2
 70
     0
  3
Dotx2 .  .  .  .  .  .  .  .  .  .  .  .  .  .
 72
    65
 73
     2
 40
0.5
 49
0.0
 74
     0
 49
-0.5
 74
     0
  0
LTYPE
  5
3BD6
330
3B96
100
AcDbSymbolTableRecord
100
AcDbLinetypeTableRecord
  2
HIDDENX2
 70
     0
  3
Hiddenx2 ____ ____ ____ ____ ____ ____ ____ 
 72
    65
 73
     2
 40
0.75
 49
0.5
 74
     0
 49
-0.25
 74
     0
  0
LTYPE
  5
3BD7
330
3B96
100
AcDbSymbolTableRecord
100
AcDbLinetypeTableRecord
  2
PHANTOM
 70
     0
  3
Phantom ______  __  __  ______  __  __  ______ 
 72
    65
 73
     6
 40
2.5
 49
1.25
 74
     0
 49
-0.25
 74
     0
 49
0.25
 74
     0
 49
-0.25
 74
     0
 49
0.25
 74
     0
 49
-0.25
 74
     0
  0
LTYPE
  5
3BD8
330
3B96
100
AcDbSymbolTableRecord
100
AcDbLinetypeTableRecord
  2
PHANTOM2
 70
     0
  3
Phantom2 ___ _ _ ___ _ _ ___ _ _ ___ _ _
 72
    65
 73
     6
 40
1.25
 49
0.625
 74
     0
 49
-0.125
 74
     0
 49
0.125
 74
     0
 49
-0.125
 74
     0
 49
0.125
 74
     0
 49
-0.125
 74
     0
  0
LTYPE
  5
3BD9
330
3B96
100
AcDbSymbolTableRecord
100
AcDbLinetypeTableRecord
  2
PHANTOMX2
 70
     0
  3
Phantomx2 ____________    ____    ____   _
 72
    65
 73
     6
 40
5.0
 49
2.5
 74
     0
 49
-0.5
 74
     0
 49
0.5
 74
     0
 49
-0.5
 74
     0
 49
0.5
 74
     0
 49
-0.5
 74
     0
  0
ENDTAB
  0
TABLE
  2
LAYER
  5
3B93
330
0
100
AcDbSymbolTable
 70
     5
  0
LAYER
  5
3BA1
330
3B93
100
AcDbSymbolTableRecord
100
AcDbLayerTableRecord
  2
0
 70
     0
 62
     7
  6
CONTINUOUS
  0
LAYER
  5
9E
330
3B93
100
AcDbSymbolTableRecord
100
AcDbLayerTableRecord
  2
DEFPOINTS
 70
     0
 62
     7
  6
CONTINUOUS
  0
LAYER
  5
377
330
3B93
100
AcDbSymbolTableRecord
100
AcDbLayerTableRecord
  2
V0-OBRYS
 70
     0
 62
    90
  6
CONTINUOUS
  0
LAYER
  5
378
330
3B93
100
AcDbSymbolTableRecord
100
AcDbLayerTableRecord
  2
V0-VYPLNE
 70
     0
 62
    63
  6
DASHDOT
  0
LAYER
  5
1540
330
3B93
100
AcDbSymbolTableRecord
100
AcDbLayerTableRecord
  2
VO-OBRYS
 70
     0
 62
    90
  6
CONTINUOUS
  0
ENDTAB
  0
TABLE
  2
STYLE
  5
3B94
330
0
100
AcDbSymbolTable
 70
     6
  0
STYLE
  5
3BA2
330
3B94
100
AcDbSymbolTableRecord
100
AcDbTextStyleTableRecord
  2
STANDARD
 70
     0
 40
0.0
 41
1.0
 50
0.0
 71
     0
 42
0.2
  3
ISOCP.shx
  4

1001
ACAD
1000
ISOCP.shx
1071
        0
  0
STYLE
  5
331
330
3B94
100
AcDbSymbolTableRecord
100
AcDbTextStyleTableRecord
  2
ED20
 70
     0
 40
20.0
 41
1.0
 50
0.0
 71
     0
 42
0.2
  3
ISOCP.shx
  4

1001
ACAD
1000
ISOCP.shx
1071
        0
  0
STYLE
  5
648
330
3B94
100
AcDbSymbolTableRecord
100
AcDbTextStyleTableRecord
  2
ED10
 70
     0
 40
10.0
 41
1.0
 50
0.0
 71
     0
 42
0.2
  3
ISOCP.shx
  4

1001
ACAD
1000
ISOCP.shx
1071
        0
  0
STYLE
  5
F38
330
3B94
100
AcDbSymbolTableRecord
100
AcDbTextStyleTableRecord
  2
ED30
 70
     0
 40
30.0
 41
1.0
 50
0.0
 71
     0
 42
0.2
  3
ISOCP.shx
  4

1001
ACAD
1000
ISOCP.shx
1071
        0
  0
STYLE
  5
F39
330
3B94
100
AcDbSymbolTableRecord
100
AcDbTextStyleTableRecord
  2
ED40
 70
     0
 40
40.0
 41
1.0
 50
0.0
 71
     0
 42
0.2
  3
ISOCP.shx
  4

1001
ACAD
1000
ISOCP.shx
1071
        0
  0
STYLE
  5
1B9D
330
3B94
100
AcDbSymbolTableRecord
100
AcDbTextStyleTableRecord
  2
VD_RECOV_1_1B9D_
 70
     0
 40
0.0
 41
1.0
 50
0.0
 71
     0
 42
0.2
  3
ltypeshp.shx
  4

1001
ACAD
1000
ltypeshp.shx
1071
        0
  0
ENDTAB
  0
TABLE
  2
VIEW
  5
3B97
330
0
100
AcDbSymbolTable
 70
     0
  0
ENDTAB
  0
TABLE
  2
UCS
  5
3B98
330
0
100
AcDbSymbolTable
 70
     0
  0
ENDTAB
  0
TABLE
  2
APPID
  5
3B9A
330
0
100
AcDbSymbolTable
 70
     7
  0
APPID
  5
3BA3
330
3B9A
100
AcDbSymbolTableRecord
100
AcDbRegAppTableRecord
  2
ACAD
 70
     0
  0
APPID
  5
3BBB
330
3B9A
100
AcDbSymbolTableRecord
100
AcDbRegAppTableRecord
  2
VD_INVISIBLE_NOT_FOR_READ
 70
     0
  0
APPID
  5
3BBC
330
3B9A
100
AcDbSymbolTableRecord
100
AcDbRegAppTableRecord
  2
VD_TEMPHATCH
 70
     0
  0
APPID
  5
3BBD
330
3B9A
100
AcDbSymbolTableRecord
100
AcDbRegAppTableRecord
  2
VDEXTRAPARAM
 70
     0
  0
APPID
  5
3BBE
330
3B9A
100
AcDbSymbolTableRecord
100
AcDbRegAppTableRecord
  2
PE_URL
 70
     0
  0
APPID
  5
3BBF
330
3B9A
100
AcDbSymbolTableRecord
100
AcDbRegAppTableRecord
  2
VD_UNKNOWN
 70
     0
  0
APPID
  5
3BE4
330
3B9A
100
AcDbSymbolTableRecord
100
AcDbRegAppTableRecord
  2
CONTENTBLOCKICON
 70
     0
  0
ENDTAB
  0
TABLE
  2
DIMSTYLE
  5
3B9B
330
0
100
AcDbSymbolTable
 70
     4
  0
DIMSTYLE
105
3BB8
330
3B9B
100
AcDbSymbolTableRecord
100
AcDbDimStyleTableRecord
  2
STANDARD
 70
     0
  3

  4

  5
OPEN
  6

  7

 40
1.0
 41
15.0
 42
0.625
 43
0.38
 44
1.25
 45
0.0
 46
0.0
 47
0.0
 48
0.0
140
15.0
141
0.09
142
0.0
143
25.4
144
1.0
145
0.0
146
1.0
147
3.0
 71
     0
 72
     0
 73
     0
 74
     0
 75
     0
 76
     0
 77
     1
 78
     0
170
     0
171
     2
172
     1
173
     0
174
     1
175
     0
176
     0
177
     0
178
     0
270
     2
271
     0
272
     4
273
     2
274
     2
340
331
275
     0
280
     0
281
     0
282
     0
283
     1
284
     0
285
     0
286
     0
287
     3
288
     1
  0
DIMSTYLE
105
FE9
330
3B9B
100
AcDbSymbolTableRecord
100
AcDbDimStyleTableRecord
  2
ED20
 70
     0
  3

  4

  5
OPEN
  6

  7

 40
1.0
 41
20.0
 42
1.0
 43
0.38
 44
1.25
 45
0.0
 46
0.0
 47
0.0
 48
0.0
140
20.0
141
0.09
142
0.0
143
25.4
144
1.0
145
0.0
146
1.0
147
2.0
 71
     0
 72
     0
 73
     0
 74
     0
 75
     0
 76
     0
 77
     1
 78
     0
170
     0
171
     2
172
     1
173
     0
174
     1
175
     0
176
     0
177
    41
178
    41
270
     2
271
     0
272
     4
273
     2
274
     2
340
331
275
     0
280
     0
281
     0
282
     0
283
     1
284
     0
285
     0
286
     0
287
     3
288
     1
  0
DIMSTYLE
105
302B
330
3B9B
100
AcDbSymbolTableRecord
100
AcDbDimStyleTableRecord
  2
ED40
 70
     0
  3

  4

  5
OPEN
  6

  7

 40
1.0
 41
40.0
 42
1.0
 43
0.38
 44
1.25
 45
0.0
 46
0.0
 47
0.0
 48
0.0
140
40.0
141
0.09
142
0.0
143
25.4
144
1.0
145
0.0
146
1.0
147
2.0
 71
     0
 72
     0
 73
     0
 74
     0
 75
     0
 76
     0
 77
     1
 78
     0
170
     0
171
     2
172
     1
173
     0
174
     1
175
     0
176
     0
177
    41
178
    41
270
     2
271
     0
272
     4
273
     2
274
     2
340
F39
275
     0
280
     0
281
     0
282
     0
283
     1
284
     0
285
     0
286
     0
287
     3
288
     1
  0
DIMSTYLE
105
3042
102
{ACAD_REACTORS
330
3501
330
352D
330
353A
330
35B7
330
36B2
102
}
330
3B9B
100
AcDbSymbolTableRecord
100
AcDbDimStyleTableRecord
  2
ED30
 70
     0
  3

  4

  5
OPEN
  6

  7

 40
1.0
 41
40.0
 42
1.0
 43
0.38
 44
1.25
 45
0.0
 46
0.0
 47
0.0
 48
0.0
140
40.0
141
0.09
142
0.0
143
25.4
144
1.0
145
0.0
146
1.0
147
2.0
 71
     0
 72
     0
 73
     0
 74
     0
 75
     0
 76
     0
 77
     1
 78
     0
170
     0
171
     2
172
     1
173
     0
174
     1
175
     0
176
     0
177
    41
178
    41
270
     2
271
     0
272
     4
273
     2
274
     2
340
F39
275
     0
280
     0
281
     0
282
     0
283
     1
284
     0
285
     0
286
     0
287
     3
288
     1
  0
ENDTAB
  0
TABLE
  2
BLOCK_RECORD
  5
3B92
330
0
100
AcDbSymbolTable
 70
    11
  0
BLOCK_RECORD
  5
3BB0
330
3B92
100
AcDbSymbolTableRecord
100
AcDbBlockTableRecord
  2
*MODEL_SPACE
  0
BLOCK_RECORD
  5
3BAC
330
3B92
100
AcDbSymbolTableRecord
100
AcDbBlockTableRecord
  2
*PAPER_SPACE
  0
BLOCK_RECORD
  5
90
330
3B92
100
AcDbSymbolTableRecord
100
AcDbBlockTableRecord
  2
_OPEN
  0
BLOCK_RECORD
  5
2DC7
330
3B92
100
AcDbSymbolTableRecord
100
AcDbBlockTableRecord
  2
ASVORK
  0
BLOCK_RECORD
  5
2E4F
330
3B92
100
AcDbSymbolTableRecord
100
AcDbBlockTableRecord
  2
ASVORKP
1001
CONTENTBLOCKICON
1071
        0
1004
2800000020000000200000000100040000000000000200000000000000000000000000000000000000000000000080000080000000808000800000008000800080800000C0C0C000808080000000FF0000FF000000FFFF00FF000000FF00FF00FFFF0000FFFFFF00FFFFFFFFFFFFFFFFFFFFFFFFFFFFFFFF
1004
FFFFFFFFFFFFFFFFFFFFFFFFFFFFFFFFFFFFFFFFFFFFFFFFFFFFFFFFFFFFFFFFFFFFFFFFFFFFFFFFFFFFFFFFFFFFFFFFFFFAAAAAAAAAAAAAAAAAAAAAAAAAAAFFFAAFFFFFFFFFFFFFFFFFFFFFFFFFFAAFAAAAFFFFFFFFFFFFFFFFFFFFFFFFAAAFAFAFFFFFFFFFFFFFFFFFFFFFFFFFFAFAAFFFFFFFFFFFFFFF
1004
FFFFFFFFFFFFFFFAAFFFFFFFFFFFFFFFFFFFFFFFFFFFFFFAAFFFFFFFFFFFFFFFFFFFFFFFFFFFFFFAAFFFFFFFFFFFFFFFFFFFFFFFFFFFFFFAAFFFFFFFFFFFFFFFFFFFFFFFFFFFFFFAAFFFFFFFFFFFFFFFFFFFFFFFFFFFFFFAAFFFFFFFFFFFFFFFFFFFFFFFFFFFFFFAAFFFFFFFFFFFFFFFFFFFFFFFFFFFFFFA
1004
AFFFFFFFFFFFFFFFFFFFFFFFFFFFFFFAAFFFFFFFFFFFFFFFFFFFFFFFFFFFFFFAAFFFFFFFFFFFFFFFFFFFFFFFFFFFFFFAAFFFFFFFFFFFFFFFFFFFFFFFFFFFFFFAAFFFFFFFFFFFFFFFFFFFFFFFFFFFFFFAAFFFFFFFFFFFFFFFFFFFFFFFFFFFFFFAAFFFFFFFFFFFFFFFFFFFFFFFFFFFFFFAAFFFFFFFFFFFFFFF
1004
FFFFFFFFFFFFFFFAAFFFFFFFFFFFFFFFFFFFFFFFFFFFFFFAFAAFFFFFFFFFFFFFFFFFFFFFFFFFFAAAFAAAFFFFFFFFFFFFFFFFFFFFFFFFAAAAFAAAAAAAAAAAAAAAAAAAAAAAAAAAAFAFFFFFFFFFFFFFFFFFFFFFFFFFFFFFFFFFFFFFFFFFFFFFFFFFFFFFFFFFFFFFFFFFFFFFFFFFFFFFFFFFFFFFFFFFFFFFFFFF
1004
FFFFFFFFFFFFFFFFFFFFFFFFFFFFFFFF
  0
BLOCK_RECORD
  5
3B8E
330
3B92
100
AcDbSymbolTableRecord
100
AcDbBlockTableRecord
  2
VDDIM_DEFAULT
  0
BLOCK_RECORD
  5
3B90
330
3B92
100
AcDbSymbolTableRecord
100
AcDbBlockTableRecord
  2
VDDIM_NONE
  0
BLOCK_RECORD
  5
3BE6
330
3B92
100
AcDbSymbolTableRecord
100
AcDbBlockTableRecord
  2
*D6
  0
BLOCK_RECORD
  5
3BF3
330
3B92
100
AcDbSymbolTableRecord
100
AcDbBlockTableRecord
  2
*D7
  0
BLOCK_RECORD
  5
3C00
330
3B92
100
AcDbSymbolTableRecord
100
AcDbBlockTableRecord
  2
*D8
  0
BLOCK_RECORD
  5
3C0D
330
3B92
100
AcDbSymbolTableRecord
100
AcDbBlockTableRecord
  2
*D9
  0
BLOCK_RECORD
  5
3C1A
330
3B92
100
AcDbSymbolTableRecord
100
AcDbBlockTableRecord
  2
*D10
  0
ENDTAB
  0
ENDSEC
  0
SECTION
  2
BLOCKS
  0
BLOCK
  5
3BB1
330
3BB0
100
AcDbEntity
  8
0
100
AcDbBlockBegin
  2
*MODEL_SPACE
 70
     0
 71
     0
 10
0.0
 20
0.0
 30
0.0
  3
*MODEL_SPACE
  1

  0
ENDBLK
  5
3BB2
330
3BB0
100
AcDbEntity
  8
0
100
AcDbBlockEnd
  0
BLOCK
  5
3BAD
330
3BAC
100
AcDbEntity
 67
     1
  8
0
100
AcDbBlockBegin
  2
*PAPER_SPACE
 70
     0
 71
     0
 10
0.0
 20
0.0
 30
0.0
  3
*PAPER_SPACE
  1

  0
ENDBLK
  5
3BAE
330
3BAC
100
AcDbEntity
 67
     1
  8
0
100
AcDbBlockEnd
  0
BLOCK
  5
3BDA
330
90
100
AcDbEntity
  8
0
100
AcDbBlockBegin
  2
_OPEN
 70
     0
 71
     0
 10
0.0
 20
0.0
 30
0.0
  3
_OPEN
  1

  0
LINE
  5
92
330
90
100
AcDbEntity
  8
0
  6
BYBLOCK
 62
     0
100
AcDbLine
 10
-1.0
 20
0.166667
 30
0.0
 11
0.0
 21
0.0
 31
0.0
  0
LINE
  5
93
330
90
100
AcDbEntity
  8
0
  6
BYBLOCK
 62
     0
100
AcDbLine
 10
0.0
 20
0.0
 30
0.0
 11
-1.0
 21
-0.166667
 31
0.0
  0
LINE
  5
94
330
90
100
AcDbEntity
  8
0
  6
BYBLOCK
 62
     0
100
AcDbLine
 10
0.0
 20
0.0
 30
0.0
 11
-1.0
 21
0.0
 31
0.0
  0
ENDBLK
  5
3BDB
330
90
100
AcDbEntity
  8
0
100
AcDbBlockEnd
  0
BLOCK
  5
3BDC
330
2DC7
100
AcDbEntity
  8
0
100
AcDbBlockBegin
  2
ASVORK
 70
     0
 71
     0
 10
0.0
 20
0.0
 30
0.0
  3
ASVORK
  1

  0
LINE
  5
32D1
330
2DC7
100
AcDbEntity
  8
V0-OBRYS
  6
CONTINUOUS
 62
    90
100
AcDbLine
 10
0.0
 20
30.0
 30
0.0
 11
80.0
 21
30.0
 31
0.0
  0
LINE
  5
32D2
330
2DC7
100
AcDbEntity
  8
V0-OBRYS
  6
CONTINUOUS
 62
    90
100
AcDbLine
 10
80.0
 20
0.0
 30
0.0
 11
0.0
 21
0.0
 31
0.0
  0
LINE
  5
32D3
330
2DC7
100
AcDbEntity
  8
V0-OBRYS
  6
CONTINUOUS
 62
    90
100
AcDbLine
 10
0.0
 20
40.0
 30
0.0
 11
80.0
 21
40.0
 31
0.0
  0
LINE
  5
32D4
330
2DC7
100
AcDbEntity
  8
V0-OBRYS
  6
CONTINUOUS
 62
    90
100
AcDbLine
 10
0.0
 20
0.0
 30
0.0
 11
0.0
 21
40.0
 31
0.0
  0
LINE
  5
32D5
330
2DC7
100
AcDbEntity
  8
V0-OBRYS
  6
CONTINUOUS
 62
    90
100
AcDbLine
 10
80.0
 20
40.0
 30
0.0
 11
80.0
 21
0.0
 31
0.0
  0
ENDBLK
  5
3BDD
330
2DC7
100
AcDbEntity
  8
0
100
AcDbBlockEnd
  0
BLOCK
  5
3BDE
330
2E4F
100
AcDbEntity
  8
0
100
AcDbBlockBegin
  2
ASVORKP
 70
     0
 71
     0
 10
0.0
 20
0.0
 30
0.0
  3
ASVORKP
  1

  0
LINE
  5
334B
330
2E4F
100
AcDbEntity
  8
V0-OBRYS
  6
CONTINUOUS
 62
    90
100
AcDbLine
 10
75.0
 20
-30.0
 30
0.0
 11
5.0
 21
-30.0
 31
0.0
  0
LINE
  5
334C
330
2E4F
100
AcDbEntity
  8
V0-OBRYS
  6
CONTINUOUS
 62
    90
100
AcDbLine
 10
5.0
 20
30.0
 30
0.0
 11
75.0
 21
30.0
 31
0.0
  0
CIRCLE
  5
334D
330
2E4F
100
AcDbEntity
  8
V0-OBRYS
  6
CONTINUOUS
 62
    90
100
AcDbCircle
 10
4.669164
 20
-25.534884
 30
0.0
 40
2.347961
  0
CIRCLE
  5
334E
330
2E4F
100
AcDbEntity
  8
V0-OBRYS
  6
CONTINUOUS
 62
    90
100
AcDbCircle
 10
4.669164
 20
25.534884
 30
0.0
 40
2.347961
  0
ARC
  5
334F
330
2E4F
100
AcDbEntity
  8
V0-OBRYS
  6
CONTINUOUS
 62
    90
100
AcDbCircle
 10
5.0
 20
25.0
 30
0.0
 40
5.0
100
AcDbArc
 50
90.0
 51
180.0
  0
LINE
  5
3350
330
2E4F
100
AcDbEntity
  8
V0-OBRYS
  6
CONTINUOUS
 62
    90
100
AcDbLine
 10
0.0
 20
-25.0
 30
0.0
 11
0.0
 21
25.0
 31
0.0
  0
ARC
  5
3351
330
2E4F
100
AcDbEntity
  8
V0-OBRYS
  6
CONTINUOUS
 62
    90
100
AcDbCircle
 10
5.0
 20
-25.0
 30
0.0
 40
5.0
100
AcDbArc
 50
180.0
 51
270.0
  0
ARC
  5
3352
330
2E4F
100
AcDbEntity
  8
V0-OBRYS
  6
CONTINUOUS
 62
    90
100
AcDbCircle
 10
75.0
 20
25.0
 30
0.0
 40
5.0
100
AcDbArc
 50
0.0
 51
90.0
  0
LINE
  5
3353
330
2E4F
100
AcDbEntity
  8
V0-OBRYS
  6
CONTINUOUS
 62
    90
100
AcDbLine
 10
80.0
 20
25.0
 30
0.0
 11
80.0
 21
-25.0
 31
0.0
  0
ARC
  5
3354
330
2E4F
100
AcDbEntity
  8
V0-OBRYS
  6
CONTINUOUS
 62
    90
100
AcDbCircle
 10
75.0
 20
-25.0
 30
0.0
 40
5.0
100
AcDbArc
 50
270.0
 51
0.0
  0
CIRCLE
  5
3355
330
2E4F
100
AcDbEntity
  8
V0-OBRYS
  6
CONTINUOUS
 62
    90
100
AcDbCircle
 10
75.33083600000001
 20
-25.534884
 30
0.0
 40
2.347961
  0
CIRCLE
  5
3356
330
2E4F
100
AcDbEntity
  8
V0-OBRYS
  6
CONTINUOUS
 62
    90
100
AcDbCircle
 10
75.33083600000001
 20
25.534884
 30
0.0
 40
2.347961
  0
ENDBLK
  5
3BDF
330
2E4F
100
AcDbEntity
  8
0
100
AcDbBlockEnd
  0
BLOCK
  5
3BE0
330
3B8E
100
AcDbEntity
  8
0
100
AcDbBlockBegin
  2
VDDIM_DEFAULT
 70
     0
 71
     0
 10
0.0
 20
0.0
 30
0.0
  3
VDDIM_DEFAULT
  1

  0
LWPOLYLINE
  5
3B8F
330
3B8E
100
AcDbEntity
  8
0
  6
CONTINUOUS
 62
     0
100
AcDbPolyline
 90
        4
 70
     0
 43
0.0
 10
0.0
 20
0.0
 10
-1.0
 20
-0.1665
 10
-1.0
 20
0.1665
 10
0.0
 20
0.0
1001
VDEXTRAPARAM
1071
        1
1071
        0
1071
        0
1040
1.0
1000

1000

1040
0.0
1040
0.0
  0
HATCH
  5
3BE5
330
3B8E
100
AcDbEntity
  8
0
  6
CONTINUOUS
 62
     0
100
AcDbHatch
 10
0.0
 20
0.0
 30
0.0
210
0.0
220
0.0
230
1.0
  2
SOLID
 70
     1
 71
     0
 91
        1
 92
        2
 72
     0
 73
     1
 93
        3
 10
0.0
 20
0.0
 10
-1.0
 20
-0.1665
 10
-1.0
 20
0.1665
 97
        0
 75
     0
 76
     1
 98
        1
 10
0.0
 20
0.0
1001
VDEXTRAPARAM
1071
        1
1071
        0
1071
        0
1040
1.0
1000

1000

1040
0.0
1040
0.0
1001
VD_TEMPHATCH
1000
VD_TEMPHATCH
  0
ENDBLK
  5
3BE1
330
3B8E
100
AcDbEntity
  8
0
100
AcDbBlockEnd
  0
BLOCK
  5
3BE2
330
3B90
100
AcDbEntity
  8
0
100
AcDbBlockBegin
  2
VDDIM_NONE
 70
     0
 71
     0
 10
0.0
 20
0.0
 30
0.0
  3
VDDIM_NONE
  1

  0
ENDBLK
  5
3BE3
330
3B90
100
AcDbEntity
  8
0
100
AcDbBlockEnd
  0
BLOCK
  5
3BF1
330
3BE6
100
AcDbEntity
  8
0
100
AcDbBlockBegin
  2
*D6
 70
     1
 71
     0
 10
0.0
 20
0.0
 30
0.0
  3
*D6
  1

  0
LINE
  5
3BE7
330
3BE6
100
AcDbEntity
  8
V0-VYPLNE
 62
    41
100
AcDbLine
 10
1039.733139
 20
100.61693
 30
0.0
 11
922.6365330000408
 21
100.61693
 31
0.0
  0
LINE
  5
3BE8
330
3BE6
100
AcDbEntity
  8
V0-VYPLNE
 62
    41
100
AcDbLine
 10
1042.882739
 20
-299.38227
 30
0.0
 11
922.6365330000408
 21
-299.38227
 31
0.0
  0
LINE
  5
3BE9
330
3BE6
100
AcDbEntity
  8
V0-VYPLNE
 62
     0
100
AcDbLine
 10
923.8865330000408
 20
70.61693000000014
 30
0.0
 11
923.8865330000407
 21
-46.29162585714289
 31
0.0
  0
LINE
  5
3BEA
330
3BE6
100
AcDbEntity
  8
V0-VYPLNE
 62
     0
100
AcDbLine
 10
923.8865330000407
 20
-269.38227
 30
0.0
 11
923.8865330000407
 21
-154.5773401428571
 31
0.0
  0
INSERT
  5
3BEB
330
3BE6
100
AcDbEntity
  8
V0-VYPLNE
 62
     0
100
AcDbBlockReference
  2
_OPEN
 10
923.8865330000408
 20
100.6169300000001
 30
0.0
 41
30.0
 42
30.0
 43
30.0
 50
89.99999999999996
  0
INSERT
  5
3BEC
330
3BE6
100
AcDbEntity
  8
V0-VYPLNE
 62
     0
100
AcDbBlockReference
  2
_OPEN
 10
923.8865330000407
 20
-299.38227
 30
0.0
 41
30.0
 42
30.0
 43
30.0
 50
269.9999999999999
  0
MTEXT
  5
3BED
330
3BE6
100
AcDbEntity
  8
V0-VYPLNE
 62
    41
100
AcDbMText
 10
923.886533
 20
-100.434483
 30
0.0
 40
30.0
 41
0.0
 71
     5
 72
     1
  1
%%c\A1;400
  7
ED40
 11
0.0
 21
1.0
 31
0.0
  0
POINT
  5
3BEE
330
3BE6
100
AcDbEntity
  8
DEFPOINTS
 62
     0
100
AcDbPoint
 10
1040.733139
 20
100.61693
 30
0.0
  0
POINT
  5
3BEF
330
3BE6
100
AcDbEntity
  8
DEFPOINTS
 62
     0
100
AcDbPoint
 10
1043.882739
 20
-299.38227
 30
0.0
  0
POINT
  5
3BF0
330
3BE6
100
AcDbEntity
  8
DEFPOINTS
 62
     0
100
AcDbPoint
 10
923.8865330000408
 20
-299.38227
 30
0.0
  0
ENDBLK
  5
3BF2
330
3BE6
100
AcDbEntity
  8
0
100
AcDbBlockEnd
  0
BLOCK
  5
3BFE
330
3BF3
100
AcDbEntity
  8
0
100
AcDbBlockBegin
  2
*D7
 70
     1
 71
     0
 10
0.0
 20
0.0
 30
0.0
  3
*D7
  1

  0
LINE
  5
3BF4
330
3BF3
100
AcDbEntity
  8
V0-VYPLNE
 62
    41
100
AcDbLine
 10
1039.733139
 20
144.09713
 30
0.0
 11
858.2478330000304
 21
144.0971300000001
 31
0.0
  0
LINE
  5
3BF5
330
3BF3
100
AcDbEntity
  8
V0-VYPLNE
 62
    41
100
AcDbLine
 10
1039.733139
 20
-342.86247
 30
0.0
 11
858.2478330000304
 21
-342.86247
 31
0.0
  0
LINE
  5
3BF6
330
3BF3
100
AcDbEntity
  8
V0-VYPLNE
 62
     0
100
AcDbLine
 10
859.4978330000304
 20
114.0971300000001
 30
0.0
 11
859.4978330000303
 21
-48.86506985714289
 31
0.0
  0
LINE
  5
3BF7
330
3BF3
100
AcDbEntity
  8
V0-VYPLNE
 62
     0
100
AcDbLine
 10
859.4978330000303
 20
-312.8624699999999
 30
0.0
 11
859.4978330000303
 21
-157.1507841428571
 31
0.0
  0
INSERT
  5
3BF8
330
3BF3
100
AcDbEntity
  8
V0-VYPLNE
 62
     0
100
AcDbBlockReference
  2
_OPEN
 10
859.4978330000304
 20
144.0971300000001
 30
0.0
 41
30.0
 42
30.0
 43
30.0
 50
89.99999999999997
  0
INSERT
  5
3BF9
330
3BF3
100
AcDbEntity
  8
V0-VYPLNE
 62
     0
100
AcDbBlockReference
  2
_OPEN
 10
859.4978330000303
 20
-342.8624699999999
 30
0.0
 41
30.0
 42
30.0
 43
30.0
 50
269.9999999999999
  0
MTEXT
  5
3BFA
330
3BF3
100
AcDbEntity
  8
V0-VYPLNE
 62
    41
100
AcDbMText
 10
859.497833
 20
-103.007927
 30
0.0
 40
30.0
 41
0.0
 71
     5
 72
     1
  1
%%c\A1;487
  7
ED40
 11
0.0
 21
1.0
 31
0.0
  0
POINT
  5
3BFB
330
3BF3
100
AcDbEntity
  8
DEFPOINTS
 62
     0
100
AcDbPoint
 10
1040.733139
 20
144.09713
 30
0.0
  0
POINT
  5
3BFC
330
3BF3
100
AcDbEntity
  8
DEFPOINTS
 62
     0
100
AcDbPoint
 10
1040.733139
 20
-342.86247
 30
0.0
  0
POINT
  5
3BFD
330
3BF3
100
AcDbEntity
  8
DEFPOINTS
 62
     0
100
AcDbPoint
 10
859.4978330000304
 20
-342.86247
 30
0.0
  0
ENDBLK
  5
3BFF
330
3BF3
100
AcDbEntity
  8
0
100
AcDbBlockEnd
  0
BLOCK
  5
3C0B
330
3C00
100
AcDbEntity
  8
0
100
AcDbBlockBegin
  2
*D8
 70
     1
 71
     0
 10
0.0
 20
0.0
 30
0.0
  3
*D8
  1

  0
LINE
  5
3C01
330
3C00
100
AcDbEntity
  8
V0-VYPLNE
 62
    41
100
AcDbLine
 10
1229.773079
 20
125.53813
 30
0.0
 11
1283.64051300002
 21
125.5381299999999
 31
0.0
  0
LINE
  5
3C02
330
3C00
100
AcDbEntity
  8
V0-VYPLNE
 62
    41
100
AcDbLine
 10
1229.773079
 20
-324.30347
 30
0.0
 11
1283.64051300002
 21
-324.30347
 31
0.0
  0
LINE
  5
3C03
330
3C00
100
AcDbEntity
  8
V0-VYPLNE
 62
     0
100
AcDbLine
 10
1282.39051300002
 20
95.53812999999991
 30
0.0
 11
1282.39051300002
 21
-46.23364985714289
 31
0.0
  0
LINE
  5
3C04
330
3C00
100
AcDbEntity
  8
V0-VYPLNE
 62
     0
100
AcDbLine
 10
1282.39051300002
 20
-294.3034700000001
 30
0.0
 11
1282.39051300002
 21
-154.5193641428571
 31
0.0
  0
INSERT
  5
3C05
330
3C00
100
AcDbEntity
  8
V0-VYPLNE
 62
     0
100
AcDbBlockReference
  2
_OPEN
 10
1282.39051300002
 20
125.5381299999999
 30
0.0
 41
30.0
 42
30.0
 43
30.0
 50
90.0
  0
INSERT
  5
3C06
330
3C00
100
AcDbEntity
  8
V0-VYPLNE
 62
     0
100
AcDbBlockReference
  2
_OPEN
 10
1282.39051300002
 20
-324.3034700000001
 30
0.0
 41
30.0
 42
30.0
 43
30.0
 50
270.0
  0
MTEXT
  5
3C07
330
3C00
100
AcDbEntity
  8
V0-VYPLNE
 62
    41
100
AcDbMText
 10
1282.390513
 20
-100.376507
 30
0.0
 40
30.0
 41
0.0
 71
     5
 72
     1
  1
%%c\A1;450
  7
ED40
 11
0.0
 21
1.0
 31
0.0
  0
POINT
  5
3C08
330
3C00
100
AcDbEntity
  8
DEFPOINTS
 62
     0
100
AcDbPoint
 10
1228.773079
 20
125.53813
 30
0.0
  0
POINT
  5
3C09
330
3C00
100
AcDbEntity
  8
DEFPOINTS
 62
     0
100
AcDbPoint
 10
1228.773079
 20
-324.30347
 30
0.0
  0
POINT
  5
3C0A
330
3C00
100
AcDbEntity
  8
DEFPOINTS
 62
     0
100
AcDbPoint
 10
1282.39051300002
 20
-324.30347
 30
0.0
  0
ENDBLK
  5
3C0C
330
3C00
100
AcDbEntity
  8
0
100
AcDbBlockEnd
  0
BLOCK
  5
3C18
330
3C0D
100
AcDbEntity
  8
0
100
AcDbBlockBegin
  2
*D9
 70
     1
 71
     0
 10
0.0
 20
0.0
 30
0.0
  3
*D9
  1

  0
LINE
  5
3C0E
330
3C0D
100
AcDbEntity
  8
V0-VYPLNE
 62
    41
100
AcDbLine
 10
1040.733139
 20
-343.86247
 30
0.0
 11
1040.733139
 21
-407.3396180000273
 31
0.0
  0
LINE
  5
3C0F
330
3C0D
100
AcDbEntity
  8
V0-VYPLNE
 62
    41
100
AcDbLine
 10
1210.709139
 20
-343.86247
 30
0.0
 11
1210.709139
 21
-407.3396180000273
 31
0.0
  0
LINE
  5
3C10
330
3C0D
100
AcDbEntity
  8
V0-VYPLNE
 62
     0
100
AcDbLine
 10
1070.733139
 20
-406.0896180000273
 30
0.0
 11
1087.292567571429
 21
-406.0896180000273
 31
0.0
  0
LINE
  5
3C11
330
3C0D
100
AcDbEntity
  8
V0-VYPLNE
 62
     0
100
AcDbLine
 10
1180.709139
 20
-406.0896180000273
 30
0.0
 11
1164.149710428571
 21
-406.0896180000273
 31
0.0
  0
INSERT
  5
3C12
330
3C0D
100
AcDbEntity
  8
V0-VYPLNE
 62
     0
100
AcDbBlockReference
  2
_OPEN
 10
1040.733139
 20
-406.0896180000273
 30
0.0
 41
30.0
 42
30.0
 43
30.0
 50
180.0
  0
INSERT
  5
3C13
330
3C0D
100
AcDbEntity
  8
V0-VYPLNE
 62
     0
100
AcDbBlockReference
  2
_OPEN
 10
1210.709139
 20
-406.0896180000273
 30
0.0
 41
30.0
 42
30.0
 43
30.0
  0
MTEXT
  5
3C14
330
3C0D
100
AcDbEntity
  8
V0-VYPLNE
 62
    41
100
AcDbMText
 10
1125.721139
 20
-406.089618
 30
0.0
 40
30.0
 41
0.0
 71
     5
 72
     1
  1
\A1;170
  7
ED40
  0
POINT
  5
3C15
330
3C0D
100
AcDbEntity
  8
DEFPOINTS
 62
     0
100
AcDbPoint
 10
1040.733139
 20
-342.86247
 30
0.0
  0
POINT
  5
3C16
330
3C0D
100
AcDbEntity
  8
DEFPOINTS
 62
     0
100
AcDbPoint
 10
1210.709139
 20
-342.86247
 30
0.0
  0
POINT
  5
3C17
330
3C0D
100
AcDbEntity
  8
DEFPOINTS
 62
     0
100
AcDbPoint
 10
1210.709139
 20
-406.0896180000273
 30
0.0
  0
ENDBLK
  5
3C19
330
3C0D
100
AcDbEntity
  8
0
100
AcDbBlockEnd
  0
BLOCK
  5
3C25
330
3C1A
100
AcDbEntity
  8
0
100
AcDbBlockBegin
  2
*D10
 70
     1
 71
     0
 10
0.0
 20
0.0
 30
0.0
  3
*D10
  1

  0
LINE
  5
3C1B
330
3C1A
100
AcDbEntity
  8
V0-VYPLNE
 62
    41
100
AcDbLine
 10
1059.257082
 20
-26.39873
 30
0.0
 11
984.4496909999871
 21
-26.39873
 31
0.0
  0
LINE
  5
3C1C
330
3C1A
100
AcDbEntity
  8
V0-VYPLNE
 62
    41
100
AcDbLine
 10
1059.257082
 20
-172.36661
 30
0.0
 11
984.4496909999871
 21
-172.36661
 31
0.0
  0
LINE
  5
3C1D
330
3C1A
100
AcDbEntity
  8
V0-VYPLNE
 62
     0
100
AcDbLine
 10
985.6996909999871
 20
-56.39872999999989
 30
0.0
 11
985.6996909999871
 21
-53.581374
 31
0.0
  0
LINE
  5
3C1E
330
3C1A
100
AcDbEntity
  8
V0-VYPLNE
 62
     0
100
AcDbLine
 10
985.6996909999871
 20
-142.3666099999999
 30
0.0
 11
985.6996909999871
 21
-157.581374
 31
0.0
  0
INSERT
  5
3C1F
330
3C1A
100
AcDbEntity
  8
V0-VYPLNE
 62
     0
100
AcDbBlockReference
  2
_OPEN
 10
985.6996909999871
 20
-26.39872999999989
 30
0.0
 41
30.0
 42
30.0
 43
30.0
 50
90.0
  0
INSERT
  5
3C20
330
3C1A
100
AcDbEntity
  8
V0-VYPLNE
 62
     0
100
AcDbBlockReference
  2
_OPEN
 10
985.6996909999871
 20
-172.3666099999999
 30
0.0
 41
30.0
 42
30.0
 43
30.0
 50
270.0
  0
MTEXT
  5
3C21
330
3C1A
100
AcDbEntity
  8
V0-VYPLNE
 62
    41
100
AcDbMText
 10
985.699691
 20
-105.581374
 30
0.0
 40
30.0
 41
0.0
 71
     5
 72
     1
  1
%%c\A1;146
  7
ED40
 11
0.0
 21
1.0
 31
0.0
  0
POINT
  5
3C22
330
3C1A
100
AcDbEntity
  8
DEFPOINTS
 62
     0
100
AcDbPoint
 10
1060.257082
 20
-26.39873
 30
0.0
  0
POINT
  5
3C23
330
3C1A
100
AcDbEntity
  8
DEFPOINTS
 62
     0
100
AcDbPoint
 10
1060.257082
 20
-172.36661
 30
0.0
  0
POINT
  5
3C24
330
3C1A
100
AcDbEntity
  8
DEFPOINTS
 62
     0
100
AcDbPoint
 10
985.6996909999871
 20
-172.36661
 30
0.0
  0
ENDBLK
  5
3C26
330
3C1A
100
AcDbEntity
  8
0
100
AcDbBlockEnd
  0
ENDSEC
  0
SECTION
  2
ENTITIES
  0
TEXT
  5
1347
330
3BB0
100
AcDbEntity
  8
V0-VYPLNE
 62
     6
100
AcDbText
 10
1583.438944
 20
-663.7668179999999
 30
0.0
 40
48.0
  1
TCB-400
  7
ED40
100
AcDbText
  0
TEXT
  5
1348
330
3BB0
100
AcDbEntity
  8
V0-VYPLNE
  6
CONTINUOUS
 62
    51
100
AcDbText
 10
1486.769896
 20
-730.5658140000001
 30
0.0
 40
36.0
  1
AXIALNI VENTILATOR
  7
ED30
100
AcDbText
  0
TEXT
  5
2455
330
3BB0
100
AcDbEntity
  8
V0-VYPLNE
  6
CONTINUOUS
 62
    51
100
AcDbText
 10
1586.943312
 20
-789.704605
 30
0.0
 40
36.0
  1
DO POTRUBI
  7
ED30
100
AcDbText
  0
LINE
  5
34FA
330
3BB0
100
AcDbEntity
  8
V0-OBRYS
  6
CONTINUOUS
 62
    90
100
AcDbLine
 10
1207.559539
 20
-299.38227
 30
0.0
 11
1207.559539
 21
144.09713
 31
0.0
  0
LINE
  5
34FB
330
3BB0
100
AcDbEntity
  8
V0-OBRYS
  6
CONTINUOUS
 62
    90
100
AcDbLine
 10
1043.882739
 20
-299.38227
 30
0.0
 11
1043.882739
 21
144.09713
 31
0.0
  0
LINE
  5
34FC
330
3BB0
100
AcDbEntity
  8
V0-OBRYS
  6
CONTINUOUS
 62
    90
100
AcDbLine
 10
1040.733139
 20
-99.38267000000001
 30
0.0
 11
1040.733139
 21
144.09713
 31
0.0
  0
LINE
  5
34FD
330
3BB0
100
AcDbEntity
  8
V0-OBRYS
  6
CONTINUOUS
 62
    90
100
AcDbLine
 10
1210.709139
 20
-99.38267000000001
 30
0.0
 11
1210.709139
 21
144.09713
 31
0.0
  0
LINE
  5
34FE
330
3BB0
100
AcDbEntity
  8
V0-OBRYS
  6
CONTINUOUS
 62
    90
100
AcDbLine
 10
1210.709139
 20
100.61693
 30
0.0
 11
1040.733139
 21
100.61693
 31
0.0
  0
LINE
  5
3500
330
3BB0
100
AcDbEntity
  8
V0-OBRYS
  6
CONTINUOUS
 62
    90
100
AcDbLine
 10
1207.559539
 20
-299.38227
 30
0.0
 11
1043.882739
 21
-299.38227
 31
0.0
  0
DIMENSION
  5
3501
330
3BB0
100
AcDbEntity
  8
V0-VYPLNE
  6
CONTINUOUS
 62
    41
100
AcDbDimension
  2
*D6
 10
923.8865330000408
 20
-299.38227
 30
0.0
 11
923.886533
 21
-100.434483
 31
0.0
 70
   160
  1
%%c<>
  3
ED30
100
AcDbAlignedDimension
 13
1040.733139
 23
100.61693
 33
0.0
 14
1043.882739
 24
-299.38227
 34
0.0
 50
90.0
100
AcDbRotatedDimension
1001
ACAD
1000
DSTYLE
1002
{
1070
    41
1040
30.0
1070
   140
1040
30.0
1002
}
  0
LINE
  5
3502
330
3BB0
100
AcDbEntity
  8
V0-OBRYS
  6
CONTINUOUS
 62
    90
100
AcDbLine
 10
1040.733139
 20
-99.38267000000001
 30
0.0
 11
1040.733139
 21
-342.86247
 31
0.0
  0
LINE
  5
3503
330
3BB0
100
AcDbEntity
  8
V0-OBRYS
  6
CONTINUOUS
 62
    90
100
AcDbLine
 10
1043.882739
 20
-299.38227
 30
0.0
 11
1043.882739
 21
-342.86247
 31
0.0
  0
LINE
  5
3504
330
3BB0
100
AcDbEntity
  8
V0-VYPLNE
  6
DASHDOT
 62
    63
 48
2.0
100
AcDbLine
 10
1024.985139
 20
-324.30347
 30
0.0
 11
1070.096539
 21
-324.30347
 31
0.0
  0
LINE
  5
3505
330
3BB0
100
AcDbEntity
  8
V0-OBRYS
  6
CONTINUOUS
 62
    90
100
AcDbLine
 10
1210.709139
 20
-99.38267000000001
 30
0.0
 11
1210.709139
 21
-342.86247
 31
0.0
  0
LINE
  5
3506
330
3BB0
100
AcDbEntity
  8
V0-OBRYS
  6
CONTINUOUS
 62
    90
100
AcDbLine
 10
1207.559539
 20
-299.38227
 30
0.0
 11
1207.559539
 21
-342.86247
 31
0.0
  0
LINE
  5
3507
330
3BB0
100
AcDbEntity
  8
V0-VYPLNE
  6
DASHDOT
 62
    63
 48
2.0
100
AcDbLine
 10
1192.722763
 20
-324.30347
 30
0.0
 11
1228.773079
 21
-324.30347
 31
0.0
  0
LINE
  5
3508
330
3BB0
100
AcDbEntity
  8
V0-VYPLNE
  6
DASHDOT
 62
    63
 48
2.0
100
AcDbLine
 10
1024.985139
 20
125.53813
 30
0.0
 11
1070.096539
 21
125.53813
 31
0.0
  0
LINE
  5
3509
330
3BB0
100
AcDbEntity
  8
V0-VYPLNE
  6
DASHDOT
 62
    63
 48
2.0
100
AcDbLine
 10
1192.722763
 20
125.53813
 30
0.0
 11
1228.773079
 21
125.53813
 31
0.0
  0
DIMENSION
  5
352D
330
3BB0
100
AcDbEntity
  8
V0-VYPLNE
  6
CONTINUOUS
 62
    41
100
AcDbDimension
  2
*D7
 10
859.4978330000304
 20
-342.86247
 30
0.0
 11
859.497833
 21
-103.007927
 31
0.0
 70
   160
  1
%%c<>
  3
ED30
100
AcDbAlignedDimension
 13
1040.733139
 23
144.09713
 33
0.0
 14
1040.733139
 24
-342.86247
 34
0.0
 50
90.0
100
AcDbRotatedDimension
1001
ACAD
1000
DSTYLE
1002
{
1070
    41
1040
30.0
1070
   140
1040
30.0
1002
}
  0
DIMENSION
  5
353A
330
3BB0
100
AcDbEntity
  8
V0-VYPLNE
  6
CONTINUOUS
 62
    41
100
AcDbDimension
  2
*D8
 10
1282.39051300002
 20
-324.30347
 30
0.0
 11
1282.390513
 21
-100.376507
 31
0.0
 70
   160
  1
%%c<>
  3
ED30
100
AcDbAlignedDimension
 13
1228.773079
 23
125.53813
 33
0.0
 14
1228.773079
 24
-324.30347
 34
0.0
 50
90.0
100
AcDbRotatedDimension
1001
ACAD
1000
DSTYLE
1002
{
1070
    41
1040
30.0
1070
   140
1040
30.0
1002
}
  0
DIMENSION
  5
35B7
330
3BB0
100
AcDbEntity
  8
V0-VYPLNE
  6
CONTINUOUS
 62
    41
100
AcDbDimension
  2
*D9
 10
1210.709139
 20
-406.0896180000273
 30
0.0
 11
1125.721139
 21
-406.089618
 31
0.0
 70
   160
  3
ED30
100
AcDbAlignedDimension
 13
1040.733139
 23
-342.86247
 33
0.0
 14
1210.709139
 24
-342.86247
 34
0.0
100
AcDbRotatedDimension
1001
ACAD
1000
DSTYLE
1002
{
1070
    41
1040
30.0
1070
   140
1040
30.0
1002
}
  0
LINE
  5
35C5
330
3BB0
100
AcDbEntity
  8
V0-VYPLNE
  6
DASHED
 62
    52
100
AcDbLine
 10
1193.946426
 20
-4.896405
 30
0.0
 11
1178.61967
 21
91.354364
 31
0.0
  0
LINE
  5
35C6
330
3BB0
100
AcDbEntity
  8
V0-VYPLNE
  6
DASHED
 62
    52
100
AcDbLine
 10
1125.471635
 20
-4.896405
 30
0.0
 11
1140.798392
 21
91.354364
 31
0.0
  0
LINE
  5
35C7
330
3BB0
100
AcDbEntity
  8
V0-VYPLNE
  6
DASHED
 62
    52
100
AcDbLine
 10
1193.946426
 20
-192.348298
 30
0.0
 11
1178.61967
 21
-288.599066
 31
0.0
  0
LINE
  5
35C8
330
3BB0
100
AcDbEntity
  8
V0-VYPLNE
  6
DASHED
 62
    52
100
AcDbLine
 10
1125.471635
 20
-192.348298
 30
0.0
 11
1140.798392
 21
-288.599066
 31
0.0
  0
LINE
  5
35C9
330
3BB0
100
AcDbEntity
  8
V0-VYPLNE
  6
DASHED
 62
    52
100
AcDbLine
 10
1140.798392
 20
-288.599066
 30
0.0
 11
1178.61967
 21
-288.599066
 31
0.0
  0
LINE
  5
35CA
330
3BB0
100
AcDbEntity
  8
V0-VYPLNE
  6
DASHED
 62
    52
100
AcDbLine
 10
1125.509031
 20
-98.622351
 30
0.0
 11
1125.509031
 21
-185.262351
 31
0.0
  0
ARC
  5
35CB
330
3BB0
100
AcDbEntity
  8
V0-VYPLNE
  6
DASHED
 62
    52
100
AcDbCircle
 10
184.317617
 20
-88.68596100000001
 30
0.0
 40
1014.20009
100
AcDbArc
 50
354.845307
 51
359.438649
  0
LINE
  5
35CC
330
3BB0
100
AcDbEntity
  8
V0-VYPLNE
  6
DASHED
 62
    52
100
AcDbLine
 10
1159.709031
 20
-189.605943
 30
0.0
 11
1159.709031
 21
-98.622351
 31
0.0
  0
LINE
  5
35CD
330
3BB0
100
AcDbEntity
  8
V0-VYPLNE
  6
DASHED
 62
    52
100
AcDbLine
 10
1126.112471
 20
-109.02579
 30
0.0
 11
1196.515871
 21
-87.862005
 31
0.0
  0
ARC
  5
35CE
330
3BB0
100
AcDbEntity
  8
V0-VYPLNE
  6
DASHED
 62
    52
100
AcDbCircle
 10
1159.709031
 20
-52.794417
 30
0.0
 40
136.811526
100
AcDbArc
 50
255.523734
 51
282.123858
  0
LINE
  5
35CF
330
3BB0
100
AcDbEntity
  8
V0-VYPLNE
  6
DASHED
 62
    52
100
AcDbLine
 10
1131.310401
 20
-186.514918
 30
0.0
 11
1125.471635
 21
-192.348298
 31
0.0
  0
ARC
  5
35D0
330
3BB0
100
AcDbEntity
  8
V0-VYPLNE
  6
DASHED
 62
    52
100
AcDbCircle
 10
1186.84677
 20
-179.123992
 30
0.0
 40
7.6
100
AcDbArc
 50
282.123858
 51
354.845307
  0
LINE
  5
35D1
330
3BB0
100
AcDbEntity
  8
V0-VYPLNE
  6
DASHED
 62
    52
100
AcDbLine
 10
1188.107661
 20
-186.514918
 30
0.0
 11
1193.946426
 21
-192.348298
 31
0.0
  0
ARC
  5
35D2
330
3BB0
100
AcDbEntity
  8
V0-VYPLNE
  6
DASHED
 62
    52
100
AcDbCircle
 10
1159.709031
 20
-144.450286
 30
0.0
 40
136.811526
100
AcDbArc
 50
77.876142
 51
104.476266
  0
LINE
  5
35D3
330
3BB0
100
AcDbEntity
  8
V0-VYPLNE
  6
DASHED
 62
    52
100
AcDbLine
 10
1159.709031
 20
-7.63876
 30
0.0
 11
1159.709031
 21
-98.622351
 31
0.0
  0
LINE
  5
35D4
330
3BB0
100
AcDbEntity
  8
V0-VYPLNE
  6
DASHED
 62
    52
100
AcDbLine
 10
1125.509031
 20
-98.622351
 30
0.0
 11
1125.509031
 21
-11.98235099999999
 31
0.0
  0
CIRCLE
  5
35D5
330
3BB0
100
AcDbEntity
  8
V0-VYPLNE
  6
DASHED
 62
    52
100
AcDbCircle
 10
1159.709031
 20
-98.92641399999999
 30
0.0
 40
6.441169
  0
LINE
  5
35D6
330
3BB0
100
AcDbEntity
  8
V0-VYPLNE
  6
DASHED
 62
    52
100
AcDbLine
 10
1131.310401
 20
-10.729785
 30
0.0
 11
1125.471635
 21
-4.896405
 31
0.0
  0
ARC
  5
35D7
330
3BB0
100
AcDbEntity
  8
V0-VYPLNE
  6
DASHED
 62
    52
100
AcDbCircle
 10
184.317617
 20
-108.558741
 30
0.0
 40
1014.20009
100
AcDbArc
 50
0.561351
 51
5.154693
  0
LINE
  5
35D8
330
3BB0
100
AcDbEntity
  8
V0-VYPLNE
  6
DASHED
 62
    52
100
AcDbLine
 10
1188.107661
 20
-10.729785
 30
0.0
 11
1193.946426
 21
-4.896405
 31
0.0
  0
LINE
  5
35D9
330
3BB0
100
AcDbEntity
  8
V0-VYPLNE
  6
DASHED
 62
    52
100
AcDbLine
 10
1140.798392
 20
91.354364
 30
0.0
 11
1178.61967
 21
91.354364
 31
0.0
  0
LINE
  5
35F3
330
3BB0
100
AcDbEntity
  8
V0-OBRYS
  6
DASHED
 62
    52
100
AcDbLine
 10
1071.576261
 20
-30.871764
 30
0.0
 11
1047.59873
 21
-48.684766
 31
0.0
  0
LINE
  5
35F4
330
3BB0
100
AcDbEntity
  8
V0-OBRYS
  6
DASHED
 62
    52
100
AcDbLine
 10
1070.96145
 20
-43.770836
 30
0.0
 11
1048.213536
 21
-56.055665
 31
0.0
  0
LINE
  5
35F5
330
3BB0
100
AcDbEntity
  8
V0-OBRYS
  6
DASHED
 62
    52
100
AcDbLine
 10
1070.96145
 20
-73.86866600000001
 30
0.0
 11
1047.59873
 21
-76.325633
 31
0.0
  0
LINE
  5
35F6
330
3BB0
100
AcDbEntity
  8
V0-OBRYS
  6
DASHED
 62
    52
100
AcDbLine
 10
1070.96145
 20
-88.610461
 30
0.0
 11
1047.59873
 21
-89.22470300000001
 31
0.0
  0
LINE
  5
35F7
330
3BB0
100
AcDbEntity
  8
V0-OBRYS
  6
DASHED
 62
    52
100
AcDbLine
 10
1071.576261
 20
-59.126873
 30
0.0
 11
1046.983919
 21
-64.655046
 31
0.0
  0
LINE
  5
35F9
330
3BB0
100
AcDbEntity
  8
V0-OBRYS
  6
DASHED
 62
    52
100
AcDbLine
 10
1071.576261
 20
-139.638468
 30
0.0
 11
1046.983919
 21
-134.110295
 31
0.0
  0
LINE
  5
35FA
330
3BB0
100
AcDbEntity
  8
V0-OBRYS
  6
DASHED
 62
    52
100
AcDbLine
 10
1070.96145
 20
-110.154879
 30
0.0
 11
1047.59873
 21
-109.540638
 31
0.0
  0
LINE
  5
35FB
330
3BB0
100
AcDbEntity
  8
V0-OBRYS
  6
DASHED
 62
    52
100
AcDbLine
 10
1070.96145
 20
-124.896675
 30
0.0
 11
1047.59873
 21
-122.439708
 31
0.0
  0
LINE
  5
35FC
330
3BB0
100
AcDbEntity
  8
V0-OBRYS
  6
DASHED
 62
    52
100
AcDbLine
 10
1070.96145
 20
-154.994504
 30
0.0
 11
1048.213536
 21
-142.709676
 31
0.0
  0
LINE
  5
35FD
330
3BB0
100
AcDbEntity
  8
V0-OBRYS
  6
DASHED
 62
    52
100
AcDbLine
 10
1071.576261
 20
-167.893576
 30
0.0
 11
1047.59873
 21
-150.080575
 31
0.0
  0
LINE
  5
35FE
330
3BB0
100
AcDbEntity
  8
V0-OBRYS
  6
DASHED
 62
    52
100
AcDbLine
 10
1060.257082
 20
-172.36661
 30
0.0
 11
1107.632622
 21
-172.36661
 31
0.0
  0
LINE
  5
3600
330
3BB0
100
AcDbEntity
  8
V0-OBRYS
  6
DASHED
 62
    52
100
AcDbLine
 10
1047.452882
 20
-99.38267000000001
 30
0.0
 11
1047.452882
 21
-159.56241
 31
0.0
  0
ARC
  5
3601
330
3BB0
100
AcDbEntity
  8
V0-OBRYS
  6
DASHED
 62
    52
100
AcDbCircle
 10
1060.257082
 20
-159.56241
 30
0.0
 40
12.8042
100
AcDbArc
 50
180.0
 51
270.0
  0
LINE
  5
3602
330
3BB0
100
AcDbEntity
  8
V0-OBRYS
  6
DASHED
 62
    52
100
AcDbLine
 10
1047.452882
 20
-99.38267000000001
 30
0.0
 11
1047.452882
 21
-39.20293
 31
0.0
  0
ARC
  5
3603
330
3BB0
100
AcDbEntity
  8
V0-OBRYS
  6
DASHED
 62
    52
100
AcDbCircle
 10
1060.257082
 20
-39.20293
 30
0.0
 40
12.8042
100
AcDbArc
 50
90.0
 51
180.0
  0
LINE
  5
3604
330
3BB0
100
AcDbEntity
  8
V0-VYPLNE
  6
DASHED
 62
    52
100
AcDbLine
 10
1119.709007
 20
-165.96451
 30
0.0
 11
1119.709007
 21
-99.38267000000001
 31
0.0
  0
LINE
  5
3605
330
3BB0
100
AcDbEntity
  8
V0-OBRYS
  6
DASHED
 62
    52
100
AcDbLine
 10
1071.780862
 20
-99.38267000000001
 30
0.0
 11
1071.780862
 21
-172.36661
 31
0.0
  0
LINE
  5
360A
330
3BB0
100
AcDbEntity
  8
V0-VYPLNE
  6
DASHED
 62
    52
100
AcDbLine
 10
1101.047413
 20
-172.36661
 30
0.0
 11
1113.306907
 21
-172.36661
 31
0.0
  0
LINE
  5
360C
330
3BB0
100
AcDbEntity
  8
V0-OBRYS
  6
DASHED
 62
    52
100
AcDbLine
 10
1070.96145
 20
-154.994504
 30
0.0
 11
1119.709007
 21
-154.994504
 31
0.0
  0
LINE
  5
360D
330
3BB0
100
AcDbEntity
  8
V0-OBRYS
  6
DASHED
 62
    52
100
AcDbLine
 10
1071.576261
 20
-167.893576
 30
0.0
 11
1119.411461
 21
-167.893576
 31
0.0
  0
LINE
  5
360E
330
3BB0
100
AcDbEntity
  8
V0-OBRYS
  6
DASHED
 62
    52
100
AcDbLine
 10
1074.650301
 20
-124.896675
 30
0.0
 11
1119.709007
 21
-124.896675
 31
0.0
  0
LINE
  5
360F
330
3BB0
100
AcDbEntity
  8
V0-OBRYS
  6
DASHED
 62
    52
100
AcDbLine
 10
1070.96145
 20
-110.154879
 30
0.0
 11
1119.709007
 21
-110.154879
 31
0.0
  0
LINE
  5
3610
330
3BB0
100
AcDbEntity
  8
V0-OBRYS
  6
DASHED
 62
    52
100
AcDbLine
 10
1071.576261
 20
-139.638468
 30
0.0
 11
1119.709007
 21
-139.638468
 31
0.0
  0
LINE
  5
3611
330
3BB0
100
AcDbEntity
  8
V0-OBRYS
  6
DASHED
 62
    52
100
AcDbLine
 10
1070.96145
 20
-124.896675
 30
0.0
 11
1074.650301
 21
-124.896675
 31
0.0
  0
ARC
  5
3612
330
3BB0
100
AcDbEntity
  8
V0-VYPLNE
  6
DASHED
 62
    52
100
AcDbCircle
 10
1113.306907
 20
-165.96451
 30
0.0
 40
6.4021
100
AcDbArc
 50
270.0
 51
0.0
  0
LINE
  5
3614
330
3BB0
100
AcDbEntity
  8
V0-VYPLNE
  6
DASHED
 62
    52
100
AcDbLine
 10
1060.257082
 20
-26.39873
 30
0.0
 11
1113.306907
 21
-26.39873
 31
0.0
  0
LINE
  5
3619
330
3BB0
100
AcDbEntity
  8
V0-OBRYS
  6
DASHED
 62
    52
100
AcDbLine
 10
1071.780862
 20
-99.38267000000001
 30
0.0
 11
1071.780862
 21
-26.39873
 31
0.0
  0
LINE
  5
361A
330
3BB0
100
AcDbEntity
  8
V0-OBRYS
  6
DASHED
 62
    52
100
AcDbLine
 10
1074.650301
 20
-73.86866600000001
 30
0.0
 11
1119.709007
 21
-73.86866600000001
 31
0.0
  0
LINE
  5
361B
330
3BB0
100
AcDbEntity
  8
V0-OBRYS
  6
DASHED
 62
    52
100
AcDbLine
 10
1070.96145
 20
-88.610461
 30
0.0
 11
1119.709007
 21
-88.610461
 31
0.0
  0
LINE
  5
361C
330
3BB0
100
AcDbEntity
  8
V0-OBRYS
  6
DASHED
 62
    52
100
AcDbLine
 10
1070.96145
 20
-73.86866600000001
 30
0.0
 11
1074.650301
 21
-73.86866600000001
 31
0.0
  0
LINE
  5
361D
330
3BB0
100
AcDbEntity
  8
V0-OBRYS
  6
DASHED
 62
    52
100
AcDbLine
 10
1071.576261
 20
-30.871764
 30
0.0
 11
1119.411461
 21
-30.871764
 31
0.0
  0
LINE
  5
361E
330
3BB0
100
AcDbEntity
  8
V0-OBRYS
  6
DASHED
 62
    52
100
AcDbLine
 10
1071.576261
 20
-59.126873
 30
0.0
 11
1119.709007
 21
-59.126873
 31
0.0
  0
LINE
  5
361F
330
3BB0
100
AcDbEntity
  8
V0-OBRYS
  6
DASHED
 62
    52
100
AcDbLine
 10
1070.96145
 20
-43.770836
 30
0.0
 11
1119.709007
 21
-43.770836
 31
0.0
  0
LINE
  5
3620
330
3BB0
100
AcDbEntity
  8
V0-VYPLNE
  6
DASHED
 62
    52
100
AcDbLine
 10
1119.709007
 20
-32.80083
 30
0.0
 11
1119.709007
 21
-99.38266999999999
 31
0.0
  0
ARC
  5
3621
330
3BB0
100
AcDbEntity
  8
V0-VYPLNE
  6
DASHED
 62
    52
100
AcDbCircle
 10
1113.306907
 20
-32.80083
 30
0.0
 40
6.4021
100
AcDbArc
 50
0.0
 51
90.0
  0
LINE
  5
3622
330
3BB0
100
AcDbEntity
  8
V0-VYPLNE
  6
DASHDOT
 62
    63
 48
0.5
100
AcDbLine
 10
1040.733139
 20
-99.38267000000001
 30
0.0
 11
1224.478412
 21
-99.38267000000001
 31
0.0
  0
LINE
  5
364F
330
3BB0
100
AcDbEntity
  8
V0-VYPLNE
  6
DASHED
 62
    52
100
AcDbLine
 10
1066.991832
 20
-206.496619
 30
0.0
 11
1087.016664
 21
-196.328833
 31
0.0
  0
LINE
  5
3650
330
3BB0
100
AcDbEntity
  8
V0-VYPLNE
  6
DASHED
 62
    52
100
AcDbLine
 10
1066.991832
 20
-209.984821
 30
0.0
 11
1090.126894
 21
-198.237788
 31
0.0
  0
LINE
  5
3651
330
3BB0
100
AcDbEntity
  8
V0-VYPLNE
  6
DASHED
 62
    52
100
AcDbLine
 10
1070.102062
 20
-293.011069
 30
0.0
 11
1085.693174
 21
-293.011069
 31
0.0
  0
LINE
  5
3652
330
3BB0
100
AcDbEntity
  8
V0-VYPLNE
  6
DASHED
 62
    52
100
AcDbLine
 10
1066.991832
 20
-296.121299
 30
0.0
 11
1085.693174
 21
-296.121299
 31
0.0
  0
LINE
  5
3653
330
3BB0
100
AcDbEntity
  8
V0-VYPLNE
  6
DASHED
 62
    52
100
AcDbLine
 10
1066.991832
 20
97.355958
 30
0.0
 11
1085.693174
 21
97.355958
 31
0.0
  0
LINE
  5
3654
330
3BB0
100
AcDbEntity
  8
V0-VYPLNE
  6
DASHED
 62
    52
100
AcDbLine
 10
1066.991832
 20
94.245728
 30
0.0
 11
1085.693174
 21
94.245728
 31
0.0
  0
LINE
  5
3655
330
3BB0
100
AcDbEntity
  8
V0-VYPLNE
  6
DASHED
 62
    52
100
AcDbLine
 10
1066.991832
 20
11.219481
 30
0.0
 11
1090.126894
 21
-0.5275529999999993
 31
0.0
  0
LINE
  5
3656
330
3BB0
100
AcDbEntity
  8
V0-VYPLNE
  6
DASHED
 62
    52
100
AcDbLine
 10
1066.991832
 20
7.731279
 30
0.0
 11
1087.016664
 21
-2.436507
 31
0.0
  0
LINE
  5
3657
330
3BB0
100
AcDbEntity
  8
V0-VYPLNE
  6
DASHED
 62
    52
100
AcDbLine
 10
1066.991832
 20
-296.882275
 30
0.0
 11
1066.991832
 21
-206.496619
 31
0.0
  0
LINE
  5
3658
330
3BB0
100
AcDbEntity
  8
V0-VYPLNE
  6
DASHED
 62
    52
100
AcDbLine
 10
1070.102062
 20
-293.011069
 30
0.0
 11
1070.102062
 21
-208.24072
 31
0.0
  0
LINE
  5
365B
330
3BB0
100
AcDbEntity
  8
V0-VYPLNE
  6
DASHED
 62
    52
100
AcDbLine
 10
1070.102062
 20
98.116935
 30
0.0
 11
1070.102062
 21
9.475380000000001
 31
0.0
  0
LINE
  5
365C
330
3BB0
100
AcDbEntity
  8
V0-VYPLNE
  6
DASHED
 62
    52
100
AcDbLine
 10
1066.991832
 20
94.245728
 30
0.0
 11
1066.991832
 21
7.731279000000001
 31
0.0
  0
LINE
  5
365D
330
3BB0
100
AcDbEntity
  8
V0-VYPLNE
  6
DASHED
 62
    52
100
AcDbLine
 10
1066.991832
 20
98.116935
 30
0.0
 11
1066.991832
 21
97.355958
 31
0.0
  0
LINE
  5
365E
330
3BB0
100
AcDbEntity
  8
V0-VYPLNE
  6
DASHED
 62
    52
100
AcDbLine
 10
1090.126894
 20
-0.5275530000000001
 30
0.0
 11
1090.126894
 21
-26.39873
 31
0.0
  0
LINE
  5
365F
330
3BB0
100
AcDbEntity
  8
V0-VYPLNE
  6
DASHED
 62
    52
100
AcDbLine
 10
1087.016664
 20
-2.436507
 30
0.0
 11
1087.016664
 21
-26.39873
 31
0.0
  0
LINE
  5
3660
330
3BB0
100
AcDbEntity
  8
V0-VYPLNE
  6
DASHED
 62
    52
100
AcDbLine
 10
1087.016664
 20
-196.328833
 30
0.0
 11
1087.016664
 21
-172.36661
 31
0.0
  0
LINE
  5
3661
330
3BB0
100
AcDbEntity
  8
V0-VYPLNE
  6
DASHED
 62
    52
100
AcDbLine
 10
1090.126894
 20
-198.237788
 30
0.0
 11
1090.126894
 21
-172.36661
 31
0.0
  0
DIMENSION
  5
36B2
330
3BB0
100
AcDbEntity
  8
V0-VYPLNE
  6
CONTINUOUS
 62
    41
100
AcDbDimension
  2
*D10
 10
985.6996909999871
 20
-172.36661
 30
0.0
 11
985.699691
 21
-105.581374
 31
0.0
 70
   160
  1
%%c<>
  3
ED30
100
AcDbAlignedDimension
 13
1060.257082
 23
-26.39873
 33
0.0
 14
1060.257082
 24
-172.36661
 34
0.0
 50
90.0
100
AcDbRotatedDimension
1001
ACAD
1000
DSTYLE
1002
{
1070
    41
1040
30.0
1070
   140
1040
30.0
1002
}
  0
LINE
  5
36EA
330
3BB0
100
AcDbEntity
  8
V0-VYPLNE
  6
DASHED
 62
    52
100
AcDbLine
 10
1070.102062
 20
-971.464876
 30
0.0
 11
1070.102062
 21
-886.694527
 31
0.0
  0
LINE
  5
36EB
330
3BB0
100
AcDbEntity
  8
V0-VYPLNE
  6
DASHED
 62
    52
100
AcDbLine
 10
1066.991832
 20
-975.336082
 30
0.0
 11
1066.991832
 21
-884.950426
 31
0.0
  0
LINE
  5
36EC
330
3BB0
100
AcDbEntity
  8
V0-VYPLNE
  6
DASHED
 62
    52
100
AcDbLine
 10
1193.946426
 20
-870.802105
 30
0.0
 11
1178.61967
 21
-967.052873
 31
0.0
  0
LINE
  5
36ED
330
3BB0
100
AcDbEntity
  8
V0-VYPLNE
  6
DASHED
 62
    52
100
AcDbLine
 10
1125.471635
 20
-870.802105
 30
0.0
 11
1140.798392
 21
-967.052873
 31
0.0
  0
LINE
  5
36EE
330
3BB0
100
AcDbEntity
  8
V0-OBRYS
  6
CONTINUOUS
 62
    90
100
AcDbLine
 10
1040.733139
 20
-777.836477
 30
0.0
 11
1040.733139
 21
-1021.316277
 31
0.0
  0
LINE
  5
36EF
330
3BB0
100
AcDbEntity
  8
V0-OBRYS
  6
CONTINUOUS
 62
    90
100
AcDbLine
 10
1210.709139
 20
-777.836477
 30
0.0
 11
1210.709139
 21
-1021.316277
 31
0.0
  0
LINE
  5
36F0
330
3BB0
100
AcDbEntity
  8
V0-OBRYS
  6
CONTINUOUS
 62
    90
100
AcDbLine
 10
1207.559539
 20
-977.8360770000001
 30
0.0
 11
1043.882739
 21
-977.8360770000001
 31
0.0
  0
LINE
  5
36F1
330
3BB0
100
AcDbEntity
  8
V0-VYPLNE
  6
DASHDOT
 62
    63
 48
2.0
100
AcDbLine
 10
1192.722763
 20
-1002.757277
 30
0.0
 11
1228.773079
 21
-1002.757277
 31
0.0
  0
LINE
  5
36F2
330
3BB0
100
AcDbEntity
  8
V0-VYPLNE
  6
DASHDOT
 62
    63
 48
2.0
100
AcDbLine
 10
1024.985139
 20
-1002.757277
 30
0.0
 11
1070.096539
 21
-1002.757277
 31
0.0
  0
LINE
  5
36F3
330
3BB0
100
AcDbEntity
  8
V0-OBRYS
  6
CONTINUOUS
 62
    90
100
AcDbLine
 10
1043.882739
 20
-977.8360770000001
 30
0.0
 11
1043.882739
 21
-1021.316277
 31
0.0
  0
LINE
  5
36F4
330
3BB0
100
AcDbEntity
  8
V0-VYPLNE
  6
DASHED
 62
    52
100
AcDbLine
 10
1066.991832
 20
-974.575106
 30
0.0
 11
1085.693174
 21
-974.575106
 31
0.0
  0
LINE
  5
36F5
330
3BB0
100
AcDbEntity
  8
V0-VYPLNE
  6
DASHED
 62
    52
100
AcDbLine
 10
1070.102062
 20
-971.464876
 30
0.0
 11
1085.693174
 21
-971.464876
 31
0.0
  0
LINE
  5
36F6
330
3BB0
100
AcDbEntity
  8
V0-VYPLNE
  6
DASHED
 62
    52
100
AcDbLine
 10
1066.991832
 20
-975.336082
 30
0.0
 11
1066.991832
 21
-974.575106
 31
0.0
  0
LINE
  5
36F8
330
3BB0
100
AcDbEntity
  8
V0-VYPLNE
  6
DASHED
 62
    52
100
AcDbLine
 10
1140.798392
 20
-967.052873
 30
0.0
 11
1178.61967
 21
-967.052873
 31
0.0
  0
LINE
  5
36F9
330
3BB0
100
AcDbEntity
  8
V0-OBRYS
  6
CONTINUOUS
 62
    90
100
AcDbLine
 10
1207.559539
 20
-977.8360770000001
 30
0.0
 11
1207.559539
 21
-1021.316277
 31
0.0
  0
LINE
  5
36FA
330
3BB0
100
AcDbEntity
  8
V0-VYPLNE
  6
DASHED
 62
    52
100
AcDbLine
 10
1070.102062
 20
-584.208079
 30
0.0
 11
1070.102062
 21
-668.978427
 31
0.0
  0
LINE
  5
36FB
330
3BB0
100
AcDbEntity
  8
V0-OBRYS
  6
CONTINUOUS
 62
    90
100
AcDbLine
 10
1040.733139
 20
-777.836477
 30
0.0
 11
1040.733139
 21
-534.356677
 31
0.0
  0
LINE
  5
36FC
330
3BB0
100
AcDbEntity
  8
V0-OBRYS
  6
CONTINUOUS
 62
    90
100
AcDbLine
 10
1210.709139
 20
-777.836477
 30
0.0
 11
1210.709139
 21
-534.356677
 31
0.0
  0
LINE
  5
36FD
330
3BB0
100
AcDbEntity
  8
V0-VYPLNE
  6
DASHDOT
 62
    63
 48
0.5
100
AcDbLine
 10
1040.733139
 20
-777.836477
 30
0.0
 11
1224.478412
 21
-777.836477
 31
0.0
  0
LINE
  5
36FE
330
3BB0
100
AcDbEntity
  8
V0-VYPLNE
  6
DASHED
 62
    52
100
AcDbLine
 10
1159.709031
 20
-686.092567
 30
0.0
 11
1159.709031
 21
-777.076158
 31
0.0
  0
LINE
  5
36FF
330
3BB0
100
AcDbEntity
  8
V0-VYPLNE
  6
DASHED
 62
    52
100
AcDbLine
 10
1125.509031
 20
-777.076158
 30
0.0
 11
1125.509031
 21
-690.436158
 31
0.0
  0
ARC
  5
3700
330
3BB0
100
AcDbEntity
  8
V0-VYPLNE
  6
DASHED
 62
    52
100
AcDbCircle
 10
184.317617
 20
-787.012549
 30
0.0
 40
1014.20009
100
AcDbArc
 50
0.561351
 51
5.154693
  0
LINE
  5
3701
330
3BB0
100
AcDbEntity
  8
V0-VYPLNE
  6
DASHED
 62
    52
100
AcDbLine
 10
1119.709007
 20
-711.254637
 30
0.0
 11
1119.709007
 21
-777.836477
 31
0.0
  0
LINE
  5
3702
330
3BB0
100
AcDbEntity
  8
V0-OBRYS
  6
DASHED
 62
    52
100
AcDbLine
 10
1071.780862
 20
-777.836477
 30
0.0
 11
1071.780862
 21
-704.852537
 31
0.0
  0
LINE
  5
3703
330
3BB0
100
AcDbEntity
  8
V0-OBRYS
  6
DASHED
 62
    52
100
AcDbLine
 10
1047.452882
 20
-777.836477
 30
0.0
 11
1047.452882
 21
-717.656737
 31
0.0
  0
LINE
  5
3704
330
3BB0
100
AcDbEntity
  8
V0-OBRYS
  6
DASHED
 62
    52
100
AcDbLine
 10
1070.96145
 20
-752.322473
 30
0.0
 11
1047.59873
 21
-754.77944
 31
0.0
  0
LINE
  5
3705
330
3BB0
100
AcDbEntity
  8
V0-OBRYS
  6
DASHED
 62
    52
100
AcDbLine
 10
1070.96145
 20
-767.064268
 30
0.0
 11
1047.59873
 21
-767.67851
 31
0.0
  0
LINE
  5
3706
330
3BB0
100
AcDbEntity
  8
V0-OBRYS
  6
DASHED
 62
    52
100
AcDbLine
 10
1070.96145
 20
-788.608686
 30
0.0
 11
1047.59873
 21
-787.994445
 31
0.0
  0
LINE
  5
3707
330
3BB0
100
AcDbEntity
  8
V0-OBRYS
  6
DASHED
 62
    52
100
AcDbLine
 10
1070.96145
 20
-803.3504820000001
 30
0.0
 11
1047.59873
 21
-800.893515
 31
0.0
  0
ARC
  5
3708
330
3BB0
100
AcDbEntity
  8
V0-OBRYS
  6
DASHED
 62
    52
100
AcDbCircle
 10
1060.257082
 20
-838.016217
 30
0.0
 40
12.8042
100
AcDbArc
 50
180.0
 51
270.0
  0
LINE
  5
3709
330
3BB0
100
AcDbEntity
  8
V0-OBRYS
  6
DASHED
 62
    52
100
AcDbLine
 10
1071.576261
 20
-818.092275
 30
0.0
 11
1046.983919
 21
-812.5641020000001
 31
0.0
  0
LINE
  5
370A
330
3BB0
100
AcDbEntity
  8
V0-OBRYS
  6
DASHED
 62
    52
100
AcDbLine
 10
1070.96145
 20
-833.448311
 30
0.0
 11
1048.213536
 21
-821.163483
 31
0.0
  0
LINE
  5
370B
330
3BB0
100
AcDbEntity
  8
V0-OBRYS
  6
DASHED
 62
    52
100
AcDbLine
 10
1071.576261
 20
-846.347383
 30
0.0
 11
1047.59873
 21
-828.5343820000001
 31
0.0
  0
LINE
  5
370C
330
3BB0
100
AcDbEntity
  8
V0-OBRYS
  6
DASHED
 62
    52
100
AcDbLine
 10
1047.452882
 20
-777.836477
 30
0.0
 11
1047.452882
 21
-838.016217
 31
0.0
  0
LINE
  5
370D
330
3BB0
100
AcDbEntity
  8
V0-VYPLNE
  6
DASHED
 62
    52
100
AcDbLine
 10
1125.509031
 20
-777.076158
 30
0.0
 11
1125.509031
 21
-863.716158
 31
0.0
  0
ARC
  5
370E
330
3BB0
100
AcDbEntity
  8
V0-VYPLNE
  6
DASHED
 62
    52
100
AcDbCircle
 10
184.317617
 20
-767.139768
 30
0.0
 40
1014.20009
100
AcDbArc
 50
354.845307
 51
359.438649
  0
LINE
  5
370F
330
3BB0
100
AcDbEntity
  8
V0-VYPLNE
  6
DASHED
 62
    52
100
AcDbLine
 10
1159.709031
 20
-868.05975
 30
0.0
 11
1159.709031
 21
-777.076158
 31
0.0
  0
LINE
  5
3710
330
3BB0
100
AcDbEntity
  8
V0-VYPLNE
  6
DASHED
 62
    52
100
AcDbLine
 10
1119.709007
 20
-844.418317
 30
0.0
 11
1119.709007
 21
-777.836477
 31
0.0
  0
LINE
  5
3711
330
3BB0
100
AcDbEntity
  8
V0-OBRYS
  6
DASHED
 62
    52
100
AcDbLine
 10
1071.780862
 20
-777.836477
 30
0.0
 11
1071.780862
 21
-850.820417
 31
0.0
  0
ARC
  5
3712
330
3BB0
100
AcDbEntity
  8
V0-VYPLNE
  6
DASHED
 62
    52
100
AcDbCircle
 10
1159.709031
 20
-731.2482240000001
 30
0.0
 40
136.811526
100
AcDbArc
 50
255.523734
 51
282.123858
  0
LINE
  5
3713
330
3BB0
100
AcDbEntity
  8
V0-VYPLNE
  6
DASHED
 62
    52
100
AcDbLine
 10
1087.016664
 20
-874.78264
 30
0.0
 11
1087.016664
 21
-850.820417
 31
0.0
  0
LINE
  5
3714
330
3BB0
100
AcDbEntity
  8
V0-VYPLNE
  6
DASHED
 62
    52
100
AcDbLine
 10
1090.126894
 20
-876.691595
 30
0.0
 11
1090.126894
 21
-850.820417
 31
0.0
  0
LINE
  5
3715
330
3BB0
100
AcDbEntity
  8
V0-VYPLNE
  6
DASHED
 62
    52
100
AcDbLine
 10
1066.991832
 20
-888.438628
 30
0.0
 11
1090.126894
 21
-876.691595
 31
0.0
  0
LINE
  5
3716
330
3BB0
100
AcDbEntity
  8
V0-VYPLNE
  6
DASHED
 62
    52
100
AcDbLine
 10
1066.991832
 20
-884.950426
 30
0.0
 11
1087.016664
 21
-874.78264
 31
0.0
  0
LINE
  5
3717
330
3BB0
100
AcDbEntity
  8
V0-OBRYS
  6
DASHED
 62
    52
100
AcDbLine
 10
1070.96145
 20
-833.448311
 30
0.0
 11
1119.709007
 21
-833.448311
 31
0.0
  0
LINE
  5
3718
330
3BB0
100
AcDbEntity
  8
V0-OBRYS
  6
DASHED
 62
    52
100
AcDbLine
 10
1071.576261
 20
-846.347383
 30
0.0
 11
1119.411461
 21
-846.347383
 31
0.0
  0
LINE
  5
3719
330
3BB0
100
AcDbEntity
  8
V0-OBRYS
  6
DASHED
 62
    52
100
AcDbLine
 10
1060.257082
 20
-850.820417
 30
0.0
 11
1107.632622
 21
-850.820417
 31
0.0
  0
LINE
  5
371A
330
3BB0
100
AcDbEntity
  8
V0-VYPLNE
  6
DASHED
 62
    52
100
AcDbLine
 10
1131.310401
 20
-864.968725
 30
0.0
 11
1125.471635
 21
-870.802105
 31
0.0
  0
ARC
  5
371B
330
3BB0
100
AcDbEntity
  8
V0-VYPLNE
  6
DASHED
 62
    52
100
AcDbCircle
 10
1113.306907
 20
-844.418317
 30
0.0
 40
6.4021
100
AcDbArc
 50
270.0
 51
0.0
  0
LINE
  5
371C
330
3BB0
100
AcDbEntity
  8
V0-VYPLNE
  6
DASHED
 62
    52
100
AcDbLine
 10
1101.047413
 20
-850.820417
 30
0.0
 11
1113.306907
 21
-850.820417
 31
0.0
  0
ARC
  5
371D
330
3BB0
100
AcDbEntity
  8
V0-VYPLNE
  6
DASHED
 62
    52
100
AcDbCircle
 10
1186.84677
 20
-857.577799
 30
0.0
 40
7.6
100
AcDbArc
 50
282.123858
 51
354.845307
  0
LINE
  5
371E
330
3BB0
100
AcDbEntity
  8
V0-VYPLNE
  6
DASHED
 62
    52
100
AcDbLine
 10
1188.107661
 20
-864.968725
 30
0.0
 11
1193.946426
 21
-870.802105
 31
0.0
  0
LINE
  5
371F
330
3BB0
100
AcDbEntity
  8
V0-VYPLNE
  6
DASHED
 62
    52
100
AcDbLine
 10
1126.112471
 20
-787.479597
 30
0.0
 11
1196.515871
 21
-766.3158120000001
 31
0.0
  0
LINE
  5
3720
330
3BB0
100
AcDbEntity
  8
V0-OBRYS
  6
DASHED
 62
    52
100
AcDbLine
 10
1074.650301
 20
-803.3504820000001
 30
0.0
 11
1119.709007
 21
-803.3504820000001
 31
0.0
  0
LINE
  5
3721
330
3BB0
100
AcDbEntity
  8
V0-OBRYS
  6
DASHED
 62
    52
100
AcDbLine
 10
1071.576261
 20
-818.092275
 30
0.0
 11
1119.709007
 21
-818.092275
 31
0.0
  0
LINE
  5
3722
330
3BB0
100
AcDbEntity
  8
V0-OBRYS
  6
DASHED
 62
    52
100
AcDbLine
 10
1070.96145
 20
-803.3504820000001
 30
0.0
 11
1074.650301
 21
-803.3504820000001
 31
0.0
  0
LINE
  5
3723
330
3BB0
100
AcDbEntity
  8
V0-OBRYS
  6
DASHED
 62
    52
100
AcDbLine
 10
1074.650301
 20
-752.322473
 30
0.0
 11
1119.709007
 21
-752.322473
 31
0.0
  0
LINE
  5
3724
330
3BB0
100
AcDbEntity
  8
V0-OBRYS
  6
DASHED
 62
    52
100
AcDbLine
 10
1070.96145
 20
-788.608686
 30
0.0
 11
1119.709007
 21
-788.608686
 31
0.0
  0
LINE
  5
3725
330
3BB0
100
AcDbEntity
  8
V0-OBRYS
  6
DASHED
 62
    52
100
AcDbLine
 10
1070.96145
 20
-767.064268
 30
0.0
 11
1119.709007
 21
-767.064268
 31
0.0
  0
LINE
  5
3726
330
3BB0
100
AcDbEntity
  8
V0-OBRYS
  6
DASHED
 62
    52
100
AcDbLine
 10
1070.96145
 20
-752.322473
 30
0.0
 11
1074.650301
 21
-752.322473
 31
0.0
  0
CIRCLE
  5
3727
330
3BB0
100
AcDbEntity
  8
V0-VYPLNE
  6
DASHED
 62
    52
100
AcDbCircle
 10
1159.709031
 20
-777.380221
 30
0.0
 40
6.441169
  0
ARC
  5
3728
330
3BB0
100
AcDbEntity
  8
V0-OBRYS
  6
DASHED
 62
    52
100
AcDbCircle
 10
1060.257082
 20
-717.656737
 30
0.0
 40
12.8042
100
AcDbArc
 50
90.0
 51
180.0
  0
LINE
  5
3729
330
3BB0
100
AcDbEntity
  8
V0-OBRYS
  6
DASHED
 62
    52
100
AcDbLine
 10
1070.96145
 20
-722.224643
 30
0.0
 11
1048.213536
 21
-734.509472
 31
0.0
  0
LINE
  5
372A
330
3BB0
100
AcDbEntity
  8
V0-OBRYS
  6
DASHED
 62
    52
100
AcDbLine
 10
1071.576261
 20
-737.58068
 30
0.0
 11
1046.983919
 21
-743.108853
 31
0.0
  0
LINE
  5
372B
330
3BB0
100
AcDbEntity
  8
V0-OBRYS
  6
DASHED
 62
    52
100
AcDbLine
 10
1071.576261
 20
-709.325571
 30
0.0
 11
1047.59873
 21
-727.138573
 31
0.0
  0
LINE
  5
372C
330
3BB0
100
AcDbEntity
  8
V0-VYPLNE
  6
DASHED
 62
    52
100
AcDbLine
 10
1066.991832
 20
-584.208079
 30
0.0
 11
1066.991832
 21
-670.722528
 31
0.0
  0
LINE
  5
372D
330
3BB0
100
AcDbEntity
  8
V0-VYPLNE
  6
DASHED
 62
    52
100
AcDbLine
 10
1193.946426
 20
-683.3502120000001
 30
0.0
 11
1178.61967
 21
-587.099443
 31
0.0
  0
LINE
  5
372E
330
3BB0
100
AcDbEntity
  8
V0-VYPLNE
  6
DASHED
 62
    52
100
AcDbLine
 10
1125.471635
 20
-683.3502120000001
 30
0.0
 11
1140.798392
 21
-587.099443
 31
0.0
  0
ARC
  5
372F
330
3BB0
100
AcDbEntity
  8
V0-VYPLNE
  6
DASHED
 62
    52
100
AcDbCircle
 10
1159.709031
 20
-822.904093
 30
0.0
 40
136.811526
100
AcDbArc
 50
77.876142
 51
104.476266
  0
ARC
  5
3730
330
3BB0
100
AcDbEntity
  8
V0-VYPLNE
  6
DASHED
 62
    52
100
AcDbCircle
 10
1113.306907
 20
-711.254637
 30
0.0
 40
6.4021
100
AcDbArc
 50
0.0
 51
90.0
  0
LINE
  5
3731
330
3BB0
100
AcDbEntity
  8
V0-OBRYS
  6
DASHED
 62
    52
100
AcDbLine
 10
1071.576261
 20
-709.325571
 30
0.0
 11
1119.411461
 21
-709.325571
 31
0.0
  0
LINE
  5
3732
330
3BB0
100
AcDbEntity
  8
V0-OBRYS
  6
DASHED
 62
    52
100
AcDbLine
 10
1071.576261
 20
-737.58068
 30
0.0
 11
1119.709007
 21
-737.58068
 31
0.0
  0
LINE
  5
3733
330
3BB0
100
AcDbEntity
  8
V0-OBRYS
  6
DASHED
 62
    52
100
AcDbLine
 10
1070.96145
 20
-722.224643
 30
0.0
 11
1119.709007
 21
-722.224643
 31
0.0
  0
LINE
  5
3734
330
3BB0
100
AcDbEntity
  8
V0-VYPLNE
  6
DASHED
 62
    52
100
AcDbLine
 10
1060.257082
 20
-704.852537
 30
0.0
 11
1113.306907
 21
-704.852537
 31
0.0
  0
LINE
  5
3735
330
3BB0
100
AcDbEntity
  8
V0-VYPLNE
  6
DASHED
 62
    52
100
AcDbLine
 10
1090.126894
 20
-678.98136
 30
0.0
 11
1090.126894
 21
-704.852537
 31
0.0
  0
LINE
  5
3736
330
3BB0
100
AcDbEntity
  8
V0-VYPLNE
  6
DASHED
 62
    52
100
AcDbLine
 10
1087.016664
 20
-680.890314
 30
0.0
 11
1087.016664
 21
-704.852537
 31
0.0
  0
LINE
  5
3737
330
3BB0
100
AcDbEntity
  8
V0-VYPLNE
  6
DASHED
 62
    52
100
AcDbLine
 10
1066.991832
 20
-670.722528
 30
0.0
 11
1087.016664
 21
-680.890314
 31
0.0
  0
LINE
  5
3738
330
3BB0
100
AcDbEntity
  8
V0-VYPLNE
  6
DASHED
 62
    52
100
AcDbLine
 10
1066.991832
 20
-667.234326
 30
0.0
 11
1090.126894
 21
-678.98136
 31
0.0
  0
LINE
  5
3739
330
3BB0
100
AcDbEntity
  8
V0-VYPLNE
  6
DASHED
 62
    52
100
AcDbLine
 10
1131.310401
 20
-689.183592
 30
0.0
 11
1125.471635
 21
-683.3502120000001
 31
0.0
  0
LINE
  5
373A
330
3BB0
100
AcDbEntity
  8
V0-VYPLNE
  6
DASHED
 62
    52
100
AcDbLine
 10
1188.107661
 20
-689.183592
 30
0.0
 11
1193.946426
 21
-683.3502120000001
 31
0.0
  0
LINE
  5
373B
330
3BB0
100
AcDbEntity
  8
V0-VYPLNE
  6
DASHED
 62
    52
100
AcDbLine
 10
1070.102062
 20
-584.208079
 30
0.0
 11
1085.693174
 21
-584.208079
 31
0.0
  0
LINE
  5
373C
330
3BB0
100
AcDbEntity
  8
V0-VYPLNE
  6
DASHED
 62
    52
100
AcDbLine
 10
1140.798392
 20
-587.099443
 30
0.0
 11
1178.61967
 21
-587.099443
 31
0.0
  0
LINE
  5
373E
330
3BB0
100
AcDbEntity
  8
V0-VYPLNE
  6
DASHDOT
 62
    63
 48
2.0
100
AcDbLine
 10
1192.722763
 20
-552.915677
 30
0.0
 11
1228.773079
 21
-552.915677
 31
0.0
  0
LINE
  5
373F
330
3BB0
100
AcDbEntity
  8
V0-OBRYS
  6
CONTINUOUS
 62
    90
100
AcDbLine
 10
1207.559539
 20
-577.836877
 30
0.0
 11
1043.882739
 21
-577.836877
 31
0.0
  0
LINE
  5
3740
330
3BB0
100
AcDbEntity
  8
V0-VYPLNE
  6
DASHDOT
 62
    63
 48
2.0
100
AcDbLine
 10
1024.985139
 20
-552.915677
 30
0.0
 11
1070.096539
 21
-552.915677
 31
0.0
  0
LINE
  5
3741
330
3BB0
100
AcDbEntity
  8
V0-OBRYS
  6
CONTINUOUS
 62
    90
100
AcDbLine
 10
1043.882739
 20
-977.8360770000001
 30
0.0
 11
1043.882739
 21
-534.356677
 31
0.0
  0
LINE
  5
3742
330
3BB0
100
AcDbEntity
  8
V0-VYPLNE
  6
DASHED
 62
    52
100
AcDbLine
 10
1066.991832
 20
-581.097849
 30
0.0
 11
1085.693174
 21
-581.097849
 31
0.0
  0
LINE
  5
3743
330
3BB0
100
AcDbEntity
  8
V0-VYPLNE
  6
DASHED
 62
    52
100
AcDbLine
 10
1066.991832
 20
-580.336872
 30
0.0
 11
1066.991832
 21
-581.097849
 31
0.0
  0
LINE
  5
3744
330
3BB0
100
AcDbEntity
  8
V0-OBRYS
  6
CONTINUOUS
 62
    90
100
AcDbLine
 10
1207.559539
 20
-977.8360770000001
 30
0.0
 11
1207.559539
 21
-534.356677
 31
0.0
  0
INSERT
  5
3745
330
3BB0
100
AcDbEntity
  8
V0-VYPLNE
  6
CONTINUOUS
 62
    41
100
AcDbBlockReference
  2
ASVORK
 10
1074.708944
 20
100.61733
 30
0.0
  0
INSERT
  5
3746
330
3BB0
100
AcDbEntity
  8
V0-VYPLNE
  6
CONTINUOUS
 62
    41
100
AcDbBlockReference
  2
ASVORKP
 10
1074.642076
 20
-777.829576
 30
0.0
  0
LINE
  5
376C
330
3BB0
100
AcDbEntity
  8
V0-VYPLNE
100
AcDbLine
 10
1729.708848
 20
-99.38267000000001
 30
0.0
 11
1729.708848
 21
143.637244
 31
0.0
  0
CIRCLE
  5
376D
330
3BB0
100
AcDbEntity
  8
V0-VYPLNE
  6
DASHDOT
 62
    63
100
AcDbCircle
 10
1729.708848
 20
-99.38267000000001
 30
0.0
 40
224.862542
  0
CIRCLE
  5
376E
330
3BB0
100
AcDbEntity
  8
V0-OBRYS
  6
CONTINUOUS
 62
    90
100
AcDbCircle
 10
1729.708848
 20
-99.38267000000001
 30
0.0
 40
243.575891
  0
LINE
  5
376F
330
3BB0
100
AcDbEntity
  8
V0-OBRYS
  6
CONTINUOUS
 62
    90
100
AcDbLine
 10
1864.124095
 20
43.547835
 30
0.0
 11
1835.569245
 21
23.593142
 31
0.0
  0
LINE
  5
3770
330
3BB0
100
AcDbEntity
  8
V0-OBRYS
  6
CONTINUOUS
 62
    90
100
AcDbLine
 10
1871.276316
 20
-25.246687
 30
0.0
 11
1851.001051
 21
-43.628755
 31
0.0
  0
LINE
  5
3771
330
3BB0
100
AcDbEntity
  8
V0-OBRYS
  6
CONTINUOUS
 62
    90
100
AcDbLine
 10
1860.705181
 20
-96.256252
 30
0.0
 11
1834.838451
 21
-88.60303500000001
 31
0.0
  0
LINE
  5
3772
330
3BB0
100
AcDbEntity
  8
V0-OBRYS
  6
CONTINUOUS
 62
    90
100
AcDbLine
 10
1875.936567
 20
-163.841544
 30
0.0
 11
1848.923466
 21
-159.450735
 31
0.0
  0
LINE
  5
3773
330
3BB0
100
AcDbEntity
  8
VO-OBRYS
  6
CONTINUOUS
100
AcDbLine
 10
1793.184203
 20
-142.211663
 30
0.0
 11
1881.075824
 21
-230.103284
 31
0.0
  0
LINE
  5
3774
330
3BB0
100
AcDbEntity
  8
VO-OBRYS
  6
CONTINUOUS
100
AcDbLine
 10
1792.978013
 20
-138.52785
 30
0.0
 11
1882.676584
 21
-228.22642
 31
0.0
  0
LINE
  5
3775
330
3BB0
100
AcDbEntity
  8
VO-OBRYS
  6
CONTINUOUS
100
AcDbLine
 10
1772.537841
 20
-162.858025
 30
0.0
 11
1860.429462
 21
-250.749646
 31
0.0
  0
LINE
  5
3776
330
3BB0
100
AcDbEntity
  8
V0-VYPLNE
100
AcDbLine
 10
1729.708848
 20
-99.38267000000001
 30
0.0
 11
1883.039894
 21
-252.713716
 31
0.0
  0
CIRCLE
  5
3777
330
3BB0
100
AcDbEntity
  8
V0-OBRYS
  6
CONTINUOUS
 62
    90
100
AcDbCircle
 10
1729.708848
 20
-99.38267000000001
 30
0.0
 40
199.9996
  0
CIRCLE
  5
3778
330
3BB0
100
AcDbEntity
  8
V0-OBRYS
  6
CONTINUOUS
 62
    90
100
AcDbCircle
 10
1729.708848
 20
-99.38267000000001
 30
0.0
 40
159.804543
  0
CIRCLE
  5
3779
330
3BB0
100
AcDbEntity
  8
V0-OBRYS
  6
CONTINUOUS
 62
    90
100
AcDbCircle
 10
1729.708848
 20
-99.38267000000001
 30
0.0
 40
162.263594
  0
LINE
  5
377A
330
3BB0
100
AcDbEntity
  8
VO-OBRYS
  6
CONTINUOUS
100
AcDbLine
 10
1793.184203
 20
-56.553678
 30
0.0
 11
1881.075824
 21
31.337943
 31
0.0
  0
LINE
  5
377B
330
3BB0
100
AcDbEntity
  8
VO-OBRYS
  6
CONTINUOUS
100
AcDbLine
 10
1772.537841
 20
-35.907316
 30
0.0
 11
1860.429462
 21
51.984305
 31
0.0
  0
LINE
  5
377C
330
3BB0
100
AcDbEntity
  8
V0-VYPLNE
100
AcDbLine
 10
1729.708848
 20
-99.38267000000001
 30
0.0
 11
1868.44707
 21
39.35555100000001
 31
0.0
  0
LINE
  5
377D
330
3BB0
100
AcDbEntity
  8
VO-OBRYS
  6
CONTINUOUS
100
AcDbLine
 10
1792.978013
 20
-60.237491
 30
0.0
 11
1882.676584
 21
29.46108
 31
0.0
  0
LINE
  5
377E
330
3BB0
100
AcDbEntity
  8
V0-VYPLNE
100
AcDbLine
 10
1968.150221
 20
-99.38267000000001
 30
0.0
 11
1463.905534
 21
-99.38267000000001
 31
0.0
  0
LINE
  5
3780
330
3BB0
100
AcDbEntity
  8
V0-OBRYS
  6
CONTINUOUS
 62
    90
100
AcDbLine
 10
1802.682175
 20
-172.386954
 30
0.0
 11
1794.55312
 21
-152.356943
 31
0.0
  0
LINE
  5
3781
330
3BB0
100
AcDbEntity
  8
V0-OBRYS
  6
CONTINUOUS
 62
    90
100
AcDbLine
 10
1722.611429
 20
-192.70731
 30
0.0
 11
1724.897174
 21
-162.651835
 31
0.0
  0
LINE
  5
3782
330
3BB0
100
AcDbEntity
  8
V0-OBRYS
  6
CONTINUOUS
 62
    90
100
AcDbLine
 10
1736.806267
 20
-192.70731
 30
0.0
 11
1734.520523
 21
-162.651835
 31
0.0
  0
LINE
  5
3783
330
3BB0
100
AcDbEntity
  8
V0-OBRYS
  6
CONTINUOUS
 62
    90
100
AcDbLine
 10
1744.486536
 20
-160.473051
 30
0.0
 11
1751.867959
 21
-190.98756
 31
0.0
  0
LINE
  5
3784
330
3BB0
100
AcDbEntity
  8
V0-OBRYS
  6
CONTINUOUS
 62
    90
100
AcDbLine
 10
1765.208316
 20
-186.258252
 30
0.0
 11
1753.483541
 21
-157.564958
 31
0.0
  0
LINE
  5
3785
330
3BB0
100
AcDbEntity
  8
V0-OBRYS
  6
CONTINUOUS
 62
    90
100
AcDbLine
 10
1761.953831
 20
-153.33335
 30
0.0
 11
1778.548674
 21
-181.099004
 31
0.0
  0
LINE
  5
3786
330
3BB0
100
AcDbEntity
  8
V0-OBRYS
  6
CONTINUOUS
 62
    90
100
AcDbLine
 10
1656.735522
 20
-172.386954
 30
0.0
 11
1664.864577
 21
-152.356943
 31
0.0
  0
LINE
  5
3787
330
3BB0
100
AcDbEntity
  8
V0-OBRYS
  6
CONTINUOUS
 62
    90
100
AcDbLine
 10
1670.216968
 20
-171.204187
 30
0.0
 11
1689.502061
 21
-147.692389
 31
0.0
  0
LINE
  5
3788
330
3BB0
100
AcDbEntity
  8
V0-OBRYS
  6
CONTINUOUS
 62
    90
100
AcDbLine
 10
1697.463866
 20
-153.33335
 30
0.0
 11
1680.869023
 21
-181.099004
 31
0.0
  0
LINE
  5
3789
330
3BB0
100
AcDbEntity
  8
V0-OBRYS
  6
CONTINUOUS
 62
    90
100
AcDbLine
 10
1694.209381
 20
-186.258252
 30
0.0
 11
1705.934156
 21
-157.564958
 31
0.0
  0
LINE
  5
378A
330
3BB0
100
AcDbEntity
  8
V0-OBRYS
  6
CONTINUOUS
 62
    90
100
AcDbLine
 10
1714.93116
 20
-160.473051
 30
0.0
 11
1707.549738
 21
-190.98756
 31
0.0
  0
LINE
  5
378B
330
3BB0
100
AcDbEntity
  8
V0-OBRYS
  6
CONTINUOUS
 62
    90
100
AcDbLine
 10
1546.589674
 20
-169.838016
 30
0.0
 11
1580.974722
 21
-164.248944
 31
0.0
  0
ARC
  5
378C
330
3BB0
100
AcDbEntity
  8
V0-OBRYS
  6
CONTINUOUS
 62
    90
100
AcDbCircle
 10
1729.708848
 20
-99.38267000000001
 30
0.0
 40
196.205474
100
AcDbArc
 50
184.66999
 51
201.044296
  0
LINE
  5
378D
330
3BB0
100
AcDbEntity
  8
VO-OBRYS
  6
CONTINUOUS
100
AcDbLine
 10
1666.233494
 20
-142.211663
 30
0.0
 11
1578.341873
 21
-230.103284
 31
0.0
  0
LINE
  5
378E
330
3BB0
100
AcDbEntity
  8
VO-OBRYS
  6
CONTINUOUS
100
AcDbLine
 10
1666.439684
 20
-138.52785
 30
0.0
 11
1576.741113
 21
-228.22642
 31
0.0
  0
LINE
  5
378F
330
3BB0
100
AcDbEntity
  8
VO-OBRYS
  6
CONTINUOUS
100
AcDbLine
 10
1686.879856
 20
-162.858025
 30
0.0
 11
1598.988235
 21
-250.749646
 31
0.0
  0
LINE
  5
3790
330
3BB0
100
AcDbEntity
  8
V0-VYPLNE
100
AcDbLine
 10
1729.708848
 20
-99.38267000000001
 30
0.0
 11
1588.287775
 21
-240.803744
 31
0.0
  0
LINE
  5
3791
330
3BB0
100
AcDbEntity
  8
VO-OBRYS
  6
CONTINUOUS
100
AcDbLine
 10
1690.563669
 20
-162.651835
 30
0.0
 11
1600.865098
 21
-252.350406
 31
0.0
  0
LINE
  5
3792
330
3BB0
100
AcDbEntity
  8
V0-VYPLNE
  6
DASHDOT
100
AcDbLine
 10
1729.708848
 20
-99.38267000000001
 30
0.0
 11
1729.708848
 21
-356.86247
 31
0.0
  0
LINE
  5
3793
330
3BB0
100
AcDbEntity
  8
VO-OBRYS
  6
CONTINUOUS
100
AcDbLine
 10
1768.854028
 20
-162.651835
 30
0.0
 11
1858.552599
 21
-252.350406
 31
0.0
  0
ARC
  5
3794
330
3BB0
100
AcDbEntity
  8
V0-OBRYS
  6
CONTINUOUS
 62
    90
100
AcDbCircle
 10
1729.708848
 20
-99.38267000000001
 30
0.0
 40
74.032814
100
AcDbArc
 50
238.716649
 51
329.134287
  0
LINE
  5
3795
330
3BB0
100
AcDbEntity
  8
V0-OBRYS
  6
CONTINUOUS
 62
    90
100
AcDbLine
 10
1788.573063
 20
-170.927124
 30
0.0
 11
1769.586423
 21
-147.964496
 31
0.0
  0
LINE
  5
3796
330
3BB0
100
AcDbEntity
  8
V0-OBRYS
  6
CONTINUOUS
 62
    90
100
AcDbLine
 10
1670.620118
 20
-286.479196
 30
0.0
 11
1687.689132
 21
-256.111153
 31
0.0
  0
LINE
  5
3797
330
3BB0
100
AcDbEntity
  8
V0-OBRYS
  6
CONTINUOUS
 62
    90
100
AcDbLine
 10
1620.272115
 20
-262.232876
 30
0.0
 11
1633.372451
 21
-229.953618
 31
0.0
  0
ARC
  5
3798
330
3BB0
100
AcDbEntity
  8
V0-OBRYS
  6
CONTINUOUS
 62
    90
100
AcDbCircle
 10
1729.708848
 20
-99.38267000000001
 30
0.0
 40
196.205474
100
AcDbArc
 50
236.098561
 51
252.472867
  0
LINE
  5
3799
330
3BB0
100
AcDbEntity
  8
V0-OBRYS
  6
CONTINUOUS
 62
    90
100
AcDbLine
 10
1634.327365
 20
-227.600706
 30
0.0
 11
1644.619068
 21
-202.241927
 31
0.0
  0
LINE
  5
379A
330
3BB0
100
AcDbEntity
  8
V0-OBRYS
  6
CONTINUOUS
 62
    90
100
AcDbLine
 10
1645.589639
 20
-199.850437
 30
0.0
 11
1655.733755
 21
-174.855311
 31
0.0
  0
LINE
  5
379C
330
3BB0
100
AcDbEntity
  8
V0-OBRYS
  6
CONTINUOUS
 62
    90
100
AcDbLine
 10
1788.797579
 20
-286.479196
 30
0.0
 11
1771.728564
 21
-256.111153
 31
0.0
  0
LINE
  5
379D
330
3BB0
100
AcDbEntity
  8
V0-OBRYS
  6
CONTINUOUS
 62
    90
100
AcDbLine
 10
1770.484363
 20
-253.897554
 30
0.0
 11
1757.074843
 21
-230.040237
 31
0.0
  0
LINE
  5
379E
330
3BB0
100
AcDbEntity
  8
V0-OBRYS
  6
CONTINUOUS
 62
    90
100
AcDbLine
 10
1688.933334
 20
-253.897554
 30
0.0
 11
1702.342854
 21
-230.040237
 31
0.0
  0
LINE
  5
379F
330
3BB0
100
AcDbEntity
  8
V0-OBRYS
  6
CONTINUOUS
 62
    90
100
AcDbLine
 10
1718.129926
 20
-201.952941
 30
0.0
 11
1728.721636
 21
-183.108882
 31
0.0
  0
LINE
  5
37A0
330
3BB0
100
AcDbEntity
  8
V0-OBRYS
  6
CONTINUOUS
 62
    90
100
AcDbLine
 10
1728.721636
 20
-183.108882
 30
0.0
 11
1723.529766
 21
-174.336912
 31
0.0
  0
LINE
  5
37A1
330
3BB0
100
AcDbEntity
  8
V0-OBRYS
  6
CONTINUOUS
 62
    90
100
AcDbLine
 10
1703.607455
 20
-227.790345
 30
0.0
 11
1716.824679
 21
-204.275149
 31
0.0
  0
LINE
  5
37A2
330
3BB0
100
AcDbEntity
  8
V0-OBRYS
  6
CONTINUOUS
 62
    90
100
AcDbLine
 10
1741.287771
 20
-201.952941
 30
0.0
 11
1730.696061
 21
-183.108882
 31
0.0
  0
LINE
  5
37A3
330
3BB0
100
AcDbEntity
  8
V0-OBRYS
  6
CONTINUOUS
 62
    90
100
AcDbLine
 10
1755.810242
 20
-227.790345
 30
0.0
 11
1742.593018
 21
-204.275149
 31
0.0
  0
LINE
  5
37A4
330
3BB0
100
AcDbEntity
  8
V0-OBRYS
  6
CONTINUOUS
 62
    90
100
AcDbLine
 10
1730.696061
 20
-183.108882
 30
0.0
 11
1735.887931
 21
-174.336912
 31
0.0
  0
LINE
  5
37A5
330
3BB0
100
AcDbEntity
  8
V0-OBRYS
  6
CONTINUOUS
 62
    90
100
AcDbLine
 10
1839.145582
 20
-262.232876
 30
0.0
 11
1826.045246
 21
-229.953618
 31
0.0
  0
ARC
  5
37A6
330
3BB0
100
AcDbEntity
  8
V0-OBRYS
  6
CONTINUOUS
 62
    90
100
AcDbCircle
 10
1729.708848
 20
-99.38267000000001
 30
0.0
 40
196.205474
100
AcDbArc
 50
287.527133
 51
303.901439
  0
LINE
  5
37A7
330
3BB0
100
AcDbEntity
  8
V0-OBRYS
  6
CONTINUOUS
 62
    90
100
AcDbLine
 10
1825.090332
 20
-227.600706
 30
0.0
 11
1814.798629
 21
-202.241927
 31
0.0
  0
LINE
  5
37A8
330
3BB0
100
AcDbEntity
  8
V0-OBRYS
  6
CONTINUOUS
 62
    90
100
AcDbLine
 10
1813.828058
 20
-199.850437
 30
0.0
 11
1803.683942
 21
-174.855311
 31
0.0
  0
LINE
  5
37A9
330
3BB0
100
AcDbEntity
  8
V0-OBRYS
  6
CONTINUOUS
 62
    90
100
AcDbLine
 10
1670.844634
 20
-27.838216
 30
0.0
 11
1689.831274
 21
-50.800845
 31
0.0
  0
POINT
  5
37AA
330
3BB0
100
AcDbEntity
  8
V0-VYPLNE
  6
DASHED
 62
    52
100
AcDbPoint
 10
1729.708848
 20
-99.38267000000001
 30
0.0
  0
ARC
  5
37AB
330
3BB0
100
AcDbEntity
  8
V0-OBRYS
  6
CONTINUOUS
 62
    90
100
AcDbCircle
 10
1729.708848
 20
-99.38267000000001
 30
0.0
 40
74.032814
100
AcDbArc
 50
148.716649
 51
239.134287
  0
CIRCLE
  5
37AC
330
3BB0
100
AcDbEntity
  8
V0-OBRYS
  6
CONTINUOUS
 62
    90
100
AcDbCircle
 10
1729.708848
 20
-99.38267000000001
 30
0.0
 40
62.852324
  0
ARC
  5
37AD
330
3BB0
100
AcDbEntity
  8
V0-OBRYS
  6
CONTINUOUS
 62
    90
100
AcDbCircle
 10
1729.708848
 20
-99.38267000000001
 30
0.0
 40
74.032814
100
AcDbArc
 50
58.71664899999999
 51
149.134287
  0
LINE
  5
37AE
330
3BB0
100
AcDbEntity
  8
VO-OBRYS
  6
CONTINUOUS
100
AcDbLine
 10
1690.563669
 20
-36.113506
 30
0.0
 11
1600.865098
 21
53.585065
 31
0.0
  0
LINE
  5
37AF
330
3BB0
100
AcDbEntity
  8
V0-VYPLNE
100
AcDbLine
 10
1729.708848
 20
-99.38267000000001
 30
0.0
 11
1577.24983
 21
53.07634800000001
 31
0.0
  0
LINE
  5
37B0
330
3BB0
100
AcDbEntity
  8
V0-OBRYS
  6
CONTINUOUS
 62
    90
100
AcDbLine
 10
1674.773027
 20
-11.993956
 30
0.0
 11
1692.491959
 21
-24.376296
 31
0.0
  0
LINE
  5
37B1
330
3BB0
100
AcDbEntity
  8
V0-OBRYS
  6
CONTINUOUS
 62
    90
100
AcDbLine
 10
1691.894438
 20
-36.113506
 30
0.0
 11
1680.869023
 21
-17.666337
 31
0.0
  0
LINE
  5
37B2
330
3BB0
100
AcDbEntity
  8
V0-OBRYS
  6
CONTINUOUS
 62
    90
100
AcDbLine
 10
1697.463866
 20
-45.431991
 30
0.0
 11
1680.869023
 21
-17.666337
 31
0.0
  0
LINE
  5
37B3
330
3BB0
100
AcDbEntity
  8
V0-OBRYS
  6
CONTINUOUS
 62
    90
100
AcDbLine
 10
1588.141381
 20
-25.246687
 30
0.0
 11
1608.416646
 21
-43.628755
 31
0.0
  0
LINE
  5
37B4
330
3BB0
100
AcDbEntity
  8
VO-OBRYS
  6
CONTINUOUS
100
AcDbLine
 10
1686.879856
 20
-35.907316
 30
0.0
 11
1601.678403
 21
49.294137
 31
0.0
  0
LINE
  5
37B5
330
3BB0
100
AcDbEntity
  8
VO-OBRYS
  6
CONTINUOUS
100
AcDbLine
 10
1666.233494
 20
-56.553678
 30
0.0
 11
1578.341873
 21
31.337943
 31
0.0
  0
LINE
  5
37B6
330
3BB0
100
AcDbEntity
  8
VO-OBRYS
  6
CONTINUOUS
100
AcDbLine
 10
1666.439684
 20
-60.237491
 30
0.0
 11
1576.741113
 21
29.46108
 31
0.0
  0
LINE
  5
37B7
330
3BB0
100
AcDbEntity
  8
V0-OBRYS
  6
CONTINUOUS
 62
    90
100
AcDbLine
 10
1598.712516
 20
-96.256252
 30
0.0
 11
1624.579246
 21
-88.60303500000001
 31
0.0
  0
LINE
  5
37B8
330
3BB0
100
AcDbEntity
  8
V0-OBRYS
  6
CONTINUOUS
 62
    90
100
AcDbLine
 10
1583.48113
 20
-163.841544
 30
0.0
 11
1610.494231
 21
-159.450735
 31
0.0
  0
LINE
  5
37B9
330
3BB0
100
AcDbEntity
  8
V0-OBRYS
  6
CONTINUOUS
 62
    90
100
AcDbLine
 10
1569.99457
 20
-104.753062
 30
0.0
 11
1596.237633
 21
-96.98849800000001
 31
0.0
  0
LINE
  5
37BA
330
3BB0
100
AcDbEntity
  8
V0-OBRYS
  6
CONTINUOUS
 62
    90
100
AcDbLine
 10
1534.154744
 20
-115.357029
 30
0.0
 11
1567.559609
 21
-105.473496
 31
0.0
  0
LINE
  5
37BB
330
3BB0
100
AcDbEntity
  8
V0-OBRYS
  6
CONTINUOUS
 62
    90
100
AcDbLine
 10
1642.296842
 20
-154.281422
 30
0.0
 11
1663.633544
 21
-150.813276
 31
0.0
  0
LINE
  5
37BC
330
3BB0
100
AcDbEntity
  8
V0-OBRYS
  6
CONTINUOUS
 62
    90
100
AcDbLine
 10
1636.384208
 20
-106.480089
 30
0.0
 11
1666.439684
 21
-104.194345
 31
0.0
  0
LINE
  5
37BD
330
3BB0
100
AcDbEntity
  8
V0-OBRYS
  6
CONTINUOUS
 62
    90
100
AcDbLine
 10
1668.618468
 20
-114.160358
 30
0.0
 11
1638.103959
 21
-121.541781
 31
0.0
  0
LINE
  5
37BE
330
3BB0
100
AcDbEntity
  8
V0-OBRYS
  6
CONTINUOUS
 62
    90
100
AcDbLine
 10
1642.833267
 20
-134.882138
 30
0.0
 11
1671.52656
 21
-123.157363
 31
0.0
  0
LINE
  5
37BF
330
3BB0
100
AcDbEntity
  8
V0-OBRYS
  6
CONTINUOUS
 62
    90
100
AcDbLine
 10
1613.041733
 20
-159.036655
 30
0.0
 11
1639.667458
 21
-154.708812
 31
0.0
  0
LINE
  5
37C0
330
3BB0
100
AcDbEntity
  8
V0-OBRYS
  6
CONTINUOUS
 62
    90
100
AcDbLine
 10
1664.864577
 20
-152.356943
 30
0.0
 11
1674.959857
 21
-150.946877
 31
0.0
  0
LINE
  5
37C1
330
3BB0
100
AcDbEntity
  8
V0-OBRYS
  6
CONTINUOUS
 62
    90
100
AcDbLine
 10
1663.633544
 20
-150.813276
 30
0.0
 11
1667.254667
 21
-141.284874
 31
0.0
  0
LINE
  5
37C2
330
3BB0
100
AcDbEntity
  8
V0-OBRYS
  6
CONTINUOUS
 62
    90
100
AcDbLine
 10
1675.758169
 20
-131.627653
 30
0.0
 11
1647.992515
 21
-148.222496
 31
0.0
  0
LINE
  5
37C3
330
3BB0
100
AcDbEntity
  8
V0-OBRYS
  6
CONTINUOUS
 62
    90
100
AcDbLine
 10
1658.164395
 20
-158.246885
 30
0.0
 11
1681.127023
 21
-139.260245
 31
0.0
  0
LINE
  5
37C4
330
3BB0
100
AcDbEntity
  8
V0-OBRYS
  6
CONTINUOUS
 62
    90
100
AcDbLine
 10
1642.833267
 20
-63.883203
 30
0.0
 11
1671.52656
 21
-75.607978
 31
0.0
  0
LINE
  5
37C5
330
3BB0
100
AcDbEntity
  8
V0-OBRYS
  6
CONTINUOUS
 62
    90
100
AcDbLine
 10
1668.618468
 20
-84.60498200000001
 30
0.0
 11
1638.103959
 21
-77.22356000000001
 31
0.0
  0
LINE
  5
37C6
330
3BB0
100
AcDbEntity
  8
V0-OBRYS
  6
CONTINUOUS
 62
    90
100
AcDbLine
 10
1636.384208
 20
-92.285251
 30
0.0
 11
1666.439684
 21
-94.57099599999999
 31
0.0
  0
LINE
  5
37C7
330
3BB0
100
AcDbEntity
  8
V0-OBRYS
  6
CONTINUOUS
 62
    90
100
AcDbLine
 10
1632.286781
 20
-65.270023
 30
0.0
 11
1648.301503
 21
-79.78937500000001
 31
0.0
  0
LINE
  5
37C8
330
3BB0
100
AcDbEntity
  8
V0-OBRYS
  6
CONTINUOUS
 62
    90
100
AcDbLine
 10
1627.133676
 20
-87.847253
 30
0.0
 11
1647.862152
 21
-81.714296
 31
0.0
  0
LINE
  5
37C9
330
3BB0
100
AcDbEntity
  8
V0-OBRYS
  6
CONTINUOUS
 62
    90
100
AcDbLine
 10
1610.328729
 20
-45.362297
 30
0.0
 11
1630.313241
 21
-63.480761
 31
0.0
  0
LINE
  5
37CA
330
3BB0
100
AcDbEntity
  8
V0-OBRYS
  6
CONTINUOUS
 62
    90
100
AcDbLine
 10
1675.758169
 20
-67.137688
 30
0.0
 11
1647.992515
 21
-50.542845
 31
0.0
  0
LINE
  5
37CB
330
3BB0
100
AcDbEntity
  8
V0-OBRYS
  6
CONTINUOUS
 62
    90
100
AcDbLine
 10
1657.887331
 20
-39.89079
 30
0.0
 11
1681.39913
 21
-59.175883
 31
0.0
  0
LINE
  5
37CC
330
3BB0
100
AcDbEntity
  8
V0-OBRYS
  6
CONTINUOUS
 62
    90
100
AcDbLine
 10
1647.862152
 20
-81.714296
 30
0.0
 11
1655.258891
 21
-88.727943
 31
0.0
  0
LINE
  5
37CD
330
3BB0
100
AcDbEntity
  8
V0-OBRYS
  6
CONTINUOUS
 62
    90
100
AcDbLine
 10
1648.301503
 20
-79.78937500000001
 30
0.0
 11
1658.008841
 21
-76.679622
 31
0.0
  0
LINE
  5
37CE
330
3BB0
100
AcDbEntity
  8
V0-OBRYS
  6
CONTINUOUS
 62
    90
100
AcDbLine
 10
1595.293602
 20
43.547835
 30
0.0
 11
1623.848452
 21
23.593142
 31
0.0
  0
ARC
  5
37CF
330
3BB0
100
AcDbEntity
  8
V0-OBRYS
  6
CONTINUOUS
 62
    90
100
AcDbCircle
 10
1729.708848
 20
-99.38267000000001
 30
0.0
 40
196.205474
100
AcDbArc
 50
133.241418
 51
149.615725
  0
LINE
  5
37D0
330
3BB0
100
AcDbEntity
  8
V0-OBRYS
  6
CONTINUOUS
 62
    90
100
AcDbLine
 10
1560.451703
 20
-0.142524
 30
0.0
 11
1586.260142
 21
-23.541108
 31
0.0
  0
LINE
  5
37D1
330
3BB0
100
AcDbEntity
  8
V0-OBRYS
  6
CONTINUOUS
 62
    90
100
AcDbLine
 10
1625.929883
 20
22.138597
 30
0.0
 11
1648.362746
 21
6.462070000000001
 31
0.0
  0
LINE
  5
37D2
330
3BB0
100
AcDbEntity
  8
V0-OBRYS
  6
CONTINUOUS
 62
    90
100
AcDbLine
 10
1650.478303
 20
4.983677
 30
0.0
 11
1672.589472
 21
-10.468044
 31
0.0
  0
LINE
  5
37D3
330
3BB0
100
AcDbEntity
  8
V0-OBRYS
  6
CONTINUOUS
 62
    90
100
AcDbLine
 10
1766.925738
 20
-24.376296
 30
0.0
 11
1767.797436
 21
-34.532235
 31
0.0
  0
LINE
  5
37D4
330
3BB0
100
AcDbEntity
  8
V0-OBRYS
  6
CONTINUOUS
 62
    90
100
AcDbLine
 10
1692.491959
 20
-24.376296
 30
0.0
 11
1691.620261
 21
-34.532235
 31
0.0
  0
ARC
  5
37D5
330
3BB0
100
AcDbEntity
  8
V0-OBRYS
  6
CONTINUOUS
 62
    90
100
AcDbCircle
 10
1729.708848
 20
-99.38267000000001
 30
0.0
 40
74.032814
100
AcDbArc
 50
328.716649
 51
59.134287
  0
LINE
  5
37D6
330
3BB0
100
AcDbEntity
  8
V0-OBRYS
  6
CONTINUOUS
 62
    90
100
AcDbLine
 10
1789.200729
 20
-27.561153
 30
0.0
 11
1769.915636
 21
-51.072952
 31
0.0
  0
LINE
  5
37D7
330
3BB0
100
AcDbEntity
  8
V0-OBRYS
  6
CONTINUOUS
 62
    90
100
AcDbLine
 10
1736.806267
 20
-6.05803
 30
0.0
 11
1734.520523
 21
-36.113506
 31
0.0
  0
LINE
  5
37D8
330
3BB0
100
AcDbEntity
  8
V0-OBRYS
  6
CONTINUOUS
 62
    90
100
AcDbLine
 10
1744.486536
 20
-38.29229
 30
0.0
 11
1751.867959
 21
-7.777781000000001
 31
0.0
  0
LINE
  5
37D9
330
3BB0
100
AcDbEntity
  8
V0-OBRYS
  6
CONTINUOUS
 62
    90
100
AcDbLine
 10
1765.208316
 20
-12.507089
 30
0.0
 11
1753.483541
 21
-41.200382
 31
0.0
  0
LINE
  5
37DA
330
3BB0
100
AcDbEntity
  8
V0-OBRYS
  6
CONTINUOUS
 62
    90
100
AcDbLine
 10
1767.523258
 20
-36.113506
 30
0.0
 11
1778.548674
 21
-17.666337
 31
0.0
  0
LINE
  5
37DB
330
3BB0
100
AcDbEntity
  8
V0-OBRYS
  6
CONTINUOUS
 62
    90
100
AcDbLine
 10
1694.209381
 20
-12.507089
 30
0.0
 11
1703.855535
 21
-36.113506
 31
0.0
  0
LINE
  5
37DC
330
3BB0
100
AcDbEntity
  8
V0-OBRYS
  6
CONTINUOUS
 62
    90
100
AcDbLine
 10
1714.404115
 20
-36.113506
 30
0.0
 11
1707.549738
 21
-7.777781000000001
 31
0.0
  0
LINE
  5
37DD
330
3BB0
100
AcDbEntity
  8
V0-OBRYS
  6
CONTINUOUS
 62
    90
100
AcDbLine
 10
1722.611429
 20
-6.05803
 30
0.0
 11
1724.897174
 21
-36.113506
 31
0.0
  0
LINE
  5
37DE
330
3BB0
100
AcDbEntity
  8
V0-OBRYS
  6
CONTINUOUS
 62
    90
100
AcDbLine
 10
1694.209381
 20
-12.507089
 30
0.0
 11
1705.934156
 21
-41.200382
 31
0.0
  0
LINE
  5
37DF
330
3BB0
100
AcDbEntity
  8
V0-OBRYS
  6
CONTINUOUS
 62
    90
100
AcDbLine
 10
1714.93116
 20
-38.29229
 30
0.0
 11
1707.549738
 21
-7.777781000000001
 31
0.0
  0
LINE
  5
37E0
330
3BB0
100
AcDbEntity
  8
V0-OBRYS
  6
CONTINUOUS
 62
    90
100
AcDbLine
 10
1722.611429
 20
-6.05803
 30
0.0
 11
1724.897174
 21
-36.113506
 31
0.0
  0
LINE
  5
37E1
330
3BB0
100
AcDbEntity
  8
VO-OBRYS
  6
CONTINUOUS
100
AcDbLine
 10
1760.422032
 20
-44.545502
 30
0.0
 11
1858.552599
 21
53.585065
 31
0.0
  0
LINE
  5
37E2
330
3BB0
100
AcDbEntity
  8
V0-OBRYS
  6
CONTINUOUS
 62
    90
100
AcDbLine
 10
1790.799229
 20
-114.160358
 30
0.0
 11
1821.313738
 21
-121.541781
 31
0.0
  0
LINE
  5
37E3
330
3BB0
100
AcDbEntity
  8
V0-OBRYS
  6
CONTINUOUS
 62
    90
100
AcDbLine
 10
1823.033488
 20
-106.480089
 30
0.0
 11
1792.978013
 21
-104.194345
 31
0.0
  0
LINE
  5
37E4
330
3BB0
100
AcDbEntity
  8
V0-OBRYS
  6
CONTINUOUS
 62
    90
100
AcDbLine
 10
1817.120855
 20
-154.281422
 30
0.0
 11
1795.784153
 21
-150.813276
 31
0.0
  0
LINE
  5
37E5
330
3BB0
100
AcDbEntity
  8
V0-OBRYS
  6
CONTINUOUS
 62
    90
100
AcDbLine
 10
1795.784153
 20
-150.813276
 30
0.0
 11
1792.16303
 21
-141.284874
 31
0.0
  0
LINE
  5
37E6
330
3BB0
100
AcDbEntity
  8
V0-OBRYS
  6
CONTINUOUS
 62
    90
100
AcDbLine
 10
1794.55312
 20
-152.356943
 30
0.0
 11
1784.457839
 21
-150.946877
 31
0.0
  0
LINE
  5
37E7
330
3BB0
100
AcDbEntity
  8
V0-OBRYS
  6
CONTINUOUS
 62
    90
100
AcDbLine
 10
1783.659528
 20
-131.627653
 30
0.0
 11
1811.425182
 21
-148.222496
 31
0.0
  0
LINE
  5
37E8
330
3BB0
100
AcDbEntity
  8
V0-OBRYS
  6
CONTINUOUS
 62
    90
100
AcDbLine
 10
1816.58443
 20
-134.882138
 30
0.0
 11
1787.891137
 21
-123.157363
 31
0.0
  0
LINE
  5
37E9
330
3BB0
100
AcDbEntity
  8
V0-OBRYS
  6
CONTINUOUS
 62
    90
100
AcDbLine
 10
1801.530365
 20
-158.874551
 30
0.0
 11
1778.018567
 21
-139.589458
 31
0.0
  0
LINE
  5
37EA
330
3BB0
100
AcDbEntity
  8
V0-OBRYS
  6
CONTINUOUS
 62
    90
100
AcDbLine
 10
1846.375964
 20
-159.036655
 30
0.0
 11
1819.750239
 21
-154.708812
 31
0.0
  0
LINE
  5
37EB
330
3BB0
100
AcDbEntity
  8
V0-OBRYS
  6
CONTINUOUS
 62
    90
100
AcDbLine
 10
1823.033488
 20
-92.285251
 30
0.0
 11
1792.978013
 21
-94.57099599999999
 31
0.0
  0
LINE
  5
37EC
330
3BB0
100
AcDbEntity
  8
V0-OBRYS
  6
CONTINUOUS
 62
    90
100
AcDbLine
 10
1790.799229
 20
-84.60498200000001
 30
0.0
 11
1821.313738
 21
-77.22356000000001
 31
0.0
  0
LINE
  5
37ED
330
3BB0
100
AcDbEntity
  8
V0-OBRYS
  6
CONTINUOUS
 62
    90
100
AcDbLine
 10
1832.284021
 20
-87.847253
 30
0.0
 11
1811.555545
 21
-81.714296
 31
0.0
  0
LINE
  5
37EE
330
3BB0
100
AcDbEntity
  8
V0-OBRYS
  6
CONTINUOUS
 62
    90
100
AcDbLine
 10
1827.130916
 20
-65.270023
 30
0.0
 11
1811.116194
 21
-79.78937500000001
 31
0.0
  0
LINE
  5
37EF
330
3BB0
100
AcDbEntity
  8
V0-OBRYS
  6
CONTINUOUS
 62
    90
100
AcDbLine
 10
1783.659528
 20
-67.137688
 30
0.0
 11
1811.425182
 21
-50.542845
 31
0.0
  0
LINE
  5
37F0
330
3BB0
100
AcDbEntity
  8
V0-OBRYS
  6
CONTINUOUS
 62
    90
100
AcDbLine
 10
1811.116194
 20
-79.78937500000001
 30
0.0
 11
1801.408856
 21
-76.679622
 31
0.0
  0
LINE
  5
37F1
330
3BB0
100
AcDbEntity
  8
V0-OBRYS
  6
CONTINUOUS
 62
    90
100
AcDbLine
 10
1811.555545
 20
-81.714296
 30
0.0
 11
1804.158806
 21
-88.727943
 31
0.0
  0
LINE
  5
37F2
330
3BB0
100
AcDbEntity
  8
V0-OBRYS
  6
CONTINUOUS
 62
    90
100
AcDbLine
 10
1816.58443
 20
-63.883203
 30
0.0
 11
1787.891137
 21
-75.607978
 31
0.0
  0
LINE
  5
37F3
330
3BB0
100
AcDbEntity
  8
V0-OBRYS
  6
CONTINUOUS
 62
    90
100
AcDbLine
 10
1801.253302
 20
-40.518456
 30
0.0
 11
1778.290674
 21
-59.505096
 31
0.0
  0
LINE
  5
37F4
330
3BB0
100
AcDbEntity
  8
V0-OBRYS
  6
CONTINUOUS
 62
    90
100
AcDbLine
 10
1849.088968
 20
-45.362297
 30
0.0
 11
1829.104456
 21
-63.480761
 31
0.0
  0
LINE
  5
37F5
330
3BB0
100
AcDbEntity
  8
V0-OBRYS
  6
CONTINUOUS
 62
    90
100
AcDbLine
 10
1784.64467
 20
-11.993956
 30
0.0
 11
1766.925738
 21
-24.376296
 31
0.0
  0
LINE
  5
37F6
330
3BB0
100
AcDbEntity
  8
V0-OBRYS
  6
CONTINUOUS
 62
    90
100
AcDbLine
 10
1760.012875
 20
57.522263
 30
0.0
 11
1761.743133
 21
30.20939
 31
0.0
  0
LINE
  5
37F7
330
3BB0
100
AcDbEntity
  8
V0-OBRYS
  6
CONTINUOUS
 62
    90
100
AcDbLine
 10
1699.404822
 20
57.522263
 30
0.0
 11
1697.674564
 21
30.20939
 31
0.0
  0
LINE
  5
37F8
330
3BB0
100
AcDbEntity
  8
V0-OBRYS
  6
CONTINUOUS
 62
    90
100
AcDbLine
 10
1697.51139
 20
27.633617
 30
0.0
 11
1695.805944
 21
0.7124190000000006
 31
0.0
  0
LINE
  5
37F9
330
3BB0
100
AcDbEntity
  8
V0-OBRYS
  6
CONTINUOUS
 62
    90
100
AcDbLine
 10
1694.270854
 20
-23.519625
 30
0.0
 11
1702.754583
 21
-29.170228
 31
0.0
  0
LINE
  5
37FA
330
3BB0
100
AcDbEntity
  8
V0-OBRYS
  6
CONTINUOUS
 62
    90
100
AcDbLine
 10
1695.637525
 20
-1.946144
 30
0.0
 11
1694.270854
 21
-23.519625
 31
0.0
  0
LINE
  5
37FB
330
3BB0
100
AcDbEntity
  8
V0-OBRYS
  6
CONTINUOUS
 62
    90
100
AcDbLine
 10
1761.906307
 20
27.633617
 30
0.0
 11
1763.611753
 21
0.7124190000000006
 31
0.0
  0
LINE
  5
37FC
330
3BB0
100
AcDbEntity
  8
V0-OBRYS
  6
CONTINUOUS
 62
    90
100
AcDbLine
 10
1765.146843
 20
-23.519625
 30
0.0
 11
1756.663114
 21
-29.170228
 31
0.0
  0
LINE
  5
37FD
330
3BB0
100
AcDbEntity
  8
V0-OBRYS
  6
CONTINUOUS
 62
    90
100
AcDbLine
 10
1763.780172
 20
-1.946144
 30
0.0
 11
1765.146843
 21
-23.519625
 31
0.0
  0
ARC
  5
37FE
330
3BB0
100
AcDbEntity
  8
V0-OBRYS
  6
CONTINUOUS
 62
    90
100
AcDbCircle
 10
1729.708848
 20
-99.38267000000001
 30
0.0
 40
196.205474
100
AcDbArc
 50
81.81284700000001
 51
98.187153
  0
LINE
  5
37FF
330
3BB0
100
AcDbEntity
  8
V0-OBRYS
  6
CONTINUOUS
 62
    90
100
AcDbLine
 10
1701.767815
 20
94.823114
 30
0.0
 11
1701.495633
 21
90.526601
 31
0.0
  0
LINE
  5
3800
330
3BB0
100
AcDbEntity
  8
V0-OBRYS
  6
CONTINUOUS
 62
    90
100
AcDbLine
 10
1701.3366
 20
88.01619700000001
 30
0.0
 11
1699.565364
 21
60.056485
 31
0.0
  0
LINE
  5
3801
330
3BB0
100
AcDbEntity
  8
V0-OBRYS
  6
CONTINUOUS
 62
    90
100
AcDbLine
 10
1757.649882
 20
94.823114
 30
0.0
 11
1759.852333
 21
60.056485
 31
0.0
  0
LINE
  5
3802
330
3BB0
100
AcDbEntity
  8
V0-OBRYS
  6
CONTINUOUS
 62
    90
100
AcDbLine
 10
1833.487813
 20
22.138597
 30
0.0
 11
1811.054951
 21
6.462070000000001
 31
0.0
  0
LINE
  5
3803
330
3BB0
100
AcDbEntity
  8
V0-OBRYS
  6
CONTINUOUS
 62
    90
100
AcDbLine
 10
1808.939394
 20
4.983677
 30
0.0
 11
1786.828225
 21
-10.468044
 31
0.0
  0
LINE
  5
3804
330
3BB0
100
AcDbEntity
  8
V0-OBRYS
  6
CONTINUOUS
 62
    90
100
AcDbLine
 10
1912.828023
 20
-169.838016
 30
0.0
 11
1878.442975
 21
-164.248944
 31
0.0
  0
ARC
  5
3805
330
3BB0
100
AcDbEntity
  8
V0-OBRYS
  6
CONTINUOUS
 62
    90
100
AcDbCircle
 10
1729.708848
 20
-99.38267000000001
 30
0.0
 40
196.205474
100
AcDbArc
 50
338.955704
 51
355.33001
  0
LINE
  5
3806
330
3BB0
100
AcDbEntity
  8
V0-OBRYS
  6
CONTINUOUS
 62
    90
100
AcDbLine
 10
1889.423127
 20
-104.753062
 30
0.0
 11
1863.180064
 21
-96.98849800000001
 31
0.0
  0
LINE
  5
3807
330
3BB0
100
AcDbEntity
  8
V0-OBRYS
  6
CONTINUOUS
 62
    90
100
AcDbLine
 10
1925.262953
 20
-115.357029
 30
0.0
 11
1891.858088
 21
-105.473496
 31
0.0
  0
ARC
  5
3809
330
3BB0
100
AcDbEntity
  8
V0-OBRYS
  6
CONTINUOUS
 62
    90
100
AcDbCircle
 10
1729.708848
 20
-99.38267000000001
 30
0.0
 40
196.205474
100
AcDbArc
 50
30.384275
 51
46.758582
  0
LINE
  5
380A
330
3BB0
100
AcDbEntity
  8
V0-OBRYS
  6
CONTINUOUS
 62
    90
100
AcDbLine
 10
1898.965994
 20
-0.142524
 30
0.0
 11
1873.157555
 21
-23.541108
 31
0.0
  0
CIRCLE
  5
380B
330
3BB0
100
AcDbEntity
  8
V0-OBRYS
  6
CONTINUOUS
 62
    90
100
AcDbCircle
 10
1729.708848
 20
125.479872
 30
0.0
 40
7.700772
  0
CIRCLE
  5
386F
330
3BB0
100
AcDbEntity
  8
V0-OBRYS
  6
CONTINUOUS
 62
    90
100
AcDbCircle
 10
1570.70702
 20
59.619158
 30
0.0
 40
7.700772
  0
CIRCLE
  5
3870
330
3BB0
100
AcDbEntity
  8
V0-OBRYS
  6
CONTINUOUS
 62
    90
100
AcDbCircle
 10
1504.846306
 20
-99.38267000000001
 30
0.0
 40
7.700772
  0
CIRCLE
  5
3871
330
3BB0
100
AcDbEntity
  8
V0-OBRYS
  6
CONTINUOUS
 62
    90
100
AcDbCircle
 10
1570.70702
 20
-258.384499
 30
0.0
 40
7.700772
  0
CIRCLE
  5
3872
330
3BB0
100
AcDbEntity
  8
V0-OBRYS
  6
CONTINUOUS
 62
    90
100
AcDbCircle
 10
1729.708848
 20
-324.245213
 30
0.0
 40
7.700772
  0
CIRCLE
  5
3873
330
3BB0
100
AcDbEntity
  8
V0-OBRYS
  6
CONTINUOUS
 62
    90
100
AcDbCircle
 10
1888.710677
 20
-258.384499
 30
0.0
 40
7.700772
  0
CIRCLE
  5
3874
330
3BB0
100
AcDbEntity
  8
V0-OBRYS
  6
CONTINUOUS
 62
    90
100
AcDbCircle
 10
1954.571391
 20
-99.38267000000001
 30
0.0
 40
7.700772
  0
CIRCLE
  5
3875
330
3BB0
100
AcDbEntity
  8
V0-OBRYS
  6
CONTINUOUS
 62
    90
100
AcDbCircle
 10
1888.710677
 20
59.619158
 30
0.0
 40
7.700772
  0
LINE
  5
3886
330
3BB0
100
AcDbEntity
  8
V0-OBRYS
  6
CONTINUOUS
 62
    90
100
AcDbLine
 10
1043.882739
 20
-534.356677
 30
0.0
 11
1040.733139
 21
-534.356677
 31
0.0
  0
LINE
  5
3887
330
3BB0
100
AcDbEntity
  8
V0-OBRYS
  6
CONTINUOUS
 62
    90
100
AcDbLine
 10
1210.709139
 20
-534.356677
 30
0.0
 11
1207.559539
 21
-534.356677
 31
0.0
  0
LINE
  5
3888
330
3BB0
100
AcDbEntity
  8
V0-OBRYS
  6
CONTINUOUS
 62
    90
100
AcDbLine
 10
1040.733139
 20
-1021.316277
 30
0.0
 11
1043.882739
 21
-1021.316277
 31
0.0
  0
LINE
  5
3889
330
3BB0
100
AcDbEntity
  8
V0-OBRYS
  6
CONTINUOUS
 62
    90
100
AcDbLine
 10
1207.559539
 20
-1021.316277
 30
0.0
 11
1210.709139
 21
-1021.316277
 31
0.0
  0
LINE
  5
388A
330
3BB0
100
AcDbEntity
  8
V0-OBRYS
  6
CONTINUOUS
 62
    90
100
AcDbLine
 10
1207.559539
 20
-534.356677
 30
0.0
 11
1210.709139
 21
-534.356677
 31
0.0
  0
LINE
  5
388B
330
3BB0
100
AcDbEntity
  8
V0-OBRYS
  6
CONTINUOUS
 62
    90
100
AcDbLine
 10
1040.733139
 20
144.09713
 30
0.0
 11
1043.882739
 21
144.09713
 31
0.0
  0
LINE
  5
388C
330
3BB0
100
AcDbEntity
  8
V0-OBRYS
  6
CONTINUOUS
 62
    90
100
AcDbLine
 10
1207.559539
 20
144.09713
 30
0.0
 11
1210.709139
 21
144.09713
 31
0.0
  0
LINE
  5
388D
330
3BB0
100
AcDbEntity
  8
V0-OBRYS
  6
CONTINUOUS
 62
    90
100
AcDbLine
 10
1043.882739
 20
-342.86247
 30
0.0
 11
1040.733139
 21
-342.86247
 31
0.0
  0
LINE
  5
388E
330
3BB0
100
AcDbEntity
  8
V0-OBRYS
  6
CONTINUOUS
 62
    90
100
AcDbLine
 10
1207.559539
 20
-342.86247
 30
0.0
 11
1210.709139
 21
-342.86247
 31
0.0
  0
POINT
  5
3894
330
3BB0
100
AcDbEntity
  8
V0-VYPLNE
  6
CONTINUOUS
 62
    41
100
AcDbPoint
 10
1040.733139
 20
-99.38267000000001
 30
0.0
  0
POINT
  5
3895
330
3BB0
100
AcDbEntity
  8
V0-VYPLNE
  6
CONTINUOUS
 62
    41
100
AcDbPoint
 10
1210.709139
 20
-99.38267000000001
 30
0.0
  0
POINT
  5
3896
330
3BB0
100
AcDbEntity
  8
V0-VYPLNE
  6
CONTINUOUS
 62
    41
100
AcDbPoint
 10
1210.709139
 20
-777.836477
 30
0.0
  0
POINT
  5
3897
330
3BB0
100
AcDbEntity
  8
V0-VYPLNE
  6
CONTINUOUS
 62
    41
100
AcDbPoint
 10
1040.733139
 20
-777.836477
 30
0.0
  0
LWPOLYLINE
  5
3B86
330
3BB0
100
AcDbEntity
  8
V0-VYPLNE
  6
CONTINUOUS
 62
    41
100
AcDbPolyline
 90
        4
 70
     1
 43
0.0
 10
1549.675923681257
 20
-286.7094257363752
 10
1565.363131
 20
-260.653495
 10
1558.974452964338
 20
-290.3887399621094
 10
1558.974452964338
 20
-290.3887399621094
1001
VDEXTRAPARAM
1071
       65
1071
        0
1071
        0
1040
1.0
1000

1000

1040
0.0
1040
0.0
  0
HATCH
  5
3C27
330
3BB0
100
AcDbEntity
  8
V0-VYPLNE
  6
CONTINUOUS
 62
    41
100
AcDbHatch
 10
0.0
 20
0.0
 30
0.0
210
0.0
220
0.0
230
1.0
  2
SOLID
 70
     1
 71
     0
 91
        1
 92
        2
 72
     0
 73
     1
 93
        3
 10
1549.675923681257
 20
-286.7094257363752
 10
1565.363131
 20
-260.653495
 10
1558.974452964338
 20
-290.3887399621094
 97
        0
 75
     0
 76
     1
 98
        1
 10
0.0
 20
0.0
1001
VDEXTRAPARAM
1071
       65
1071
        0
1071
        0
1040
1.0
1000

1000

1040
0.0
1040
0.0
1001
VD_TEMPHATCH
1000
VD_TEMPHATCH
  0
LWPOLYLINE
  5
3B87
330
3BB0
100
AcDbEntity
  8
V0-VYPLNE
  6
CONTINUOUS
 62
    41
100
AcDbPolyline
 90
        3
 70
     0
 43
0.0
 10
1554.325188322798
 20
-288.5490828492423
 10
1518.413406
 20
-379.306963
 10
1238.611634
 20
-379.306963
  0
TEXT
  5
3B8C
330
3BB0
100
AcDbEntity
  8
V0-VYPLNE
  6
CONTINUOUS
 62
    41
100
AcDbText
 10
1144.984834571429
 20
-377.30401
 30
0.0
 40
30.0
  1
8 OTVORU %%c12
  7
ED40
100
AcDbText
  0
VIEWPORT
  5
3C28
330
3BAC
100
AcDbEntity
 67
     1
  8
0
 60
     1
100
AcDbViewport
 10
261.517699
 20
148.5
 30
0.0
 40
297.0
 41
297.0
 68
     0
 69
     1
1001
VD_INVISIBLE_NOT_FOR_READ
1000
VD_INVISIBLE_NOT_FOR_READ
1001
ACAD
1000
MVIEW
1002
{
1070
    16
1010
0.0
1020
0.0
1030
0.0
1010
0.0
1020
0.0
1030
1.0
1040
6.2831853071796
1040
297.0
1040
261.517699
1040
148.5
1040
0.0
1040
0.0
1040
0.0
1070
     0
1070
   100
1070
     0
1070
     1
1070
     0
1070
     0
1070
     0
1070
     0
1040
0.0
1040
0.0
1040
0.0
1040
1.0
1040
1.0
1040
0.0
1040
0.0
1070
     0
1002
{
1002
}
1002
}
  0
VIEWPORT
  5
3C29
330
3BAC
100
AcDbEntity
 67
     1
  8
0
 60
     1
100
AcDbViewport
 10
261.517699
 20
148.5
 30
0.0
 40
297.0
 41
297.0
 68
     0
 69
     2
1001
VD_INVISIBLE_NOT_FOR_READ
1000
VD_INVISIBLE_NOT_FOR_READ
1001
ACAD
1000
MVIEW
1002
{
1070
    16
1010
0.0
1020
0.0
1030
0.0
1010
0.0
1020
0.0
1030
1.0
1040
6.2831853071796
1040
297.0
1040
261.517699
1040
148.5
1040
0.0
1040
0.0
1040
0.0
1070
     0
1070
   100
1070
     0
1070
     1
1070
     0
1070
     0
1070
     0
1070
     0
1040
0.0
1040
0.0
1040
0.0
1040
1.0
1040
1.0
1040
0.0
1040
0.0
1070
     0
1002
{
1002
}
1002
}
  0
ENDSEC
  0
SECTION
  2
OBJECTS
  0
DICTIONARY
  5
3B9D
330
0
100
AcDbDictionary
  3
ACAD_GROUP
350
3B9E
  3
ACAD_LAYOUT
350
3BAB
  3
ACAD_MLINESTYLE
350
3BA8
  3
ACAD_PLOTSETTINGS
350
3BAA
  3
ACDBHEADERROUNDTRIPXREC
350
3C2A
  3
VECTORDRAW_OBJECTS
350
3BC0
  0
DICTIONARY
  5
3C4A
330
3BBA
100
AcDbDictionary
280
     1
  3
ACAD_XREC_ROUNDTRIP
360
3C4B
  0
DICTIONARY
  5
3B9E
102
{ACAD_REACTORS
330
3B9D
102
}
330
3B9D
100
AcDbDictionary
  0
DICTIONARY
  5
3BAB
102
{ACAD_REACTORS
330
3B9D
102
}
330
3B9D
100
AcDbDictionary
  0
DICTIONARY
  5
3BA8
102
{ACAD_REACTORS
330
3B9D
102
}
330
3B9D
100
AcDbDictionary
  3
STANDARD
350
3BA9
  0
DICTIONARY
  5
3BAA
102
{ACAD_REACTORS
330
3B9D
102
}
330
3B9D
100
AcDbDictionary
  0
DICTIONARY
  5
3C2A
102
{ACAD_REACTORS
330
3B9D
102
}
330
3B9D
100
AcDbDictionary
  3
CEPSNTYPE
350
3C33
  3
DIMSTYLEDATA
350
3C49
  3
FINGERPRINTGUID
350
3C34
  3
HYPERLINKBASE
350
3C2D
  3
INSUNITS
350
3C32
  3
LAYOUTDICT
350
3C2F
  3
LWETCUNION
350
3C31
  3
PLOTSETDICT
350
3C30
  3
PSVPSCALE
350
3C36
  3
PUCSBASE
350
3C39
  3
PUCSORGBACK
350
3C3F
  3
PUCSORGBOTTOM
350
3C3B
  3
PUCSORGFRONT
350
3C3E
  3
PUCSORGLEFT
350
3C3C
  3
PUCSORGRIGHT
350
3C3D
  3
PUCSORGTOP
350
3C3A
  3
PUCSORTHOREF
350
3C37
  3
PUCSORTHOVIEW
350
3C38
  3
STYLESHEET
350
3C2E
  3
TSTACKALIGN
350
3C2B
  3
TSTACKSIZE
350
3C2C
  3
UCSBASE
350
3C42
  3
UCSORGBACK
350
3C48
  3
UCSORGBOTTOM
350
3C44
  3
UCSORGFRONT
350
3C47
  3
UCSORGLEFT
350
3C45
  3
UCSORGRIGHT
350
3C46
  3
UCSORGTOP
350
3C43
  3
UCSORTHOREF
350
3C40
  3
UCSORTHOVIEW
350
3C41
  3
VERSIONGUID
350
3C35
  0
DICTIONARY
  5
3BC0
102
{ACAD_REACTORS
330
3B9D
102
}
330
3B9D
100
AcDbDictionary
  3
SERIALNO
350
3BC1
  0
XRECORD
  5
3C4B
102
{ACAD_REACTORS
330
3C4A
102
}
330
3C4A
100
AcDbXrecord
102
UCS
 74
     0
 71
     1
 10
0.0
 20
0.0
 30
0.0
 10
1.0
 20
0.0
 30
0.0
 10
0.0
 20
1.0
 30
0.0
146
0.0
 79
     0
102
VIEW
281
     0
  0
MLINESTYLE
  5
3BA9
102
{ACAD_REACTORS
330
3BA8
102
}
330
3BA8
100
AcDbMlineStyle
  2
Standard
 70
     0
  3

 62
   256
 51
90.0
 52
90.0
 71
     2
 49
0.5
 62
   256
  6
BYLAYER
 49
-0.5
 62
   256
  6
BYLAYER
  0
XRECORD
  5
3C33
102
{ACAD_REACTORS
330
3C2A
102
}
330
3C2A
100
AcDbXrecord
 90
        0
  0
XRECORD
  5
3C49
102
{ACAD_REACTORS
330
3C2A
102
}
330
3C2A
100
AcDbXrecord
1000
DSTYLE
1002
{
1070
    41
 40
40.0
1070
   342
340
90
1070
   177
 70
    41
1070
   178
 70
    41
1070
   271
 70
     0
1070
    44
 40
1.25
1070
    42
 40
1.0
1070
   147
 40
2.0
1070
    77
 70
     1
1070
    73
 70
     0
1070
   174
 70
     1
1070
   172
 70
     1
1070
    74
 70
     0
1070
   340
340
F39
1070
   140
 40
40.0
1070
   288
 70
     1
1002
}
  0
XRECORD
  5
3C34
102
{ACAD_REACTORS
330
3C2A
102
}
330
3C2A
100
AcDbXrecord
  1
{FAEB1C30-E019-11D5-929B-00C0DF256EC4}
  0
XRECORD
  5
3C2D
102
{ACAD_REACTORS
330
3C2A
102
}
330
3C2A
100
AcDbXrecord
  1

  0
XRECORD
  5
3C32
102
{ACAD_REACTORS
330
3C2A
102
}
330
3C2A
100
AcDbXrecord
 90
        1
  0
XRECORD
  5
3C2F
102
{ACAD_REACTORS
330
3C2A
102
}
330
3C2A
100
AcDbXrecord
340
3BAB
  0
XRECORD
  5
3C31
102
{ACAD_REACTORS
330
3C2A
102
}
330
3C2A
100
AcDbXrecord
 90
     2560
  0
XRECORD
  5
3C30
102
{ACAD_REACTORS
330
3C2A
102
}
330
3C2A
100
AcDbXrecord
340
3BAA
  0
XRECORD
  5
3C36
102
{ACAD_REACTORS
330
3C2A
102
}
330
3C2A
100
AcDbXrecord
 40
0.0
  0
XRECORD
  5
3C39
102
{ACAD_REACTORS
330
3C2A
102
}
330
3C2A
100
AcDbXrecord
340
0
  0
XRECORD
  5
3C3F
102
{ACAD_REACTORS
330
3C2A
102
}
330
3C2A
100
AcDbXrecord
 10
0.0
 20
0.0
 30
0.0
  0
XRECORD
  5
3C3B
102
{ACAD_REACTORS
330
3C2A
102
}
330
3C2A
100
AcDbXrecord
 10
0.0
 20
0.0
 30
0.0
  0
XRECORD
  5
3C3E
102
{ACAD_REACTORS
330
3C2A
102
}
330
3C2A
100
AcDbXrecord
 10
0.0
 20
0.0
 30
0.0
  0
XRECORD
  5
3C3C
102
{ACAD_REACTORS
330
3C2A
102
}
330
3C2A
100
AcDbXrecord
 10
0.0
 20
0.0
 30
0.0
  0
XRECORD
  5
3C3D
102
{ACAD_REACTORS
330
3C2A
102
}
330
3C2A
100
AcDbXrecord
 10
0.0
 20
0.0
 30
0.0
  0
XRECORD
  5
3C3A
102
{ACAD_REACTORS
330
3C2A
102
}
330
3C2A
100
AcDbXrecord
 10
0.0
 20
0.0
 30
0.0
  0
XRECORD
  5
3C37
102
{ACAD_REACTORS
330
3C2A
102
}
330
3C2A
100
AcDbXrecord
340
0
  0
XRECORD
  5
3C38
102
{ACAD_REACTORS
330
3C2A
102
}
330
3C2A
100
AcDbXrecord
 70
     0
  0
XRECORD
  5
3C2E
102
{ACAD_REACTORS
330
3C2A
102
}
330
3C2A
100
AcDbXrecord
  1

  0
XRECORD
  5
3C2B
102
{ACAD_REACTORS
330
3C2A
102
}
330
3C2A
100
AcDbXrecord
 90
        1
  0
XRECORD
  5
3C2C
102
{ACAD_REACTORS
330
3C2A
102
}
330
3C2A
100
AcDbXrecord
 90
       70
  0
XRECORD
  5
3C42
102
{ACAD_REACTORS
330
3C2A
102
}
330
3C2A
100
AcDbXrecord
340
0
  0
XRECORD
  5
3C48
102
{ACAD_REACTORS
330
3C2A
102
}
330
3C2A
100
AcDbXrecord
 10
0.0
 20
0.0
 30
0.0
  0
XRECORD
  5
3C44
102
{ACAD_REACTORS
330
3C2A
102
}
330
3C2A
100
AcDbXrecord
 10
0.0
 20
0.0
 30
0.0
  0
XRECORD
  5
3C47
102
{ACAD_REACTORS
330
3C2A
102
}
330
3C2A
100
AcDbXrecord
 10
0.0
 20
0.0
 30
0.0
  0
XRECORD
  5
3C45
102
{ACAD_REACTORS
330
3C2A
102
}
330
3C2A
100
AcDbXrecord
 10
0.0
 20
0.0
 30
0.0
  0
XRECORD
  5
3C46
102
{ACAD_REACTORS
330
3C2A
102
}
330
3C2A
100
AcDbXrecord
 10
0.0
 20
0.0
 30
0.0
  0
XRECORD
  5
3C43
102
{ACAD_REACTORS
330
3C2A
102
}
330
3C2A
100
AcDbXrecord
 10
0.0
 20
0.0
 30
0.0
  0
XRECORD
  5
3C40
102
{ACAD_REACTORS
330
3C2A
102
}
330
3C2A
100
AcDbXrecord
340
0
  0
XRECORD
  5
3C41
102
{ACAD_REACTORS
330
3C2A
102
}
330
3C2A
100
AcDbXrecord
 70
     0
  0
XRECORD
  5
3C35
102
{ACAD_REACTORS
330
3C2A
102
}
330
3C2A
100
AcDbXrecord
  1
{FAEB1C32-E019-11D5-929B-00C0DF256EC4}
  0
XRECORD
  5
3BC1
102
{ACAD_REACTORS
330
3BC0
102
}
330
3BC0
100
AcDbXrecord
1000
rInJVR9YY4Q8hfPWdUq5j5319
1070
     4
1070
     6
  0
ENDSEC
  0
EOF
