  0
SECTION
  2
HEADER
  9
$ACADVER
  1
AC1014
  9
$ACADMAINTVER
 70
     9
  9
$DWGCODEPAGE
  3
ANSI_1250
  9
$INSBASE
 10
0.0
 20
0.0
 30
0.0
  9
$EXTMIN
 10
926.4077562307883
 20
-945.08336
 30
0.0
  9
$EXTMAX
 10
1884.790953241758
 20
118.114134
 30
0.0
  9
$LIMMIN
 10
0.0
 20
0.0
  9
$LIMMAX
 10
0.0
 20
0.0
  9
$ORTHOMODE
 70
     0
  9
$REGENMODE
 70
     1
  9
$FILLMODE
 70
     1
  9
$QTEXTMODE
 70
     0
  9
$MIRRTEXT
 70
     1
  9
$DRAGMODE
 70
     2
  9
$LTSCALE
 40
1.0
  9
$OSMODE
 70
    37
  9
$ATTMODE
 70
     1
  9
$TEXTSIZE
 40
0.2
  9
$TRACEWID
 40
0.05
  9
$TEXTSTYLE
  7
ED30
  9
$CLAYER
  8
V0-VYPLNE
  9
$CELTYPE
  6
CONTINUOUS
  9
$CECOLOR
 62
    41
  9
$CELTSCALE
 40
1.0
  9
$DELOBJ
 70
     1
  9
$DISPSILH
 70
     0
  9
$DIMSCALE
 40
1.0
  9
$DIMASZ
 40
40.0
  9
$DIMEXO
 40
1.0
  9
$DIMDLI
 40
0.38
  9
$DIMRND
 40
0.0
  9
$DIMDLE
 40
0.0
  9
$DIMEXE
 40
1.25
  9
$DIMTP
 40
0.0
  9
$DIMTM
 40
0.0
  9
$DIMTXT
 40
40.0
  9
$DIMCEN
 40
0.09
  9
$DIMTSZ
 40
0.0
  9
$DIMTOL
 70
     0
  9
$DIMLIM
 70
     0
  9
$DIMTIH
 70
     0
  9
$DIMTOH
 70
     0
  9
$DIMSE1
 70
     0
  9
$DIMSE2
 70
     0
  9
$DIMTAD
 70
     1
  9
$DIMZIN
 70
     0
  9
$DIMBLK
  1
OPEN
  9
$DIMASO
 70
     1
  9
$DIMSHO
 70
     1
  9
$DIMPOST
  1

  9
$DIMAPOST
  1

  9
$DIMALT
 70
     0
  9
$DIMALTD
 70
     2
  9
$DIMALTF
 40
25.4
  9
$DIMLFAC
 40
1.0
  9
$DIMTOFL
 70
     1
  9
$DIMTVP
 40
0.0
  9
$DIMTIX
 70
     1
  9
$DIMSOXD
 70
     0
  9
$DIMSAH
 70
     0
  9
$DIMBLK1
  1

  9
$DIMBLK2
  1

  9
$DIMSTYLE
  2
ED30
  9
$DIMCLRD
 70
     0
  9
$DIMCLRE
 70
    41
  9
$DIMCLRT
 70
    41
  9
$DIMTFAC
 40
1.0
  9
$DIMGAP
 40
2.0
  9
$DIMJUST
 70
     0
  9
$DIMSD1
 70
     0
  9
$DIMSD2
 70
     0
  9
$DIMTOLJ
 70
     1
  9
$DIMTZIN
 70
     0
  9
$DIMALTZ
 70
     0
  9
$DIMALTTZ
 70
     0
  9
$DIMFIT
 70
     3
  9
$DIMUPT
 70
     1
  9
$DIMUNIT
 70
     2
  9
$DIMDEC
 70
     0
  9
$DIMTDEC
 70
     4
  9
$DIMALTU
 70
     2
  9
$DIMALTTD
 70
     2
  9
$DIMTXSTY
  7
ED40
  9
$DIMAUNIT
 70
     0
  9
$LUNITS
 70
     2
  9
$LUPREC
 70
     4
  9
$SKETCHINC
 40
0.1
  9
$FILLETRAD
 40
0.5
  9
$AUNITS
 70
     0
  9
$AUPREC
 70
     0
  9
$MENU
  1
.
  9
$ELEVATION
 40
0.0
  9
$PELEVATION
 40
0.0
  9
$THICKNESS
 40
0.0
  9
$LIMCHECK
 70
     0
  9
$BLIPMODE
 70
     0
  9
$CHAMFERA
 40
0.5
  9
$CHAMFERB
 40
0.5
  9
$CHAMFERC
 40
1.0
  9
$CHAMFERD
 40
0.0
  9
$SKPOLY
 70
     0
  9
$TDCREATE
 40
2455576.641907361
  9
$TDUPDATE
 40
2455576.641907373
  9
$TDINDWG
 40
0.0000000116
  9
$TDUSRTIMER
 40
0.0000000116
  9
$USRTIMER
 70
     1
  9
$ANGBASE
 50
0.0
  9
$ANGDIR
 70
     0
  9
$PDMODE
 70
    35
  9
$PDSIZE
 40
20.0
  9
$PLINEWID
 40
0.0
  9
$COORDS
 70
     1
  9
$SPLFRAME
 70
     0
  9
$SPLINETYPE
 70
     6
  9
$SPLINESEGS
 70
     8
  9
$ATTDIA
 70
     0
  9
$ATTREQ
 70
     1
  9
$HANDLING
 70
     1
  9
$HANDSEED
  5
39AE
  9
$SURFTAB1
 70
     6
  9
$SURFTAB2
 70
     6
  9
$SURFTYPE
 70
     6
  9
$SURFU
 70
     6
  9
$SURFV
 70
     6
  9
$UCSNAME
  2

  9
$UCSORG
 10
0.0
 20
0.0
 30
0.0
  9
$UCSXDIR
 10
1.0
 20
0.0
 30
0.0
  9
$UCSYDIR
 10
0.0
 20
1.0
 30
0.0
  9
$PUCSNAME
  2

  9
$PUCSORG
 10
0.0
 20
0.0
 30
0.0
  9
$PUCSXDIR
 10
1.0
 20
0.0
 30
0.0
  9
$PUCSYDIR
 10
0.0
 20
1.0
 30
0.0
  9
$USERI1
 70
     0
  9
$USERI2
 70
     0
  9
$USERI3
 70
     0
  9
$USERI4
 70
     0
  9
$USERI5
 70
     0
  9
$USERR1
 40
0.0
  9
$USERR2
 40
0.0
  9
$USERR3
 40
0.0
  9
$USERR4
 40
0.0
  9
$USERR5
 40
0.0
  9
$WORLDVIEW
 70
     1
  9
$SHADEDGE
 70
     3
  9
$SHADEDIF
 70
    70
  9
$TILEMODE
 70
     1
  9
$MAXACTVP
 70
    64
  9
$PINSBASE
 10
0.0
 20
0.0
 30
0.0
  9
$PLIMCHECK
 70
     0
  9
$PEXTMIN
 10
1.000000000000000E+20
 20
1.000000000000000E+20
 30
1.000000000000000E+20
  9
$PEXTMAX
 10
-1.000000000000000E+20
 20
-1.000000000000000E+20
 30
-1.000000000000000E+20
  9
$PLIMMIN
 10
0.0
 20
0.0
  9
$PLIMMAX
 10
0.0
 20
0.0
  9
$UNITMODE
 70
     0
  9
$VISRETAIN
 70
     1
  9
$PLINEGEN
 70
     0
  9
$PSLTSCALE
 70
     1
  9
$TREEDEPTH
 70
  3020
  9
$PICKSTYLE
 70
     1
  9
$CMLSTYLE
  2
STANDARD
  9
$CMLJUST
 70
     0
  9
$CMLSCALE
 40
1.0
  9
$PROXYGRAPHICS
 70
     1
  9
$MEASUREMENT
 70
     0
  0
ENDSEC
  0
SECTION
  2
CLASSES
  0
CLASS
  1
ACDBDICTIONARYWDFLT
  2
AcDbDictionaryWithDefault
  3
ObjectDBX Classes
 90
        0
280
     0
281
     0
  0
CLASS
  1
XRECORD
  2
AcDbXrecord
  3
AutoCAD 2000
 90
        0
280
     0
281
     0
  0
CLASS
  1
LWPOLYLINE
  2
AcDbPolyline
  3
AutoCAD 2000
 90
        0
280
     0
281
     1
  0
CLASS
  1
HATCH
  2
AcDbHatch
  3
AutoCAD 2000
 90
        0
280
     0
281
     1
  0
CLASS
  1
ACDBPLACEHOLDER
  2
AcDbPlaceHolder
  3
ObjectDBX Classes
 90
        0
280
     0
281
     0
  0
CLASS
  1
LAYOUT
  2
AcDbLayout
  3
ObjectDBX Classes
 90
        0
280
     0
281
     0
  0
ENDSEC
  0
SECTION
  2
TABLES
  0
TABLE
  2
VPORT
  5
3905
330
0
100
AcDbSymbolTable
 70
     2
  0
VPORT
  5
3926
102
{ACAD_XDICTIONARY
360
39AC
102
}
330
3905
100
AcDbSymbolTableRecord
100
AcDbViewportTableRecord
  2
*ACTIVE
 70
     0
 10
0.0
 20
0.0
 11
1.0
 21
1.0
 12
1420.588808
 22
-374.506424
 13
0.0
 23
0.0
 14
10.0
 24
10.0
 15
10.0
 25
10.0
 16
0.0
 26
0.0
 36
1.0
 17
0.0
 27
0.0
 37
0.0
 40
1197.821893
 41
0.0148242045494596
 42
50.0
 43
0.0
 44
0.0
 50
0.0
 51
0.0000000000007958
 71
     0
 72
   100
 73
     1
 74
     3
 75
     0
 76
     0
 77
     0
 78
     0
  0
ENDTAB
  0
TABLE
  2
LTYPE
  5
3902
330
0
100
AcDbSymbolTable
 70
    25
  0
LTYPE
  5
3911
330
3902
100
AcDbSymbolTableRecord
100
AcDbLinetypeTableRecord
  2
BYBLOCK
 70
     0
  3

 72
    65
 73
     0
 40
0.0
  0
LTYPE
  5
3912
330
3902
100
AcDbSymbolTableRecord
100
AcDbLinetypeTableRecord
  2
BYLAYER
 70
     0
  3

 72
    65
 73
     0
 40
0.0
  0
LTYPE
  5
3913
330
3902
100
AcDbSymbolTableRecord
100
AcDbLinetypeTableRecord
  2
CONTINUOUS
 70
     0
  3
Solid line
 72
    65
 73
     0
 40
0.0
  0
LTYPE
  5
392E
330
3902
100
AcDbSymbolTableRecord
100
AcDbLinetypeTableRecord
  2
CENTER
 70
     0
  3
Center ____ _ ____ _ ____ _ ____ _ ____ _ ____
 72
    65
 73
     4
 40
2.0
 49
1.25
 74
     0
 49
-0.25
 74
     0
 49
0.25
 74
     0
 49
-0.25
 74
     0
  0
LTYPE
  5
392F
330
3902
100
AcDbSymbolTableRecord
100
AcDbLinetypeTableRecord
  2
DASHDOT
 70
     0
  3
Dashdot __ . __ . __ . __ . __ . __ . __ . __
 72
    65
 73
     4
 40
1.0
 49
0.5
 74
     0
 49
-0.25
 74
     0
 49
0.0
 74
     0
 49
-0.25
 74
     0
  0
LTYPE
  5
3930
330
3902
100
AcDbSymbolTableRecord
100
AcDbLinetypeTableRecord
  2
DASHED
 70
     0
  3
Dashed __ __ __ __ __ __ __ __ __ __ __ __ __ _
 72
    65
 73
     2
 40
0.75
 49
0.5
 74
     0
 49
-0.25
 74
     0
  0
LTYPE
  5
3931
330
3902
100
AcDbSymbolTableRecord
100
AcDbLinetypeTableRecord
  2
HIDDEN
 70
     0
  3
Hidden __ __ __ __ __ __ __ __ __ __ __ __ __ __
 72
    65
 73
     2
 40
0.375
 49
0.25
 74
     0
 49
-0.125
 74
     0
  0
LTYPE
  5
3932
330
3902
100
AcDbSymbolTableRecord
100
AcDbLinetypeTableRecord
  2
HIDDEN2
 70
     0
  3
Hidden2 _ _ _ _ _ _ _ _ _ _ _ _ _ _ _ _ _ 
 72
    65
 73
     2
 40
0.1875
 49
0.125
 74
     0
 49
-0.0625
 74
     0
  0
LTYPE
  5
3933
330
3902
100
AcDbSymbolTableRecord
100
AcDbLinetypeTableRecord
  2
BORDER
 70
     0
  3
Border __ __ . __ __ . __ __ . __ __ . __ __ .
 72
    65
 73
     6
 40
1.75
 49
0.5
 74
     0
 49
-0.25
 74
     0
 49
0.5
 74
     0
 49
-0.25
 74
     0
 49
0.0
 74
     0
 49
-0.25
 74
     0
  0
LTYPE
  5
3934
330
3902
100
AcDbSymbolTableRecord
100
AcDbLinetypeTableRecord
  2
BORDER2
 70
     0
  3
Border2 __.__.__.__.__.__.__.__.__.__.__.
 72
    65
 73
     6
 40
0.875
 49
0.25
 74
     0
 49
-0.125
 74
     0
 49
0.25
 74
     0
 49
-0.125
 74
     0
 49
0.0
 74
     0
 49
-0.125
 74
     0
  0
LTYPE
  5
3935
330
3902
100
AcDbSymbolTableRecord
100
AcDbLinetypeTableRecord
  2
BORDERX2
 70
     0
  3
Borderx2  ____  ____  .  ____  ____  .  ___
 72
    65
 73
     6
 40
3.5
 49
1.0
 74
     0
 49
-0.5
 74
     0
 49
1.0
 74
     0
 49
-0.5
 74
     0
 49
0.0
 74
     0
 49
-0.5
 74
     0
  0
LTYPE
  5
3936
330
3902
100
AcDbSymbolTableRecord
100
AcDbLinetypeTableRecord
  2
CENTER2
 70
     0
  3
Center2  ___ _ ___ _ ___ _ ___ _ ___ _ ___
 72
    65
 73
     4
 40
1.125
 49
0.75
 74
     0
 49
-0.125
 74
     0
 49
0.125
 74
     0
 49
-0.125
 74
     0
  0
LTYPE
  5
3937
330
3902
100
AcDbSymbolTableRecord
100
AcDbLinetypeTableRecord
  2
CENTERX2
 70
     0
  3
Centerx2  ________  __  ________  __  _____
 72
    65
 73
     4
 40
4.0
 49
2.5
 74
     0
 49
-0.5
 74
     0
 49
0.5
 74
     0
 49
-0.5
 74
     0
  0
LTYPE
  5
3938
330
3902
100
AcDbSymbolTableRecord
100
AcDbLinetypeTableRecord
  2
DASHDOT2
 70
     0
  3
Dashdot2  _._._._._._._._._._._._._._._.
 72
    65
 73
     4
 40
0.5
 49
0.25
 74
     0
 49
-0.125
 74
     0
 49
0.0
 74
     0
 49
-0.125
 74
     0
  0
LTYPE
  5
3939
330
3902
100
AcDbSymbolTableRecord
100
AcDbLinetypeTableRecord
  2
DASHDOTX2
 70
     0
  3
Dashdotx2 ____  .  ____  .  ____  .  ___
 72
    65
 73
     4
 40
2.0
 49
1.0
 74
     0
 49
-0.5
 74
     0
 49
0.0
 74
     0
 49
-0.5
 74
     0
  0
LTYPE
  5
393A
330
3902
100
AcDbSymbolTableRecord
100
AcDbLinetypeTableRecord
  2
DASHED2
 70
     0
  3
Dashed2 _ _ _ _ _ _ _ _ _ _ _ _ _ _ _ _ _ 
 72
    65
 73
     2
 40
0.375
 49
0.25
 74
     0
 49
-0.125
 74
     0
  0
LTYPE
  5
393B
330
3902
100
AcDbSymbolTableRecord
100
AcDbLinetypeTableRecord
  2
DASHEDX2
 70
     0
  3
Dashedx2 ____  ____  ____  ____  ____  ___
 72
    65
 73
     2
 40
1.5
 49
1.0
 74
     0
 49
-0.5
 74
     0
  0
LTYPE
  5
393C
330
3902
100
AcDbSymbolTableRecord
100
AcDbLinetypeTableRecord
  2
DIVIDE
 70
     0
  3
Divide ____ . . ____ . . ____ . . ____ . . ____
 72
    65
 73
     6
 40
1.25
 49
0.5
 74
     0
 49
-0.25
 74
     0
 49
0.0
 74
     0
 49
-0.25
 74
     0
 49
0.0
 74
     0
 49
-0.25
 74
     0
  0
LTYPE
  5
393D
330
3902
100
AcDbSymbolTableRecord
100
AcDbLinetypeTableRecord
  2
DIVIDE2
 70
     0
  3
Divide2 __..__..__..__..__..__..__..__.._
 72
    65
 73
     6
 40
0.625
 49
0.25
 74
     0
 49
-0.125
 74
     0
 49
0.0
 74
     0
 49
-0.125
 74
     0
 49
0.0
 74
     0
 49
-0.125
 74
     0
  0
LTYPE
  5
393E
330
3902
100
AcDbSymbolTableRecord
100
AcDbLinetypeTableRecord
  2
DIVIDEX2
 70
     0
  3
Dividex2 ________  .  .  ________  .  .  _
 72
    65
 73
     6
 40
2.5
 49
1.0
 74
     0
 49
-0.5
 74
     0
 49
0.0
 74
     0
 49
-0.5
 74
     0
 49
0.0
 74
     0
 49
-0.5
 74
     0
  0
LTYPE
  5
393F
330
3902
100
AcDbSymbolTableRecord
100
AcDbLinetypeTableRecord
  2
DOT
 70
     0
  3
Dot . . . . . . . . . . . . . . . . . . . . . . . .
 72
    65
 73
     2
 40
0.25
 49
0.0
 74
     0
 49
-0.25
 74
     0
  0
LTYPE
  5
3940
330
3902
100
AcDbSymbolTableRecord
100
AcDbLinetypeTableRecord
  2
DOT2
 70
     0
  3
Dot2 ........................................
 72
    65
 73
     2
 40
0.125
 49
0.0
 74
     0
 49
-0.125
 74
     0
  0
LTYPE
  5
3941
330
3902
100
AcDbSymbolTableRecord
100
AcDbLinetypeTableRecord
  2
DOTX2
 70
     0
  3
Dotx2 .  .  .  .  .  .  .  .  .  .  .  .  .  .
 72
    65
 73
     2
 40
0.5
 49
0.0
 74
     0
 49
-0.5
 74
     0
  0
LTYPE
  5
3942
330
3902
100
AcDbSymbolTableRecord
100
AcDbLinetypeTableRecord
  2
HIDDENX2
 70
     0
  3
Hiddenx2 ____ ____ ____ ____ ____ ____ ____ 
 72
    65
 73
     2
 40
0.75
 49
0.5
 74
     0
 49
-0.25
 74
     0
  0
LTYPE
  5
3943
330
3902
100
AcDbSymbolTableRecord
100
AcDbLinetypeTableRecord
  2
PHANTOM
 70
     0
  3
Phantom ______  __  __  ______  __  __  ______ 
 72
    65
 73
     6
 40
2.5
 49
1.25
 74
     0
 49
-0.25
 74
     0
 49
0.25
 74
     0
 49
-0.25
 74
     0
 49
0.25
 74
     0
 49
-0.25
 74
     0
  0
LTYPE
  5
3944
330
3902
100
AcDbSymbolTableRecord
100
AcDbLinetypeTableRecord
  2
PHANTOM2
 70
     0
  3
Phantom2 ___ _ _ ___ _ _ ___ _ _ ___ _ _
 72
    65
 73
     6
 40
1.25
 49
0.625
 74
     0
 49
-0.125
 74
     0
 49
0.125
 74
     0
 49
-0.125
 74
     0
 49
0.125
 74
     0
 49
-0.125
 74
     0
  0
LTYPE
  5
3945
330
3902
100
AcDbSymbolTableRecord
100
AcDbLinetypeTableRecord
  2
PHANTOMX2
 70
     0
  3
Phantomx2 ____________    ____    ____   _
 72
    65
 73
     6
 40
5.0
 49
2.5
 74
     0
 49
-0.5
 74
     0
 49
0.5
 74
     0
 49
-0.5
 74
     0
 49
0.5
 74
     0
 49
-0.5
 74
     0
  0
ENDTAB
  0
TABLE
  2
LAYER
  5
38FF
330
0
100
AcDbSymbolTable
 70
     5
  0
LAYER
  5
390D
330
38FF
100
AcDbSymbolTableRecord
100
AcDbLayerTableRecord
  2
0
 70
     0
 62
     7
  6
CONTINUOUS
  0
LAYER
  5
9E
330
38FF
100
AcDbSymbolTableRecord
100
AcDbLayerTableRecord
  2
DEFPOINTS
 70
     0
 62
     7
  6
CONTINUOUS
  0
LAYER
  5
377
330
38FF
100
AcDbSymbolTableRecord
100
AcDbLayerTableRecord
  2
V0-OBRYS
 70
     0
 62
    90
  6
CONTINUOUS
  0
LAYER
  5
378
330
38FF
100
AcDbSymbolTableRecord
100
AcDbLayerTableRecord
  2
V0-VYPLNE
 70
     0
 62
    63
  6
DASHDOT
  0
LAYER
  5
1540
330
38FF
100
AcDbSymbolTableRecord
100
AcDbLayerTableRecord
  2
VO-OBRYS
 70
     0
 62
    90
  6
CONTINUOUS
  0
ENDTAB
  0
TABLE
  2
STYLE
  5
3900
330
0
100
AcDbSymbolTable
 70
     6
  0
STYLE
  5
390E
330
3900
100
AcDbSymbolTableRecord
100
AcDbTextStyleTableRecord
  2
STANDARD
 70
     0
 40
0.0
 41
1.0
 50
0.0
 71
     0
 42
0.2
  3
ISOCP.shx
  4

1001
ACAD
1000
ISOCP.shx
1071
        0
  0
STYLE
  5
331
330
3900
100
AcDbSymbolTableRecord
100
AcDbTextStyleTableRecord
  2
ED20
 70
     0
 40
20.0
 41
1.0
 50
0.0
 71
     0
 42
0.2
  3
ISOCP.shx
  4

1001
ACAD
1000
ISOCP.shx
1071
        0
  0
STYLE
  5
648
330
3900
100
AcDbSymbolTableRecord
100
AcDbTextStyleTableRecord
  2
ED10
 70
     0
 40
10.0
 41
1.0
 50
0.0
 71
     0
 42
0.2
  3
ISOCP.shx
  4

1001
ACAD
1000
ISOCP.shx
1071
        0
  0
STYLE
  5
F38
330
3900
100
AcDbSymbolTableRecord
100
AcDbTextStyleTableRecord
  2
ED30
 70
     0
 40
30.0
 41
1.0
 50
0.0
 71
     0
 42
0.2
  3
ISOCP.shx
  4

1001
ACAD
1000
ISOCP.shx
1071
        0
  0
STYLE
  5
F39
330
3900
100
AcDbSymbolTableRecord
100
AcDbTextStyleTableRecord
  2
ED40
 70
     0
 40
40.0
 41
1.0
 50
0.0
 71
     0
 42
0.2
  3
ISOCP.shx
  4

1001
ACAD
1000
ISOCP.shx
1071
        0
  0
STYLE
  5
1B9D
330
3900
100
AcDbSymbolTableRecord
100
AcDbTextStyleTableRecord
  2
VD_RECOV_1_1B9D_
 70
     0
 40
0.0
 41
1.0
 50
0.0
 71
     0
 42
0.2
  3
ltypeshp.shx
  4

1001
ACAD
1000
ltypeshp.shx
1071
        0
  0
ENDTAB
  0
TABLE
  2
VIEW
  5
3903
330
0
100
AcDbSymbolTable
 70
     0
  0
ENDTAB
  0
TABLE
  2
UCS
  5
3904
330
0
100
AcDbSymbolTable
 70
     0
  0
ENDTAB
  0
TABLE
  2
APPID
  5
3906
330
0
100
AcDbSymbolTable
 70
     6
  0
APPID
  5
390F
330
3906
100
AcDbSymbolTableRecord
100
AcDbRegAppTableRecord
  2
ACAD
 70
     0
  0
APPID
  5
3927
330
3906
100
AcDbSymbolTableRecord
100
AcDbRegAppTableRecord
  2
VD_INVISIBLE_NOT_FOR_READ
 70
     0
  0
APPID
  5
3928
330
3906
100
AcDbSymbolTableRecord
100
AcDbRegAppTableRecord
  2
VD_TEMPHATCH
 70
     0
  0
APPID
  5
3929
330
3906
100
AcDbSymbolTableRecord
100
AcDbRegAppTableRecord
  2
VDEXTRAPARAM
 70
     0
  0
APPID
  5
392A
330
3906
100
AcDbSymbolTableRecord
100
AcDbRegAppTableRecord
  2
PE_URL
 70
     0
  0
APPID
  5
392B
330
3906
100
AcDbSymbolTableRecord
100
AcDbRegAppTableRecord
  2
VD_UNKNOWN
 70
     0
  0
ENDTAB
  0
TABLE
  2
DIMSTYLE
  5
3907
330
0
100
AcDbSymbolTable
 70
     4
  0
DIMSTYLE
105
3924
330
3907
100
AcDbSymbolTableRecord
100
AcDbDimStyleTableRecord
  2
STANDARD
 70
     0
  3

  4

  5
OPEN
  6

  7

 40
1.0
 41
15.0
 42
0.625
 43
0.38
 44
1.25
 45
0.0
 46
0.0
 47
0.0
 48
0.0
140
15.0
141
0.09
142
0.0
143
25.4
144
1.0
145
0.0
146
1.0
147
3.0
 71
     0
 72
     0
 73
     0
 74
     0
 75
     0
 76
     0
 77
     1
 78
     0
170
     0
171
     2
172
     1
173
     0
174
     1
175
     0
176
     0
177
     0
178
     0
270
     2
271
     0
272
     4
273
     2
274
     2
340
331
275
     0
280
     0
281
     0
282
     0
283
     1
284
     0
285
     0
286
     0
287
     3
288
     1
  0
DIMSTYLE
105
FE9
330
3907
100
AcDbSymbolTableRecord
100
AcDbDimStyleTableRecord
  2
ED20
 70
     0
  3

  4

  5
OPEN
  6

  7

 40
1.0
 41
20.0
 42
1.0
 43
0.38
 44
1.25
 45
0.0
 46
0.0
 47
0.0
 48
0.0
140
20.0
141
0.09
142
0.0
143
25.4
144
1.0
145
0.0
146
1.0
147
2.0
 71
     0
 72
     0
 73
     0
 74
     0
 75
     0
 76
     0
 77
     1
 78
     0
170
     0
171
     2
172
     1
173
     0
174
     1
175
     0
176
     0
177
    41
178
    41
270
     2
271
     0
272
     4
273
     2
274
     2
340
331
275
     0
280
     0
281
     0
282
     0
283
     1
284
     0
285
     0
286
     0
287
     3
288
     1
  0
DIMSTYLE
105
302B
330
3907
100
AcDbSymbolTableRecord
100
AcDbDimStyleTableRecord
  2
ED40
 70
     0
  3

  4

  5
OPEN
  6

  7

 40
1.0
 41
40.0
 42
1.0
 43
0.38
 44
1.25
 45
0.0
 46
0.0
 47
0.0
 48
0.0
140
40.0
141
0.09
142
0.0
143
25.4
144
1.0
145
0.0
146
1.0
147
2.0
 71
     0
 72
     0
 73
     0
 74
     0
 75
     0
 76
     0
 77
     1
 78
     0
170
     0
171
     2
172
     1
173
     0
174
     1
175
     0
176
     0
177
    41
178
    41
270
     2
271
     0
272
     4
273
     2
274
     2
340
F39
275
     0
280
     0
281
     0
282
     0
283
     1
284
     0
285
     0
286
     0
287
     3
288
     1
  0
DIMSTYLE
105
3042
102
{ACAD_REACTORS
330
2FFE
330
302A
330
31C3
330
32F0
330
32FD
102
}
330
3907
100
AcDbSymbolTableRecord
100
AcDbDimStyleTableRecord
  2
ED30
 70
     0
  3

  4

  5
OPEN
  6

  7

 40
1.0
 41
40.0
 42
1.0
 43
0.38
 44
1.25
 45
0.0
 46
0.0
 47
0.0
 48
0.0
140
40.0
141
0.09
142
0.0
143
25.4
144
1.0
145
0.0
146
1.0
147
2.0
 71
     0
 72
     0
 73
     0
 74
     0
 75
     0
 76
     0
 77
     1
 78
     0
170
     0
171
     2
172
     1
173
     0
174
     1
175
     0
176
     0
177
    41
178
    41
270
     2
271
     0
272
     4
273
     2
274
     2
340
F39
275
     0
280
     0
281
     0
282
     0
283
     1
284
     0
285
     0
286
     0
287
     3
288
     1
  0
ENDTAB
  0
TABLE
  2
BLOCK_RECORD
  5
38FE
330
0
100
AcDbSymbolTable
 70
     9
  0
BLOCK_RECORD
  5
391C
330
38FE
100
AcDbSymbolTableRecord
100
AcDbBlockTableRecord
  2
*MODEL_SPACE
  0
BLOCK_RECORD
  5
3918
330
38FE
100
AcDbSymbolTableRecord
100
AcDbBlockTableRecord
  2
*PAPER_SPACE
  0
BLOCK_RECORD
  5
90
330
38FE
100
AcDbSymbolTableRecord
100
AcDbBlockTableRecord
  2
_OPEN
  0
BLOCK_RECORD
  5
3845
330
38FE
100
AcDbSymbolTableRecord
100
AcDbBlockTableRecord
  2
VDDIM_DEFAULT
  0
BLOCK_RECORD
  5
3847
330
38FE
100
AcDbSymbolTableRecord
100
AcDbBlockTableRecord
  2
VDDIM_NONE
  0
BLOCK_RECORD
  5
394D
330
38FE
100
AcDbSymbolTableRecord
100
AcDbBlockTableRecord
  2
*D4
  0
BLOCK_RECORD
  5
3959
330
38FE
100
AcDbSymbolTableRecord
100
AcDbBlockTableRecord
  2
*D5
  0
BLOCK_RECORD
  5
3965
330
38FE
100
AcDbSymbolTableRecord
100
AcDbBlockTableRecord
  2
*D6
  0
BLOCK_RECORD
  5
3971
330
38FE
100
AcDbSymbolTableRecord
100
AcDbBlockTableRecord
  2
*D7
  0
BLOCK_RECORD
  5
397D
330
38FE
100
AcDbSymbolTableRecord
100
AcDbBlockTableRecord
  2
*D8
  0
ENDTAB
  0
ENDSEC
  0
SECTION
  2
BLOCKS
  0
BLOCK
  5
391D
330
391C
100
AcDbEntity
  8
0
100
AcDbBlockBegin
  2
*MODEL_SPACE
 70
     0
 71
     0
 10
0.0
 20
0.0
 30
0.0
  3
*MODEL_SPACE
  1

  0
ENDBLK
  5
391E
330
391C
100
AcDbEntity
  8
0
100
AcDbBlockEnd
  0
BLOCK
  5
3919
330
3918
100
AcDbEntity
 67
     1
  8
0
100
AcDbBlockBegin
  2
*PAPER_SPACE
 70
     0
 71
     0
 10
0.0
 20
0.0
 30
0.0
  3
*PAPER_SPACE
  1

  0
ENDBLK
  5
391A
330
3918
100
AcDbEntity
 67
     1
  8
0
100
AcDbBlockEnd
  0
BLOCK
  5
3946
330
90
100
AcDbEntity
  8
0
100
AcDbBlockBegin
  2
_OPEN
 70
     0
 71
     0
 10
0.0
 20
0.0
 30
0.0
  3
_OPEN
  1

  0
LINE
  5
92
330
90
100
AcDbEntity
  8
0
  6
BYBLOCK
 62
     0
100
AcDbLine
 10
-1.0
 20
0.166667
 30
0.0
 11
0.0
 21
0.0
 31
0.0
  0
LINE
  5
93
330
90
100
AcDbEntity
  8
0
  6
BYBLOCK
 62
     0
100
AcDbLine
 10
0.0
 20
0.0
 30
0.0
 11
-1.0
 21
-0.166667
 31
0.0
  0
LINE
  5
94
330
90
100
AcDbEntity
  8
0
  6
BYBLOCK
 62
     0
100
AcDbLine
 10
0.0
 20
0.0
 30
0.0
 11
-1.0
 21
0.0
 31
0.0
  0
ENDBLK
  5
3947
330
90
100
AcDbEntity
  8
0
100
AcDbBlockEnd
  0
BLOCK
  5
3948
330
3845
100
AcDbEntity
  8
0
100
AcDbBlockBegin
  2
VDDIM_DEFAULT
 70
     0
 71
     0
 10
0.0
 20
0.0
 30
0.0
  3
VDDIM_DEFAULT
  1

  0
LWPOLYLINE
  5
3846
330
3845
100
AcDbEntity
  8
0
  6
CONTINUOUS
 62
     0
100
AcDbPolyline
 90
        4
 70
     0
 43
0.0
 10
0.0
 20
0.0
 10
-1.0
 20
-0.1665
 10
-1.0
 20
0.1665
 10
0.0
 20
0.0
1001
VDEXTRAPARAM
1071
        1
1071
        0
1071
        0
1040
1.0
1000

1000

1040
0.0
1040
0.0
  0
HATCH
  5
394C
330
3845
100
AcDbEntity
  8
0
  6
CONTINUOUS
 62
     0
100
AcDbHatch
 10
0.0
 20
0.0
 30
0.0
210
0.0
220
0.0
230
1.0
  2
SOLID
 70
     1
 71
     0
 91
        1
 92
        2
 72
     0
 73
     1
 93
        3
 10
0.0
 20
0.0
 10
-1.0
 20
-0.1665
 10
-1.0
 20
0.1665
 97
        0
 75
     0
 76
     1
 98
        1
 10
0.0
 20
0.0
1001
VDEXTRAPARAM
1071
        1
1071
        0
1071
        0
1040
1.0
1000

1000

1040
0.0
1040
0.0
1001
VD_TEMPHATCH
1000
VD_TEMPHATCH
  0
ENDBLK
  5
3949
330
3845
100
AcDbEntity
  8
0
100
AcDbBlockEnd
  0
BLOCK
  5
394A
330
3847
100
AcDbEntity
  8
0
100
AcDbBlockBegin
  2
VDDIM_NONE
 70
     0
 71
     0
 10
0.0
 20
0.0
 30
0.0
  3
VDDIM_NONE
  1

  0
ENDBLK
  5
394B
330
3847
100
AcDbEntity
  8
0
100
AcDbBlockEnd
  0
BLOCK
  5
3957
330
394D
100
AcDbEntity
  8
0
100
AcDbBlockBegin
  2
*D4
 70
     1
 71
     0
 10
0.0
 20
0.0
 30
0.0
  3
*D4
  1

  0
LINE
  5
394E
330
394D
100
AcDbEntity
  8
V0-VYPLNE
 62
    41
100
AcDbLine
 10
1060.992917
 20
78.116975
 30
0.0
 11
979.5269870000193
 21
78.11697499999997
 31
0.0
  0
LINE
  5
394F
330
394D
100
AcDbEntity
  8
V0-VYPLNE
 62
    41
100
AcDbLine
 10
1063.788187
 20
-276.882315
 30
0.0
 11
979.5269870000193
 21
-276.882315
 31
0.0
  0
LINE
  5
3950
330
394D
100
AcDbEntity
  8
V0-VYPLNE
 62
     0
100
AcDbLine
 10
980.7769870000193
 20
48.11697499999991
 30
0.0
 11
980.7769870000192
 21
-246.882315
 31
0.0
  0
INSERT
  5
3951
330
394D
100
AcDbEntity
  8
V0-VYPLNE
 62
     0
100
AcDbBlockReference
  2
_OPEN
 10
980.7769870000193
 20
78.11697499999991
 30
0.0
 41
30.0
 42
30.0
 43
30.0
 50
89.99999999999999
  0
INSERT
  5
3952
330
394D
100
AcDbEntity
  8
V0-VYPLNE
 62
     0
100
AcDbBlockReference
  2
_OPEN
 10
980.7769870000192
 20
-276.882315
 30
0.0
 41
30.0
 42
30.0
 43
30.0
 50
270.0
  0
MTEXT
  5
3953
330
394D
100
AcDbEntity
  8
V0-VYPLNE
 62
    41
100
AcDbMText
 10
963.7769870000193
 20
-99.38267000000002
 30
0.0
 40
30.0
 41
0.0
 71
     5
 72
     1
  1
%%c\A1;355
  7
ED40
 11
0.0
 21
1.0
 31
0.0
  0
POINT
  5
3954
330
394D
100
AcDbEntity
  8
DEFPOINTS
 62
     0
100
AcDbPoint
 10
1061.992917
 20
78.116975
 30
0.0
  0
POINT
  5
3955
330
394D
100
AcDbEntity
  8
DEFPOINTS
 62
     0
100
AcDbPoint
 10
1064.788187
 20
-276.882315
 30
0.0
  0
POINT
  5
3956
330
394D
100
AcDbEntity
  8
DEFPOINTS
 62
     0
100
AcDbPoint
 10
980.7769870000193
 20
-276.882315
 30
0.0
  0
ENDBLK
  5
3958
330
394D
100
AcDbEntity
  8
0
100
AcDbBlockEnd
  0
BLOCK
  5
3963
330
3959
100
AcDbEntity
  8
0
100
AcDbBlockBegin
  2
*D5
 70
     1
 71
     0
 10
0.0
 20
0.0
 30
0.0
  3
*D5
  1

  0
LINE
  5
395A
330
3959
100
AcDbEntity
  8
V0-VYPLNE
 62
    41
100
AcDbLine
 10
1061.992917
 20
-313.395993
 30
0.0
 11
1061.992917
 21
-389.2269070000039
 31
0.0
  0
LINE
  5
395B
330
3959
100
AcDbEntity
  8
V0-VYPLNE
 62
    41
100
AcDbLine
 10
1229.709117
 20
-313.395993
 30
0.0
 11
1229.709117
 21
-389.2269070000039
 31
0.0
  0
LINE
  5
395C
330
3959
100
AcDbEntity
  8
V0-VYPLNE
 62
     0
100
AcDbLine
 10
1091.992917
 20
-387.9769070000039
 30
0.0
 11
1199.709117
 21
-387.9769070000039
 31
0.0
  0
INSERT
  5
395D
330
3959
100
AcDbEntity
  8
V0-VYPLNE
 62
     0
100
AcDbBlockReference
  2
_OPEN
 10
1061.992917
 20
-387.9769070000039
 30
0.0
 41
30.0
 42
30.0
 43
30.0
 50
180.0
  0
INSERT
  5
395E
330
3959
100
AcDbEntity
  8
V0-VYPLNE
 62
     0
100
AcDbBlockReference
  2
_OPEN
 10
1229.709117
 20
-387.9769070000039
 30
0.0
 41
30.0
 42
30.0
 43
30.0
  0
MTEXT
  5
395F
330
3959
100
AcDbEntity
  8
V0-VYPLNE
 62
    41
100
AcDbMText
 10
1145.851017
 20
-370.9769070000039
 30
0.0
 40
30.0
 41
0.0
 71
     5
 72
     1
  1
\A1;168
  7
ED40
  0
POINT
  5
3960
330
3959
100
AcDbEntity
  8
DEFPOINTS
 62
     0
100
AcDbPoint
 10
1061.992917
 20
-312.395993
 30
0.0
  0
POINT
  5
3961
330
3959
100
AcDbEntity
  8
DEFPOINTS
 62
     0
100
AcDbPoint
 10
1229.709117
 20
-312.395993
 30
0.0
  0
POINT
  5
3962
330
3959
100
AcDbEntity
  8
DEFPOINTS
 62
     0
100
AcDbPoint
 10
1229.709117
 20
-387.9769070000039
 30
0.0
  0
ENDBLK
  5
3964
330
3959
100
AcDbEntity
  8
0
100
AcDbBlockEnd
  0
BLOCK
  5
396F
330
3965
100
AcDbEntity
  8
0
100
AcDbBlockBegin
  2
*D6
 70
     1
 71
     0
 10
0.0
 20
0.0
 30
0.0
  3
*D6
  1

  0
LINE
  5
3966
330
3965
100
AcDbEntity
  8
V0-VYPLNE
 62
    41
100
AcDbLine
 10
1086.263239
 20
-42.39521
 30
0.0
 11
1028.978561000025
 21
-42.39520999999999
 31
0.0
  0
LINE
  5
3967
330
3965
100
AcDbEntity
  8
V0-VYPLNE
 62
    41
100
AcDbLine
 10
1086.263239
 20
-156.37013
 30
0.0
 11
1028.978561000025
 21
-156.37013
 31
0.0
  0
LINE
  5
3968
330
3965
100
AcDbEntity
  8
V0-VYPLNE
 62
     0
100
AcDbLine
 10
1030.228561000025
 20
-72.39520999999991
 30
0.0
 11
1030.228561000025
 21
-126.3701299999999
 31
0.0
  0
INSERT
  5
3969
330
3965
100
AcDbEntity
  8
V0-VYPLNE
 62
     0
100
AcDbBlockReference
  2
_OPEN
 10
1030.228561000025
 20
-42.39520999999991
 30
0.0
 41
30.0
 42
30.0
 43
30.0
 50
90.0
  0
INSERT
  5
396A
330
3965
100
AcDbEntity
  8
V0-VYPLNE
 62
     0
100
AcDbBlockReference
  2
_OPEN
 10
1030.228561000025
 20
-156.3701299999999
 30
0.0
 41
30.0
 42
30.0
 43
30.0
 50
270.0
  0
MTEXT
  5
396B
330
3965
100
AcDbEntity
  8
V0-VYPLNE
 62
    41
100
AcDbMText
 10
1013.228561000025
 20
-99.38266999999999
 30
0.0
 40
30.0
 41
0.0
 71
     5
 72
     1
  1
%%c\A1;114
  7
ED40
 11
0.0
 21
1.0
 31
0.0
  0
POINT
  5
396C
330
3965
100
AcDbEntity
  8
DEFPOINTS
 62
     0
100
AcDbPoint
 10
1087.263239
 20
-42.39521
 30
0.0
  0
POINT
  5
396D
330
3965
100
AcDbEntity
  8
DEFPOINTS
 62
     0
100
AcDbPoint
 10
1087.263239
 20
-156.37013
 30
0.0
  0
POINT
  5
396E
330
3965
100
AcDbEntity
  8
DEFPOINTS
 62
     0
100
AcDbPoint
 10
1030.228561000025
 20
-156.37013
 30
0.0
  0
ENDBLK
  5
3970
330
3965
100
AcDbEntity
  8
0
100
AcDbBlockEnd
  0
BLOCK
  5
397B
330
3971
100
AcDbEntity
  8
0
100
AcDbBlockBegin
  2
*D7
 70
     1
 71
     0
 10
0.0
 20
0.0
 30
0.0
  3
*D7
  1

  0
LINE
  5
3972
330
3971
100
AcDbEntity
  8
V0-VYPLNE
 62
    41
100
AcDbLine
 10
1246.740864
 20
98.17204
 30
0.0
 11
1284.281414000026
 21
98.17203999999998
 31
0.0
  0
LINE
  5
3973
330
3971
100
AcDbEntity
  8
V0-VYPLNE
 62
    41
100
AcDbLine
 10
1246.740864
 20
-296.93738
 30
0.0
 11
1284.281414000026
 21
-296.93738
 31
0.0
  0
LINE
  5
3974
330
3971
100
AcDbEntity
  8
V0-VYPLNE
 62
     0
100
AcDbLine
 10
1283.031414000026
 20
68.17204000000015
 30
0.0
 11
1283.031414000026
 21
-266.9373799999999
 31
0.0
  0
INSERT
  5
3975
330
3971
100
AcDbEntity
  8
V0-VYPLNE
 62
     0
100
AcDbBlockReference
  2
_OPEN
 10
1283.031414000026
 20
98.17204000000015
 30
0.0
 41
30.0
 42
30.0
 43
30.0
 50
90.0
  0
INSERT
  5
3976
330
3971
100
AcDbEntity
  8
V0-VYPLNE
 62
     0
100
AcDbBlockReference
  2
_OPEN
 10
1283.031414000026
 20
-296.9373799999999
 30
0.0
 41
30.0
 42
30.0
 43
30.0
 50
270.0
  0
MTEXT
  5
3977
330
3971
100
AcDbEntity
  8
V0-VYPLNE
 62
    41
100
AcDbMText
 10
1266.031414000026
 20
-99.38267000000002
 30
0.0
 40
30.0
 41
0.0
 71
     5
 72
     1
  1
%%c\A1;395
  7
ED40
 11
0.0
 21
1.0
 31
0.0
  0
POINT
  5
3978
330
3971
100
AcDbEntity
  8
DEFPOINTS
 62
     0
100
AcDbPoint
 10
1245.740864
 20
98.17204
 30
0.0
  0
POINT
  5
3979
330
3971
100
AcDbEntity
  8
DEFPOINTS
 62
     0
100
AcDbPoint
 10
1245.740864
 20
-296.93738
 30
0.0
  0
POINT
  5
397A
330
3971
100
AcDbEntity
  8
DEFPOINTS
 62
     0
100
AcDbPoint
 10
1283.031414000026
 20
-296.93738
 30
0.0
  0
ENDBLK
  5
397C
330
3971
100
AcDbEntity
  8
0
100
AcDbBlockEnd
  0
BLOCK
  5
3987
330
397D
100
AcDbEntity
  8
0
100
AcDbBlockBegin
  2
*D8
 70
     1
 71
     0
 10
0.0
 20
0.0
 30
0.0
  3
*D8
  1

  0
LINE
  5
397E
330
397D
100
AcDbEntity
  8
V0-VYPLNE
 62
    41
100
AcDbLine
 10
1230.709117
 20
113.630652
 30
0.0
 11
1339.825653000036
 21
113.630652
 31
0.0
  0
LINE
  5
397F
330
397D
100
AcDbEntity
  8
V0-VYPLNE
 62
    41
100
AcDbLine
 10
1230.709117
 20
-312.395993
 30
0.0
 11
1339.825653000036
 21
-312.395993
 31
0.0
  0
LINE
  5
3980
330
397D
100
AcDbEntity
  8
V0-VYPLNE
 62
     0
100
AcDbLine
 10
1338.575653000036
 20
83.63065200000006
 30
0.0
 11
1338.575653000036
 21
-282.3959929999999
 31
0.0
  0
INSERT
  5
3981
330
397D
100
AcDbEntity
  8
V0-VYPLNE
 62
     0
100
AcDbBlockReference
  2
_OPEN
 10
1338.575653000036
 20
113.6306520000001
 30
0.0
 41
30.0
 42
30.0
 43
30.0
 50
90.0
  0
INSERT
  5
3982
330
397D
100
AcDbEntity
  8
V0-VYPLNE
 62
     0
100
AcDbBlockReference
  2
_OPEN
 10
1338.575653000036
 20
-312.3959929999999
 30
0.0
 41
30.0
 42
30.0
 43
30.0
 50
270.0
  0
MTEXT
  5
3983
330
397D
100
AcDbEntity
  8
V0-VYPLNE
 62
    41
100
AcDbMText
 10
1321.575653000036
 20
-99.38267050000002
 30
0.0
 40
30.0
 41
0.0
 71
     5
 72
     1
  1
%%c\A1;426
  7
ED40
 11
0.0
 21
1.0
 31
0.0
  0
POINT
  5
3984
330
397D
100
AcDbEntity
  8
DEFPOINTS
 62
     0
100
AcDbPoint
 10
1229.709117
 20
113.630652
 30
0.0
  0
POINT
  5
3985
330
397D
100
AcDbEntity
  8
DEFPOINTS
 62
     0
100
AcDbPoint
 10
1229.709117
 20
-312.395993
 30
0.0
  0
POINT
  5
3986
330
397D
100
AcDbEntity
  8
DEFPOINTS
 62
     0
100
AcDbPoint
 10
1338.575653000036
 20
-312.395993
 30
0.0
  0
ENDBLK
  5
3988
330
397D
100
AcDbEntity
  8
0
100
AcDbBlockEnd
  0
ENDSEC
  0
SECTION
  2
ENTITIES
  0
TEXT
  5
1347
330
391C
100
AcDbEntity
  8
V0-VYPLNE
 62
     6
100
AcDbText
 10
1537.106734
 20
-667.669025
 30
0.0
 40
40.0
  1
TCB-355
  7
ED40
100
AcDbText
  0
TEXT
  5
1348
330
391C
100
AcDbEntity
  8
V0-VYPLNE
  6
CONTINUOUS
 62
    51
100
AcDbText
 10
1456.549195
 20
-723.334855
 30
0.0
 40
30.0
  1
AXIALNI VENTILATOR
  7
ED30
100
AcDbText
  0
TEXT
  5
2455
330
391C
100
AcDbEntity
  8
V0-VYPLNE
  6
CONTINUOUS
 62
    51
100
AcDbText
 10
1540.027042
 20
-772.617181
 30
0.0
 40
30.0
  1
DO POTRUBI
  7
ED30
100
AcDbText
  0
LINE
  5
2FF7
330
391C
100
AcDbEntity
  8
V0-OBRYS
  6
CONTINUOUS
 62
    90
100
AcDbLine
 10
1226.913847
 20
-276.882315
 30
0.0
 11
1226.913847
 21
113.630652
 31
0.0
  0
LINE
  5
2FF8
330
391C
100
AcDbEntity
  8
V0-OBRYS
  6
CONTINUOUS
 62
    90
100
AcDbLine
 10
1064.788187
 20
-276.882315
 30
0.0
 11
1064.788187
 21
113.630652
 31
0.0
  0
LINE
  5
2FF9
330
391C
100
AcDbEntity
  8
V0-OBRYS
  6
CONTINUOUS
 62
    90
100
AcDbLine
 10
1061.992917
 20
-99.38267000000001
 30
0.0
 11
1061.992917
 21
113.630652
 31
0.0
  0
LINE
  5
2FFA
330
391C
100
AcDbEntity
  8
V0-OBRYS
  6
CONTINUOUS
 62
    90
100
AcDbLine
 10
1229.709117
 20
-99.38267000000001
 30
0.0
 11
1229.709117
 21
113.630652
 31
0.0
  0
LINE
  5
2FFB
330
391C
100
AcDbEntity
  8
V0-OBRYS
  6
CONTINUOUS
 62
    90
100
AcDbLine
 10
1226.913847
 20
78.116975
 30
0.0
 11
1064.788187
 21
78.116975
 31
0.0
  0
LINE
  5
2FFD
330
391C
100
AcDbEntity
  8
V0-OBRYS
  6
CONTINUOUS
 62
    90
100
AcDbLine
 10
1226.913847
 20
-276.882315
 30
0.0
 11
1064.788187
 21
-276.882315
 31
0.0
  0
DIMENSION
  5
2FFE
330
391C
100
AcDbEntity
  8
V0-VYPLNE
  6
CONTINUOUS
 62
    41
100
AcDbDimension
  2
*D4
 10
980.7769870000193
 20
-276.882315
 30
0.0
 11
963.7769870000193
 21
-99.38267000000002
 31
0.0
 70
    32
  1
%%c<>
  3
ED30
100
AcDbAlignedDimension
 13
1061.992917
 23
78.116975
 33
0.0
 14
1064.788187
 24
-276.882315
 34
0.0
 50
90.0
100
AcDbRotatedDimension
1001
ACAD
1000
DSTYLE
1002
{
1070
    41
1040
30.0
1070
   140
1040
30.0
1002
}
  0
LINE
  5
2FFF
330
391C
100
AcDbEntity
  8
V0-OBRYS
  6
CONTINUOUS
 62
    90
100
AcDbLine
 10
1061.992917
 20
-99.38267000000001
 30
0.0
 11
1061.992917
 21
-312.395993
 31
0.0
  0
LINE
  5
3000
330
391C
100
AcDbEntity
  8
V0-OBRYS
  6
CONTINUOUS
 62
    90
100
AcDbLine
 10
1064.788187
 20
-276.882315
 30
0.0
 11
1064.788187
 21
-312.395993
 31
0.0
  0
LINE
  5
3001
330
391C
100
AcDbEntity
  8
V0-VYPLNE
  6
DASHDOT
 62
    63
100
AcDbLine
 10
1048.016567
 20
-296.93738
 30
0.0
 11
1088.052934
 21
-296.93738
 31
0.0
  0
LINE
  5
3002
330
391C
100
AcDbEntity
  8
V0-OBRYS
  6
CONTINUOUS
 62
    90
100
AcDbLine
 10
1229.709117
 20
-99.38267000000001
 30
0.0
 11
1229.709117
 21
-312.395993
 31
0.0
  0
LINE
  5
3003
330
391C
100
AcDbEntity
  8
V0-OBRYS
  6
CONTINUOUS
 62
    90
100
AcDbLine
 10
1226.913847
 20
-276.882315
 30
0.0
 11
1226.913847
 21
-312.395993
 31
0.0
  0
LINE
  5
3004
330
391C
100
AcDbEntity
  8
V0-VYPLNE
  6
DASHDOT
 62
    63
100
AcDbLine
 10
1213.746209
 20
-296.93738
 30
0.0
 11
1245.740864
 21
-296.93738
 31
0.0
  0
LINE
  5
3005
330
391C
100
AcDbEntity
  8
V0-VYPLNE
  6
DASHDOT
 62
    63
100
AcDbLine
 10
1048.016567
 20
98.17204
 30
0.0
 11
1088.052934
 21
98.17204
 31
0.0
  0
LINE
  5
3006
330
391C
100
AcDbEntity
  8
V0-VYPLNE
  6
DASHDOT
 62
    63
100
AcDbLine
 10
1213.746209
 20
98.17204
 30
0.0
 11
1245.740864
 21
98.17204
 31
0.0
  0
DIMENSION
  5
302A
330
391C
100
AcDbEntity
  8
V0-VYPLNE
  6
CONTINUOUS
 62
    41
100
AcDbDimension
  2
*D5
 10
1229.709117
 20
-387.9769070000039
 30
0.0
 11
1145.851017
 21
-370.9769070000039
 31
0.0
 70
    32
  3
ED30
100
AcDbAlignedDimension
 13
1061.992917
 23
-312.395993
 33
0.0
 14
1229.709117
 24
-312.395993
 34
0.0
100
AcDbRotatedDimension
1001
ACAD
1000
DSTYLE
1002
{
1070
    41
1040
30.0
1070
   140
1040
30.0
1002
}
  0
LINE
  5
30C2
330
391C
100
AcDbEntity
  8
V0-VYPLNE
  6
DASHED
 62
    52
100
AcDbLine
 10
1196.243467
 20
-12.355847
 30
0.0
 11
1182.126718
 21
76.296177
 31
0.0
  0
LINE
  5
30C3
330
391C
100
AcDbEntity
  8
V0-VYPLNE
  6
DASHED
 62
    52
100
AcDbLine
 10
1133.174581
 20
-12.355847
 30
0.0
 11
1147.29133
 21
76.296177
 31
0.0
  0
LINE
  5
30C4
330
391C
100
AcDbEntity
  8
V0-VYPLNE
  6
DASHED
 62
    52
100
AcDbLine
 10
1196.243467
 20
-185.008906
 30
0.0
 11
1182.126718
 21
-273.66093
 31
0.0
  0
LINE
  5
30C5
330
391C
100
AcDbEntity
  8
V0-VYPLNE
  6
DASHED
 62
    52
100
AcDbLine
 10
1133.174581
 20
-185.008906
 30
0.0
 11
1147.29133
 21
-273.66093
 31
0.0
  0
LINE
  5
30C6
330
391C
100
AcDbEntity
  8
V0-VYPLNE
  6
DASHED
 62
    52
100
AcDbLine
 10
1147.29133
 20
-273.66093
 30
0.0
 11
1182.126718
 21
-273.66093
 31
0.0
  0
LINE
  5
30C7
330
391C
100
AcDbEntity
  8
V0-VYPLNE
  6
DASHED
 62
    52
100
AcDbLine
 10
1133.209024
 20
-98.68237600000001
 30
0.0
 11
1133.209024
 21
-178.482376
 31
0.0
  0
ARC
  5
30C8
330
391C
100
AcDbEntity
  8
V0-VYPLNE
  6
DASHED
 62
    52
100
AcDbCircle
 10
266.322195
 20
-89.530438
 30
0.0
 40
934.131662
100
AcDbArc
 50
354.845307
 51
359.438649
  0
LINE
  5
30C9
330
391C
100
AcDbEntity
  8
V0-VYPLNE
  6
DASHED
 62
    52
100
AcDbLine
 10
1164.709024
 20
-182.483053
 30
0.0
 11
1164.709024
 21
-98.68237600000001
 31
0.0
  0
LINE
  5
30CA
330
391C
100
AcDbEntity
  8
V0-VYPLNE
  6
DASHED
 62
    52
100
AcDbLine
 10
1133.764824
 20
-108.264491
 30
0.0
 11
1198.610061
 21
-88.771531
 31
0.0
  0
ARC
  5
30CB
330
391C
100
AcDbEntity
  8
V0-VYPLNE
  6
DASHED
 62
    52
100
AcDbCircle
 10
1164.709024
 20
-56.472437
 30
0.0
 40
126.010616
100
AcDbArc
 50
255.523734
 51
282.123858
  0
LINE
  5
30CC
330
391C
100
AcDbEntity
  8
V0-VYPLNE
  6
DASHED
 62
    52
100
AcDbLine
 10
1138.552391
 20
-179.636056
 30
0.0
 11
1133.174581
 21
-185.008906
 31
0.0
  0
ARC
  5
30CD
330
391C
100
AcDbEntity
  8
V0-VYPLNE
  6
DASHED
 62
    52
100
AcDbCircle
 10
1189.70431
 20
-172.828624
 30
0.0
 40
7.0
100
AcDbArc
 50
282.123858
 51
354.845307
  0
LINE
  5
30CE
330
391C
100
AcDbEntity
  8
V0-VYPLNE
  6
DASHED
 62
    52
100
AcDbLine
 10
1190.865657
 20
-179.636056
 30
0.0
 11
1196.243467
 21
-185.008906
 31
0.0
  0
ARC
  5
30CF
330
391C
100
AcDbEntity
  8
V0-VYPLNE
  6
DASHED
 62
    52
100
AcDbCircle
 10
1164.709024
 20
-140.892316
 30
0.0
 40
126.010616
100
AcDbArc
 50
77.876142
 51
104.476266
  0
LINE
  5
30D0
330
391C
100
AcDbEntity
  8
V0-VYPLNE
  6
DASHED
 62
    52
100
AcDbLine
 10
1164.709024
 20
-14.8817
 30
0.0
 11
1164.709024
 21
-98.68237600000001
 31
0.0
  0
LINE
  5
30D1
330
391C
100
AcDbEntity
  8
V0-VYPLNE
  6
DASHED
 62
    52
100
AcDbLine
 10
1133.209024
 20
-98.68237600000001
 30
0.0
 11
1133.209024
 21
-18.88237599999999
 31
0.0
  0
CIRCLE
  5
30D2
330
391C
100
AcDbEntity
  8
V0-VYPLNE
  6
DASHED
 62
    52
100
AcDbCircle
 10
1164.709024
 20
-98.962435
 30
0.0
 40
5.932655
  0
LINE
  5
30D3
330
391C
100
AcDbEntity
  8
V0-VYPLNE
  6
DASHED
 62
    52
100
AcDbLine
 10
1138.552391
 20
-17.728697
 30
0.0
 11
1133.174581
 21
-12.355847
 31
0.0
  0
ARC
  5
30D4
330
391C
100
AcDbEntity
  8
V0-VYPLNE
  6
DASHED
 62
    52
100
AcDbCircle
 10
266.322195
 20
-107.834315
 30
0.0
 40
934.131662
100
AcDbArc
 50
0.561351
 51
5.154693
  0
LINE
  5
30D5
330
391C
100
AcDbEntity
  8
V0-VYPLNE
  6
DASHED
 62
    52
100
AcDbLine
 10
1190.865657
 20
-17.728697
 30
0.0
 11
1196.243467
 21
-12.355847
 31
0.0
  0
LINE
  5
30D6
330
391C
100
AcDbEntity
  8
V0-VYPLNE
  6
DASHED
 62
    52
100
AcDbLine
 10
1147.29133
 20
76.296177
 30
0.0
 11
1182.126718
 21
76.296177
 31
0.0
  0
LINE
  5
31B7
330
391C
100
AcDbEntity
  8
V0-VYPLNE
  6
DASHED
 62
    52
100
AcDbLine
 10
1087.103482
 20
-45.887853
 30
0.0
 11
1068.3813
 21
-59.796635
 31
0.0
  0
LINE
  5
31B8
330
391C
100
AcDbEntity
  8
V0-VYPLNE
  6
DASHED
 62
    52
100
AcDbLine
 10
1086.623424
 20
-55.959732
 30
0.0
 11
1068.861354
 21
-65.55199500000001
 31
0.0
  0
LINE
  5
31B9
330
391C
100
AcDbEntity
  8
V0-VYPLNE
  6
DASHED
 62
    52
100
AcDbLine
 10
1086.623424
 20
-79.460776
 30
0.0
 11
1068.3813
 21
-81.37923000000001
 31
0.0
  0
LINE
  5
31BA
330
391C
100
AcDbEntity
  8
V0-VYPLNE
  6
DASHED
 62
    52
100
AcDbLine
 10
1086.623424
 20
-90.97149400000001
 30
0.0
 11
1068.3813
 21
-91.451106
 31
0.0
  0
LINE
  5
31BB
330
391C
100
AcDbEntity
  8
V0-VYPLNE
  6
DASHED
 62
    52
100
AcDbLine
 10
1087.103482
 20
-67.950062
 30
0.0
 11
1067.901242
 21
-72.26658000000001
 31
0.0
  0
LINE
  5
31BC
330
391C
100
AcDbEntity
  8
V0-VYPLNE
  6
DASHED
 62
    52
100
AcDbLine
 10
1078.265219
 20
-42.39521
 30
0.0
 11
1115.257079
 21
-42.39521
 31
0.0
  0
LINE
  5
31BD
330
391C
100
AcDbEntity
  8
V0-VYPLNE
  6
DASHED
 62
    52
100
AcDbLine
 10
1087.103482
 20
-130.815279
 30
0.0
 11
1067.901242
 21
-126.498761
 31
0.0
  0
LINE
  5
31BE
330
391C
100
AcDbEntity
  8
V0-VYPLNE
  6
DASHED
 62
    52
100
AcDbLine
 10
1086.623424
 20
-107.793847
 30
0.0
 11
1068.3813
 21
-107.314234
 31
0.0
  0
LINE
  5
31BF
330
391C
100
AcDbEntity
  8
V0-VYPLNE
  6
DASHED
 62
    52
100
AcDbLine
 10
1086.623424
 20
-119.304564
 30
0.0
 11
1068.3813
 21
-117.38611
 31
0.0
  0
LINE
  5
31C0
330
391C
100
AcDbEntity
  8
V0-VYPLNE
  6
DASHED
 62
    52
100
AcDbLine
 10
1086.623424
 20
-142.805609
 30
0.0
 11
1068.861354
 21
-133.213346
 31
0.0
  0
LINE
  5
31C1
330
391C
100
AcDbEntity
  8
V0-VYPLNE
  6
DASHED
 62
    52
100
AcDbLine
 10
1087.103482
 20
-152.877487
 30
0.0
 11
1068.3813
 21
-138.968706
 31
0.0
  0
LINE
  5
31C2
330
391C
100
AcDbEntity
  8
V0-VYPLNE
  6
DASHED
 62
    52
100
AcDbLine
 10
1078.265219
 20
-156.37013
 30
0.0
 11
1115.257079
 21
-156.37013
 31
0.0
  0
DIMENSION
  5
31C3
330
391C
100
AcDbEntity
  8
V0-VYPLNE
  6
CONTINUOUS
 62
    41
100
AcDbDimension
  2
*D6
 10
1030.228561000025
 20
-156.37013
 30
0.0
 11
1013.228561000025
 21
-99.38266999999999
 31
0.0
 70
    32
  1
%%c<>
  3
ED30
100
AcDbAlignedDimension
 13
1087.263239
 23
-42.39521
 33
0.0
 14
1087.263239
 24
-156.37013
 34
0.0
 50
90.0
100
AcDbRotatedDimension
1001
ACAD
1000
DSTYLE
1002
{
1070
    41
1040
30.0
1070
   140
1040
30.0
1002
}
  0
LINE
  5
31C4
330
391C
100
AcDbEntity
  8
V0-VYPLNE
  6
DASHED
 62
    52
100
AcDbLine
 10
1068.267419
 20
-99.38267000000001
 30
0.0
 11
1068.267419
 21
-146.37233
 31
0.0
  0
ARC
  5
31C5
330
391C
100
AcDbEntity
  8
V0-VYPLNE
  6
DASHED
 62
    52
100
AcDbCircle
 10
1078.265219
 20
-146.37233
 30
0.0
 40
9.9978
100
AcDbArc
 50
180.0
 51
270.0
  0
LINE
  5
31C6
330
391C
100
AcDbEntity
  8
V0-VYPLNE
  6
DASHED
 62
    52
100
AcDbLine
 10
1068.267419
 20
-99.38267000000001
 30
0.0
 11
1068.267419
 21
-52.39301
 31
0.0
  0
ARC
  5
31C7
330
391C
100
AcDbEntity
  8
V0-VYPLNE
  6
DASHED
 62
    52
100
AcDbCircle
 10
1078.265219
 20
-52.39301
 30
0.0
 40
9.9978
100
AcDbArc
 50
90.0
 51
180.0
  0
LINE
  5
31C8
330
391C
100
AcDbEntity
  8
V0-VYPLNE
  6
DASHED
 62
    52
100
AcDbLine
 10
1129.82846
 20
-151.37123
 30
0.0
 11
1129.82846
 21
-99.38267000000001
 31
0.0
  0
LINE
  5
31C9
330
391C
100
AcDbEntity
  8
V0-VYPLNE
  6
DASHED
 62
    52
100
AcDbLine
 10
1087.263239
 20
-99.38267000000001
 30
0.0
 11
1087.263239
 21
-156.37013
 31
0.0
  0
LINE
  5
31CA
330
391C
100
AcDbEntity
  8
V0-VYPLNE
  6
DASHED
 62
    52
100
AcDbLine
 10
1115.257079
 20
-107.793847
 30
0.0
 11
1129.348406
 21
-107.793847
 31
0.0
  0
LINE
  5
31CB
330
391C
100
AcDbEntity
  8
V0-VYPLNE
  6
DASHED
 62
    52
100
AcDbLine
 10
1115.257079
 20
-119.304564
 30
0.0
 11
1129.82846
 21
-119.304564
 31
0.0
  0
LINE
  5
31CC
330
391C
100
AcDbEntity
  8
V0-VYPLNE
  6
DASHED
 62
    52
100
AcDbLine
 10
1115.257079
 20
-130.815279
 30
0.0
 11
1129.348406
 21
-130.815279
 31
0.0
  0
LINE
  5
31CD
330
391C
100
AcDbEntity
  8
V0-VYPLNE
  6
DASHED
 62
    52
100
AcDbLine
 10
1115.257079
 20
-142.805609
 30
0.0
 11
1129.82846
 21
-142.805609
 31
0.0
  0
LINE
  5
31CE
330
391C
100
AcDbEntity
  8
V0-VYPLNE
  6
DASHED
 62
    52
100
AcDbLine
 10
1115.257079
 20
-156.37013
 30
0.0
 11
1124.82956
 21
-156.37013
 31
0.0
  0
LINE
  5
31CF
330
391C
100
AcDbEntity
  8
V0-VYPLNE
  6
DASHED
 62
    52
100
AcDbLine
 10
1115.257079
 20
-152.877487
 30
0.0
 11
1129.82846
 21
-152.877487
 31
0.0
  0
LINE
  5
31D0
330
391C
100
AcDbEntity
  8
V0-VYPLNE
  6
DASHED
 62
    52
100
AcDbLine
 10
1086.623424
 20
-142.805609
 30
0.0
 11
1115.257079
 21
-142.805609
 31
0.0
  0
LINE
  5
31D1
330
391C
100
AcDbEntity
  8
V0-VYPLNE
  6
DASHED
 62
    52
100
AcDbLine
 10
1087.103482
 20
-152.877487
 30
0.0
 11
1115.257079
 21
-152.877487
 31
0.0
  0
LINE
  5
31D2
330
391C
100
AcDbEntity
  8
V0-VYPLNE
  6
DASHED
 62
    52
100
AcDbLine
 10
1089.50376
 20
-119.304564
 30
0.0
 11
1115.257079
 21
-119.304564
 31
0.0
  0
LINE
  5
31D3
330
391C
100
AcDbEntity
  8
V0-VYPLNE
  6
DASHED
 62
    52
100
AcDbLine
 10
1086.623424
 20
-107.793847
 30
0.0
 11
1115.257079
 21
-107.793847
 31
0.0
  0
LINE
  5
31D4
330
391C
100
AcDbEntity
  8
V0-VYPLNE
  6
DASHED
 62
    52
100
AcDbLine
 10
1087.103482
 20
-130.815279
 30
0.0
 11
1115.257079
 21
-130.815279
 31
0.0
  0
LINE
  5
31D5
330
391C
100
AcDbEntity
  8
V0-VYPLNE
  6
DASHED
 62
    52
100
AcDbLine
 10
1086.623424
 20
-119.304564
 30
0.0
 11
1089.50376
 21
-119.304564
 31
0.0
  0
ARC
  5
31D6
330
391C
100
AcDbEntity
  8
V0-VYPLNE
  6
DASHED
 62
    52
100
AcDbCircle
 10
1124.82956
 20
-151.37123
 30
0.0
 40
4.9989
100
AcDbArc
 50
270.0
 51
0.0
  0
LINE
  5
31D7
330
391C
100
AcDbEntity
  8
V0-VYPLNE
  6
DASHED
 62
    52
100
AcDbLine
 10
1115.257079
 20
-45.887853
 30
0.0
 11
1129.82846
 21
-45.887853
 31
0.0
  0
LINE
  5
31D8
330
391C
100
AcDbEntity
  8
V0-VYPLNE
  6
DASHED
 62
    52
100
AcDbLine
 10
1115.257079
 20
-42.39521
 30
0.0
 11
1124.82956
 21
-42.39521
 31
0.0
  0
LINE
  5
31D9
330
391C
100
AcDbEntity
  8
V0-VYPLNE
  6
DASHED
 62
    52
100
AcDbLine
 10
1115.257079
 20
-55.959732
 30
0.0
 11
1129.82846
 21
-55.959732
 31
0.0
  0
LINE
  5
31DA
330
391C
100
AcDbEntity
  8
V0-VYPLNE
  6
DASHED
 62
    52
100
AcDbLine
 10
1115.257079
 20
-67.950062
 30
0.0
 11
1129.348406
 21
-67.950062
 31
0.0
  0
LINE
  5
31DB
330
391C
100
AcDbEntity
  8
V0-VYPLNE
  6
DASHED
 62
    52
100
AcDbLine
 10
1115.257079
 20
-79.460776
 30
0.0
 11
1129.82846
 21
-79.460776
 31
0.0
  0
LINE
  5
31DC
330
391C
100
AcDbEntity
  8
V0-VYPLNE
  6
DASHED
 62
    52
100
AcDbLine
 10
1115.257079
 20
-90.97149400000001
 30
0.0
 11
1129.348406
 21
-90.97149400000001
 31
0.0
  0
LINE
  5
31DD
330
391C
100
AcDbEntity
  8
V0-VYPLNE
  6
DASHED
 62
    52
100
AcDbLine
 10
1087.263239
 20
-99.38267000000001
 30
0.0
 11
1087.263239
 21
-42.39521
 31
0.0
  0
LINE
  5
31DE
330
391C
100
AcDbEntity
  8
V0-VYPLNE
  6
DASHED
 62
    52
100
AcDbLine
 10
1089.50376
 20
-79.460776
 30
0.0
 11
1115.257079
 21
-79.460776
 31
0.0
  0
LINE
  5
31DF
330
391C
100
AcDbEntity
  8
V0-VYPLNE
  6
DASHED
 62
    52
100
AcDbLine
 10
1086.623424
 20
-90.97149400000001
 30
0.0
 11
1115.257079
 21
-90.97149400000001
 31
0.0
  0
LINE
  5
31E0
330
391C
100
AcDbEntity
  8
V0-VYPLNE
  6
DASHED
 62
    52
100
AcDbLine
 10
1086.623424
 20
-79.460776
 30
0.0
 11
1089.50376
 21
-79.460776
 31
0.0
  0
LINE
  5
31E1
330
391C
100
AcDbEntity
  8
V0-VYPLNE
  6
DASHED
 62
    52
100
AcDbLine
 10
1087.103482
 20
-45.887853
 30
0.0
 11
1115.257079
 21
-45.887853
 31
0.0
  0
LINE
  5
31E2
330
391C
100
AcDbEntity
  8
V0-VYPLNE
  6
DASHED
 62
    52
100
AcDbLine
 10
1087.103482
 20
-67.950062
 30
0.0
 11
1115.257079
 21
-67.950062
 31
0.0
  0
LINE
  5
31E3
330
391C
100
AcDbEntity
  8
V0-VYPLNE
  6
DASHED
 62
    52
100
AcDbLine
 10
1086.623424
 20
-55.959732
 30
0.0
 11
1115.257079
 21
-55.959732
 31
0.0
  0
LINE
  5
31E4
330
391C
100
AcDbEntity
  8
V0-VYPLNE
  6
DASHED
 62
    52
100
AcDbLine
 10
1129.82846
 20
-47.39411
 30
0.0
 11
1129.82846
 21
-99.38267000000001
 31
0.0
  0
ARC
  5
31E5
330
391C
100
AcDbEntity
  8
V0-VYPLNE
  6
DASHED
 62
    52
100
AcDbCircle
 10
1124.82956
 20
-47.39411
 30
0.0
 40
4.9989
100
AcDbArc
 50
0.0
 51
90.0
  0
LINE
  5
31E6
330
391C
100
AcDbEntity
  8
V0-VYPLNE
  6
DASHDOT
 62
    63
 48
0.5
100
AcDbLine
 10
1045.40301
 20
-99.38267000000001
 30
0.0
 11
1229.709117
 21
-99.38267000000001
 31
0.0
  0
LINE
  5
321F
330
391C
100
AcDbEntity
  8
V0-VYPLNE
  6
DASHED
 62
    52
100
AcDbLine
 10
1079.404843
 20
-194.836114
 30
0.0
 11
1097.249756
 21
-185.7752
 31
0.0
  0
LINE
  5
3220
330
391C
100
AcDbEntity
  8
V0-VYPLNE
  6
DASHED
 62
    52
100
AcDbLine
 10
1079.404843
 20
-197.944587
 30
0.0
 11
1100.021404
 21
-187.476345
 31
0.0
  0
LINE
  5
3221
330
391C
100
AcDbEntity
  8
V0-VYPLNE
  6
DASHED
 62
    52
100
AcDbLine
 10
1082.176491
 20
-271.932534
 30
0.0
 11
1096.070342
 21
-271.932534
 31
0.0
  0
LINE
  5
3222
330
391C
100
AcDbEntity
  8
V0-VYPLNE
  6
DASHED
 62
    52
100
AcDbLine
 10
1079.404843
 20
-274.704182
 30
0.0
 11
1096.070342
 21
-274.704182
 31
0.0
  0
LINE
  5
3223
330
391C
100
AcDbEntity
  8
V0-VYPLNE
  6
DASHED
 62
    52
100
AcDbLine
 10
1079.404843
 20
75.93884199999999
 30
0.0
 11
1096.070342
 21
75.93884199999999
 31
0.0
  0
LINE
  5
3224
330
391C
100
AcDbEntity
  8
V0-VYPLNE
  6
DASHED
 62
    52
100
AcDbLine
 10
1082.176491
 20
73.167194
 30
0.0
 11
1096.070342
 21
73.167194
 31
0.0
  0
LINE
  5
3225
330
391C
100
AcDbEntity
  8
V0-VYPLNE
  6
DASHED
 62
    52
100
AcDbLine
 10
1079.404843
 20
-0.820754
 30
0.0
 11
1100.021404
 21
-11.288996
 31
0.0
  0
LINE
  5
3226
330
391C
100
AcDbEntity
  8
V0-VYPLNE
  6
DASHED
 62
    52
100
AcDbLine
 10
1079.404843
 20
-3.929227
 30
0.0
 11
1097.249756
 21
-12.99014
 31
0.0
  0
LINE
  5
3227
330
391C
100
AcDbEntity
  8
V0-VYPLNE
  6
DASHED
 62
    52
100
AcDbLine
 10
1079.404843
 20
-274.704182
 30
0.0
 11
1079.404843
 21
-194.836114
 31
0.0
  0
LINE
  5
322A
330
391C
100
AcDbEntity
  8
V0-VYPLNE
  6
DASHED
 62
    52
100
AcDbLine
 10
1079.404843
 20
-275.382318
 30
0.0
 11
1079.404843
 21
-274.704182
 31
0.0
  0
LINE
  5
322B
330
391C
100
AcDbEntity
  8
V0-VYPLNE
  6
DASHED
 62
    52
100
AcDbLine
 10
1082.176491
 20
73.167194
 30
0.0
 11
1082.176491
 21
-2.374989999999997
 31
0.0
  0
LINE
  5
322C
330
391C
100
AcDbEntity
  8
V0-VYPLNE
  6
DASHED
 62
    52
100
AcDbLine
 10
1079.404843
 20
73.167194
 30
0.0
 11
1079.404843
 21
-3.929226999999997
 31
0.0
  0
LINE
  5
322D
330
391C
100
AcDbEntity
  8
V0-VYPLNE
  6
DASHED
 62
    52
100
AcDbLine
 10
1079.404843
 20
76.616978
 30
0.0
 11
1079.404843
 21
75.93884199999999
 31
0.0
  0
LINE
  5
322E
330
391C
100
AcDbEntity
  8
V0-VYPLNE
  6
DASHED
 62
    52
100
AcDbLine
 10
1100.021404
 20
-11.288996
 30
0.0
 11
1100.021404
 21
-42.39521
 31
0.0
  0
LINE
  5
322F
330
391C
100
AcDbEntity
  8
V0-VYPLNE
  6
DASHED
 62
    52
100
AcDbLine
 10
1097.249756
 20
-12.99014
 30
0.0
 11
1097.249756
 21
-42.39521
 31
0.0
  0
LINE
  5
3230
330
391C
100
AcDbEntity
  8
V0-VYPLNE
  6
DASHED
 62
    52
100
AcDbLine
 10
1097.249756
 20
-185.7752
 30
0.0
 11
1097.249756
 21
-156.37013
 31
0.0
  0
LINE
  5
3231
330
391C
100
AcDbEntity
  8
V0-VYPLNE
  6
DASHED
 62
    52
100
AcDbLine
 10
1100.021404
 20
-187.476345
 30
0.0
 11
1100.021404
 21
-156.37013
 31
0.0
  0
LINE
  5
326B
330
391C
100
AcDbEntity
  8
V0-VYPLNE
  6
DASHED
 62
    52
100
AcDbLine
 10
1196.243467
 20
-817.696273
 30
0.0
 11
1182.126718
 21
-906.348296
 31
0.0
  0
LINE
  5
326C
330
391C
100
AcDbEntity
  8
V0-VYPLNE
  6
DASHED
 62
    52
100
AcDbLine
 10
1133.174581
 20
-817.696273
 30
0.0
 11
1147.29133
 21
-906.348296
 31
0.0
  0
LINE
  5
326D
330
391C
100
AcDbEntity
  8
V0-VYPLNE
  6
DASHED
 62
    52
100
AcDbLine
 10
1079.404843
 20
-908.0696850000001
 30
0.0
 11
1079.404843
 21
-827.52348
 31
0.0
  0
LINE
  5
326E
330
391C
100
AcDbEntity
  8
V0-VYPLNE
  6
DASHED
 62
    52
100
AcDbLine
 10
1082.176491
 20
-904.619901
 30
0.0
 11
1082.176491
 21
-829.077717
 31
0.0
  0
LINE
  5
326F
330
391C
100
AcDbEntity
  8
V0-OBRYS
  6
CONTINUOUS
 62
    90
100
AcDbLine
 10
1229.709117
 20
-732.070037
 30
0.0
 11
1229.709117
 21
-945.08336
 31
0.0
  0
LINE
  5
3270
330
391C
100
AcDbEntity
  8
V0-OBRYS
  6
CONTINUOUS
 62
    90
100
AcDbLine
 10
1061.992917
 20
-732.070037
 30
0.0
 11
1061.992917
 21
-945.08336
 31
0.0
  0
LINE
  5
3271
330
391C
100
AcDbEntity
  8
V0-OBRYS
  6
CONTINUOUS
 62
    90
100
AcDbLine
 10
1226.913847
 20
-909.5696819999999
 30
0.0
 11
1064.788187
 21
-909.5696819999999
 31
0.0
  0
LINE
  5
3272
330
391C
100
AcDbEntity
  8
V0-VYPLNE
  6
DASHDOT
 62
    63
100
AcDbLine
 10
1213.746209
 20
-929.624747
 30
0.0
 11
1245.740864
 21
-929.624747
 31
0.0
  0
LINE
  5
3273
330
391C
100
AcDbEntity
  8
V0-OBRYS
  6
CONTINUOUS
 62
    90
100
AcDbLine
 10
1064.788187
 20
-909.5696819999999
 30
0.0
 11
1064.788187
 21
-945.08336
 31
0.0
  0
LINE
  5
3274
330
391C
100
AcDbEntity
  8
V0-VYPLNE
  6
DASHDOT
 62
    63
100
AcDbLine
 10
1048.016567
 20
-929.624747
 30
0.0
 11
1088.052934
 21
-929.624747
 31
0.0
  0
LINE
  5
3275
330
391C
100
AcDbEntity
  8
V0-VYPLNE
  6
DASHED
 62
    52
100
AcDbLine
 10
1082.176491
 20
-904.619901
 30
0.0
 11
1096.070342
 21
-904.619901
 31
0.0
  0
LINE
  5
3276
330
391C
100
AcDbEntity
  8
V0-VYPLNE
  6
DASHED
 62
    52
100
AcDbLine
 10
1079.404843
 20
-907.3915490000001
 30
0.0
 11
1096.070342
 21
-907.3915490000001
 31
0.0
  0
LINE
  5
3279
330
391C
100
AcDbEntity
  8
V0-VYPLNE
  6
DASHED
 62
    52
100
AcDbLine
 10
1147.29133
 20
-906.348296
 30
0.0
 11
1182.126718
 21
-906.348296
 31
0.0
  0
LINE
  5
327A
330
391C
100
AcDbEntity
  8
V0-OBRYS
  6
CONTINUOUS
 62
    90
100
AcDbLine
 10
1226.913847
 20
-909.5696819999999
 30
0.0
 11
1226.913847
 21
-945.08336
 31
0.0
  0
LINE
  5
327B
330
391C
100
AcDbEntity
  8
V0-OBRYS
  6
CONTINUOUS
 62
    90
100
AcDbLine
 10
1229.709117
 20
-732.070037
 30
0.0
 11
1229.709117
 21
-519.0567150000001
 31
0.0
  0
LINE
  5
327C
330
391C
100
AcDbEntity
  8
V0-OBRYS
  6
CONTINUOUS
 62
    90
100
AcDbLine
 10
1061.992917
 20
-732.070037
 30
0.0
 11
1061.992917
 21
-519.0567150000001
 31
0.0
  0
LINE
  5
327D
330
391C
100
AcDbEntity
  8
V0-OBRYS
  6
CONTINUOUS
 62
    90
100
AcDbLine
 10
1064.788187
 20
-909.5696819999999
 30
0.0
 11
1064.788187
 21
-519.0567150000001
 31
0.0
  0
LINE
  5
327E
330
391C
100
AcDbEntity
  8
V0-OBRYS
  6
CONTINUOUS
 62
    90
100
AcDbLine
 10
1226.913847
 20
-909.5696819999999
 30
0.0
 11
1226.913847
 21
-519.0567150000001
 31
0.0
  0
LINE
  5
3280
330
391C
100
AcDbEntity
  8
V0-OBRYS
  6
CONTINUOUS
 62
    90
100
AcDbLine
 10
1226.913847
 20
-554.570392
 30
0.0
 11
1064.788187
 21
-554.570392
 31
0.0
  0
LINE
  5
3281
330
391C
100
AcDbEntity
  8
V0-VYPLNE
  6
DASHED
 62
    52
100
AcDbLine
 10
1133.764824
 20
-740.951857
 30
0.0
 11
1198.610061
 21
-721.458898
 31
0.0
  0
ARC
  5
3282
330
391C
100
AcDbEntity
  8
V0-VYPLNE
  6
DASHED
 62
    52
100
AcDbCircle
 10
266.322195
 20
-740.5216820000001
 30
0.0
 40
934.131662
100
AcDbArc
 50
0.561351
 51
5.154693
  0
LINE
  5
3283
330
391C
100
AcDbEntity
  8
V0-VYPLNE
  6
DASHED
 62
    52
100
AcDbLine
 10
1164.709024
 20
-647.569067
 30
0.0
 11
1164.709024
 21
-731.369743
 31
0.0
  0
LINE
  5
3284
330
391C
100
AcDbEntity
  8
V0-VYPLNE
  6
DASHED
 62
    52
100
AcDbLine
 10
1133.209024
 20
-731.369743
 30
0.0
 11
1133.209024
 21
-651.569743
 31
0.0
  0
LINE
  5
3285
330
391C
100
AcDbEntity
  8
V0-VYPLNE
  6
DASHED
 62
    52
100
AcDbLine
 10
1129.82846
 20
-680.081477
 30
0.0
 11
1129.82846
 21
-732.070037
 31
0.0
  0
LINE
  5
3286
330
391C
100
AcDbEntity
  8
V0-VYPLNE
  6
DASHED
 62
    52
100
AcDbLine
 10
1087.263239
 20
-732.070037
 30
0.0
 11
1087.263239
 21
-675.082577
 31
0.0
  0
LINE
  5
3287
330
391C
100
AcDbEntity
  8
V0-VYPLNE
  6
DASHED
 62
    52
100
AcDbLine
 10
1068.267419
 20
-732.070037
 30
0.0
 11
1068.267419
 21
-685.080377
 31
0.0
  0
LINE
  5
3288
330
391C
100
AcDbEntity
  8
V0-VYPLNE
  6
DASHED
 62
    52
100
AcDbLine
 10
1079.404843
 20
-830.631954
 30
0.0
 11
1100.021404
 21
-820.163712
 31
0.0
  0
LINE
  5
3289
330
391C
100
AcDbEntity
  8
V0-VYPLNE
  6
DASHED
 62
    52
100
AcDbLine
 10
1086.623424
 20
-723.65886
 30
0.0
 11
1115.257079
 21
-723.65886
 31
0.0
  0
LINE
  5
328A
330
391C
100
AcDbEntity
  8
V0-VYPLNE
  6
DASHED
 62
    52
100
AcDbLine
 10
1089.50376
 20
-751.991931
 30
0.0
 11
1115.257079
 21
-751.991931
 31
0.0
  0
LINE
  5
328B
330
391C
100
AcDbEntity
  8
V0-VYPLNE
  6
DASHED
 62
    52
100
AcDbLine
 10
1087.103482
 20
-763.502646
 30
0.0
 11
1115.257079
 21
-763.502646
 31
0.0
  0
LINE
  5
328C
330
391C
100
AcDbEntity
  8
V0-VYPLNE
  6
DASHED
 62
    52
100
AcDbLine
 10
1086.623424
 20
-740.481214
 30
0.0
 11
1115.257079
 21
-740.481214
 31
0.0
  0
LINE
  5
328D
330
391C
100
AcDbEntity
  8
V0-VYPLNE
  6
DASHED
 62
    52
100
AcDbLine
 10
1087.103482
 20
-785.564854
 30
0.0
 11
1115.257079
 21
-785.564854
 31
0.0
  0
LINE
  5
328E
330
391C
100
AcDbEntity
  8
V0-VYPLNE
  6
DASHED
 62
    52
100
AcDbLine
 10
1086.623424
 20
-775.492976
 30
0.0
 11
1115.257079
 21
-775.492976
 31
0.0
  0
LINE
  5
328F
330
391C
100
AcDbEntity
  8
V0-VYPLNE
  6
DASHED
 62
    52
100
AcDbLine
 10
1078.265219
 20
-789.057497
 30
0.0
 11
1115.257079
 21
-789.057497
 31
0.0
  0
LINE
  5
3290
330
391C
100
AcDbEntity
  8
V0-VYPLNE
  6
DASHDOT
 62
    63
 48
0.5
100
AcDbLine
 10
1045.40301
 20
-732.070037
 30
0.0
 11
1229.709117
 21
-732.070037
 31
0.0
  0
LINE
  5
3291
330
391C
100
AcDbEntity
  8
V0-VYPLNE
  6
DASHED
 62
    52
100
AcDbLine
 10
1097.249756
 20
-818.462567
 30
0.0
 11
1097.249756
 21
-789.057497
 31
0.0
  0
LINE
  5
3292
330
391C
100
AcDbEntity
  8
V0-VYPLNE
  6
DASHED
 62
    52
100
AcDbLine
 10
1079.404843
 20
-827.52348
 30
0.0
 11
1097.249756
 21
-818.462567
 31
0.0
  0
LINE
  5
3293
330
391C
100
AcDbEntity
  8
V0-VYPLNE
  6
DASHED
 62
    52
100
AcDbLine
 10
1087.263239
 20
-732.070037
 30
0.0
 11
1087.263239
 21
-789.057497
 31
0.0
  0
LINE
  5
3294
330
391C
100
AcDbEntity
  8
V0-VYPLNE
  6
DASHED
 62
    52
100
AcDbLine
 10
1068.267419
 20
-732.070037
 30
0.0
 11
1068.267419
 21
-779.059697
 31
0.0
  0
ARC
  5
3295
330
391C
100
AcDbEntity
  8
V0-VYPLNE
  6
DASHED
 62
    52
100
AcDbCircle
 10
1078.265219
 20
-779.059697
 30
0.0
 40
9.9978
100
AcDbArc
 50
180.0
 51
270.0
  0
LINE
  5
3296
330
391C
100
AcDbEntity
  8
V0-VYPLNE
  6
DASHED
 62
    52
100
AcDbLine
 10
1087.103482
 20
-785.564854
 30
0.0
 11
1068.3813
 21
-771.656072
 31
0.0
  0
LINE
  5
3297
330
391C
100
AcDbEntity
  8
V0-VYPLNE
  6
DASHED
 62
    52
100
AcDbLine
 10
1086.623424
 20
-775.492976
 30
0.0
 11
1068.861354
 21
-765.900713
 31
0.0
  0
LINE
  5
3298
330
391C
100
AcDbEntity
  8
V0-VYPLNE
  6
DASHED
 62
    52
100
AcDbLine
 10
1086.623424
 20
-751.991931
 30
0.0
 11
1068.3813
 21
-750.073477
 31
0.0
  0
LINE
  5
3299
330
391C
100
AcDbEntity
  8
V0-VYPLNE
  6
DASHED
 62
    52
100
AcDbLine
 10
1087.103482
 20
-763.502646
 30
0.0
 11
1067.901242
 21
-759.1861270000001
 31
0.0
  0
LINE
  5
329A
330
391C
100
AcDbEntity
  8
V0-VYPLNE
  6
DASHED
 62
    52
100
AcDbLine
 10
1086.623424
 20
-751.991931
 30
0.0
 11
1089.50376
 21
-751.991931
 31
0.0
  0
LINE
  5
329B
330
391C
100
AcDbEntity
  8
V0-VYPLNE
  6
DASHED
 62
    52
100
AcDbLine
 10
1086.623424
 20
-723.65886
 30
0.0
 11
1068.3813
 21
-724.138473
 31
0.0
  0
LINE
  5
329C
330
391C
100
AcDbEntity
  8
V0-VYPLNE
  6
DASHED
 62
    52
100
AcDbLine
 10
1086.623424
 20
-740.481214
 30
0.0
 11
1068.3813
 21
-740.0016010000001
 31
0.0
  0
ARC
  5
329D
330
391C
100
AcDbEntity
  8
V0-VYPLNE
  6
DASHED
 62
    52
100
AcDbCircle
 10
1189.70431
 20
-805.515991
 30
0.0
 40
7.0
100
AcDbArc
 50
282.123858
 51
354.845307
  0
LINE
  5
329E
330
391C
100
AcDbEntity
  8
V0-VYPLNE
  6
DASHED
 62
    52
100
AcDbLine
 10
1133.209024
 20
-731.369743
 30
0.0
 11
1133.209024
 21
-811.169743
 31
0.0
  0
LINE
  5
329F
330
391C
100
AcDbEntity
  8
V0-VYPLNE
  6
DASHED
 62
    52
100
AcDbLine
 10
1164.709024
 20
-815.17042
 30
0.0
 11
1164.709024
 21
-731.369743
 31
0.0
  0
LINE
  5
32A0
330
391C
100
AcDbEntity
  8
V0-VYPLNE
  6
DASHED
 62
    52
100
AcDbLine
 10
1100.021404
 20
-820.163712
 30
0.0
 11
1100.021404
 21
-789.057497
 31
0.0
  0
ARC
  5
32A1
330
391C
100
AcDbEntity
  8
V0-VYPLNE
  6
DASHED
 62
    52
100
AcDbCircle
 10
1164.709024
 20
-689.159804
 30
0.0
 40
126.010616
100
AcDbArc
 50
255.523734
 51
282.123858
  0
LINE
  5
32A2
330
391C
100
AcDbEntity
  8
V0-VYPLNE
  6
DASHED
 62
    52
100
AcDbLine
 10
1138.552391
 20
-812.3234230000001
 30
0.0
 11
1133.174581
 21
-817.696273
 31
0.0
  0
LINE
  5
32A3
330
391C
100
AcDbEntity
  8
V0-VYPLNE
  6
DASHED
 62
    52
100
AcDbLine
 10
1190.865657
 20
-812.3234230000001
 30
0.0
 11
1196.243467
 21
-817.696273
 31
0.0
  0
LINE
  5
32A4
330
391C
100
AcDbEntity
  8
V0-VYPLNE
  6
DASHED
 62
    52
100
AcDbLine
 10
1129.82846
 20
-784.058597
 30
0.0
 11
1129.82846
 21
-732.070037
 31
0.0
  0
LINE
  5
32A5
330
391C
100
AcDbEntity
  8
V0-VYPLNE
  6
DASHED
 62
    52
100
AcDbLine
 10
1115.257079
 20
-775.492976
 30
0.0
 11
1129.82846
 21
-775.492976
 31
0.0
  0
LINE
  5
32A6
330
391C
100
AcDbEntity
  8
V0-VYPLNE
  6
DASHED
 62
    52
100
AcDbLine
 10
1115.257079
 20
-785.564854
 30
0.0
 11
1129.82846
 21
-785.564854
 31
0.0
  0
ARC
  5
32A7
330
391C
100
AcDbEntity
  8
V0-VYPLNE
  6
DASHED
 62
    52
100
AcDbCircle
 10
1124.82956
 20
-784.058597
 30
0.0
 40
4.9989
100
AcDbArc
 50
270.0
 51
0.0
  0
LINE
  5
32A8
330
391C
100
AcDbEntity
  8
V0-VYPLNE
  6
DASHED
 62
    52
100
AcDbLine
 10
1115.257079
 20
-789.057497
 30
0.0
 11
1124.82956
 21
-789.057497
 31
0.0
  0
LINE
  5
32A9
330
391C
100
AcDbEntity
  8
V0-VYPLNE
  6
DASHED
 62
    52
100
AcDbLine
 10
1115.257079
 20
-740.481214
 30
0.0
 11
1129.348406
 21
-740.481214
 31
0.0
  0
LINE
  5
32AA
330
391C
100
AcDbEntity
  8
V0-VYPLNE
  6
DASHED
 62
    52
100
AcDbLine
 10
1115.257079
 20
-751.991931
 30
0.0
 11
1129.82846
 21
-751.991931
 31
0.0
  0
LINE
  5
32AB
330
391C
100
AcDbEntity
  8
V0-VYPLNE
  6
DASHED
 62
    52
100
AcDbLine
 10
1115.257079
 20
-763.502646
 30
0.0
 11
1129.348406
 21
-763.502646
 31
0.0
  0
LINE
  5
32AC
330
391C
100
AcDbEntity
  8
V0-VYPLNE
  6
DASHED
 62
    52
100
AcDbLine
 10
1115.257079
 20
-723.65886
 30
0.0
 11
1129.348406
 21
-723.65886
 31
0.0
  0
ARC
  5
32AD
330
391C
100
AcDbEntity
  8
V0-VYPLNE
  6
DASHED
 62
    52
100
AcDbCircle
 10
266.322195
 20
-722.217805
 30
0.0
 40
934.131662
100
AcDbArc
 50
354.845307
 51
359.438649
  0
CIRCLE
  5
32AE
330
391C
100
AcDbEntity
  8
V0-VYPLNE
  6
DASHED
 62
    52
100
AcDbCircle
 10
1164.709024
 20
-731.649801
 30
0.0
 40
5.932655
  0
LINE
  5
32AF
330
391C
100
AcDbEntity
  8
V0-VYPLNE
  6
DASHED
 62
    52
100
AcDbLine
 10
1079.404843
 20
-633.50812
 30
0.0
 11
1100.021404
 21
-643.976363
 31
0.0
  0
LINE
  5
32B0
330
391C
100
AcDbEntity
  8
V0-VYPLNE
  6
DASHED
 62
    52
100
AcDbLine
 10
1089.50376
 20
-712.148143
 30
0.0
 11
1115.257079
 21
-712.148143
 31
0.0
  0
LINE
  5
32B1
330
391C
100
AcDbEntity
  8
V0-VYPLNE
  6
DASHED
 62
    52
100
AcDbLine
 10
1086.623424
 20
-688.647098
 30
0.0
 11
1115.257079
 21
-688.647098
 31
0.0
  0
LINE
  5
32B2
330
391C
100
AcDbEntity
  8
V0-VYPLNE
  6
DASHED
 62
    52
100
AcDbLine
 10
1087.103482
 20
-700.637428
 30
0.0
 11
1115.257079
 21
-700.637428
 31
0.0
  0
LINE
  5
32B3
330
391C
100
AcDbEntity
  8
V0-VYPLNE
  6
DASHED
 62
    52
100
AcDbLine
 10
1087.103482
 20
-678.5752199999999
 30
0.0
 11
1115.257079
 21
-678.5752199999999
 31
0.0
  0
LINE
  5
32B4
330
391C
100
AcDbEntity
  8
V0-VYPLNE
  6
DASHED
 62
    52
100
AcDbLine
 10
1078.265219
 20
-675.082577
 30
0.0
 11
1115.257079
 21
-675.082577
 31
0.0
  0
LINE
  5
32B5
330
391C
100
AcDbEntity
  8
V0-VYPLNE
  6
DASHED
 62
    52
100
AcDbLine
 10
1082.176491
 20
-559.520173
 30
0.0
 11
1082.176491
 21
-635.062357
 31
0.0
  0
LINE
  5
32B6
330
391C
100
AcDbEntity
  8
V0-VYPLNE
  6
DASHED
 62
    52
100
AcDbLine
 10
1079.404843
 20
-559.520173
 30
0.0
 11
1079.404843
 21
-636.616594
 31
0.0
  0
ARC
  5
32B7
330
391C
100
AcDbEntity
  8
V0-VYPLNE
  6
DASHED
 62
    52
100
AcDbCircle
 10
1078.265219
 20
-685.080377
 30
0.0
 40
9.9978
100
AcDbArc
 50
90.0
 51
180.0
  0
LINE
  5
32B8
330
391C
100
AcDbEntity
  8
V0-VYPLNE
  6
DASHED
 62
    52
100
AcDbLine
 10
1087.103482
 20
-700.637428
 30
0.0
 11
1067.901242
 21
-704.953947
 31
0.0
  0
LINE
  5
32B9
330
391C
100
AcDbEntity
  8
V0-VYPLNE
  6
DASHED
 62
    52
100
AcDbLine
 10
1086.623424
 20
-712.148143
 30
0.0
 11
1068.3813
 21
-714.066597
 31
0.0
  0
LINE
  5
32BA
330
391C
100
AcDbEntity
  8
V0-VYPLNE
  6
DASHED
 62
    52
100
AcDbLine
 10
1086.623424
 20
-712.148143
 30
0.0
 11
1089.50376
 21
-712.148143
 31
0.0
  0
LINE
  5
32BB
330
391C
100
AcDbEntity
  8
V0-VYPLNE
  6
DASHED
 62
    52
100
AcDbLine
 10
1086.623424
 20
-688.647098
 30
0.0
 11
1068.861354
 21
-698.239361
 31
0.0
  0
LINE
  5
32BC
330
391C
100
AcDbEntity
  8
V0-VYPLNE
  6
DASHED
 62
    52
100
AcDbLine
 10
1087.103482
 20
-678.5752199999999
 30
0.0
 11
1068.3813
 21
-692.484002
 31
0.0
  0
LINE
  5
32BD
330
391C
100
AcDbEntity
  8
V0-VYPLNE
  6
DASHED
 62
    52
100
AcDbLine
 10
1097.249756
 20
-645.677507
 30
0.0
 11
1097.249756
 21
-675.082577
 31
0.0
  0
LINE
  5
32BE
330
391C
100
AcDbEntity
  8
V0-VYPLNE
  6
DASHED
 62
    52
100
AcDbLine
 10
1079.404843
 20
-636.616594
 30
0.0
 11
1097.249756
 21
-645.677507
 31
0.0
  0
LINE
  5
32BF
330
391C
100
AcDbEntity
  8
V0-VYPLNE
  6
DASHED
 62
    52
100
AcDbLine
 10
1079.404843
 20
-556.748525
 30
0.0
 11
1096.070342
 21
-556.748525
 31
0.0
  0
LINE
  5
32C0
330
391C
100
AcDbEntity
  8
V0-VYPLNE
  6
DASHED
 62
    52
100
AcDbLine
 10
1082.176491
 20
-559.520173
 30
0.0
 11
1096.070342
 21
-559.520173
 31
0.0
  0
LINE
  5
32C1
330
391C
100
AcDbEntity
  8
V0-VYPLNE
  6
DASHED
 62
    52
100
AcDbLine
 10
1079.404843
 20
-556.070389
 30
0.0
 11
1079.404843
 21
-556.748525
 31
0.0
  0
LINE
  5
32C2
330
391C
100
AcDbEntity
  8
V0-VYPLNE
  6
DASHED
 62
    52
100
AcDbLine
 10
1196.243467
 20
-645.043213
 30
0.0
 11
1182.126718
 21
-556.3911900000001
 31
0.0
  0
LINE
  5
32C3
330
391C
100
AcDbEntity
  8
V0-VYPLNE
  6
DASHED
 62
    52
100
AcDbLine
 10
1133.174581
 20
-645.043213
 30
0.0
 11
1147.29133
 21
-556.3911900000001
 31
0.0
  0
ARC
  5
32C4
330
391C
100
AcDbEntity
  8
V0-VYPLNE
  6
DASHED
 62
    52
100
AcDbCircle
 10
1164.709024
 20
-773.5796830000001
 30
0.0
 40
126.010616
100
AcDbArc
 50
77.876142
 51
104.476266
  0
ARC
  5
32C5
330
391C
100
AcDbEntity
  8
V0-VYPLNE
  6
DASHED
 62
    52
100
AcDbCircle
 10
1124.82956
 20
-680.081477
 30
0.0
 40
4.9989
100
AcDbArc
 50
0.0
 51
90.0
  0
LINE
  5
32C6
330
391C
100
AcDbEntity
  8
V0-VYPLNE
  6
DASHED
 62
    52
100
AcDbLine
 10
1115.257079
 20
-678.5752199999999
 30
0.0
 11
1129.82846
 21
-678.5752199999999
 31
0.0
  0
LINE
  5
32C7
330
391C
100
AcDbEntity
  8
V0-VYPLNE
  6
DASHED
 62
    52
100
AcDbLine
 10
1115.257079
 20
-688.647098
 30
0.0
 11
1129.82846
 21
-688.647098
 31
0.0
  0
LINE
  5
32C8
330
391C
100
AcDbEntity
  8
V0-VYPLNE
  6
DASHED
 62
    52
100
AcDbLine
 10
1115.257079
 20
-700.637428
 30
0.0
 11
1129.348406
 21
-700.637428
 31
0.0
  0
LINE
  5
32C9
330
391C
100
AcDbEntity
  8
V0-VYPLNE
  6
DASHED
 62
    52
100
AcDbLine
 10
1115.257079
 20
-712.148143
 30
0.0
 11
1129.82846
 21
-712.148143
 31
0.0
  0
LINE
  5
32CA
330
391C
100
AcDbEntity
  8
V0-VYPLNE
  6
DASHED
 62
    52
100
AcDbLine
 10
1100.021404
 20
-643.976363
 30
0.0
 11
1100.021404
 21
-675.082577
 31
0.0
  0
LINE
  5
32CB
330
391C
100
AcDbEntity
  8
V0-VYPLNE
  6
DASHED
 62
    52
100
AcDbLine
 10
1115.257079
 20
-675.082577
 30
0.0
 11
1124.82956
 21
-675.082577
 31
0.0
  0
LINE
  5
32CC
330
391C
100
AcDbEntity
  8
V0-VYPLNE
  6
DASHED
 62
    52
100
AcDbLine
 10
1138.552391
 20
-650.416063
 30
0.0
 11
1133.174581
 21
-645.043213
 31
0.0
  0
LINE
  5
32CD
330
391C
100
AcDbEntity
  8
V0-VYPLNE
  6
DASHED
 62
    52
100
AcDbLine
 10
1190.865657
 20
-650.416063
 30
0.0
 11
1196.243467
 21
-645.043213
 31
0.0
  0
LINE
  5
32CE
330
391C
100
AcDbEntity
  8
V0-VYPLNE
  6
DASHED
 62
    52
100
AcDbLine
 10
1147.29133
 20
-556.3911900000001
 30
0.0
 11
1182.126718
 21
-556.3911900000001
 31
0.0
  0
LINE
  5
32CF
330
391C
100
AcDbEntity
  8
V0-VYPLNE
  6
DASHDOT
 62
    63
100
AcDbLine
 10
1213.746209
 20
-534.515327
 30
0.0
 11
1245.740864
 21
-534.515327
 31
0.0
  0
LINE
  5
32D0
330
391C
100
AcDbEntity
  8
V0-VYPLNE
  6
DASHDOT
 62
    63
100
AcDbLine
 10
1048.016567
 20
-534.515327
 30
0.0
 11
1088.052934
 21
-534.515327
 31
0.0
  0
DIMENSION
  5
32F0
330
391C
100
AcDbEntity
  8
V0-VYPLNE
  6
CONTINUOUS
 62
    41
100
AcDbDimension
  2
*D7
 10
1283.031414000026
 20
-296.93738
 30
0.0
 11
1266.031414000026
 21
-99.38267000000002
 31
0.0
 70
    32
  1
%%c<>
  3
ED30
100
AcDbAlignedDimension
 13
1245.740864
 23
98.17204
 33
0.0
 14
1245.740864
 24
-296.93738
 34
0.0
 50
90.0
100
AcDbRotatedDimension
1001
ACAD
1000
DSTYLE
1002
{
1070
    41
1040
30.0
1070
   140
1040
30.0
1002
}
  0
DIMENSION
  5
32FD
330
391C
100
AcDbEntity
  8
V0-VYPLNE
  6
CONTINUOUS
 62
    41
100
AcDbDimension
  2
*D8
 10
1338.575653000036
 20
-312.395993
 30
0.0
 11
1321.575653000036
 21
-99.38267050000002
 31
0.0
 70
    32
  1
%%c<>
  3
ED30
100
AcDbAlignedDimension
 13
1229.709117
 23
113.630652
 33
0.0
 14
1229.709117
 24
-312.395993
 34
0.0
 50
90.0
100
AcDbRotatedDimension
1001
ACAD
1000
DSTYLE
1002
{
1070
    41
1040
30.0
1070
   140
1040
30.0
1002
}
  0
LINE
  5
341F
330
391C
100
AcDbEntity
  8
V0-VYPLNE
100
AcDbLine
 10
1629.708859
 20
-99.38267000000001
 30
0.0
 11
1629.708859
 21
116.297504
 31
0.0
  0
CIRCLE
  5
3420
330
391C
100
AcDbEntity
  8
V0-VYPLNE
  6
DASHDOT
 62
    63
100
AcDbCircle
 10
1629.708859
 20
-99.38267000000001
 30
0.0
 40
197.524959
  0
CIRCLE
  5
3421
330
391C
100
AcDbEntity
  8
V0-OBRYS
  6
CONTINUOUS
 62
    90
100
AcDbCircle
 10
1629.708859
 20
-99.38267000000001
 30
0.0
 40
212.974417
  0
LINE
  5
3422
330
391C
100
AcDbEntity
  8
V0-OBRYS
  6
CONTINUOUS
 62
    90
100
AcDbLine
 10
1749.002391
 20
27.468153
 30
0.0
 11
1723.659961
 21
9.758362999999999
 31
0.0
  0
LINE
  5
3423
330
391C
100
AcDbEntity
  8
V0-OBRYS
  6
CONTINUOUS
 62
    90
100
AcDbLine
 10
1755.349987
 20
-33.586985
 30
0.0
 11
1737.355689
 21
-49.90107
 31
0.0
  0
LINE
  5
3424
330
391C
100
AcDbEntity
  8
V0-OBRYS
  6
CONTINUOUS
 62
    90
100
AcDbLine
 10
1745.968104
 20
-96.607974
 30
0.0
 11
1723.011382
 21
-89.815744
 31
0.0
  0
LINE
  5
3425
330
391C
100
AcDbEntity
  8
V0-OBRYS
  6
CONTINUOUS
 62
    90
100
AcDbLine
 10
1759.485959
 20
-156.58992
 30
0.0
 11
1735.511832
 21
-152.693078
 31
0.0
  0
LINE
  5
3426
330
391C
100
AcDbEntity
  8
VO-OBRYS
  6
CONTINUOUS
100
AcDbLine
 10
1686.043236
 20
-137.393401
 30
0.0
 11
1764.04705
 21
-215.397215
 31
0.0
  0
LINE
  5
3427
330
391C
100
AcDbEntity
  8
VO-OBRYS
  6
CONTINUOUS
100
AcDbLine
 10
1685.860243
 20
-134.124017
 30
0.0
 11
1765.467724
 21
-213.731499
 31
0.0
  0
LINE
  5
3428
330
391C
100
AcDbEntity
  8
VO-OBRYS
  6
CONTINUOUS
100
AcDbLine
 10
1667.71959
 20
-155.717047
 30
0.0
 11
1745.723404
 21
-233.720861
 31
0.0
  0
LINE
  5
3429
330
391C
100
AcDbEntity
  8
V0-VYPLNE
100
AcDbLine
 10
1629.708859
 20
-99.38267000000001
 30
0.0
 11
1765.790162
 21
-235.463973
 31
0.0
  0
CIRCLE
  5
342A
330
391C
100
AcDbEntity
  8
V0-OBRYS
  6
CONTINUOUS
 62
    90
100
AcDbCircle
 10
1629.708859
 20
-99.38267000000001
 30
0.0
 40
177.499645
  0
CIRCLE
  5
342B
330
391C
100
AcDbEntity
  8
V0-OBRYS
  6
CONTINUOUS
 62
    90
100
AcDbCircle
 10
1629.708859
 20
-99.38267000000001
 30
0.0
 40
141.826532
  0
CIRCLE
  5
342C
330
391C
100
AcDbEntity
  8
V0-OBRYS
  6
CONTINUOUS
 62
    90
100
AcDbCircle
 10
1629.708859
 20
-99.38267000000001
 30
0.0
 40
144.00894
  0
LINE
  5
342D
330
391C
100
AcDbEntity
  8
VO-OBRYS
  6
CONTINUOUS
100
AcDbLine
 10
1686.043236
 20
-61.37194
 30
0.0
 11
1764.04705
 21
16.631874
 31
0.0
  0
LINE
  5
342E
330
391C
100
AcDbEntity
  8
VO-OBRYS
  6
CONTINUOUS
100
AcDbLine
 10
1667.71959
 20
-43.048293
 30
0.0
 11
1745.723404
 21
34.95552000000001
 31
0.0
  0
LINE
  5
342F
330
391C
100
AcDbEntity
  8
V0-VYPLNE
100
AcDbLine
 10
1629.708859
 20
-99.38267000000001
 30
0.0
 11
1752.83903
 21
23.747501
 31
0.0
  0
LINE
  5
3430
330
391C
100
AcDbEntity
  8
VO-OBRYS
  6
CONTINUOUS
100
AcDbLine
 10
1685.860243
 20
-64.641324
 30
0.0
 11
1765.467724
 21
14.96615800000001
 31
0.0
  0
LINE
  5
3431
330
391C
100
AcDbEntity
  8
V0-VYPLNE
100
AcDbLine
 10
1841.325578
 20
-99.38267000000001
 30
0.0
 11
1393.808417
 21
-99.38267000000001
 31
0.0
  0
CIRCLE
  5
3432
330
391C
100
AcDbEntity
  8
V0-OBRYS
  6
CONTINUOUS
 62
    90
100
AcDbCircle
 10
1432.1839
 20
-99.38267000000001
 30
0.0
 40
6.764553
  0
LINE
  5
3433
330
391C
100
AcDbEntity
  8
V0-OBRYS
  6
CONTINUOUS
 62
    90
100
AcDbLine
 10
1694.472687
 20
-164.173972
 30
0.0
 11
1687.25815
 21
-146.397337
 31
0.0
  0
LINE
  5
3434
330
391C
100
AcDbEntity
  8
V0-OBRYS
  6
CONTINUOUS
 62
    90
100
AcDbLine
 10
1623.4099
 20
-182.208288
 30
0.0
 11
1625.438498
 21
-155.534054
 31
0.0
  0
LINE
  5
3435
330
391C
100
AcDbEntity
  8
V0-OBRYS
  6
CONTINUOUS
 62
    90
100
AcDbLine
 10
1636.007819
 20
-182.208288
 30
0.0
 11
1633.97922
 21
-155.534054
 31
0.0
  0
LINE
  5
3436
330
391C
100
AcDbEntity
  8
V0-OBRYS
  6
CONTINUOUS
 62
    90
100
AcDbLine
 10
1642.824057
 20
-153.600383
 30
0.0
 11
1649.37507
 21
-180.68201
 31
0.0
  0
LINE
  5
3437
330
391C
100
AcDbEntity
  8
V0-OBRYS
  6
CONTINUOUS
 62
    90
100
AcDbLine
 10
1661.214637
 20
-176.484749
 30
0.0
 11
1650.808899
 21
-151.019451
 31
0.0
  0
LINE
  5
3438
330
391C
100
AcDbEntity
  8
V0-OBRYS
  6
CONTINUOUS
 62
    90
100
AcDbLine
 10
1658.326281
 20
-147.263898
 30
0.0
 11
1673.054204
 21
-171.905917
 31
0.0
  0
LINE
  5
3439
330
391C
100
AcDbEntity
  8
V0-OBRYS
  6
CONTINUOUS
 62
    90
100
AcDbLine
 10
1564.945032
 20
-164.173972
 30
0.0
 11
1572.159568
 21
-146.397337
 31
0.0
  0
LINE
  5
343A
330
391C
100
AcDbEntity
  8
V0-OBRYS
  6
CONTINUOUS
 62
    90
100
AcDbLine
 10
1576.909815
 20
-163.124267
 30
0.0
 11
1594.025336
 21
-142.257546
 31
0.0
  0
LINE
  5
343B
330
391C
100
AcDbEntity
  8
V0-OBRYS
  6
CONTINUOUS
 62
    90
100
AcDbLine
 10
1601.091437
 20
-147.263898
 30
0.0
 11
1586.363514
 21
-171.905917
 31
0.0
  0
LINE
  5
343C
330
391C
100
AcDbEntity
  8
V0-OBRYS
  6
CONTINUOUS
 62
    90
100
AcDbLine
 10
1598.203082
 20
-176.484749
 30
0.0
 11
1608.608819
 21
-151.019451
 31
0.0
  0
LINE
  5
343D
330
391C
100
AcDbEntity
  8
V0-OBRYS
  6
CONTINUOUS
 62
    90
100
AcDbLine
 10
1616.593661
 20
-153.600383
 30
0.0
 11
1610.042649
 21
-180.68201
 31
0.0
  0
LINE
  5
343E
330
391C
100
AcDbEntity
  8
V0-OBRYS
  6
CONTINUOUS
 62
    90
100
AcDbLine
 10
1467.190591
 20
-161.91179
 30
0.0
 11
1497.707322
 21
-156.951489
 31
0.0
  0
ARC
  5
343F
330
391C
100
AcDbEntity
  8
V0-OBRYS
  6
CONTINUOUS
 62
    90
100
AcDbCircle
 10
1629.708859
 20
-99.38267000000001
 30
0.0
 40
174.132358
100
AcDbArc
 50
184.66999
 51
201.044296
  0
LINE
  5
3440
330
391C
100
AcDbEntity
  8
VO-OBRYS
  6
CONTINUOUS
100
AcDbLine
 10
1573.374482
 20
-137.393401
 30
0.0
 11
1495.370669
 21
-215.397215
 31
0.0
  0
LINE
  5
3441
330
391C
100
AcDbEntity
  8
VO-OBRYS
  6
CONTINUOUS
100
AcDbLine
 10
1573.557475
 20
-134.124017
 30
0.0
 11
1493.949994
 21
-213.731499
 31
0.0
  0
LINE
  5
3442
330
391C
100
AcDbEntity
  8
VO-OBRYS
  6
CONTINUOUS
100
AcDbLine
 10
1591.698129
 20
-155.717047
 30
0.0
 11
1513.694315
 21
-233.720861
 31
0.0
  0
LINE
  5
3443
330
391C
100
AcDbEntity
  8
V0-VYPLNE
100
AcDbLine
 10
1629.708859
 20
-99.38267000000001
 30
0.0
 11
1504.197657
 21
-224.893873
 31
0.0
  0
LINE
  5
3444
330
391C
100
AcDbEntity
  8
VO-OBRYS
  6
CONTINUOUS
100
AcDbLine
 10
1594.967512
 20
-155.534054
 30
0.0
 11
1515.360031
 21
-235.141536
 31
0.0
  0
LINE
  5
3445
330
391C
100
AcDbEntity
  8
V0-VYPLNE
  6
DASHDOT
100
AcDbLine
 10
1629.708859
 20
-99.38267000000001
 30
0.0
 11
1629.708859
 21
-327.895993
 31
0.0
  0
LINE
  5
3446
330
391C
100
AcDbEntity
  8
VO-OBRYS
  6
CONTINUOUS
100
AcDbLine
 10
1664.450206
 20
-155.534054
 30
0.0
 11
1744.057687
 21
-235.141536
 31
0.0
  0
ARC
  5
3447
330
391C
100
AcDbEntity
  8
V0-OBRYS
  6
CONTINUOUS
 62
    90
100
AcDbCircle
 10
1629.708859
 20
-99.38267000000001
 30
0.0
 40
65.704122
100
AcDbArc
 50
238.716649
 51
329.134287
  0
LINE
  5
3448
330
391C
100
AcDbEntity
  8
V0-OBRYS
  6
CONTINUOUS
 62
    90
100
AcDbLine
 10
1681.950849
 20
-162.878373
 30
0.0
 11
1665.100206
 21
-142.49904
 31
0.0
  0
LINE
  5
3449
330
391C
100
AcDbEntity
  8
V0-OBRYS
  6
CONTINUOUS
 62
    90
100
AcDbLine
 10
1577.267611
 20
-265.430837
 30
0.0
 11
1592.416361
 21
-238.479199
 31
0.0
  0
LINE
  5
344A
330
391C
100
AcDbEntity
  8
V0-OBRYS
  6
CONTINUOUS
 62
    90
100
AcDbLine
 10
1532.583759
 20
-243.912228
 30
0.0
 11
1544.210306
 21
-215.264386
 31
0.0
  0
ARC
  5
344B
330
391C
100
AcDbEntity
  8
V0-OBRYS
  6
CONTINUOUS
 62
    90
100
AcDbCircle
 10
1629.708859
 20
-99.38267000000001
 30
0.0
 40
174.132358
100
AcDbArc
 50
236.098561
 51
252.472867
  0
LINE
  5
344C
330
391C
100
AcDbEntity
  8
V0-OBRYS
  6
CONTINUOUS
 62
    90
100
AcDbLine
 10
1545.057793
 20
-213.176177
 30
0.0
 11
1554.191679
 21
-190.67026
 31
0.0
  0
LINE
  5
344D
330
391C
100
AcDbEntity
  8
V0-OBRYS
  6
CONTINUOUS
 62
    90
100
AcDbLine
 10
1555.053061
 20
-188.547814
 30
0.0
 11
1564.055964
 21
-166.364639
 31
0.0
  0
CIRCLE
  5
344E
330
391C
100
AcDbEntity
  8
V0-OBRYS
  6
CONTINUOUS
 62
    90
100
AcDbCircle
 10
1629.708859
 20
-296.90763
 30
0.0
 40
6.764553
  0
LINE
  5
344F
330
391C
100
AcDbEntity
  8
V0-OBRYS
  6
CONTINUOUS
 62
    90
100
AcDbLine
 10
1682.150108
 20
-265.430837
 30
0.0
 11
1667.001357
 21
-238.479199
 31
0.0
  0
LINE
  5
3450
330
391C
100
AcDbEntity
  8
V0-OBRYS
  6
CONTINUOUS
 62
    90
100
AcDbLine
 10
1665.897129
 20
-236.51463
 30
0.0
 11
1653.996179
 21
-215.341261
 31
0.0
  0
LINE
  5
3451
330
391C
100
AcDbEntity
  8
V0-OBRYS
  6
CONTINUOUS
 62
    90
100
AcDbLine
 10
1593.52059
 20
-236.51463
 30
0.0
 11
1605.421539
 21
-215.341261
 31
0.0
  0
LINE
  5
3452
330
391C
100
AcDbEntity
  8
V0-OBRYS
  6
CONTINUOUS
 62
    90
100
AcDbLine
 10
1619.432565
 20
-190.413786
 30
0.0
 11
1628.832708
 21
-173.689683
 31
0.0
  0
LINE
  5
3453
330
391C
100
AcDbEntity
  8
V0-OBRYS
  6
CONTINUOUS
 62
    90
100
AcDbLine
 10
1628.832708
 20
-173.689683
 30
0.0
 11
1624.224923
 21
-165.90456
 31
0.0
  0
LINE
  5
3454
330
391C
100
AcDbEntity
  8
V0-OBRYS
  6
CONTINUOUS
 62
    90
100
AcDbLine
 10
1606.543872
 20
-213.344482
 30
0.0
 11
1618.274158
 21
-192.474745
 31
0.0
  0
LINE
  5
3455
330
391C
100
AcDbEntity
  8
V0-OBRYS
  6
CONTINUOUS
 62
    90
100
AcDbLine
 10
1639.985153
 20
-190.413786
 30
0.0
 11
1630.58501
 21
-173.689683
 31
0.0
  0
LINE
  5
3456
330
391C
100
AcDbEntity
  8
V0-OBRYS
  6
CONTINUOUS
 62
    90
100
AcDbLine
 10
1652.873846
 20
-213.344482
 30
0.0
 11
1641.14356
 21
-192.474745
 31
0.0
  0
LINE
  5
3457
330
391C
100
AcDbEntity
  8
V0-OBRYS
  6
CONTINUOUS
 62
    90
100
AcDbLine
 10
1630.58501
 20
-173.689683
 30
0.0
 11
1635.192795
 21
-165.90456
 31
0.0
  0
LINE
  5
3458
330
391C
100
AcDbEntity
  8
V0-OBRYS
  6
CONTINUOUS
 62
    90
100
AcDbLine
 10
1726.83396
 20
-243.912228
 30
0.0
 11
1715.207412
 21
-215.264386
 31
0.0
  0
ARC
  5
3459
330
391C
100
AcDbEntity
  8
V0-OBRYS
  6
CONTINUOUS
 62
    90
100
AcDbCircle
 10
1629.708859
 20
-99.38267000000001
 30
0.0
 40
174.132358
100
AcDbArc
 50
287.527133
 51
303.901439
  0
LINE
  5
345A
330
391C
100
AcDbEntity
  8
V0-OBRYS
  6
CONTINUOUS
 62
    90
100
AcDbLine
 10
1714.359925
 20
-213.176177
 30
0.0
 11
1705.22604
 21
-190.67026
 31
0.0
  0
LINE
  5
345B
330
391C
100
AcDbEntity
  8
V0-OBRYS
  6
CONTINUOUS
 62
    90
100
AcDbLine
 10
1704.364658
 20
-188.547814
 30
0.0
 11
1695.361755
 21
-166.364639
 31
0.0
  0
LINE
  5
345C
330
391C
100
AcDbEntity
  8
V0-OBRYS
  6
CONTINUOUS
 62
    90
100
AcDbLine
 10
1577.466869
 20
-35.886967
 30
0.0
 11
1594.317512
 21
-56.266301
 31
0.0
  0
POINT
  5
345D
330
391C
100
AcDbEntity
  8
V0-VYPLNE
  6
DASHED
 62
    52
100
AcDbPoint
 10
1629.708859
 20
-99.38267000000001
 30
0.0
  0
ARC
  5
345E
330
391C
100
AcDbEntity
  8
V0-OBRYS
  6
CONTINUOUS
 62
    90
100
AcDbCircle
 10
1629.708859
 20
-99.38267000000001
 30
0.0
 40
65.704122
100
AcDbArc
 50
148.716649
 51
239.134287
  0
CIRCLE
  5
345F
330
391C
100
AcDbEntity
  8
V0-OBRYS
  6
CONTINUOUS
 62
    90
100
AcDbCircle
 10
1629.708859
 20
-99.38267000000001
 30
0.0
 40
55.781438
  0
ARC
  5
3460
330
391C
100
AcDbEntity
  8
V0-OBRYS
  6
CONTINUOUS
 62
    90
100
AcDbCircle
 10
1629.708859
 20
-99.38267000000001
 30
0.0
 40
65.704122
100
AcDbArc
 50
58.71664899999999
 51
149.134287
  0
LINE
  5
3461
330
391C
100
AcDbEntity
  8
VO-OBRYS
  6
CONTINUOUS
100
AcDbLine
 10
1594.967512
 20
-43.231287
 30
0.0
 11
1515.360031
 21
36.376195
 31
0.0
  0
LINE
  5
3462
330
391C
100
AcDbEntity
  8
V0-VYPLNE
100
AcDbLine
 10
1629.708859
 20
-99.38267000000001
 30
0.0
 11
1494.401481
 21
35.924708
 31
0.0
  0
LINE
  5
3463
330
391C
100
AcDbEntity
  8
V0-OBRYS
  6
CONTINUOUS
 62
    90
100
AcDbLine
 10
1580.953318
 20
-21.825186
 30
0.0
 11
1596.67887
 21
-32.814513
 31
0.0
  0
LINE
  5
3464
330
391C
100
AcDbEntity
  8
V0-OBRYS
  6
CONTINUOUS
 62
    90
100
AcDbLine
 10
1596.14857
 20
-43.231287
 30
0.0
 11
1586.363514
 21
-26.859424
 31
0.0
  0
LINE
  5
3465
330
391C
100
AcDbEntity
  8
V0-OBRYS
  6
CONTINUOUS
 62
    90
100
AcDbLine
 10
1601.091437
 20
-51.501443
 30
0.0
 11
1586.363514
 21
-26.859424
 31
0.0
  0
LINE
  5
3466
330
391C
100
AcDbEntity
  8
V0-OBRYS
  6
CONTINUOUS
 62
    90
100
AcDbLine
 10
1504.067732
 20
-33.586985
 30
0.0
 11
1522.06203
 21
-49.90107
 31
0.0
  0
LINE
  5
3467
330
391C
100
AcDbEntity
  8
VO-OBRYS
  6
CONTINUOUS
100
AcDbLine
 10
1591.698129
 20
-43.048293
 30
0.0
 11
1516.081839
 21
32.56799599999999
 31
0.0
  0
LINE
  5
3468
330
391C
100
AcDbEntity
  8
VO-OBRYS
  6
CONTINUOUS
100
AcDbLine
 10
1573.374482
 20
-61.37194
 30
0.0
 11
1495.370669
 21
16.631874
 31
0.0
  0
LINE
  5
3469
330
391C
100
AcDbEntity
  8
VO-OBRYS
  6
CONTINUOUS
100
AcDbLine
 10
1573.557475
 20
-64.641324
 30
0.0
 11
1493.949994
 21
14.96615800000001
 31
0.0
  0
LINE
  5
346A
330
391C
100
AcDbEntity
  8
V0-OBRYS
  6
CONTINUOUS
 62
    90
100
AcDbLine
 10
1513.449614
 20
-96.607974
 30
0.0
 11
1536.406337
 21
-89.815744
 31
0.0
  0
LINE
  5
346B
330
391C
100
AcDbEntity
  8
V0-OBRYS
  6
CONTINUOUS
 62
    90
100
AcDbLine
 10
1499.931759
 20
-156.58992
 30
0.0
 11
1523.905886
 21
-152.693078
 31
0.0
  0
LINE
  5
346C
330
391C
100
AcDbEntity
  8
V0-OBRYS
  6
CONTINUOUS
 62
    90
100
AcDbLine
 10
1487.962437
 20
-104.148893
 30
0.0
 11
1511.253156
 21
-97.25784299999999
 31
0.0
  0
LINE
  5
346D
330
391C
100
AcDbEntity
  8
V0-OBRYS
  6
CONTINUOUS
 62
    90
100
AcDbLine
 10
1456.154591
 20
-113.559914
 30
0.0
 11
1485.801409
 21
-104.788278
 31
0.0
  0
LINE
  5
346E
330
391C
100
AcDbEntity
  8
V0-OBRYS
  6
CONTINUOUS
 62
    90
100
AcDbLine
 10
1552.130703
 20
-148.105312
 30
0.0
 11
1571.067026
 21
-145.027333
 31
0.0
  0
LINE
  5
346F
330
391C
100
AcDbEntity
  8
V0-OBRYS
  6
CONTINUOUS
 62
    90
100
AcDbLine
 10
1546.883241
 20
-105.68163
 30
0.0
 11
1573.557475
 21
-103.653031
 31
0.0
  0
LINE
  5
3470
330
391C
100
AcDbEntity
  8
V0-OBRYS
  6
CONTINUOUS
 62
    90
100
AcDbLine
 10
1575.491146
 20
-112.497868
 30
0.0
 11
1548.40952
 21
-119.048881
 31
0.0
  0
LINE
  5
3471
330
391C
100
AcDbEntity
  8
V0-OBRYS
  6
CONTINUOUS
 62
    90
100
AcDbLine
 10
1552.606781
 20
-130.888448
 30
0.0
 11
1578.072078
 21
-120.48271
 31
0.0
  0
LINE
  5
3472
330
391C
100
AcDbEntity
  8
V0-OBRYS
  6
CONTINUOUS
 62
    90
100
AcDbLine
 10
1526.166794
 20
-152.325581
 30
0.0
 11
1549.797125
 21
-148.484621
 31
0.0
  0
LINE
  5
3473
330
391C
100
AcDbEntity
  8
V0-OBRYS
  6
CONTINUOUS
 62
    90
100
AcDbLine
 10
1572.159568
 20
-146.397337
 30
0.0
 11
1581.11913
 21
-145.145904
 31
0.0
  0
LINE
  5
3474
330
391C
100
AcDbEntity
  8
V0-OBRYS
  6
CONTINUOUS
 62
    90
100
AcDbLine
 10
1571.067026
 20
-145.027333
 30
0.0
 11
1574.280773
 21
-136.570876
 31
0.0
  0
LINE
  5
3475
330
391C
100
AcDbEntity
  8
V0-OBRYS
  6
CONTINUOUS
 62
    90
100
AcDbLine
 10
1581.827631
 20
-128.000092
 30
0.0
 11
1557.185613
 21
-142.728015
 31
0.0
  0
LINE
  5
3476
330
391C
100
AcDbEntity
  8
V0-OBRYS
  6
CONTINUOUS
 62
    90
100
AcDbLine
 10
1566.213156
 20
-151.62466
 30
0.0
 11
1586.592489
 21
-134.774018
 31
0.0
  0
LINE
  5
3477
330
391C
100
AcDbEntity
  8
V0-OBRYS
  6
CONTINUOUS
 62
    90
100
AcDbLine
 10
1552.606781
 20
-67.876893
 30
0.0
 11
1578.072078
 21
-78.28263
 31
0.0
  0
LINE
  5
3478
330
391C
100
AcDbEntity
  8
V0-OBRYS
  6
CONTINUOUS
 62
    90
100
AcDbLine
 10
1575.491146
 20
-86.267472
 30
0.0
 11
1548.40952
 21
-79.71646
 31
0.0
  0
LINE
  5
3479
330
391C
100
AcDbEntity
  8
V0-OBRYS
  6
CONTINUOUS
 62
    90
100
AcDbLine
 10
1546.883241
 20
-93.08371099999999
 30
0.0
 11
1573.557475
 21
-95.112309
 31
0.0
  0
LINE
  5
347A
330
391C
100
AcDbEntity
  8
V0-OBRYS
  6
CONTINUOUS
 62
    90
100
AcDbLine
 10
1543.246775
 20
-69.107696
 30
0.0
 11
1557.45984
 21
-81.99362100000001
 31
0.0
  0
LINE
  5
347B
330
391C
100
AcDbEntity
  8
V0-OBRYS
  6
CONTINUOUS
 62
    90
100
AcDbLine
 10
1538.673394
 20
-89.144987
 30
0.0
 11
1557.069916
 21
-83.701988
 31
0.0
  0
LINE
  5
347C
330
391C
100
AcDbEntity
  8
V0-OBRYS
  6
CONTINUOUS
 62
    90
100
AcDbLine
 10
1523.759003
 20
-51.439589
 30
0.0
 11
1541.495257
 21
-67.51972600000001
 31
0.0
  0
LINE
  5
347D
330
391C
100
AcDbEntity
  8
V0-OBRYS
  6
CONTINUOUS
 62
    90
100
AcDbLine
 10
1581.827631
 20
-70.765249
 30
0.0
 11
1557.185613
 21
-56.037326
 31
0.0
  0
LINE
  5
347E
330
391C
100
AcDbEntity
  8
V0-OBRYS
  6
CONTINUOUS
 62
    90
100
AcDbLine
 10
1565.967263
 20
-46.583627
 30
0.0
 11
1586.833984
 21
-63.699147
 31
0.0
  0
LINE
  5
347F
330
391C
100
AcDbEntity
  8
V0-OBRYS
  6
CONTINUOUS
 62
    90
100
AcDbLine
 10
1557.069916
 20
-83.701988
 30
0.0
 11
1563.634522
 21
-89.92659999999999
 31
0.0
  0
LINE
  5
3480
330
391C
100
AcDbEntity
  8
V0-OBRYS
  6
CONTINUOUS
 62
    90
100
AcDbLine
 10
1557.45984
 20
-81.99362100000001
 30
0.0
 11
1566.075103
 21
-79.233715
 31
0.0
  0
LINE
  5
3481
330
391C
100
AcDbEntity
  8
V0-OBRYS
  6
CONTINUOUS
 62
    90
100
AcDbLine
 10
1510.415328
 20
27.468153
 30
0.0
 11
1535.757758
 21
9.758362999999999
 31
0.0
  0
ARC
  5
3482
330
391C
100
AcDbEntity
  8
V0-OBRYS
  6
CONTINUOUS
 62
    90
100
AcDbCircle
 10
1629.708859
 20
-99.38267000000001
 30
0.0
 40
174.132358
100
AcDbArc
 50
133.241418
 51
149.615725
  0
LINE
  5
3483
330
391C
100
AcDbEntity
  8
V0-OBRYS
  6
CONTINUOUS
 62
    90
100
AcDbLine
 10
1479.493142
 20
-11.307041
 30
0.0
 11
1502.398132
 21
-32.073284
 31
0.0
  0
LINE
  5
3484
330
391C
100
AcDbEntity
  8
V0-OBRYS
  6
CONTINUOUS
 62
    90
100
AcDbLine
 10
1537.605028
 20
8.467454
 30
0.0
 11
1557.514193
 21
-5.445464000000001
 31
0.0
  0
LINE
  5
3485
330
391C
100
AcDbEntity
  8
V0-OBRYS
  6
CONTINUOUS
 62
    90
100
AcDbLine
 10
1559.39175
 20
-6.757537
 30
0.0
 11
1579.015412
 21
-20.47094
 31
0.0
  0
LINE
  5
3486
330
391C
100
AcDbEntity
  8
V0-OBRYS
  6
CONTINUOUS
 62
    90
100
AcDbLine
 10
1662.738848
 20
-32.814513
 30
0.0
 11
1663.512481
 21
-41.827909
 31
0.0
  0
LINE
  5
3487
330
391C
100
AcDbEntity
  8
V0-OBRYS
  6
CONTINUOUS
 62
    90
100
AcDbLine
 10
1596.67887
 20
-32.814513
 30
0.0
 11
1595.905237
 21
-41.827909
 31
0.0
  0
ARC
  5
3488
330
391C
100
AcDbEntity
  8
V0-OBRYS
  6
CONTINUOUS
 62
    90
100
AcDbCircle
 10
1629.708859
 20
-99.38267000000001
 30
0.0
 40
65.704122
100
AcDbArc
 50
328.716649
 51
59.134287
  0
LINE
  5
3489
330
391C
100
AcDbEntity
  8
V0-OBRYS
  6
CONTINUOUS
 62
    90
100
AcDbLine
 10
1682.507903
 20
-35.641074
 30
0.0
 11
1665.392383
 21
-56.507795
 31
0.0
  0
LINE
  5
348A
330
391C
100
AcDbEntity
  8
V0-OBRYS
  6
CONTINUOUS
 62
    90
100
AcDbLine
 10
1636.007819
 20
-16.557052
 30
0.0
 11
1633.97922
 21
-43.231287
 31
0.0
  0
LINE
  5
348B
330
391C
100
AcDbEntity
  8
V0-OBRYS
  6
CONTINUOUS
 62
    90
100
AcDbLine
 10
1642.824057
 20
-45.164958
 30
0.0
 11
1649.37507
 21
-18.083331
 31
0.0
  0
LINE
  5
348C
330
391C
100
AcDbEntity
  8
V0-OBRYS
  6
CONTINUOUS
 62
    90
100
AcDbLine
 10
1661.214637
 20
-22.280592
 30
0.0
 11
1650.808899
 21
-47.74589
 31
0.0
  0
LINE
  5
348D
330
391C
100
AcDbEntity
  8
V0-OBRYS
  6
CONTINUOUS
 62
    90
100
AcDbLine
 10
1663.269148
 20
-43.231287
 30
0.0
 11
1673.054204
 21
-26.859424
 31
0.0
  0
LINE
  5
348E
330
391C
100
AcDbEntity
  8
V0-OBRYS
  6
CONTINUOUS
 62
    90
100
AcDbLine
 10
1598.203082
 20
-22.280592
 30
0.0
 11
1606.764043
 21
-43.231287
 31
0.0
  0
LINE
  5
348F
330
391C
100
AcDbEntity
  8
V0-OBRYS
  6
CONTINUOUS
 62
    90
100
AcDbLine
 10
1616.125908
 20
-43.231287
 30
0.0
 11
1610.042649
 21
-18.083331
 31
0.0
  0
LINE
  5
3490
330
391C
100
AcDbEntity
  8
V0-OBRYS
  6
CONTINUOUS
 62
    90
100
AcDbLine
 10
1623.4099
 20
-16.557052
 30
0.0
 11
1625.438498
 21
-43.231287
 31
0.0
  0
LINE
  5
3491
330
391C
100
AcDbEntity
  8
V0-OBRYS
  6
CONTINUOUS
 62
    90
100
AcDbLine
 10
1598.203082
 20
-22.280592
 30
0.0
 11
1608.608819
 21
-47.74589
 31
0.0
  0
LINE
  5
3492
330
391C
100
AcDbEntity
  8
V0-OBRYS
  6
CONTINUOUS
 62
    90
100
AcDbLine
 10
1616.593661
 20
-45.164958
 30
0.0
 11
1610.042649
 21
-18.083331
 31
0.0
  0
LINE
  5
3493
330
391C
100
AcDbEntity
  8
V0-OBRYS
  6
CONTINUOUS
 62
    90
100
AcDbLine
 10
1623.4099
 20
-16.557052
 30
0.0
 11
1625.438498
 21
-43.231287
 31
0.0
  0
LINE
  5
3494
330
391C
100
AcDbEntity
  8
VO-OBRYS
  6
CONTINUOUS
100
AcDbLine
 10
1656.966809
 20
-50.714683
 30
0.0
 11
1744.057687
 21
36.376195
 31
0.0
  0
LINE
  5
3495
330
391C
100
AcDbEntity
  8
V0-OBRYS
  6
CONTINUOUS
 62
    90
100
AcDbLine
 10
1683.926572
 20
-112.497868
 30
0.0
 11
1711.008199
 21
-119.048881
 31
0.0
  0
LINE
  5
3496
330
391C
100
AcDbEntity
  8
V0-OBRYS
  6
CONTINUOUS
 62
    90
100
AcDbLine
 10
1712.534477
 20
-105.68163
 30
0.0
 11
1685.860243
 21
-103.653031
 31
0.0
  0
LINE
  5
3497
330
391C
100
AcDbEntity
  8
V0-OBRYS
  6
CONTINUOUS
 62
    90
100
AcDbLine
 10
1707.287015
 20
-148.105312
 30
0.0
 11
1688.350692
 21
-145.027333
 31
0.0
  0
LINE
  5
3498
330
391C
100
AcDbEntity
  8
V0-OBRYS
  6
CONTINUOUS
 62
    90
100
AcDbLine
 10
1688.350692
 20
-145.027333
 30
0.0
 11
1685.136945
 21
-136.570876
 31
0.0
  0
LINE
  5
3499
330
391C
100
AcDbEntity
  8
V0-OBRYS
  6
CONTINUOUS
 62
    90
100
AcDbLine
 10
1687.25815
 20
-146.397337
 30
0.0
 11
1678.298589
 21
-145.145904
 31
0.0
  0
LINE
  5
349A
330
391C
100
AcDbEntity
  8
V0-OBRYS
  6
CONTINUOUS
 62
    90
100
AcDbLine
 10
1677.590087
 20
-128.000092
 30
0.0
 11
1702.232105
 21
-142.728015
 31
0.0
  0
LINE
  5
349B
330
391C
100
AcDbEntity
  8
V0-OBRYS
  6
CONTINUOUS
 62
    90
100
AcDbLine
 10
1706.810938
 20
-130.888448
 30
0.0
 11
1681.34564
 21
-120.48271
 31
0.0
  0
LINE
  5
349C
330
391C
100
AcDbEntity
  8
V0-OBRYS
  6
CONTINUOUS
 62
    90
100
AcDbLine
 10
1693.450456
 20
-152.181714
 30
0.0
 11
1672.583735
 21
-135.066194
 31
0.0
  0
LINE
  5
349D
330
391C
100
AcDbEntity
  8
V0-OBRYS
  6
CONTINUOUS
 62
    90
100
AcDbLine
 10
1733.250924
 20
-152.325581
 30
0.0
 11
1709.620594
 21
-148.484621
 31
0.0
  0
LINE
  5
349E
330
391C
100
AcDbEntity
  8
V0-OBRYS
  6
CONTINUOUS
 62
    90
100
AcDbLine
 10
1712.534477
 20
-93.08371099999999
 30
0.0
 11
1685.860243
 21
-95.112309
 31
0.0
  0
LINE
  5
349F
330
391C
100
AcDbEntity
  8
V0-OBRYS
  6
CONTINUOUS
 62
    90
100
AcDbLine
 10
1683.926572
 20
-86.267472
 30
0.0
 11
1711.008199
 21
-79.71646
 31
0.0
  0
LINE
  5
34A0
330
391C
100
AcDbEntity
  8
V0-OBRYS
  6
CONTINUOUS
 62
    90
100
AcDbLine
 10
1720.744325
 20
-89.144987
 30
0.0
 11
1702.347802
 21
-83.701988
 31
0.0
  0
LINE
  5
34A1
330
391C
100
AcDbEntity
  8
V0-OBRYS
  6
CONTINUOUS
 62
    90
100
AcDbLine
 10
1716.170944
 20
-69.107696
 30
0.0
 11
1701.957878
 21
-81.99362100000001
 31
0.0
  0
LINE
  5
34A2
330
391C
100
AcDbEntity
  8
V0-OBRYS
  6
CONTINUOUS
 62
    90
100
AcDbLine
 10
1677.590087
 20
-70.765249
 30
0.0
 11
1702.232105
 21
-56.037326
 31
0.0
  0
LINE
  5
34A3
330
391C
100
AcDbEntity
  8
V0-OBRYS
  6
CONTINUOUS
 62
    90
100
AcDbLine
 10
1701.957878
 20
-81.99362100000001
 30
0.0
 11
1693.342616
 21
-79.233715
 31
0.0
  0
LINE
  5
34A4
330
391C
100
AcDbEntity
  8
V0-OBRYS
  6
CONTINUOUS
 62
    90
100
AcDbLine
 10
1702.347802
 20
-83.701988
 30
0.0
 11
1695.783197
 21
-89.92659999999999
 31
0.0
  0
LINE
  5
34A5
330
391C
100
AcDbEntity
  8
V0-OBRYS
  6
CONTINUOUS
 62
    90
100
AcDbLine
 10
1706.810938
 20
-67.876893
 30
0.0
 11
1681.34564
 21
-78.28263
 31
0.0
  0
LINE
  5
34A6
330
391C
100
AcDbEntity
  8
V0-OBRYS
  6
CONTINUOUS
 62
    90
100
AcDbLine
 10
1693.204562
 20
-47.14068
 30
0.0
 11
1672.825229
 21
-63.991323
 31
0.0
  0
LINE
  5
34A7
330
391C
100
AcDbEntity
  8
V0-OBRYS
  6
CONTINUOUS
 62
    90
100
AcDbLine
 10
1735.658715
 20
-51.439589
 30
0.0
 11
1717.922461
 21
-67.51972600000001
 31
0.0
  0
LINE
  5
34A8
330
391C
100
AcDbEntity
  8
V0-OBRYS
  6
CONTINUOUS
 62
    90
100
AcDbLine
 10
1678.464401
 20
-21.825186
 30
0.0
 11
1662.738848
 21
-32.814513
 31
0.0
  0
LINE
  5
34A9
330
391C
100
AcDbEntity
  8
V0-OBRYS
  6
CONTINUOUS
 62
    90
100
AcDbLine
 10
1656.603682
 20
39.870458
 30
0.0
 11
1658.139287
 21
15.630283
 31
0.0
  0
LINE
  5
34AA
330
391C
100
AcDbEntity
  8
V0-OBRYS
  6
CONTINUOUS
 62
    90
100
AcDbLine
 10
1602.814036
 20
39.870458
 30
0.0
 11
1601.278431
 21
15.630283
 31
0.0
  0
LINE
  5
34AB
330
391C
100
AcDbEntity
  8
V0-OBRYS
  6
CONTINUOUS
 62
    90
100
AcDbLine
 10
1601.133615
 20
13.344285
 30
0.0
 11
1599.620031
 21
-10.548278
 31
0.0
  0
LINE
  5
34AC
330
391C
100
AcDbEntity
  8
V0-OBRYS
  6
CONTINUOUS
 62
    90
100
AcDbLine
 10
1598.257639
 20
-32.054218
 30
0.0
 11
1605.786949
 21
-37.069128
 31
0.0
  0
LINE
  5
34AD
330
391C
100
AcDbEntity
  8
V0-OBRYS
  6
CONTINUOUS
 62
    90
100
AcDbLine
 10
1599.470559
 20
-12.907753
 30
0.0
 11
1598.257639
 21
-32.054218
 31
0.0
  0
LINE
  5
34AE
330
391C
100
AcDbEntity
  8
V0-OBRYS
  6
CONTINUOUS
 62
    90
100
AcDbLine
 10
1658.284104
 20
13.344285
 30
0.0
 11
1659.797687
 21
-10.548278
 31
0.0
  0
LINE
  5
34AF
330
391C
100
AcDbEntity
  8
V0-OBRYS
  6
CONTINUOUS
 62
    90
100
AcDbLine
 10
1661.160079
 20
-32.054218
 30
0.0
 11
1653.63077
 21
-37.069128
 31
0.0
  0
LINE
  5
34B0
330
391C
100
AcDbEntity
  8
V0-OBRYS
  6
CONTINUOUS
 62
    90
100
AcDbLine
 10
1659.947159
 20
-12.907753
 30
0.0
 11
1661.160079
 21
-32.054218
 31
0.0
  0
ARC
  5
34B1
330
391C
100
AcDbEntity
  8
V0-OBRYS
  6
CONTINUOUS
 62
    90
100
AcDbCircle
 10
1629.708859
 20
-99.38267000000001
 30
0.0
 40
174.132358
100
AcDbArc
 50
81.81284700000001
 51
98.187153
  0
LINE
  5
34B2
330
391C
100
AcDbEntity
  8
V0-OBRYS
  6
CONTINUOUS
 62
    90
100
AcDbLine
 10
1604.911192
 20
72.974963
 30
0.0
 11
1604.66963
 21
69.16180799999999
 31
0.0
  0
LINE
  5
34B3
330
391C
100
AcDbEntity
  8
V0-OBRYS
  6
CONTINUOUS
 62
    90
100
AcDbLine
 10
1604.528488
 20
66.933825
 30
0.0
 11
1602.956517
 21
42.11958
 31
0.0
  0
LINE
  5
34B4
330
391C
100
AcDbEntity
  8
V0-OBRYS
  6
CONTINUOUS
 62
    90
100
AcDbLine
 10
1654.506526
 20
72.974963
 30
0.0
 11
1656.461202
 21
42.11958
 31
0.0
  0
LINE
  5
34B5
330
391C
100
AcDbEntity
  8
V0-OBRYS
  6
CONTINUOUS
 62
    90
100
AcDbLine
 10
1721.812691
 20
8.467454
 30
0.0
 11
1701.903525
 21
-5.445464000000001
 31
0.0
  0
LINE
  5
34B6
330
391C
100
AcDbEntity
  8
V0-OBRYS
  6
CONTINUOUS
 62
    90
100
AcDbLine
 10
1700.025968
 20
-6.757537
 30
0.0
 11
1680.402306
 21
-20.47094
 31
0.0
  0
LINE
  5
34B7
330
391C
100
AcDbEntity
  8
V0-OBRYS
  6
CONTINUOUS
 62
    90
100
AcDbLine
 10
1792.227127
 20
-161.91179
 30
0.0
 11
1761.710397
 21
-156.951489
 31
0.0
  0
ARC
  5
34B8
330
391C
100
AcDbEntity
  8
V0-OBRYS
  6
CONTINUOUS
 62
    90
100
AcDbCircle
 10
1629.708859
 20
-99.38267000000001
 30
0.0
 40
174.132358
100
AcDbArc
 50
338.955704
 51
355.33001
  0
LINE
  5
34B9
330
391C
100
AcDbEntity
  8
V0-OBRYS
  6
CONTINUOUS
 62
    90
100
AcDbLine
 10
1771.455282
 20
-104.148893
 30
0.0
 11
1748.164563
 21
-97.25784299999999
 31
0.0
  0
LINE
  5
34BA
330
391C
100
AcDbEntity
  8
V0-OBRYS
  6
CONTINUOUS
 62
    90
100
AcDbLine
 10
1803.263127
 20
-113.559914
 30
0.0
 11
1773.616309
 21
-104.788278
 31
0.0
  0
CIRCLE
  5
34BB
330
391C
100
AcDbEntity
  8
V0-OBRYS
  6
CONTINUOUS
 62
    90
100
AcDbCircle
 10
1827.233818
 20
-99.38267000000001
 30
0.0
 40
6.764553
  0
ARC
  5
34BC
330
391C
100
AcDbEntity
  8
V0-OBRYS
  6
CONTINUOUS
 62
    90
100
AcDbCircle
 10
1629.708859
 20
-99.38267000000001
 30
0.0
 40
174.132358
100
AcDbArc
 50
30.384275
 51
46.758582
  0
LINE
  5
34BD
330
391C
100
AcDbEntity
  8
V0-OBRYS
  6
CONTINUOUS
 62
    90
100
AcDbLine
 10
1779.924576
 20
-11.307041
 30
0.0
 11
1757.019586
 21
-32.073284
 31
0.0
  0
CIRCLE
  5
34BE
330
391C
100
AcDbEntity
  8
V0-OBRYS
  6
CONTINUOUS
 62
    90
100
AcDbCircle
 10
1629.708859
 20
98.14228900000001
 30
0.0
 40
6.764553
  0
CIRCLE
  5
34D3
330
391C
100
AcDbEntity
  8
V0-OBRYS
  6
CONTINUOUS
 62
    90
100
AcDbCircle
 10
1490.037621
 20
40.288568
 30
0.0
 40
6.764553
  0
CIRCLE
  5
34D4
330
391C
100
AcDbEntity
  8
V0-OBRYS
  6
CONTINUOUS
 62
    90
100
AcDbCircle
 10
1490.037621
 20
-239.053909
 30
0.0
 40
6.764553
  0
CIRCLE
  5
34D5
330
391C
100
AcDbEntity
  8
V0-OBRYS
  6
CONTINUOUS
 62
    90
100
AcDbCircle
 10
1769.380097
 20
40.288568
 30
0.0
 40
6.764553
  0
CIRCLE
  5
34D6
330
391C
100
AcDbEntity
  8
V0-OBRYS
  6
CONTINUOUS
 62
    90
100
AcDbCircle
 10
1769.380097
 20
-239.053909
 30
0.0
 40
6.764553
  0
LINE
  5
34E0
330
391C
100
AcDbEntity
  8
V0-OBRYS
  6
CONTINUOUS
 62
    90
100
AcDbLine
 10
1061.992917
 20
113.630652
 30
0.0
 11
1064.788187
 21
113.630652
 31
0.0
  0
LINE
  5
34E1
330
391C
100
AcDbEntity
  8
V0-OBRYS
  6
CONTINUOUS
 62
    90
100
AcDbLine
 10
1226.913847
 20
113.630652
 30
0.0
 11
1230.709117
 21
113.630652
 31
0.0
  0
LINE
  5
34E2
330
391C
100
AcDbEntity
  8
V0-OBRYS
  6
CONTINUOUS
 62
    90
100
AcDbLine
 10
1061.992917
 20
-312.395993
 30
0.0
 11
1064.788187
 21
-312.395993
 31
0.0
  0
LINE
  5
34E3
330
391C
100
AcDbEntity
  8
V0-OBRYS
  6
CONTINUOUS
 62
    90
100
AcDbLine
 10
1226.913847
 20
-312.395993
 30
0.0
 11
1230.709117
 21
-312.395993
 31
0.0
  0
LINE
  5
34E4
330
391C
100
AcDbEntity
  8
V0-VYPLNE
  6
DASHED
 62
    52
100
AcDbLine
 10
1082.176491
 20
-271.932534
 30
0.0
 11
1082.176491
 21
-196.39035
 31
0.0
  0
LINE
  5
34E5
330
391C
100
AcDbEntity
  8
V0-OBRYS
  6
CONTINUOUS
 62
    90
100
AcDbLine
 10
1061.992917
 20
-519.0567150000001
 30
0.0
 11
1064.788187
 21
-519.0567150000001
 31
0.0
  0
LINE
  5
34E6
330
391C
100
AcDbEntity
  8
V0-OBRYS
  6
CONTINUOUS
 62
    90
100
AcDbLine
 10
1229.709117
 20
-519.0567150000001
 30
0.0
 11
1226.913847
 21
-519.0567150000001
 31
0.0
  0
LINE
  5
34E7
330
391C
100
AcDbEntity
  8
V0-OBRYS
  6
CONTINUOUS
 62
    90
100
AcDbLine
 10
1061.992917
 20
-945.08336
 30
0.0
 11
1064.788187
 21
-945.08336
 31
0.0
  0
LINE
  5
34E8
330
391C
100
AcDbEntity
  8
V0-OBRYS
  6
CONTINUOUS
 62
    90
100
AcDbLine
 10
1226.913847
 20
-945.08336
 30
0.0
 11
1229.709117
 21
-945.08336
 31
0.0
  0
LINE
  5
34EE
330
391C
100
AcDbEntity
  8
V0-OBRYS
  6
CONTINUOUS
 62
    90
100
AcDbLine
 10
1097.877632
 20
108.114134
 30
0.0
 11
1177.877632
 21
108.114134
 31
0.0
  0
LINE
  5
34EF
330
391C
100
AcDbEntity
  8
V0-OBRYS
  6
CONTINUOUS
 62
    90
100
AcDbLine
 10
1177.877632
 20
78.11413400000001
 30
0.0
 11
1097.877632
 21
78.11413400000001
 31
0.0
  0
LINE
  5
34F0
330
391C
100
AcDbEntity
  8
V0-OBRYS
  6
CONTINUOUS
 62
    90
100
AcDbLine
 10
1097.877632
 20
118.114134
 30
0.0
 11
1177.877632
 21
118.114134
 31
0.0
  0
LINE
  5
34F1
330
391C
100
AcDbEntity
  8
V0-OBRYS
  6
CONTINUOUS
 62
    90
100
AcDbLine
 10
1097.877632
 20
78.11413400000001
 30
0.0
 11
1097.877632
 21
118.114134
 31
0.0
  0
LINE
  5
34F2
330
391C
100
AcDbEntity
  8
V0-OBRYS
  6
CONTINUOUS
 62
    90
100
AcDbLine
 10
1177.877632
 20
118.114134
 30
0.0
 11
1177.877632
 21
78.11413400000001
 31
0.0
  0
LINE
  5
34F3
330
391C
100
AcDbEntity
  8
V0-OBRYS
  6
CONTINUOUS
 62
    90
100
AcDbLine
 10
1174.540163
 20
-761.5649120000001
 30
0.0
 11
1104.540163
 21
-761.5649120000001
 31
0.0
  0
LINE
  5
34F4
330
391C
100
AcDbEntity
  8
V0-OBRYS
  6
CONTINUOUS
 62
    90
100
AcDbLine
 10
1104.540163
 20
-701.5649120000001
 30
0.0
 11
1174.540163
 21
-701.5649120000001
 31
0.0
  0
CIRCLE
  5
34F5
330
391C
100
AcDbEntity
  8
V0-OBRYS
  6
CONTINUOUS
 62
    90
100
AcDbCircle
 10
1104.209327
 20
-757.099796
 30
0.0
 40
2.347961
  0
CIRCLE
  5
34F6
330
391C
100
AcDbEntity
  8
V0-OBRYS
  6
CONTINUOUS
 62
    90
100
AcDbCircle
 10
1104.209327
 20
-706.030027
 30
0.0
 40
2.347961
  0
ARC
  5
34F7
330
391C
100
AcDbEntity
  8
V0-OBRYS
  6
CONTINUOUS
 62
    90
100
AcDbCircle
 10
1104.540163
 20
-706.5649120000001
 30
0.0
 40
5.0
100
AcDbArc
 50
90.0
 51
180.0
  0
LINE
  5
34F8
330
391C
100
AcDbEntity
  8
V0-OBRYS
  6
CONTINUOUS
 62
    90
100
AcDbLine
 10
1099.540163
 20
-756.5649120000001
 30
0.0
 11
1099.540163
 21
-706.5649120000001
 31
0.0
  0
ARC
  5
34F9
330
391C
100
AcDbEntity
  8
V0-OBRYS
  6
CONTINUOUS
 62
    90
100
AcDbCircle
 10
1104.540163
 20
-756.5649120000001
 30
0.0
 40
5.0
100
AcDbArc
 50
180.0
 51
270.0
  0
ARC
  5
34FA
330
391C
100
AcDbEntity
  8
V0-OBRYS
  6
CONTINUOUS
 62
    90
100
AcDbCircle
 10
1174.540163
 20
-706.5649120000001
 30
0.0
 40
5.0
100
AcDbArc
 50
0.0
 51
90.0
  0
LINE
  5
34FB
330
391C
100
AcDbEntity
  8
V0-OBRYS
  6
CONTINUOUS
 62
    90
100
AcDbLine
 10
1179.540163
 20
-706.5649120000001
 30
0.0
 11
1179.540163
 21
-756.5649120000001
 31
0.0
  0
ARC
  5
34FC
330
391C
100
AcDbEntity
  8
V0-OBRYS
  6
CONTINUOUS
 62
    90
100
AcDbCircle
 10
1174.540163
 20
-756.5649120000001
 30
0.0
 40
5.0
100
AcDbArc
 50
270.0
 51
0.0
  0
CIRCLE
  5
34FD
330
391C
100
AcDbEntity
  8
V0-OBRYS
  6
CONTINUOUS
 62
    90
100
AcDbCircle
 10
1174.870999
 20
-757.099796
 30
0.0
 40
2.347961
  0
CIRCLE
  5
34FE
330
391C
100
AcDbEntity
  8
V0-OBRYS
  6
CONTINUOUS
 62
    90
100
AcDbCircle
 10
1174.870999
 20
-706.030027
 30
0.0
 40
2.347961
  0
POINT
  5
3503
330
391C
100
AcDbEntity
  8
V0-VYPLNE
  6
CONTINUOUS
 62
    41
100
AcDbPoint
 10
1061.992917
 20
-99.38267000000001
 30
0.0
  0
POINT
  5
3504
330
391C
100
AcDbEntity
  8
V0-VYPLNE
  6
CONTINUOUS
 62
    41
100
AcDbPoint
 10
1229.709117
 20
-99.38267000000001
 30
0.0
  0
POINT
  5
3505
330
391C
100
AcDbEntity
  8
V0-VYPLNE
  6
CONTINUOUS
 62
    41
100
AcDbPoint
 10
1229.709117
 20
-732.070037
 30
0.0
  0
POINT
  5
3506
330
391C
100
AcDbEntity
  8
V0-VYPLNE
  6
CONTINUOUS
 62
    41
100
AcDbPoint
 10
1061.992917
 20
-732.070037
 30
0.0
  0
LWPOLYLINE
  5
383D
330
391C
100
AcDbEntity
  8
V0-VYPLNE
  6
CONTINUOUS
 62
    41
100
AcDbPolyline
 90
        4
 70
     1
 43
0.0
 10
1610.020169222703
 20
-320.0885595511061
 10
1629.708859
 20
-296.90763
 10
1618.60256203805
 20
-325.2210573409806
 10
1618.60256203805
 20
-325.2210573409806
1001
VDEXTRAPARAM
1071
       65
1071
        0
1071
        0
1040
1.0
1000

1000

1040
0.0
1040
0.0
  0
HATCH
  5
3989
330
391C
100
AcDbEntity
  8
V0-VYPLNE
  6
CONTINUOUS
 62
    41
100
AcDbHatch
 10
0.0
 20
0.0
 30
0.0
210
0.0
220
0.0
230
1.0
  2
SOLID
 70
     1
 71
     0
 91
        1
 92
        2
 72
     0
 73
     1
 93
        3
 10
1610.020169222703
 20
-320.0885595511061
 10
1629.708859
 20
-296.90763
 10
1618.60256203805
 20
-325.2210573409806
 97
        0
 75
     0
 76
     1
 98
        1
 10
0.0
 20
0.0
1001
VDEXTRAPARAM
1071
       65
1071
        0
1071
        0
1040
1.0
1000

1000

1040
0.0
1040
0.0
1001
VD_TEMPHATCH
1000
VD_TEMPHATCH
  0
LWPOLYLINE
  5
383E
330
391C
100
AcDbEntity
  8
V0-VYPLNE
  6
CONTINUOUS
 62
    41
100
AcDbPolyline
 90
        3
 70
     0
 43
0.0
 10
1614.311365630377
 20
-322.6548084460433
 10
1572.937969
 20
-391.838032
 10
1294.914347
 20
-391.838032
  0
TEXT
  5
3843
330
391C
100
AcDbEntity
  8
V0-VYPLNE
  6
CONTINUOUS
 62
    41
100
AcDbText
 10
1199.509397571429
 20
-389.838032
 30
0.0
 40
30.0
  1
8 OTVORU %%c10
  7
ED40
100
AcDbText
  0
VIEWPORT
  5
398A
330
3918
100
AcDbEntity
 67
     1
  8
0
 60
     1
100
AcDbViewport
 10
261.517699
 20
148.5
 30
0.0
 40
297.0
 41
297.0
 68
     0
 69
     1
1001
VD_INVISIBLE_NOT_FOR_READ
1000
VD_INVISIBLE_NOT_FOR_READ
1001
ACAD
1000
MVIEW
1002
{
1070
    16
1010
0.0
1020
0.0
1030
0.0
1010
0.0
1020
0.0
1030
1.0
1040
6.2831853071796
1040
297.0
1040
261.517699
1040
148.5
1040
0.0
1040
0.0
1040
0.0
1070
     0
1070
   100
1070
     0
1070
     1
1070
     0
1070
     0
1070
     0
1070
     0
1040
0.0
1040
0.0
1040
0.0
1040
1.0
1040
1.0
1040
0.0
1040
0.0
1070
     0
1002
{
1002
}
1002
}
  0
VIEWPORT
  5
398B
330
3918
100
AcDbEntity
 67
     1
  8
0
 60
     1
100
AcDbViewport
 10
261.517699
 20
148.5
 30
0.0
 40
297.0
 41
297.0
 68
     0
 69
     2
1001
VD_INVISIBLE_NOT_FOR_READ
1000
VD_INVISIBLE_NOT_FOR_READ
1001
ACAD
1000
MVIEW
1002
{
1070
    16
1010
0.0
1020
0.0
1030
0.0
1010
0.0
1020
0.0
1030
1.0
1040
6.2831853071796
1040
297.0
1040
261.517699
1040
148.5
1040
0.0
1040
0.0
1040
0.0
1070
     0
1070
   100
1070
     0
1070
     1
1070
     0
1070
     0
1070
     0
1070
     0
1040
0.0
1040
0.0
1040
0.0
1040
1.0
1040
1.0
1040
0.0
1040
0.0
1070
     0
1002
{
1002
}
1002
}
  0
ENDSEC
  0
SECTION
  2
OBJECTS
  0
DICTIONARY
  5
3909
330
0
100
AcDbDictionary
  3
ACAD_GROUP
350
390A
  3
ACAD_LAYOUT
350
3917
  3
ACAD_MLINESTYLE
350
3914
  3
ACAD_PLOTSETTINGS
350
3916
  3
ACDBHEADERROUNDTRIPXREC
350
398C
  3
VECTORDRAW_OBJECTS
350
392C
  0
DICTIONARY
  5
39AC
330
3926
100
AcDbDictionary
280
     1
  3
ACAD_XREC_ROUNDTRIP
360
39AD
  0
DICTIONARY
  5
390A
102
{ACAD_REACTORS
330
3909
102
}
330
3909
100
AcDbDictionary
  0
DICTIONARY
  5
3917
102
{ACAD_REACTORS
330
3909
102
}
330
3909
100
AcDbDictionary
  0
DICTIONARY
  5
3914
102
{ACAD_REACTORS
330
3909
102
}
330
3909
100
AcDbDictionary
  3
STANDARD
350
3915
  0
DICTIONARY
  5
3916
102
{ACAD_REACTORS
330
3909
102
}
330
3909
100
AcDbDictionary
  0
DICTIONARY
  5
398C
102
{ACAD_REACTORS
330
3909
102
}
330
3909
100
AcDbDictionary
  3
CEPSNTYPE
350
3995
  3
DIMSTYLEDATA
350
39AB
  3
FINGERPRINTGUID
350
3996
  3
HYPERLINKBASE
350
398F
  3
INSUNITS
350
3994
  3
LAYOUTDICT
350
3991
  3
LWETCUNION
350
3993
  3
PLOTSETDICT
350
3992
  3
PSVPSCALE
350
3998
  3
PUCSBASE
350
399B
  3
PUCSORGBACK
350
39A1
  3
PUCSORGBOTTOM
350
399D
  3
PUCSORGFRONT
350
39A0
  3
PUCSORGLEFT
350
399E
  3
PUCSORGRIGHT
350
399F
  3
PUCSORGTOP
350
399C
  3
PUCSORTHOREF
350
3999
  3
PUCSORTHOVIEW
350
399A
  3
STYLESHEET
350
3990
  3
TSTACKALIGN
350
398D
  3
TSTACKSIZE
350
398E
  3
UCSBASE
350
39A4
  3
UCSORGBACK
350
39AA
  3
UCSORGBOTTOM
350
39A6
  3
UCSORGFRONT
350
39A9
  3
UCSORGLEFT
350
39A7
  3
UCSORGRIGHT
350
39A8
  3
UCSORGTOP
350
39A5
  3
UCSORTHOREF
350
39A2
  3
UCSORTHOVIEW
350
39A3
  3
VERSIONGUID
350
3997
  0
DICTIONARY
  5
392C
102
{ACAD_REACTORS
330
3909
102
}
330
3909
100
AcDbDictionary
  3
SERIALNO
350
392D
  0
XRECORD
  5
39AD
102
{ACAD_REACTORS
330
39AC
102
}
330
39AC
100
AcDbXrecord
102
UCS
 74
     0
 71
     1
 10
0.0
 20
0.0
 30
0.0
 10
1.0
 20
0.0
 30
0.0
 10
0.0
 20
1.0
 30
0.0
146
0.0
 79
     0
102
VIEW
281
     0
  0
MLINESTYLE
  5
3915
102
{ACAD_REACTORS
330
3914
102
}
330
3914
100
AcDbMlineStyle
  2
Standard
 70
     0
  3

 62
   256
 51
90.0
 52
90.0
 71
     2
 49
0.5
 62
   256
  6
BYLAYER
 49
-0.5
 62
   256
  6
BYLAYER
  0
XRECORD
  5
3995
102
{ACAD_REACTORS
330
398C
102
}
330
398C
100
AcDbXrecord
 90
        0
  0
XRECORD
  5
39AB
102
{ACAD_REACTORS
330
398C
102
}
330
398C
100
AcDbXrecord
1000
DSTYLE
1002
{
1070
    41
 40
40.0
1070
   342
340
90
1070
   177
 70
    41
1070
   178
 70
    41
1070
   271
 70
     0
1070
    44
 40
1.25
1070
    42
 40
1.0
1070
   147
 40
2.0
1070
    77
 70
     1
1070
    73
 70
     0
1070
   174
 70
     1
1070
   172
 70
     1
1070
    74
 70
     0
1070
   340
340
F39
1070
   140
 40
40.0
1070
   288
 70
     1
1002
}
  0
XRECORD
  5
3996
102
{ACAD_REACTORS
330
398C
102
}
330
398C
100
AcDbXrecord
  1
{FAEB1C30-E019-11D5-929B-00C0DF256EC4}
  0
XRECORD
  5
398F
102
{ACAD_REACTORS
330
398C
102
}
330
398C
100
AcDbXrecord
  1

  0
XRECORD
  5
3994
102
{ACAD_REACTORS
330
398C
102
}
330
398C
100
AcDbXrecord
 90
        1
  0
XRECORD
  5
3991
102
{ACAD_REACTORS
330
398C
102
}
330
398C
100
AcDbXrecord
340
3917
  0
XRECORD
  5
3993
102
{ACAD_REACTORS
330
398C
102
}
330
398C
100
AcDbXrecord
 90
     2560
  0
XRECORD
  5
3992
102
{ACAD_REACTORS
330
398C
102
}
330
398C
100
AcDbXrecord
340
3916
  0
XRECORD
  5
3998
102
{ACAD_REACTORS
330
398C
102
}
330
398C
100
AcDbXrecord
 40
0.0
  0
XRECORD
  5
399B
102
{ACAD_REACTORS
330
398C
102
}
330
398C
100
AcDbXrecord
340
0
  0
XRECORD
  5
39A1
102
{ACAD_REACTORS
330
398C
102
}
330
398C
100
AcDbXrecord
 10
0.0
 20
0.0
 30
0.0
  0
XRECORD
  5
399D
102
{ACAD_REACTORS
330
398C
102
}
330
398C
100
AcDbXrecord
 10
0.0
 20
0.0
 30
0.0
  0
XRECORD
  5
39A0
102
{ACAD_REACTORS
330
398C
102
}
330
398C
100
AcDbXrecord
 10
0.0
 20
0.0
 30
0.0
  0
XRECORD
  5
399E
102
{ACAD_REACTORS
330
398C
102
}
330
398C
100
AcDbXrecord
 10
0.0
 20
0.0
 30
0.0
  0
XRECORD
  5
399F
102
{ACAD_REACTORS
330
398C
102
}
330
398C
100
AcDbXrecord
 10
0.0
 20
0.0
 30
0.0
  0
XRECORD
  5
399C
102
{ACAD_REACTORS
330
398C
102
}
330
398C
100
AcDbXrecord
 10
0.0
 20
0.0
 30
0.0
  0
XRECORD
  5
3999
102
{ACAD_REACTORS
330
398C
102
}
330
398C
100
AcDbXrecord
340
0
  0
XRECORD
  5
399A
102
{ACAD_REACTORS
330
398C
102
}
330
398C
100
AcDbXrecord
 70
     0
  0
XRECORD
  5
3990
102
{ACAD_REACTORS
330
398C
102
}
330
398C
100
AcDbXrecord
  1

  0
XRECORD
  5
398D
102
{ACAD_REACTORS
330
398C
102
}
330
398C
100
AcDbXrecord
 90
        1
  0
XRECORD
  5
398E
102
{ACAD_REACTORS
330
398C
102
}
330
398C
100
AcDbXrecord
 90
       70
  0
XRECORD
  5
39A4
102
{ACAD_REACTORS
330
398C
102
}
330
398C
100
AcDbXrecord
340
0
  0
XRECORD
  5
39AA
102
{ACAD_REACTORS
330
398C
102
}
330
398C
100
AcDbXrecord
 10
0.0
 20
0.0
 30
0.0
  0
XRECORD
  5
39A6
102
{ACAD_REACTORS
330
398C
102
}
330
398C
100
AcDbXrecord
 10
0.0
 20
0.0
 30
0.0
  0
XRECORD
  5
39A9
102
{ACAD_REACTORS
330
398C
102
}
330
398C
100
AcDbXrecord
 10
0.0
 20
0.0
 30
0.0
  0
XRECORD
  5
39A7
102
{ACAD_REACTORS
330
398C
102
}
330
398C
100
AcDbXrecord
 10
0.0
 20
0.0
 30
0.0
  0
XRECORD
  5
39A8
102
{ACAD_REACTORS
330
398C
102
}
330
398C
100
AcDbXrecord
 10
0.0
 20
0.0
 30
0.0
  0
XRECORD
  5
39A5
102
{ACAD_REACTORS
330
398C
102
}
330
398C
100
AcDbXrecord
 10
0.0
 20
0.0
 30
0.0
  0
XRECORD
  5
39A2
102
{ACAD_REACTORS
330
398C
102
}
330
398C
100
AcDbXrecord
340
0
  0
XRECORD
  5
39A3
102
{ACAD_REACTORS
330
398C
102
}
330
398C
100
AcDbXrecord
 70
     0
  0
XRECORD
  5
3997
102
{ACAD_REACTORS
330
398C
102
}
330
398C
100
AcDbXrecord
  1
{FAEB1C32-E019-11D5-929B-00C0DF256EC4}
  0
XRECORD
  5
392D
102
{ACAD_REACTORS
330
392C
102
}
330
392C
100
AcDbXrecord
1000
rInJVR9YY4Q8hfPWdUq5j5319
1070
     4
1070
     6
  0
ENDSEC
  0
EOF
