  0
SECTION
  2
HEADER
  9
$ACADVER
  1
AC1014
  9
$ACADMAINTVER
 70
     9
  9
$DWGCODEPAGE
  3
ANSI_1250
  9
$INSBASE
 10
0.0
 20
0.0
 30
0.0
  9
$EXTMIN
 10
-244.1742003846149
 20
-526.607307
 30
0.0
  9
$EXTMAX
 10
562.7007492417582
 20
255.904855
 30
0.0
  9
$LIMMIN
 10
0.0
 20
0.0
  9
$LIMMAX
 10
0.0
 20
0.0
  9
$ORTHOMODE
 70
     1
  9
$REGENMODE
 70
     1
  9
$FILLMODE
 70
     1
  9
$QTEXTMODE
 70
     0
  9
$MIRRTEXT
 70
     1
  9
$DRAGMODE
 70
     2
  9
$LTSCALE
 40
1.0
  9
$OSMODE
 70
    37
  9
$ATTMODE
 70
     1
  9
$TEXTSIZE
 40
0.2
  9
$TRACEWID
 40
0.05
  9
$TEXTSTYLE
  7
ED40
  9
$CLAYER
  8
V0-VYPLNE
  9
$CELTYPE
  6
CONTINUOUS
  9
$CECOLOR
 62
    41
  9
$CELTSCALE
 40
1.0
  9
$DELOBJ
 70
     1
  9
$DISPSILH
 70
     0
  9
$DIMSCALE
 40
1.0
  9
$DIMASZ
 40
20.0
  9
$DIMEXO
 40
1.0
  9
$DIMDLI
 40
0.38
  9
$DIMRND
 40
0.0
  9
$DIMDLE
 40
0.0
  9
$DIMEXE
 40
1.25
  9
$DIMTP
 40
0.0
  9
$DIMTM
 40
0.0
  9
$DIMTXT
 40
20.0
  9
$DIMCEN
 40
0.09
  9
$DIMTSZ
 40
0.0
  9
$DIMTOL
 70
     0
  9
$DIMLIM
 70
     0
  9
$DIMTIH
 70
     0
  9
$DIMTOH
 70
     0
  9
$DIMSE1
 70
     0
  9
$DIMSE2
 70
     0
  9
$DIMTAD
 70
     1
  9
$DIMZIN
 70
     0
  9
$DIMBLK
  1
OPEN
  9
$DIMASO
 70
     1
  9
$DIMSHO
 70
     1
  9
$DIMPOST
  1

  9
$DIMAPOST
  1

  9
$DIMALT
 70
     0
  9
$DIMALTD
 70
     2
  9
$DIMALTF
 40
25.4
  9
$DIMLFAC
 40
1.0
  9
$DIMTOFL
 70
     1
  9
$DIMTVP
 40
0.0
  9
$DIMTIX
 70
     1
  9
$DIMSOXD
 70
     0
  9
$DIMSAH
 70
     0
  9
$DIMBLK1
  1

  9
$DIMBLK2
  1

  9
$DIMSTYLE
  2
ED20
  9
$DIMCLRD
 70
     0
  9
$DIMCLRE
 70
    41
  9
$DIMCLRT
 70
    41
  9
$DIMTFAC
 40
1.0
  9
$DIMGAP
 40
2.0
  9
$DIMJUST
 70
     0
  9
$DIMSD1
 70
     0
  9
$DIMSD2
 70
     0
  9
$DIMTOLJ
 70
     1
  9
$DIMTZIN
 70
     0
  9
$DIMALTZ
 70
     0
  9
$DIMALTTZ
 70
     0
  9
$DIMFIT
 70
     3
  9
$DIMUPT
 70
     1
  9
$DIMUNIT
 70
     2
  9
$DIMDEC
 70
     0
  9
$DIMTDEC
 70
     4
  9
$DIMALTU
 70
     2
  9
$DIMALTTD
 70
     2
  9
$DIMTXSTY
  7
ED20
  9
$DIMAUNIT
 70
     0
  9
$LUNITS
 70
     2
  9
$LUPREC
 70
     4
  9
$SKETCHINC
 40
0.1
  9
$FILLETRAD
 40
0.5
  9
$AUNITS
 70
     0
  9
$AUPREC
 70
     0
  9
$MENU
  1
.
  9
$ELEVATION
 40
0.0
  9
$PELEVATION
 40
0.0
  9
$THICKNESS
 40
0.0
  9
$LIMCHECK
 70
     0
  9
$BLIPMODE
 70
     0
  9
$CHAMFERA
 40
0.5
  9
$CHAMFERB
 40
0.5
  9
$CHAMFERC
 40
1.0
  9
$CHAMFERD
 40
0.0
  9
$SKPOLY
 70
     0
  9
$TDCREATE
 40
2455576.635682326
  9
$TDUPDATE
 40
2455576.635682338
  9
$TDINDWG
 40
0.0000000116
  9
$TDUSRTIMER
 40
0.0000000116
  9
$USRTIMER
 70
     1
  9
$ANGBASE
 50
0.0
  9
$ANGDIR
 70
     0
  9
$PDMODE
 70
    35
  9
$PDSIZE
 40
20.0
  9
$PLINEWID
 40
0.0
  9
$COORDS
 70
     1
  9
$SPLFRAME
 70
     0
  9
$SPLINETYPE
 70
     6
  9
$SPLINESEGS
 70
     8
  9
$ATTDIA
 70
     0
  9
$ATTREQ
 70
     1
  9
$HANDLING
 70
     1
  9
$HANDSEED
  5
2F8B
  9
$SURFTAB1
 70
     6
  9
$SURFTAB2
 70
     6
  9
$SURFTYPE
 70
     6
  9
$SURFU
 70
     6
  9
$SURFV
 70
     6
  9
$UCSNAME
  2

  9
$UCSORG
 10
0.0
 20
0.0
 30
0.0
  9
$UCSXDIR
 10
1.0
 20
0.0
 30
0.0
  9
$UCSYDIR
 10
0.0
 20
1.0
 30
0.0
  9
$PUCSNAME
  2

  9
$PUCSORG
 10
0.0
 20
0.0
 30
0.0
  9
$PUCSXDIR
 10
1.0
 20
0.0
 30
0.0
  9
$PUCSYDIR
 10
0.0
 20
1.0
 30
0.0
  9
$USERI1
 70
     0
  9
$USERI2
 70
     0
  9
$USERI3
 70
     0
  9
$USERI4
 70
     0
  9
$USERI5
 70
     0
  9
$USERR1
 40
0.0
  9
$USERR2
 40
0.0
  9
$USERR3
 40
0.0
  9
$USERR4
 40
0.0
  9
$USERR5
 40
0.0
  9
$WORLDVIEW
 70
     1
  9
$SHADEDGE
 70
     3
  9
$SHADEDIF
 70
    70
  9
$TILEMODE
 70
     1
  9
$MAXACTVP
 70
    64
  9
$PINSBASE
 10
0.0
 20
0.0
 30
0.0
  9
$PLIMCHECK
 70
     0
  9
$PEXTMIN
 10
1.000000000000000E+20
 20
1.000000000000000E+20
 30
1.000000000000000E+20
  9
$PEXTMAX
 10
-1.000000000000000E+20
 20
-1.000000000000000E+20
 30
-1.000000000000000E+20
  9
$PLIMMIN
 10
0.0
 20
0.0
  9
$PLIMMAX
 10
0.0
 20
0.0
  9
$UNITMODE
 70
     0
  9
$VISRETAIN
 70
     1
  9
$PLINEGEN
 70
     0
  9
$PSLTSCALE
 70
     1
  9
$TREEDEPTH
 70
  3020
  9
$PICKSTYLE
 70
     1
  9
$CMLSTYLE
  2
STANDARD
  9
$CMLJUST
 70
     0
  9
$CMLSCALE
 40
1.0
  9
$PROXYGRAPHICS
 70
     1
  9
$MEASUREMENT
 70
     0
  0
ENDSEC
  0
SECTION
  2
CLASSES
  0
CLASS
  1
ACDBDICTIONARYWDFLT
  2
AcDbDictionaryWithDefault
  3
ObjectDBX Classes
 90
        0
280
     0
281
     0
  0
CLASS
  1
XRECORD
  2
AcDbXrecord
  3
AutoCAD 2000
 90
        0
280
     0
281
     0
  0
CLASS
  1
LWPOLYLINE
  2
AcDbPolyline
  3
AutoCAD 2000
 90
        0
280
     0
281
     1
  0
CLASS
  1
HATCH
  2
AcDbHatch
  3
AutoCAD 2000
 90
        0
280
     0
281
     1
  0
CLASS
  1
ACDBPLACEHOLDER
  2
AcDbPlaceHolder
  3
ObjectDBX Classes
 90
        0
280
     0
281
     0
  0
CLASS
  1
LAYOUT
  2
AcDbLayout
  3
ObjectDBX Classes
 90
        0
280
     0
281
     0
  0
ENDSEC
  0
SECTION
  2
TABLES
  0
TABLE
  2
VPORT
  5
2EE2
330
0
100
AcDbSymbolTable
 70
     2
  0
VPORT
  5
2F03
102
{ACAD_XDICTIONARY
360
2F89
102
}
330
2EE2
100
AcDbSymbolTableRecord
100
AcDbViewportTableRecord
  2
*ACTIVE
 70
     0
 10
0.0
 20
0.0
 11
1.0
 21
1.0
 12
-15.237261
 22
-108.066373
 13
0.0
 23
0.0
 14
10.0
 24
10.0
 15
10.0
 25
10.0
 16
0.0
 26
0.0
 36
1.0
 17
0.0
 27
0.0
 37
0.0
 40
924.085062
 41
0.0192155002670663
 42
50.0
 43
0.0
 44
0.0
 50
0.0
 51
0.0000000000007958
 71
     0
 72
   100
 73
     1
 74
     3
 75
     0
 76
     0
 77
     0
 78
     0
  0
ENDTAB
  0
TABLE
  2
LTYPE
  5
2EDF
330
0
100
AcDbSymbolTable
 70
    25
  0
LTYPE
  5
2EEE
330
2EDF
100
AcDbSymbolTableRecord
100
AcDbLinetypeTableRecord
  2
BYBLOCK
 70
     0
  3

 72
    65
 73
     0
 40
0.0
  0
LTYPE
  5
2EEF
330
2EDF
100
AcDbSymbolTableRecord
100
AcDbLinetypeTableRecord
  2
BYLAYER
 70
     0
  3

 72
    65
 73
     0
 40
0.0
  0
LTYPE
  5
2EF0
330
2EDF
100
AcDbSymbolTableRecord
100
AcDbLinetypeTableRecord
  2
CONTINUOUS
 70
     0
  3
Solid line
 72
    65
 73
     0
 40
0.0
  0
LTYPE
  5
2F0B
330
2EDF
100
AcDbSymbolTableRecord
100
AcDbLinetypeTableRecord
  2
CENTER
 70
     0
  3
Center ____ _ ____ _ ____ _ ____ _ ____ _ ____
 72
    65
 73
     4
 40
2.0
 49
1.25
 74
     0
 49
-0.25
 74
     0
 49
0.25
 74
     0
 49
-0.25
 74
     0
  0
LTYPE
  5
2F0C
330
2EDF
100
AcDbSymbolTableRecord
100
AcDbLinetypeTableRecord
  2
DASHDOT
 70
     0
  3
Dashdot __ . __ . __ . __ . __ . __ . __ . __
 72
    65
 73
     4
 40
1.0
 49
0.5
 74
     0
 49
-0.25
 74
     0
 49
0.0
 74
     0
 49
-0.25
 74
     0
  0
LTYPE
  5
2F0D
330
2EDF
100
AcDbSymbolTableRecord
100
AcDbLinetypeTableRecord
  2
DASHED
 70
     0
  3
Dashed __ __ __ __ __ __ __ __ __ __ __ __ __ _
 72
    65
 73
     2
 40
0.75
 49
0.5
 74
     0
 49
-0.25
 74
     0
  0
LTYPE
  5
2F0E
330
2EDF
100
AcDbSymbolTableRecord
100
AcDbLinetypeTableRecord
  2
HIDDEN
 70
     0
  3
Hidden __ __ __ __ __ __ __ __ __ __ __ __ __ __
 72
    65
 73
     2
 40
0.375
 49
0.25
 74
     0
 49
-0.125
 74
     0
  0
LTYPE
  5
2F0F
330
2EDF
100
AcDbSymbolTableRecord
100
AcDbLinetypeTableRecord
  2
HIDDEN2
 70
     0
  3
Hidden2 _ _ _ _ _ _ _ _ _ _ _ _ _ _ _ _ _ 
 72
    65
 73
     2
 40
0.1875
 49
0.125
 74
     0
 49
-0.0625
 74
     0
  0
LTYPE
  5
2F10
330
2EDF
100
AcDbSymbolTableRecord
100
AcDbLinetypeTableRecord
  2
BORDER
 70
     0
  3
Border __ __ . __ __ . __ __ . __ __ . __ __ .
 72
    65
 73
     6
 40
1.75
 49
0.5
 74
     0
 49
-0.25
 74
     0
 49
0.5
 74
     0
 49
-0.25
 74
     0
 49
0.0
 74
     0
 49
-0.25
 74
     0
  0
LTYPE
  5
2F11
330
2EDF
100
AcDbSymbolTableRecord
100
AcDbLinetypeTableRecord
  2
BORDER2
 70
     0
  3
Border2 __.__.__.__.__.__.__.__.__.__.__.
 72
    65
 73
     6
 40
0.875
 49
0.25
 74
     0
 49
-0.125
 74
     0
 49
0.25
 74
     0
 49
-0.125
 74
     0
 49
0.0
 74
     0
 49
-0.125
 74
     0
  0
LTYPE
  5
2F12
330
2EDF
100
AcDbSymbolTableRecord
100
AcDbLinetypeTableRecord
  2
BORDERX2
 70
     0
  3
Borderx2  ____  ____  .  ____  ____  .  ___
 72
    65
 73
     6
 40
3.5
 49
1.0
 74
     0
 49
-0.5
 74
     0
 49
1.0
 74
     0
 49
-0.5
 74
     0
 49
0.0
 74
     0
 49
-0.5
 74
     0
  0
LTYPE
  5
2F13
330
2EDF
100
AcDbSymbolTableRecord
100
AcDbLinetypeTableRecord
  2
CENTER2
 70
     0
  3
Center2  ___ _ ___ _ ___ _ ___ _ ___ _ ___
 72
    65
 73
     4
 40
1.125
 49
0.75
 74
     0
 49
-0.125
 74
     0
 49
0.125
 74
     0
 49
-0.125
 74
     0
  0
LTYPE
  5
2F14
330
2EDF
100
AcDbSymbolTableRecord
100
AcDbLinetypeTableRecord
  2
CENTERX2
 70
     0
  3
Centerx2  ________  __  ________  __  _____
 72
    65
 73
     4
 40
4.0
 49
2.5
 74
     0
 49
-0.5
 74
     0
 49
0.5
 74
     0
 49
-0.5
 74
     0
  0
LTYPE
  5
2F15
330
2EDF
100
AcDbSymbolTableRecord
100
AcDbLinetypeTableRecord
  2
DASHDOT2
 70
     0
  3
Dashdot2  _._._._._._._._._._._._._._._.
 72
    65
 73
     4
 40
0.5
 49
0.25
 74
     0
 49
-0.125
 74
     0
 49
0.0
 74
     0
 49
-0.125
 74
     0
  0
LTYPE
  5
2F16
330
2EDF
100
AcDbSymbolTableRecord
100
AcDbLinetypeTableRecord
  2
DASHDOTX2
 70
     0
  3
Dashdotx2 ____  .  ____  .  ____  .  ___
 72
    65
 73
     4
 40
2.0
 49
1.0
 74
     0
 49
-0.5
 74
     0
 49
0.0
 74
     0
 49
-0.5
 74
     0
  0
LTYPE
  5
2F17
330
2EDF
100
AcDbSymbolTableRecord
100
AcDbLinetypeTableRecord
  2
DASHED2
 70
     0
  3
Dashed2 _ _ _ _ _ _ _ _ _ _ _ _ _ _ _ _ _ 
 72
    65
 73
     2
 40
0.375
 49
0.25
 74
     0
 49
-0.125
 74
     0
  0
LTYPE
  5
2F18
330
2EDF
100
AcDbSymbolTableRecord
100
AcDbLinetypeTableRecord
  2
DASHEDX2
 70
     0
  3
Dashedx2 ____  ____  ____  ____  ____  ___
 72
    65
 73
     2
 40
1.5
 49
1.0
 74
     0
 49
-0.5
 74
     0
  0
LTYPE
  5
2F19
330
2EDF
100
AcDbSymbolTableRecord
100
AcDbLinetypeTableRecord
  2
DIVIDE
 70
     0
  3
Divide ____ . . ____ . . ____ . . ____ . . ____
 72
    65
 73
     6
 40
1.25
 49
0.5
 74
     0
 49
-0.25
 74
     0
 49
0.0
 74
     0
 49
-0.25
 74
     0
 49
0.0
 74
     0
 49
-0.25
 74
     0
  0
LTYPE
  5
2F1A
330
2EDF
100
AcDbSymbolTableRecord
100
AcDbLinetypeTableRecord
  2
DIVIDE2
 70
     0
  3
Divide2 __..__..__..__..__..__..__..__.._
 72
    65
 73
     6
 40
0.625
 49
0.25
 74
     0
 49
-0.125
 74
     0
 49
0.0
 74
     0
 49
-0.125
 74
     0
 49
0.0
 74
     0
 49
-0.125
 74
     0
  0
LTYPE
  5
2F1B
330
2EDF
100
AcDbSymbolTableRecord
100
AcDbLinetypeTableRecord
  2
DIVIDEX2
 70
     0
  3
Dividex2 ________  .  .  ________  .  .  _
 72
    65
 73
     6
 40
2.5
 49
1.0
 74
     0
 49
-0.5
 74
     0
 49
0.0
 74
     0
 49
-0.5
 74
     0
 49
0.0
 74
     0
 49
-0.5
 74
     0
  0
LTYPE
  5
2F1C
330
2EDF
100
AcDbSymbolTableRecord
100
AcDbLinetypeTableRecord
  2
DOT
 70
     0
  3
Dot . . . . . . . . . . . . . . . . . . . . . . . .
 72
    65
 73
     2
 40
0.25
 49
0.0
 74
     0
 49
-0.25
 74
     0
  0
LTYPE
  5
2F1D
330
2EDF
100
AcDbSymbolTableRecord
100
AcDbLinetypeTableRecord
  2
DOT2
 70
     0
  3
Dot2 ........................................
 72
    65
 73
     2
 40
0.125
 49
0.0
 74
     0
 49
-0.125
 74
     0
  0
LTYPE
  5
2F1E
330
2EDF
100
AcDbSymbolTableRecord
100
AcDbLinetypeTableRecord
  2
DOTX2
 70
     0
  3
Dotx2 .  .  .  .  .  .  .  .  .  .  .  .  .  .
 72
    65
 73
     2
 40
0.5
 49
0.0
 74
     0
 49
-0.5
 74
     0
  0
LTYPE
  5
2F1F
330
2EDF
100
AcDbSymbolTableRecord
100
AcDbLinetypeTableRecord
  2
HIDDENX2
 70
     0
  3
Hiddenx2 ____ ____ ____ ____ ____ ____ ____ 
 72
    65
 73
     2
 40
0.75
 49
0.5
 74
     0
 49
-0.25
 74
     0
  0
LTYPE
  5
2F20
330
2EDF
100
AcDbSymbolTableRecord
100
AcDbLinetypeTableRecord
  2
PHANTOM
 70
     0
  3
Phantom ______  __  __  ______  __  __  ______ 
 72
    65
 73
     6
 40
2.5
 49
1.25
 74
     0
 49
-0.25
 74
     0
 49
0.25
 74
     0
 49
-0.25
 74
     0
 49
0.25
 74
     0
 49
-0.25
 74
     0
  0
LTYPE
  5
2F21
330
2EDF
100
AcDbSymbolTableRecord
100
AcDbLinetypeTableRecord
  2
PHANTOM2
 70
     0
  3
Phantom2 ___ _ _ ___ _ _ ___ _ _ ___ _ _
 72
    65
 73
     6
 40
1.25
 49
0.625
 74
     0
 49
-0.125
 74
     0
 49
0.125
 74
     0
 49
-0.125
 74
     0
 49
0.125
 74
     0
 49
-0.125
 74
     0
  0
LTYPE
  5
2F22
330
2EDF
100
AcDbSymbolTableRecord
100
AcDbLinetypeTableRecord
  2
PHANTOMX2
 70
     0
  3
Phantomx2 ____________    ____    ____   _
 72
    65
 73
     6
 40
5.0
 49
2.5
 74
     0
 49
-0.5
 74
     0
 49
0.5
 74
     0
 49
-0.5
 74
     0
 49
0.5
 74
     0
 49
-0.5
 74
     0
  0
ENDTAB
  0
TABLE
  2
LAYER
  5
2EDC
330
0
100
AcDbSymbolTable
 70
     5
  0
LAYER
  5
2EEA
330
2EDC
100
AcDbSymbolTableRecord
100
AcDbLayerTableRecord
  2
0
 70
     0
 62
     7
  6
CONTINUOUS
  0
LAYER
  5
9E
330
2EDC
100
AcDbSymbolTableRecord
100
AcDbLayerTableRecord
  2
DEFPOINTS
 70
     0
 62
     7
  6
CONTINUOUS
  0
LAYER
  5
377
330
2EDC
100
AcDbSymbolTableRecord
100
AcDbLayerTableRecord
  2
V0-OBRYS
 70
     0
 62
    90
  6
CONTINUOUS
  0
LAYER
  5
378
330
2EDC
100
AcDbSymbolTableRecord
100
AcDbLayerTableRecord
  2
V0-VYPLNE
 70
     0
 62
    63
  6
DASHDOT
  0
LAYER
  5
1540
330
2EDC
100
AcDbSymbolTableRecord
100
AcDbLayerTableRecord
  2
VO-OBRYS
 70
     0
 62
    90
  6
CONTINUOUS
  0
ENDTAB
  0
TABLE
  2
STYLE
  5
2EDD
330
0
100
AcDbSymbolTable
 70
     6
  0
STYLE
  5
2EEB
330
2EDD
100
AcDbSymbolTableRecord
100
AcDbTextStyleTableRecord
  2
STANDARD
 70
     0
 40
0.0
 41
1.0
 50
0.0
 71
     0
 42
0.2
  3
ISOCP.shx
  4

1001
ACAD
1000
ISOCP.shx
1071
        0
  0
STYLE
  5
331
330
2EDD
100
AcDbSymbolTableRecord
100
AcDbTextStyleTableRecord
  2
ED20
 70
     0
 40
20.0
 41
1.0
 50
0.0
 71
     0
 42
0.2
  3
ISOCP.shx
  4

1001
ACAD
1000
ISOCP.shx
1071
        0
  0
STYLE
  5
648
330
2EDD
100
AcDbSymbolTableRecord
100
AcDbTextStyleTableRecord
  2
ED10
 70
     0
 40
10.0
 41
1.0
 50
0.0
 71
     0
 42
0.2
  3
ISOCP.shx
  4

1001
ACAD
1000
ISOCP.shx
1071
        0
  0
STYLE
  5
F38
330
2EDD
100
AcDbSymbolTableRecord
100
AcDbTextStyleTableRecord
  2
ED30
 70
     0
 40
30.0
 41
1.0
 50
0.0
 71
     0
 42
0.2
  3
ISOCP.shx
  4

1001
ACAD
1000
ISOCP.shx
1071
        0
  0
STYLE
  5
F39
330
2EDD
100
AcDbSymbolTableRecord
100
AcDbTextStyleTableRecord
  2
ED40
 70
     0
 40
40.0
 41
1.0
 50
0.0
 71
     0
 42
0.2
  3
ISOCP.shx
  4

1001
ACAD
1000
ISOCP.shx
1071
        0
  0
STYLE
  5
1B9D
330
2EDD
100
AcDbSymbolTableRecord
100
AcDbTextStyleTableRecord
  2
VD_RECOV_1_1B9D_
 70
     0
 40
0.0
 41
1.0
 50
0.0
 71
     0
 42
0.2
  3
ltypeshp.shx
  4

1001
ACAD
1000
ltypeshp.shx
1071
        0
  0
ENDTAB
  0
TABLE
  2
VIEW
  5
2EE0
330
0
100
AcDbSymbolTable
 70
     0
  0
ENDTAB
  0
TABLE
  2
UCS
  5
2EE1
330
0
100
AcDbSymbolTable
 70
     0
  0
ENDTAB
  0
TABLE
  2
APPID
  5
2EE3
330
0
100
AcDbSymbolTable
 70
     6
  0
APPID
  5
2EEC
330
2EE3
100
AcDbSymbolTableRecord
100
AcDbRegAppTableRecord
  2
ACAD
 70
     0
  0
APPID
  5
2F04
330
2EE3
100
AcDbSymbolTableRecord
100
AcDbRegAppTableRecord
  2
VD_INVISIBLE_NOT_FOR_READ
 70
     0
  0
APPID
  5
2F05
330
2EE3
100
AcDbSymbolTableRecord
100
AcDbRegAppTableRecord
  2
VD_TEMPHATCH
 70
     0
  0
APPID
  5
2F06
330
2EE3
100
AcDbSymbolTableRecord
100
AcDbRegAppTableRecord
  2
VDEXTRAPARAM
 70
     0
  0
APPID
  5
2F07
330
2EE3
100
AcDbSymbolTableRecord
100
AcDbRegAppTableRecord
  2
PE_URL
 70
     0
  0
APPID
  5
2F08
330
2EE3
100
AcDbSymbolTableRecord
100
AcDbRegAppTableRecord
  2
VD_UNKNOWN
 70
     0
  0
ENDTAB
  0
TABLE
  2
DIMSTYLE
  5
2EE4
330
0
100
AcDbSymbolTable
 70
     2
  0
DIMSTYLE
105
2F01
330
2EE4
100
AcDbSymbolTableRecord
100
AcDbDimStyleTableRecord
  2
STANDARD
 70
     0
  3

  4

  5
OPEN
  6

  7

 40
1.0
 41
15.0
 42
0.625
 43
0.38
 44
1.25
 45
0.0
 46
0.0
 47
0.0
 48
0.0
140
15.0
141
0.09
142
0.0
143
25.4
144
1.0
145
0.0
146
1.0
147
3.0
 71
     0
 72
     0
 73
     0
 74
     0
 75
     0
 76
     0
 77
     1
 78
     0
170
     0
171
     2
172
     1
173
     0
174
     1
175
     0
176
     0
177
     0
178
     0
270
     2
271
     0
272
     4
273
     2
274
     2
340
331
275
     0
280
     0
281
     0
282
     0
283
     1
284
     0
285
     0
286
     0
287
     3
288
     1
  0
DIMSTYLE
105
FE9
102
{ACAD_REACTORS
330
2841
330
284E
330
2868
330
2B40
330
2EB8
102
}
330
2EE4
100
AcDbSymbolTableRecord
100
AcDbDimStyleTableRecord
  2
ED20
 70
     0
  3

  4

  5
OPEN
  6

  7

 40
1.0
 41
20.0
 42
1.0
 43
0.38
 44
1.25
 45
0.0
 46
0.0
 47
0.0
 48
0.0
140
20.0
141
0.09
142
0.0
143
25.4
144
1.0
145
0.0
146
1.0
147
2.0
 71
     0
 72
     0
 73
     0
 74
     0
 75
     0
 76
     0
 77
     1
 78
     0
170
     0
171
     2
172
     1
173
     0
174
     1
175
     0
176
     0
177
    41
178
    41
270
     2
271
     0
272
     4
273
     2
274
     2
340
331
275
     0
280
     0
281
     0
282
     0
283
     1
284
     0
285
     0
286
     0
287
     3
288
     1
  0
ENDTAB
  0
TABLE
  2
BLOCK_RECORD
  5
2EDB
330
0
100
AcDbSymbolTable
 70
     9
  0
BLOCK_RECORD
  5
2EF9
330
2EDB
100
AcDbSymbolTableRecord
100
AcDbBlockTableRecord
  2
*MODEL_SPACE
  0
BLOCK_RECORD
  5
2EF5
330
2EDB
100
AcDbSymbolTableRecord
100
AcDbBlockTableRecord
  2
*PAPER_SPACE
  0
BLOCK_RECORD
  5
90
330
2EDB
100
AcDbSymbolTableRecord
100
AcDbBlockTableRecord
  2
_OPEN
  0
BLOCK_RECORD
  5
2ED7
330
2EDB
100
AcDbSymbolTableRecord
100
AcDbBlockTableRecord
  2
VDDIM_DEFAULT
  0
BLOCK_RECORD
  5
2ED9
330
2EDB
100
AcDbSymbolTableRecord
100
AcDbBlockTableRecord
  2
VDDIM_NONE
  0
BLOCK_RECORD
  5
2F2A
330
2EDB
100
AcDbSymbolTableRecord
100
AcDbBlockTableRecord
  2
*D4
  0
BLOCK_RECORD
  5
2F36
330
2EDB
100
AcDbSymbolTableRecord
100
AcDbBlockTableRecord
  2
*D5
  0
BLOCK_RECORD
  5
2F42
330
2EDB
100
AcDbSymbolTableRecord
100
AcDbBlockTableRecord
  2
*D6
  0
BLOCK_RECORD
  5
2F4E
330
2EDB
100
AcDbSymbolTableRecord
100
AcDbBlockTableRecord
  2
*D7
  0
BLOCK_RECORD
  5
2F5A
330
2EDB
100
AcDbSymbolTableRecord
100
AcDbBlockTableRecord
  2
*D8
  0
ENDTAB
  0
ENDSEC
  0
SECTION
  2
BLOCKS
  0
BLOCK
  5
2EFA
330
2EF9
100
AcDbEntity
  8
0
100
AcDbBlockBegin
  2
*MODEL_SPACE
 70
     0
 71
     0
 10
0.0
 20
0.0
 30
0.0
  3
*MODEL_SPACE
  1

  0
ENDBLK
  5
2EFB
330
2EF9
100
AcDbEntity
  8
0
100
AcDbBlockEnd
  0
BLOCK
  5
2EF6
330
2EF5
100
AcDbEntity
 67
     1
  8
0
100
AcDbBlockBegin
  2
*PAPER_SPACE
 70
     0
 71
     0
 10
0.0
 20
0.0
 30
0.0
  3
*PAPER_SPACE
  1

  0
ENDBLK
  5
2EF7
330
2EF5
100
AcDbEntity
 67
     1
  8
0
100
AcDbBlockEnd
  0
BLOCK
  5
2F23
330
90
100
AcDbEntity
  8
0
100
AcDbBlockBegin
  2
_OPEN
 70
     0
 71
     0
 10
0.0
 20
0.0
 30
0.0
  3
_OPEN
  1

  0
LINE
  5
92
330
90
100
AcDbEntity
  8
0
  6
BYBLOCK
 62
     0
100
AcDbLine
 10
-1.0
 20
0.166667
 30
0.0
 11
0.0
 21
0.0
 31
0.0
  0
LINE
  5
93
330
90
100
AcDbEntity
  8
0
  6
BYBLOCK
 62
     0
100
AcDbLine
 10
0.0
 20
0.0
 30
0.0
 11
-1.0
 21
-0.166667
 31
0.0
  0
LINE
  5
94
330
90
100
AcDbEntity
  8
0
  6
BYBLOCK
 62
     0
100
AcDbLine
 10
0.0
 20
0.0
 30
0.0
 11
-1.0
 21
0.0
 31
0.0
  0
ENDBLK
  5
2F24
330
90
100
AcDbEntity
  8
0
100
AcDbBlockEnd
  0
BLOCK
  5
2F25
330
2ED7
100
AcDbEntity
  8
0
100
AcDbBlockBegin
  2
VDDIM_DEFAULT
 70
     0
 71
     0
 10
0.0
 20
0.0
 30
0.0
  3
VDDIM_DEFAULT
  1

  0
LWPOLYLINE
  5
2ED8
330
2ED7
100
AcDbEntity
  8
0
  6
CONTINUOUS
 62
     0
100
AcDbPolyline
 90
        4
 70
     0
 43
0.0
 10
0.0
 20
0.0
 10
-1.0
 20
-0.1665
 10
-1.0
 20
0.1665
 10
0.0
 20
0.0
1001
VDEXTRAPARAM
1071
        1
1071
        0
1071
        0
1040
1.0
1000

1000

1040
0.0
1040
0.0
  0
HATCH
  5
2F29
330
2ED7
100
AcDbEntity
  8
0
  6
CONTINUOUS
 62
     0
100
AcDbHatch
 10
0.0
 20
0.0
 30
0.0
210
0.0
220
0.0
230
1.0
  2
SOLID
 70
     1
 71
     0
 91
        1
 92
        2
 72
     0
 73
     1
 93
        3
 10
0.0
 20
0.0
 10
-1.0
 20
-0.1665
 10
-1.0
 20
0.1665
 97
        0
 75
     0
 76
     1
 98
        1
 10
0.0
 20
0.0
1001
VDEXTRAPARAM
1071
        1
1071
        0
1071
        0
1040
1.0
1000

1000

1040
0.0
1040
0.0
1001
VD_TEMPHATCH
1000
VD_TEMPHATCH
  0
ENDBLK
  5
2F26
330
2ED7
100
AcDbEntity
  8
0
100
AcDbBlockEnd
  0
BLOCK
  5
2F27
330
2ED9
100
AcDbEntity
  8
0
100
AcDbBlockBegin
  2
VDDIM_NONE
 70
     0
 71
     0
 10
0.0
 20
0.0
 30
0.0
  3
VDDIM_NONE
  1

  0
ENDBLK
  5
2F28
330
2ED9
100
AcDbEntity
  8
0
100
AcDbBlockEnd
  0
BLOCK
  5
2F34
330
2F2A
100
AcDbEntity
  8
0
100
AcDbBlockBegin
  2
*D4
 70
     1
 71
     0
 10
0.0
 20
0.0
 30
0.0
  3
*D4
  1

  0
LINE
  5
2F2B
330
2F2A
100
AcDbEntity
  8
V0-VYPLNE
 62
    41
100
AcDbLine
 10
-1.28434
 20
235.373585
 30
0.0
 11
82.28544800000059
 21
235.373585
 31
0.0
  0
LINE
  5
2F2C
330
2F2A
100
AcDbEntity
  8
V0-VYPLNE
 62
    41
100
AcDbLine
 10
-1.28434
 20
-56.626415
 30
0.0
 11
82.28544800000054
 21
-56.62641500000001
 31
0.0
  0
LINE
  5
2F2D
330
2F2A
100
AcDbEntity
  8
V0-VYPLNE
 62
     0
100
AcDbLine
 10
81.03544800000059
 20
215.373585
 30
0.0
 11
81.03544800000054
 21
-36.62641500000001
 31
0.0
  0
INSERT
  5
2F2E
330
2F2A
100
AcDbEntity
  8
V0-VYPLNE
 62
     0
100
AcDbBlockReference
  2
_OPEN
 10
81.03544800000059
 20
235.373585
 30
0.0
 41
20.0
 42
20.0
 43
20.0
 50
90.0
  0
INSERT
  5
2F2F
330
2F2A
100
AcDbEntity
  8
V0-VYPLNE
 62
     0
100
AcDbBlockReference
  2
_OPEN
 10
81.03544800000054
 20
-56.62641500000002
 30
0.0
 41
20.0
 42
20.0
 43
20.0
 50
270.0
  0
MTEXT
  5
2F30
330
2F2A
100
AcDbEntity
  8
V0-VYPLNE
 62
    41
100
AcDbMText
 10
69.03544800000056
 20
89.37358499999996
 30
0.0
 40
20.0
 41
0.0
 71
     5
 72
     1
  1
%%c\A1;292
  7
ED20
 11
1.460019320055000E-16
 21
1.0
 31
0.0
  0
POINT
  5
2F31
330
2F2A
100
AcDbEntity
  8
DEFPOINTS
 62
     0
100
AcDbPoint
 10
-2.28434
 20
235.373585
 30
0.0
  0
POINT
  5
2F32
330
2F2A
100
AcDbEntity
  8
DEFPOINTS
 62
     0
100
AcDbPoint
 10
-2.28434
 20
-56.626415
 30
0.0
  0
POINT
  5
2F33
330
2F2A
100
AcDbEntity
  8
DEFPOINTS
 62
     0
100
AcDbPoint
 10
81.03544800000054
 20
-56.62641500000001
 30
0.0
  0
ENDBLK
  5
2F35
330
2F2A
100
AcDbEntity
  8
0
100
AcDbBlockEnd
  0
BLOCK
  5
2F40
330
2F36
100
AcDbEntity
  8
0
100
AcDbBlockBegin
  2
*D5
 70
     1
 71
     0
 10
0.0
 20
0.0
 30
0.0
  3
*D5
  1

  0
LINE
  5
2F37
330
2F36
100
AcDbEntity
  8
V0-VYPLNE
 62
    41
100
AcDbLine
 10
-14.754965
 20
216.373585
 30
0.0
 11
40.78711
 21
216.373585
 31
0.0
  0
LINE
  5
2F38
330
2F36
100
AcDbEntity
  8
V0-VYPLNE
 62
    41
100
AcDbLine
 10
-14.754965
 20
-37.626415
 30
0.0
 11
40.78710999999998
 21
-37.626415
 31
0.0
  0
LINE
  5
2F39
330
2F36
100
AcDbEntity
  8
V0-VYPLNE
 62
     0
100
AcDbLine
 10
39.53711
 20
196.373585
 30
0.0
 11
39.53710999999998
 21
-17.62641500000001
 31
0.0
  0
INSERT
  5
2F3A
330
2F36
100
AcDbEntity
  8
V0-VYPLNE
 62
     0
100
AcDbBlockReference
  2
_OPEN
 10
39.53711
 20
216.373585
 30
0.0
 41
20.0
 42
20.0
 43
20.0
 50
90.0
  0
INSERT
  5
2F3B
330
2F36
100
AcDbEntity
  8
V0-VYPLNE
 62
     0
100
AcDbBlockReference
  2
_OPEN
 10
39.53710999999998
 20
-37.62641500000002
 30
0.0
 41
20.0
 42
20.0
 43
20.0
 50
270.0
  0
MTEXT
  5
2F3C
330
2F36
100
AcDbEntity
  8
V0-VYPLNE
 62
    41
100
AcDbMText
 10
27.53710999999998
 20
89.37358499999999
 30
0.0
 40
20.0
 41
0.0
 71
     5
 72
     1
  1
%%c\A1;254
  7
ED20
 11
5.594824691024412E-17
 21
1.0
 31
0.0
  0
POINT
  5
2F3D
330
2F36
100
AcDbEntity
  8
DEFPOINTS
 62
     0
100
AcDbPoint
 10
-15.754965
 20
216.373585
 30
0.0
  0
POINT
  5
2F3E
330
2F36
100
AcDbEntity
  8
DEFPOINTS
 62
     0
100
AcDbPoint
 10
-15.754965
 20
-37.626415
 30
0.0
  0
POINT
  5
2F3F
330
2F36
100
AcDbEntity
  8
DEFPOINTS
 62
     0
100
AcDbPoint
 10
39.53710999999998
 20
-37.626415
 30
0.0
  0
ENDBLK
  5
2F41
330
2F36
100
AcDbEntity
  8
0
100
AcDbBlockEnd
  0
BLOCK
  5
2F4C
330
2F42
100
AcDbEntity
  8
0
100
AcDbBlockBegin
  2
*D6
 70
     1
 71
     0
 10
0.0
 20
0.0
 30
0.0
  3
*D6
  1

  0
LINE
  5
2F43
330
2F42
100
AcDbEntity
  8
V0-VYPLNE
 62
    41
100
AcDbLine
 10
-133.754965
 20
-75.12641499999999
 30
0.0
 11
-133.754965
 21
-106.6856949999999
 31
0.0
  0
LINE
  5
2F44
330
2F42
100
AcDbEntity
  8
V0-VYPLNE
 62
    41
100
AcDbLine
 10
-13.754965
 20
-75.12641499999999
 30
0.0
 11
-13.754965
 21
-106.6856949999999
 31
0.0
  0
LINE
  5
2F45
330
2F42
100
AcDbEntity
  8
V0-VYPLNE
 62
     0
100
AcDbLine
 10
-113.754965
 20
-105.4356949999999
 30
0.0
 11
-33.754965
 21
-105.4356949999999
 31
0.0
  0
INSERT
  5
2F46
330
2F42
100
AcDbEntity
  8
V0-VYPLNE
 62
     0
100
AcDbBlockReference
  2
_OPEN
 10
-133.754965
 20
-105.4356949999999
 30
0.0
 41
20.0
 42
20.0
 43
20.0
 50
180.0
  0
INSERT
  5
2F47
330
2F42
100
AcDbEntity
  8
V0-VYPLNE
 62
     0
100
AcDbBlockReference
  2
_OPEN
 10
-13.754965
 20
-105.4356949999999
 30
0.0
 41
20.0
 42
20.0
 43
20.0
 50
360.0
  0
MTEXT
  5
2F48
330
2F42
100
AcDbEntity
  8
V0-VYPLNE
 62
    41
100
AcDbMText
 10
-73.754965
 20
-93.4356949999999
 30
0.0
 40
20.0
 41
0.0
 71
     5
 72
     1
  1
\A1;120
  7
ED20
  0
POINT
  5
2F49
330
2F42
100
AcDbEntity
  8
DEFPOINTS
 62
     0
100
AcDbPoint
 10
-133.754965
 20
-74.12641499999999
 30
0.0
  0
POINT
  5
2F4A
330
2F42
100
AcDbEntity
  8
DEFPOINTS
 62
     0
100
AcDbPoint
 10
-13.754965
 20
-74.12641499999999
 30
0.0
  0
POINT
  5
2F4B
330
2F42
100
AcDbEntity
  8
DEFPOINTS
 62
     0
100
AcDbPoint
 10
-13.754965
 20
-105.4356949999999
 30
0.0
  0
ENDBLK
  5
2F4D
330
2F42
100
AcDbEntity
  8
0
100
AcDbBlockEnd
  0
BLOCK
  5
2F58
330
2F4E
100
AcDbEntity
  8
0
100
AcDbBlockBegin
  2
*D7
 70
     1
 71
     0
 10
0.0
 20
0.0
 30
0.0
  3
*D7
  1

  0
LINE
  5
2F4F
330
2F4E
100
AcDbEntity
  8
V0-VYPLNE
 62
    41
100
AcDbLine
 10
-124.185651
 20
146.361045
 30
0.0
 11
-173.8877060000004
 21
146.361045
 31
0.0
  0
LINE
  5
2F50
330
2F4E
100
AcDbEntity
  8
V0-VYPLNE
 62
    41
100
AcDbLine
 10
-124.185651
 20
32.386125
 30
0.0
 11
-173.8877060000004
 21
32.386125
 31
0.0
  0
LINE
  5
2F51
330
2F4E
100
AcDbEntity
  8
V0-VYPLNE
 62
     0
100
AcDbLine
 10
-172.6377060000004
 20
126.361045
 30
0.0
 11
-172.6377060000004
 21
52.38612499999999
 31
0.0
  0
INSERT
  5
2F52
330
2F4E
100
AcDbEntity
  8
V0-VYPLNE
 62
     0
100
AcDbBlockReference
  2
_OPEN
 10
-172.6377060000004
 20
146.361045
 30
0.0
 41
20.0
 42
20.0
 43
20.0
 50
90.0
  0
INSERT
  5
2F53
330
2F4E
100
AcDbEntity
  8
V0-VYPLNE
 62
     0
100
AcDbBlockReference
  2
_OPEN
 10
-172.6377060000004
 20
32.38612499999999
 30
0.0
 41
20.0
 42
20.0
 43
20.0
 50
270.0
  0
MTEXT
  5
2F54
330
2F4E
100
AcDbEntity
  8
V0-VYPLNE
 62
    41
100
AcDbMText
 10
-184.6377060000004
 20
89.37358499999999
 30
0.0
 40
20.0
 41
0.0
 71
     5
 72
     1
  1
%%c\A1;114
  7
ED20
 11
0.0
 21
1.0
 31
0.0
  0
POINT
  5
2F55
330
2F4E
100
AcDbEntity
  8
DEFPOINTS
 62
     0
100
AcDbPoint
 10
-123.185651
 20
146.361045
 30
0.0
  0
POINT
  5
2F56
330
2F4E
100
AcDbEntity
  8
DEFPOINTS
 62
     0
100
AcDbPoint
 10
-123.185651
 20
32.386125
 30
0.0
  0
POINT
  5
2F57
330
2F4E
100
AcDbEntity
  8
DEFPOINTS
 62
     0
100
AcDbPoint
 10
-172.6377060000004
 20
32.386125
 30
0.0
  0
ENDBLK
  5
2F59
330
2F4E
100
AcDbEntity
  8
0
100
AcDbBlockEnd
  0
BLOCK
  5
2F64
330
2F5A
100
AcDbEntity
  8
0
100
AcDbBlockBegin
  2
*D8
 70
     1
 71
     0
 10
0.0
 20
0.0
 30
0.0
  3
*D8
  1

  0
LINE
  5
2F5B
330
2F5A
100
AcDbEntity
  8
V0-VYPLNE
 62
    41
100
AcDbLine
 10
-134.754965
 20
252.873585
 30
0.0
 11
-217.2395849999993
 21
252.873585
 31
0.0
  0
LINE
  5
2F5C
330
2F5A
100
AcDbEntity
  8
V0-VYPLNE
 62
    41
100
AcDbLine
 10
-134.754965
 20
-74.12641499999999
 30
0.0
 11
-217.2395849999994
 21
-74.12641499999999
 31
0.0
  0
LINE
  5
2F5D
330
2F5A
100
AcDbEntity
  8
V0-VYPLNE
 62
     0
100
AcDbLine
 10
-215.9895849999993
 20
232.873585
 30
0.0
 11
-215.9895849999994
 21
-54.12641500000001
 31
0.0
  0
INSERT
  5
2F5E
330
2F5A
100
AcDbEntity
  8
V0-VYPLNE
 62
     0
100
AcDbBlockReference
  2
_OPEN
 10
-215.9895849999993
 20
252.873585
 30
0.0
 41
20.0
 42
20.0
 43
20.0
 50
90.0
  0
INSERT
  5
2F5F
330
2F5A
100
AcDbEntity
  8
V0-VYPLNE
 62
     0
100
AcDbBlockReference
  2
_OPEN
 10
-215.9895849999994
 20
-74.12641500000001
 30
0.0
 41
20.0
 42
20.0
 43
20.0
 50
270.0
  0
MTEXT
  5
2F60
330
2F5A
100
AcDbEntity
  8
V0-VYPLNE
 62
    41
100
AcDbMText
 10
-227.9895849999994
 20
89.37358500000003
 30
0.0
 40
20.0
 41
0.0
 71
     5
 72
     1
  1
%%c\A1;327
  7
ED20
 11
8.691654260062388E-17
 21
1.0
 31
0.0
  0
POINT
  5
2F61
330
2F5A
100
AcDbEntity
  8
DEFPOINTS
 62
     0
100
AcDbPoint
 10
-133.754965
 20
252.873585
 30
0.0
  0
POINT
  5
2F62
330
2F5A
100
AcDbEntity
  8
DEFPOINTS
 62
     0
100
AcDbPoint
 10
-133.754965
 20
-74.12641499999999
 30
0.0
  0
POINT
  5
2F63
330
2F5A
100
AcDbEntity
  8
DEFPOINTS
 62
     0
100
AcDbPoint
 10
-215.9895849999994
 20
-74.12641499999999
 30
0.0
  0
ENDBLK
  5
2F65
330
2F5A
100
AcDbEntity
  8
0
100
AcDbBlockEnd
  0
ENDSEC
  0
SECTION
  2
ENTITIES
  0
TEXT
  5
1347
330
2EF9
100
AcDbEntity
  8
V0-VYPLNE
 62
     6
100
AcDbText
 10
215.016531
 20
-318.809314
 30
0.0
 40
40.0
  1
TCB-250
  7
ED40
100
AcDbText
  0
TEXT
  5
1348
330
2EF9
100
AcDbEntity
  8
V0-VYPLNE
  6
CONTINUOUS
 62
    51
100
AcDbText
 10
134.458991
 20
-374.475144
 30
0.0
 40
30.0
  1
AXIALNI VENTILATOR
  7
ED30
100
AcDbText
  0
LINE
  5
1793
330
2EF9
100
AcDbEntity
  8
V0-VYPLNE
100
AcDbLine
 10
366.874168
 20
89.37358500000001
 30
0.0
 11
366.874168
 21
243.691539
 31
0.0
  0
LINE
  5
1794
330
2EF9
100
AcDbEntity
  8
V0-VYPLNE
100
AcDbLine
 10
518.2847420000001
 20
89.37358500000001
 30
0.0
 11
198.088725
 21
89.37358500000001
 31
0.0
  0
LINE
  5
17A6
330
2EF9
100
AcDbEntity
  8
V0-VYPLNE
  6
DASHDOT
100
AcDbLine
 10
366.874168
 20
89.37358500000001
 30
0.0
 11
366.874168
 21
-74.12641499999999
 31
0.0
  0
LINE
  5
17D7
330
2EF9
100
AcDbEntity
  8
VO-OBRYS
  6
CONTINUOUS
100
AcDbLine
 10
326.698168
 20
114.230823
 30
0.0
 11
269.739461
 21
171.18953
 31
0.0
  0
LINE
  5
17D9
330
2EF9
100
AcDbEntity
  8
V0-VYPLNE
100
AcDbLine
 10
366.874168
 20
89.37358500000001
 30
0.0
 11
270.062498
 21
186.185255
 31
0.0
  0
LINE
  5
17DB
330
2EF9
100
AcDbEntity
  8
VO-OBRYS
  6
CONTINUOUS
100
AcDbLine
 10
342.016929
 20
129.549585
 30
0.0
 11
285.058223
 21
186.508291
 31
0.0
  0
LINE
  5
2191
330
2EF9
100
AcDbEntity
  8
VO-OBRYS
  6
CONTINUOUS
100
AcDbLine
 10
326.698168
 20
64.516346
 30
0.0
 11
269.739461
 21
7.557639999999999
 31
0.0
  0
LINE
  5
2192
330
2EF9
100
AcDbEntity
  8
VO-OBRYS
  6
CONTINUOUS
100
AcDbLine
 10
342.016929
 20
49.197585
 30
0.0
 11
285.058223
 21
-7.761122
 31
0.0
  0
LINE
  5
2194
330
2EF9
100
AcDbEntity
  8
V0-VYPLNE
100
AcDbLine
 10
366.874168
 20
89.37358500000001
 30
0.0
 11
277.071606
 21
-0.4289770000000033
 31
0.0
  0
LINE
  5
2199
330
2EF9
100
AcDbEntity
  8
VO-OBRYS
  6
CONTINUOUS
100
AcDbLine
 10
391.731406
 20
49.197585
 30
0.0
 11
448.690113
 21
-7.761122
 31
0.0
  0
LINE
  5
219A
330
2EF9
100
AcDbEntity
  8
VO-OBRYS
  6
CONTINUOUS
100
AcDbLine
 10
407.050168
 20
64.516346
 30
0.0
 11
464.008874
 21
7.557639999999999
 31
0.0
  0
LINE
  5
219C
330
2EF9
100
AcDbEntity
  8
V0-VYPLNE
100
AcDbLine
 10
366.874168
 20
89.37358500000001
 30
0.0
 11
464.239576
 21
-7.991823999999994
 31
0.0
  0
LINE
  5
21A1
330
2EF9
100
AcDbEntity
  8
VO-OBRYS
  6
CONTINUOUS
100
AcDbLine
 10
407.050168
 20
114.230823
 30
0.0
 11
464.008874
 21
171.18953
 31
0.0
  0
LINE
  5
21A2
330
2EF9
100
AcDbEntity
  8
VO-OBRYS
  6
CONTINUOUS
100
AcDbLine
 10
386.377078
 20
124.195256
 30
0.0
 11
448.690113
 21
186.508291
 31
0.0
  0
LINE
  5
21A4
330
2EF9
100
AcDbEntity
  8
V0-VYPLNE
100
AcDbLine
 10
366.874168
 20
89.37358500000001
 30
0.0
 11
454.973114
 21
177.472531
 31
0.0
  0
LINE
  5
21A8
330
2EF9
100
AcDbEntity
  8
VO-OBRYS
  6
CONTINUOUS
100
AcDbLine
 10
326.567237
 20
62.17712
 30
0.0
 11
270.755946
 21
6.365828999999998
 31
0.0
  0
LINE
  5
21A9
330
2EF9
100
AcDbEntity
  8
VO-OBRYS
  6
CONTINUOUS
100
AcDbLine
 10
339.677703
 20
49.066654
 30
0.0
 11
283.866412
 21
-6.744636999999997
 31
0.0
  0
LINE
  5
21AA
330
2EF9
100
AcDbEntity
  8
VO-OBRYS
  6
CONTINUOUS
100
AcDbLine
 10
394.070632
 20
129.680515
 30
0.0
 11
449.881923
 21
185.491806
 31
0.0
  0
LINE
  5
21AB
330
2EF9
100
AcDbEntity
  8
VO-OBRYS
  6
CONTINUOUS
100
AcDbLine
 10
407.181098
 20
116.570049
 30
0.0
 11
462.992389
 21
172.38134
 31
0.0
  0
LINE
  5
21AF
330
2EF9
100
AcDbEntity
  8
VO-OBRYS
  6
CONTINUOUS
100
AcDbLine
 10
326.567237
 20
116.570049
 30
0.0
 11
270.755946
 21
172.38134
 31
0.0
  0
LINE
  5
21B0
330
2EF9
100
AcDbEntity
  8
VO-OBRYS
  6
CONTINUOUS
100
AcDbLine
 10
394.070632
 20
49.066654
 30
0.0
 11
449.881923
 21
-6.744636999999997
 31
0.0
  0
LINE
  5
21B3
330
2EF9
100
AcDbEntity
  8
VO-OBRYS
  6
CONTINUOUS
100
AcDbLine
 10
339.677703
 20
129.680515
 30
0.0
 11
285.574672
 21
183.783546
 31
0.0
  0
LINE
  5
21B4
330
2EF9
100
AcDbEntity
  8
VO-OBRYS
  6
CONTINUOUS
100
AcDbLine
 10
407.181098
 20
62.17712
 30
0.0
 11
462.992389
 21
6.365828999999998
 31
0.0
  0
POINT
  5
21EA
330
2EF9
100
AcDbEntity
  8
V0-VYPLNE
  6
DASHED
 62
    52
100
AcDbPoint
 10
366.874168
 20
89.37358500000001
 30
0.0
  0
LINE
  5
21F6
330
2EF9
100
AcDbEntity
  8
V0-OBRYS
  6
CONTINUOUS
 62
    90
100
AcDbLine
 10
362.367298
 20
148.63485
 30
0.0
 11
363.818748
 21
129.549585
 31
0.0
  0
LINE
  5
21F7
330
2EF9
100
AcDbEntity
  8
V0-OBRYS
  6
CONTINUOUS
 62
    90
100
AcDbLine
 10
357.490317
 20
128.166054
 30
0.0
 11
352.803104
 21
147.542806
 31
0.0
  0
LINE
  5
21F8
330
2EF9
100
AcDbEntity
  8
V0-OBRYS
  6
CONTINUOUS
 62
    90
100
AcDbLine
 10
344.331961
 20
144.539689
 30
0.0
 11
351.777208
 21
126.319411
 31
0.0
  0
LINE
  5
21F9
330
2EF9
100
AcDbEntity
  8
V0-OBRYS
  6
CONTINUOUS
 62
    90
100
AcDbLine
 10
346.398563
 20
123.632334
 30
0.0
 11
335.860817
 21
141.26356
 31
0.0
  0
LINE
  5
21FA
330
2EF9
100
AcDbEntity
  8
V0-OBRYS
  6
CONTINUOUS
 62
    90
100
AcDbLine
 10
362.367298
 20
148.63485
 30
0.0
 11
363.818748
 21
129.549585
 31
0.0
  0
LINE
  5
21FB
330
2EF9
100
AcDbEntity
  8
V0-OBRYS
  6
CONTINUOUS
 62
    90
100
AcDbLine
 10
357.155643
 20
129.549585
 30
0.0
 11
352.803104
 21
147.542806
 31
0.0
  0
LINE
  5
21FC
330
2EF9
100
AcDbEntity
  8
V0-OBRYS
  6
CONTINUOUS
 62
    90
100
AcDbLine
 10
344.331961
 20
144.539689
 30
0.0
 11
350.457281
 21
129.549585
 31
0.0
  0
LINE
  5
21FD
330
2EF9
100
AcDbEntity
  8
V0-OBRYS
  6
CONTINUOUS
 62
    90
100
AcDbLine
 10
342.861969
 20
129.549585
 30
0.0
 11
335.860817
 21
141.26356
 31
0.0
  0
LINE
  5
21FE
330
2EF9
100
AcDbEntity
  8
V0-OBRYS
  6
CONTINUOUS
 62
    90
100
AcDbLine
 10
390.886366
 20
129.549585
 30
0.0
 11
397.887519
 21
141.26356
 31
0.0
  0
LINE
  5
21FF
330
2EF9
100
AcDbEntity
  8
V0-OBRYS
  6
CONTINUOUS
 62
    90
100
AcDbLine
 10
389.416375
 20
144.539689
 30
0.0
 11
381.971128
 21
126.319411
 31
0.0
  0
LINE
  5
2200
330
2EF9
100
AcDbEntity
  8
V0-OBRYS
  6
CONTINUOUS
 62
    90
100
AcDbLine
 10
376.258018
 20
128.166054
 30
0.0
 11
380.945231
 21
147.542806
 31
0.0
  0
LINE
  5
2201
330
2EF9
100
AcDbEntity
  8
V0-OBRYS
  6
CONTINUOUS
 62
    90
100
AcDbLine
 10
371.381038
 20
148.63485
 30
0.0
 11
369.929587
 21
129.549585
 31
0.0
  0
LINE
  5
2202
330
2EF9
100
AcDbEntity
  8
V0-OBRYS
  6
CONTINUOUS
 62
    90
100
AcDbLine
 10
332.615418
 20
68.89798
 30
0.0
 11
314.984192
 21
58.360234
 31
0.0
  0
LINE
  5
2203
330
2EF9
100
AcDbEntity
  8
V0-OBRYS
  6
CONTINUOUS
 62
    90
100
AcDbLine
 10
311.708063
 20
66.831378
 30
0.0
 11
329.928341
 21
74.276625
 31
0.0
  0
LINE
  5
2204
330
2EF9
100
AcDbEntity
  8
V0-OBRYS
  6
CONTINUOUS
 62
    90
100
AcDbLine
 10
328.081698
 20
79.989734
 30
0.0
 11
308.704946
 21
75.302521
 31
0.0
  0
LINE
  5
2205
330
2EF9
100
AcDbEntity
  8
V0-OBRYS
  6
CONTINUOUS
 62
    90
100
AcDbLine
 10
307.612903
 20
84.866715
 30
0.0
 11
326.698168
 21
86.31816499999999
 31
0.0
  0
LINE
  5
2206
330
2EF9
100
AcDbEntity
  8
V0-OBRYS
  6
CONTINUOUS
 62
    90
100
AcDbLine
 10
307.612903
 20
93.880455
 30
0.0
 11
326.698168
 21
92.42900400000001
 31
0.0
  0
LINE
  5
2207
330
2EF9
100
AcDbEntity
  8
V0-OBRYS
  6
CONTINUOUS
 62
    90
100
AcDbLine
 10
328.081698
 20
98.757435
 30
0.0
 11
308.704946
 21
103.444648
 31
0.0
  0
LINE
  5
2208
330
2EF9
100
AcDbEntity
  8
V0-OBRYS
  6
CONTINUOUS
 62
    90
100
AcDbLine
 10
311.708063
 20
111.915792
 30
0.0
 11
329.928341
 21
104.470545
 31
0.0
  0
LINE
  5
2209
330
2EF9
100
AcDbEntity
  8
V0-OBRYS
  6
CONTINUOUS
 62
    90
100
AcDbLine
 10
332.615418
 20
109.849189
 30
0.0
 11
314.984192
 21
120.386936
 31
0.0
  0
LINE
  5
220A
330
2EF9
100
AcDbEntity
  8
V0-OBRYS
  6
CONTINUOUS
 62
    90
100
AcDbLine
 10
387.349772
 20
55.114835
 30
0.0
 11
397.887519
 21
37.483609
 31
0.0
  0
LINE
  5
220B
330
2EF9
100
AcDbEntity
  8
V0-OBRYS
  6
CONTINUOUS
 62
    90
100
AcDbLine
 10
389.416375
 20
34.20748
 30
0.0
 11
381.971128
 21
52.427758
 31
0.0
  0
LINE
  5
220C
330
2EF9
100
AcDbEntity
  8
V0-OBRYS
  6
CONTINUOUS
 62
    90
100
AcDbLine
 10
376.258018
 20
50.581115
 30
0.0
 11
380.945231
 21
31.204363
 31
0.0
  0
LINE
  5
220D
330
2EF9
100
AcDbEntity
  8
V0-OBRYS
  6
CONTINUOUS
 62
    90
100
AcDbLine
 10
371.381038
 20
30.11232
 30
0.0
 11
369.929587
 21
49.197585
 31
0.0
  0
LINE
  5
220E
330
2EF9
100
AcDbEntity
  8
V0-OBRYS
  6
CONTINUOUS
 62
    90
100
AcDbLine
 10
362.367298
 20
30.11232
 30
0.0
 11
363.818748
 21
49.197585
 31
0.0
  0
LINE
  5
220F
330
2EF9
100
AcDbEntity
  8
V0-OBRYS
  6
CONTINUOUS
 62
    90
100
AcDbLine
 10
357.490317
 20
50.581115
 30
0.0
 11
352.803104
 21
31.204363
 31
0.0
  0
LINE
  5
2210
330
2EF9
100
AcDbEntity
  8
V0-OBRYS
  6
CONTINUOUS
 62
    90
100
AcDbLine
 10
344.331961
 20
34.20748
 30
0.0
 11
351.777208
 21
52.427758
 31
0.0
  0
LINE
  5
2211
330
2EF9
100
AcDbEntity
  8
V0-OBRYS
  6
CONTINUOUS
 62
    90
100
AcDbLine
 10
346.398563
 20
55.114835
 30
0.0
 11
335.860817
 21
37.483609
 31
0.0
  0
LINE
  5
2212
330
2EF9
100
AcDbEntity
  8
V0-OBRYS
  6
CONTINUOUS
 62
    90
100
AcDbLine
 10
401.132917
 20
109.849189
 30
0.0
 11
418.764143
 21
120.386936
 31
0.0
  0
LINE
  5
2213
330
2EF9
100
AcDbEntity
  8
V0-OBRYS
  6
CONTINUOUS
 62
    90
100
AcDbLine
 10
422.040272
 20
111.915792
 30
0.0
 11
403.819995
 21
104.470545
 31
0.0
  0
LINE
  5
2214
330
2EF9
100
AcDbEntity
  8
V0-OBRYS
  6
CONTINUOUS
 62
    90
100
AcDbLine
 10
405.666637
 20
98.757435
 30
0.0
 11
425.043389
 21
103.444648
 31
0.0
  0
LINE
  5
2215
330
2EF9
100
AcDbEntity
  8
V0-OBRYS
  6
CONTINUOUS
 62
    90
100
AcDbLine
 10
426.135433
 20
93.880455
 30
0.0
 11
407.050168
 21
92.42900400000001
 31
0.0
  0
LINE
  5
2216
330
2EF9
100
AcDbEntity
  8
V0-OBRYS
  6
CONTINUOUS
 62
    90
100
AcDbLine
 10
426.135433
 20
84.866715
 30
0.0
 11
407.050168
 21
86.31816499999999
 31
0.0
  0
LINE
  5
2217
330
2EF9
100
AcDbEntity
  8
V0-OBRYS
  6
CONTINUOUS
 62
    90
100
AcDbLine
 10
405.666637
 20
79.989734
 30
0.0
 11
425.043389
 21
75.302521
 31
0.0
  0
LINE
  5
2218
330
2EF9
100
AcDbEntity
  8
V0-OBRYS
  6
CONTINUOUS
 62
    90
100
AcDbLine
 10
422.040272
 20
66.831378
 30
0.0
 11
403.819995
 21
74.276625
 31
0.0
  0
LINE
  5
2219
330
2EF9
100
AcDbEntity
  8
V0-OBRYS
  6
CONTINUOUS
 62
    90
100
AcDbLine
 10
401.132917
 20
68.89798
 30
0.0
 11
418.764143
 21
58.360234
 31
0.0
  0
ARC
  5
2298
330
2EF9
100
AcDbEntity
  8
V0-OBRYS
  6
CONTINUOUS
 62
    90
100
AcDbCircle
 10
366.874168
 20
89.37358500000001
 30
0.0
 40
47.010931
100
AcDbArc
 50
148.716649
 51
239.134287
  0
CIRCLE
  5
229B
330
2EF9
100
AcDbEntity
  8
V0-OBRYS
  6
CONTINUOUS
 62
    90
100
AcDbCircle
 10
366.874168
 20
89.37358500000001
 30
0.0
 40
103.037588
  0
CIRCLE
  5
22A0
330
2EF9
100
AcDbEntity
  8
V0-OBRYS
  6
CONTINUOUS
 62
    90
100
AcDbCircle
 10
366.874168
 20
89.37358500000001
 30
0.0
 40
101.476088
  0
ARC
  5
22A3
330
2EF9
100
AcDbEntity
  8
V0-OBRYS
  6
CONTINUOUS
 62
    90
100
AcDbCircle
 10
366.874168
 20
89.37358500000001
 30
0.0
 40
47.010931
100
AcDbArc
 50
58.71664899999999
 51
149.134287
  0
ARC
  5
22A4
330
2EF9
100
AcDbEntity
  8
V0-OBRYS
  6
CONTINUOUS
 62
    90
100
AcDbCircle
 10
366.874168
 20
89.37358500000001
 30
0.0
 40
47.010931
100
AcDbArc
 50
328.716649
 51
59.134287
  0
ARC
  5
22A5
330
2EF9
100
AcDbEntity
  8
V0-OBRYS
  6
CONTINUOUS
 62
    90
100
AcDbCircle
 10
366.874168
 20
89.37358500000001
 30
0.0
 40
47.010931
100
AcDbArc
 50
238.716649
 51
329.134287
  0
LINE
  5
2308
330
2EF9
100
AcDbEntity
  8
V0-OBRYS
  6
CONTINUOUS
 62
    90
100
AcDbLine
 10
349.131576
 20
212.694504
 30
0.0
 11
348.95874
 21
209.966213
 31
0.0
  0
LINE
  5
2309
330
2EF9
100
AcDbEntity
  8
V0-OBRYS
  6
CONTINUOUS
 62
    90
100
AcDbLine
 10
344.370996
 20
137.546715
 30
0.0
 11
349.758175
 21
133.958574
 31
0.0
  0
LINE
  5
230A
330
2EF9
100
AcDbEntity
  8
V0-OBRYS
  6
CONTINUOUS
 62
    90
100
AcDbLine
 10
348.857754
 20
208.372104
 30
0.0
 11
347.733017
 21
190.617651
 31
0.0
  0
LINE
  5
230B
330
2EF9
100
AcDbEntity
  8
V0-OBRYS
  6
CONTINUOUS
 62
    90
100
AcDbLine
 10
345.238834
 20
151.245903
 30
0.0
 11
344.370996
 21
137.546715
 31
0.0
  0
LINE
  5
230C
330
2EF9
100
AcDbEntity
  8
V0-OBRYS
  6
CONTINUOUS
 62
    90
100
AcDbLine
 10
346.42874
 20
170.029089
 30
0.0
 11
345.34578
 21
152.934094
 31
0.0
  0
LINE
  5
230D
330
2EF9
100
AcDbEntity
  8
V0-OBRYS
  6
CONTINUOUS
 62
    90
100
AcDbLine
 10
347.631073
 20
189.008416
 30
0.0
 11
346.532356
 21
171.664707
 31
0.0
  0
LINE
  5
2310
330
2EF9
100
AcDbEntity
  8
V0-OBRYS
  6
CONTINUOUS
 62
    90
100
AcDbLine
 10
384.616759
 20
212.694504
 30
0.0
 11
386.015318
 21
190.617651
 31
0.0
  0
LINE
  5
2311
330
2EF9
100
AcDbEntity
  8
V0-OBRYS
  6
CONTINUOUS
 62
    90
100
AcDbLine
 10
386.117263
 20
189.008416
 30
0.0
 11
387.215979
 21
171.664707
 31
0.0
  0
LINE
  5
2312
330
2EF9
100
AcDbEntity
  8
V0-OBRYS
  6
CONTINUOUS
 62
    90
100
AcDbLine
 10
387.319595
 20
170.029089
 30
0.0
 11
388.402555
 21
152.934094
 31
0.0
  0
LINE
  5
2313
330
2EF9
100
AcDbEntity
  8
V0-OBRYS
  6
CONTINUOUS
 62
    90
100
AcDbLine
 10
389.377339
 20
137.546715
 30
0.0
 11
383.990161
 21
133.958574
 31
0.0
  0
LINE
  5
2314
330
2EF9
100
AcDbEntity
  8
V0-OBRYS
  6
CONTINUOUS
 62
    90
100
AcDbLine
 10
388.509501
 20
151.245903
 30
0.0
 11
389.377339
 21
137.546715
 31
0.0
  0
LINE
  5
2316
330
2EF9
100
AcDbEntity
  8
V0-OBRYS
  6
CONTINUOUS
 62
    90
100
AcDbLine
 10
315.1804
 20
101.815352
 30
0.0
 11
321.344572
 21
103.790049
 31
0.0
  0
LINE
  5
2317
330
2EF9
100
AcDbEntity
  8
V0-OBRYS
  6
CONTINUOUS
 62
    90
100
AcDbLine
 10
305.011031
 20
111.035159
 30
0.0
 11
315.1804
 21
101.815352
 31
0.0
  0
LINE
  5
2319
330
2EF9
100
AcDbEntity
  8
V0-OBRYS
  6
CONTINUOUS
 62
    90
100
AcDbLine
 10
276.978646
 20
136.450028
 30
0.0
 11
289.853465
 21
124.777392
 31
0.0
  0
LINE
  5
231A
330
2EF9
100
AcDbEntity
  8
V0-OBRYS
  6
CONTINUOUS
 62
    90
100
AcDbLine
 10
291.06764
 20
123.67659
 30
0.0
 11
303.75783
 21
112.171343
 31
0.0
  0
LINE
  5
231B
330
2EF9
100
AcDbEntity
  8
V0-OBRYS
  6
CONTINUOUS
 62
    90
100
AcDbLine
 10
259.395665
 20
152.391204
 30
0.0
 11
275.784057
 21
137.533073
 31
0.0
  0
LINE
  5
231D
330
2EF9
100
AcDbEntity
  8
V0-OBRYS
  6
CONTINUOUS
 62
    90
100
AcDbLine
 10
343.241396
 20
137.002728
 30
0.0
 11
342.687866
 21
130.553693
 31
0.0
  0
LINE
  5
231E
330
2EF9
100
AcDbEntity
  8
V0-OBRYS
  6
CONTINUOUS
 62
    90
100
AcDbLine
 10
331.989851
 20
144.865529
 30
0.0
 11
343.241396
 21
137.002728
 31
0.0
  0
LINE
  5
2320
330
2EF9
100
AcDbEntity
  8
V0-OBRYS
  6
CONTINUOUS
 62
    90
100
AcDbLine
 10
300.974393
 20
166.539744
 30
0.0
 11
315.219289
 21
156.585129
 31
0.0
  0
LINE
  5
2321
330
2EF9
100
AcDbEntity
  8
V0-OBRYS
  6
CONTINUOUS
 62
    90
100
AcDbLine
 10
316.562671
 20
155.646347
 30
0.0
 11
330.603291
 21
145.834485
 31
0.0
  0
LINE
  5
2322
330
2EF9
100
AcDbEntity
  8
V0-OBRYS
  6
CONTINUOUS
 62
    90
100
AcDbLine
 10
281.520315
 20
180.134637
 30
0.0
 11
299.652682
 21
167.463382
 31
0.0
  0
LINE
  5
2324
330
2EF9
100
AcDbEntity
  8
V0-OBRYS
  6
CONTINUOUS
 62
    90
100
AcDbLine
 10
324.916265
 20
56.715085
 30
0.0
 11
327.215683
 21
62.765632
 31
0.0
  0
LINE
  5
2325
330
2EF9
100
AcDbEntity
  8
V0-OBRYS
  6
CONTINUOUS
 62
    90
100
AcDbLine
 10
311.367432
 20
54.512808
 30
0.0
 11
324.916265
 21
56.715085
 31
0.0
  0
LINE
  5
2327
330
2EF9
100
AcDbEntity
  8
V0-OBRYS
  6
CONTINUOUS
 62
    90
100
AcDbLine
 10
274.019381
 20
48.442118
 30
0.0
 11
291.172734
 21
51.230287
 31
0.0
  0
LINE
  5
2328
330
2EF9
100
AcDbEntity
  8
V0-OBRYS
  6
CONTINUOUS
 62
    90
100
AcDbLine
 10
292.790401
 20
51.493229
 30
0.0
 11
309.69777
 21
54.241415
 31
0.0
  0
LINE
  5
2329
330
2EF9
100
AcDbEntity
  8
V0-OBRYS
  6
CONTINUOUS
 62
    90
100
AcDbLine
 10
250.593259
 20
44.63435
 30
0.0
 11
272.427808
 21
48.183418
 31
0.0
  0
LINE
  5
232B
330
2EF9
100
AcDbEntity
  8
V0-OBRYS
  6
CONTINUOUS
 62
    90
100
AcDbLine
 10
314.901412
 20
100.593025
 30
0.0
 11
319.59835
 21
96.13934999999999
 31
0.0
  0
LINE
  5
232C
330
2EF9
100
AcDbEntity
  8
V0-OBRYS
  6
CONTINUOUS
 62
    90
100
AcDbLine
 10
301.738803
 20
96.698589
 30
0.0
 11
314.901412
 21
100.593025
 31
0.0
  0
LINE
  5
232E
330
2EF9
100
AcDbEntity
  8
V0-OBRYS
  6
CONTINUOUS
 62
    90
100
AcDbLine
 10
265.455398
 20
85.963379
 30
0.0
 11
282.119776
 21
90.89388700000001
 31
0.0
  0
LINE
  5
232F
330
2EF9
100
AcDbEntity
  8
V0-OBRYS
  6
CONTINUOUS
 62
    90
100
AcDbLine
 10
283.69133
 20
91.358864
 30
0.0
 11
300.116736
 21
96.218667
 31
0.0
  0
LINE
  5
2330
330
2EF9
100
AcDbEntity
  8
V0-OBRYS
  6
CONTINUOUS
 62
    90
100
AcDbLine
 10
242.697063
 20
79.229846
 30
0.0
 11
263.909195
 21
85.505903
 31
0.0
  0
LINE
  5
2332
330
2EF9
100
AcDbEntity
  8
V0-OBRYS
  6
CONTINUOUS
 62
    90
100
AcDbLine
 10
366.247287
 20
36.207334
 30
0.0
 11
362.950442
 21
41.777546
 31
0.0
  0
LINE
  5
2333
330
2EF9
100
AcDbEntity
  8
V0-OBRYS
  6
CONTINUOUS
 62
    90
100
AcDbLine
 10
359.521537
 20
24.241333
 30
0.0
 11
366.247287
 21
36.207334
 31
0.0
  0
LINE
  5
2335
330
2EF9
100
AcDbEntity
  8
V0-OBRYS
  6
CONTINUOUS
 62
    90
100
AcDbLine
 10
340.981664
 20
-8.743563
 30
0.0
 11
349.496727
 21
6.405863999999999
 31
0.0
  0
LINE
  5
2336
330
2EF9
100
AcDbEntity
  8
V0-OBRYS
  6
CONTINUOUS
 62
    90
100
AcDbLine
 10
350.299749
 20
7.834548
 30
0.0
 11
358.692703
 21
22.766727
 31
0.0
  0
LINE
  5
2337
330
2EF9
100
AcDbEntity
  8
V0-OBRYS
  6
CONTINUOUS
 62
    90
100
AcDbLine
 10
329.352749
 20
-29.432947
 30
0.0
 11
340.191595
 21
-10.149201
 31
0.0
  0
LINE
  5
2339
330
2EF9
100
AcDbEntity
  8
V0-OBRYS
  6
CONTINUOUS
 62
    90
100
AcDbLine
 10
325.697973
 20
55.734854
 30
0.0
 11
332.108489
 21
56.630248
 31
0.0
  0
LINE
  5
233A
330
2EF9
100
AcDbEntity
  8
V0-OBRYS
  6
CONTINUOUS
 62
    90
100
AcDbLine
 10
320.536013
 20
43.015772
 30
0.0
 11
325.697973
 21
55.734854
 31
0.0
  0
LINE
  5
233C
330
2EF9
100
AcDbEntity
  8
V0-OBRYS
  6
CONTINUOUS
 62
    90
100
AcDbLine
 10
306.306805
 20
7.954969
 30
0.0
 11
312.842049
 21
24.057826
 31
0.0
  0
LINE
  5
233D
330
2EF9
100
AcDbEntity
  8
V0-OBRYS
  6
CONTINUOUS
 62
    90
100
AcDbLine
 10
313.458363
 20
25.576425
 30
0.0
 11
319.899889
 21
41.448362
 31
0.0
  0
LINE
  5
233E
330
2EF9
100
AcDbEntity
  8
V0-OBRYS
  6
CONTINUOUS
 62
    90
100
AcDbLine
 10
297.381703
 20
-14.036503
 30
0.0
 11
305.700433
 21
6.460867
 31
0.0
  0
LINE
  5
2340
330
2EF9
100
AcDbEntity
  8
V0-OBRYS
  6
CONTINUOUS
 62
    90
100
AcDbLine
 10
408.050362
 20
55.734854
 30
0.0
 11
401.639846
 21
56.630248
 31
0.0
  0
LINE
  5
2341
330
2EF9
100
AcDbEntity
  8
V0-OBRYS
  6
CONTINUOUS
 62
    90
100
AcDbLine
 10
413.212323
 20
43.015772
 30
0.0
 11
408.050362
 21
55.734854
 31
0.0
  0
LINE
  5
2343
330
2EF9
100
AcDbEntity
  8
V0-OBRYS
  6
CONTINUOUS
 62
    90
100
AcDbLine
 10
427.441531
 20
7.954969
 30
0.0
 11
420.906287
 21
24.057826
 31
0.0
  0
LINE
  5
2344
330
2EF9
100
AcDbEntity
  8
V0-OBRYS
  6
CONTINUOUS
 62
    90
100
AcDbLine
 10
420.289973
 20
25.576425
 30
0.0
 11
413.848446
 21
41.448362
 31
0.0
  0
LINE
  5
2345
330
2EF9
100
AcDbEntity
  8
V0-OBRYS
  6
CONTINUOUS
 62
    90
100
AcDbLine
 10
436.366632
 20
-14.036503
 30
0.0
 11
428.047903
 21
6.460867
 31
0.0
  0
LINE
  5
2347
330
2EF9
100
AcDbEntity
  8
V0-OBRYS
  6
CONTINUOUS
 62
    90
100
AcDbLine
 10
367.501049
 20
36.207334
 30
0.0
 11
370.797893
 21
41.777546
 31
0.0
  0
LINE
  5
2348
330
2EF9
100
AcDbEntity
  8
V0-OBRYS
  6
CONTINUOUS
 62
    90
100
AcDbLine
 10
374.226798
 20
24.241333
 30
0.0
 11
367.501049
 21
36.207334
 31
0.0
  0
LINE
  5
234A
330
2EF9
100
AcDbEntity
  8
V0-OBRYS
  6
CONTINUOUS
 62
    90
100
AcDbLine
 10
392.766671
 20
-8.743563
 30
0.0
 11
384.251609
 21
6.405863999999999
 31
0.0
  0
LINE
  5
234B
330
2EF9
100
AcDbEntity
  8
V0-OBRYS
  6
CONTINUOUS
 62
    90
100
AcDbLine
 10
383.448586
 20
7.834548
 30
0.0
 11
375.055632
 21
22.766727
 31
0.0
  0
LINE
  5
234C
330
2EF9
100
AcDbEntity
  8
V0-OBRYS
  6
CONTINUOUS
 62
    90
100
AcDbLine
 10
404.395587
 20
-29.432947
 30
0.0
 11
393.556741
 21
-10.149201
 31
0.0
  0
LINE
  5
234E
330
2EF9
100
AcDbEntity
  8
V0-OBRYS
  6
CONTINUOUS
 62
    90
100
AcDbLine
 10
418.846924
 20
100.593025
 30
0.0
 11
414.149985
 21
96.13934999999999
 31
0.0
  0
LINE
  5
234F
330
2EF9
100
AcDbEntity
  8
V0-OBRYS
  6
CONTINUOUS
 62
    90
100
AcDbLine
 10
432.009532
 20
96.698589
 30
0.0
 11
418.846924
 21
100.593025
 31
0.0
  0
LINE
  5
2351
330
2EF9
100
AcDbEntity
  8
V0-OBRYS
  6
CONTINUOUS
 62
    90
100
AcDbLine
 10
468.292938
 20
85.963379
 30
0.0
 11
451.628559
 21
90.89388700000001
 31
0.0
  0
LINE
  5
2352
330
2EF9
100
AcDbEntity
  8
V0-OBRYS
  6
CONTINUOUS
 62
    90
100
AcDbLine
 10
450.057005
 20
91.358864
 30
0.0
 11
433.631599
 21
96.218667
 31
0.0
  0
LINE
  5
2353
330
2EF9
100
AcDbEntity
  8
V0-OBRYS
  6
CONTINUOUS
 62
    90
100
AcDbLine
 10
491.051272
 20
79.229846
 30
0.0
 11
469.839141
 21
85.505903
 31
0.0
  0
LINE
  5
2355
330
2EF9
100
AcDbEntity
  8
V0-OBRYS
  6
CONTINUOUS
 62
    90
100
AcDbLine
 10
408.83207
 20
56.715085
 30
0.0
 11
406.532652
 21
62.765632
 31
0.0
  0
LINE
  5
2356
330
2EF9
100
AcDbEntity
  8
V0-OBRYS
  6
CONTINUOUS
 62
    90
100
AcDbLine
 10
422.380903
 20
54.512808
 30
0.0
 11
408.83207
 21
56.715085
 31
0.0
  0
LINE
  5
2358
330
2EF9
100
AcDbEntity
  8
V0-OBRYS
  6
CONTINUOUS
 62
    90
100
AcDbLine
 10
459.728955
 20
48.442118
 30
0.0
 11
442.575601
 21
51.230287
 31
0.0
  0
LINE
  5
2359
330
2EF9
100
AcDbEntity
  8
V0-OBRYS
  6
CONTINUOUS
 62
    90
100
AcDbLine
 10
440.957934
 20
51.493229
 30
0.0
 11
424.050565
 21
54.241415
 31
0.0
  0
LINE
  5
235A
330
2EF9
100
AcDbEntity
  8
V0-OBRYS
  6
CONTINUOUS
 62
    90
100
AcDbLine
 10
483.155076
 20
44.63435
 30
0.0
 11
461.320527
 21
48.183418
 31
0.0
  0
LINE
  5
235C
330
2EF9
100
AcDbEntity
  8
V0-OBRYS
  6
CONTINUOUS
 62
    90
100
AcDbLine
 10
390.50694
 20
137.002728
 30
0.0
 11
391.060469
 21
130.553693
 31
0.0
  0
LINE
  5
235D
330
2EF9
100
AcDbEntity
  8
V0-OBRYS
  6
CONTINUOUS
 62
    90
100
AcDbLine
 10
401.758484
 20
144.865529
 30
0.0
 11
390.50694
 21
137.002728
 31
0.0
  0
LINE
  5
235F
330
2EF9
100
AcDbEntity
  8
V0-OBRYS
  6
CONTINUOUS
 62
    90
100
AcDbLine
 10
432.773942
 20
166.539744
 30
0.0
 11
418.529046
 21
156.585129
 31
0.0
  0
LINE
  5
2360
330
2EF9
100
AcDbEntity
  8
V0-OBRYS
  6
CONTINUOUS
 62
    90
100
AcDbLine
 10
417.185665
 20
155.646347
 30
0.0
 11
403.145045
 21
145.834485
 31
0.0
  0
LINE
  5
2361
330
2EF9
100
AcDbEntity
  8
V0-OBRYS
  6
CONTINUOUS
 62
    90
100
AcDbLine
 10
452.22802
 20
180.134637
 30
0.0
 11
434.095654
 21
167.463382
 31
0.0
  0
LINE
  5
2363
330
2EF9
100
AcDbEntity
  8
V0-OBRYS
  6
CONTINUOUS
 62
    90
100
AcDbLine
 10
418.567935
 20
101.815352
 30
0.0
 11
412.403763
 21
103.790049
 31
0.0
  0
LINE
  5
2364
330
2EF9
100
AcDbEntity
  8
V0-OBRYS
  6
CONTINUOUS
 62
    90
100
AcDbLine
 10
428.737304
 20
111.035159
 30
0.0
 11
418.567935
 21
101.815352
 31
0.0
  0
LINE
  5
2366
330
2EF9
100
AcDbEntity
  8
V0-OBRYS
  6
CONTINUOUS
 62
    90
100
AcDbLine
 10
456.769689
 20
136.450028
 30
0.0
 11
443.89487
 21
124.777392
 31
0.0
  0
LINE
  5
2367
330
2EF9
100
AcDbEntity
  8
V0-OBRYS
  6
CONTINUOUS
 62
    90
100
AcDbLine
 10
442.680695
 20
123.67659
 30
0.0
 11
429.990505
 21
112.171343
 31
0.0
  0
LINE
  5
2368
330
2EF9
100
AcDbEntity
  8
V0-OBRYS
  6
CONTINUOUS
 62
    90
100
AcDbLine
 10
474.35267
 20
152.391204
 30
0.0
 11
457.964278
 21
137.533073
 31
0.0
  0
TEXT
  5
2455
330
2EF9
100
AcDbEntity
  8
V0-VYPLNE
  6
CONTINUOUS
 62
    51
100
AcDbText
 10
217.936838
 20
-423.75747
 30
0.0
 40
30.0
  1
DO POTRUBI
  7
ED30
100
AcDbText
  0
CIRCLE
  5
2458
330
2EF9
100
AcDbEntity
  8
V0-OBRYS
  6
CONTINUOUS
 62
    90
100
AcDbCircle
 10
366.874168
 20
89.37358500000001
 30
0.0
 40
163.5
  0
CIRCLE
  5
2459
330
2EF9
100
AcDbEntity
  8
V0-OBRYS
  6
CONTINUOUS
 62
    90
100
AcDbCircle
 10
366.874168
 20
89.37358500000001
 30
0.0
 40
127.0
  0
ARC
  5
245A
330
2EF9
100
AcDbEntity
  8
V0-OBRYS
  6
CONTINUOUS
 62
    90
100
AcDbCircle
 10
366.874168
 20
89.37358500000001
 30
0.0
 40
124.590725
100
AcDbArc
 50
133.241418
 51
149.615725
  0
ARC
  5
245B
330
2EF9
100
AcDbEntity
  8
V0-OBRYS
  6
CONTINUOUS
 62
    90
100
AcDbCircle
 10
366.874168
 20
89.37358500000001
 30
0.0
 40
124.590725
100
AcDbArc
 50
81.81284700000001
 51
98.187153
  0
ARC
  5
245C
330
2EF9
100
AcDbEntity
  8
V0-OBRYS
  6
CONTINUOUS
 62
    90
100
AcDbCircle
 10
366.874168
 20
89.37358500000001
 30
0.0
 40
124.590725
100
AcDbArc
 50
30.384275
 51
46.758582
  0
ARC
  5
2460
330
2EF9
100
AcDbEntity
  8
V0-OBRYS
  6
CONTINUOUS
 62
    90
100
AcDbCircle
 10
366.874168
 20
89.37358500000001
 30
0.0
 40
124.590725
100
AcDbArc
 50
184.66999
 51
201.044296
  0
ARC
  5
2461
330
2EF9
100
AcDbEntity
  8
V0-OBRYS
  6
CONTINUOUS
 62
    90
100
AcDbCircle
 10
366.874168
 20
89.37358500000001
 30
0.0
 40
124.590725
100
AcDbArc
 50
236.098561
 51
252.472867
  0
ARC
  5
2462
330
2EF9
100
AcDbEntity
  8
V0-OBRYS
  6
CONTINUOUS
 62
    90
100
AcDbCircle
 10
366.874168
 20
89.37358500000001
 30
0.0
 40
124.590725
100
AcDbArc
 50
287.527133
 51
303.901439
  0
ARC
  5
2463
330
2EF9
100
AcDbEntity
  8
V0-OBRYS
  6
CONTINUOUS
 62
    90
100
AcDbCircle
 10
366.874168
 20
89.37358500000001
 30
0.0
 40
124.590725
100
AcDbArc
 50
338.955704
 51
355.33001
  0
LINE
  5
2464
330
2EF9
100
AcDbEntity
  8
V0-VYPLNE
100
AcDbLine
 10
499.544131
 20
-43.296378
 30
0.0
 11
507.924691
 21
-51.676939
 31
0.0
  0
CIRCLE
  5
2465
330
2EF9
100
AcDbEntity
  8
V0-OBRYS
  6
CONTINUOUS
 62
    90
100
AcDbCircle
 10
366.874168
 20
89.37358500000001
 30
0.0
 40
39.911306
  0
LINE
  5
2466
330
2EF9
100
AcDbEntity
  8
V0-OBRYS
  6
CONTINUOUS
 62
    90
100
AcDbLine
 10
329.495317
 20
134.804404
 30
0.0
 11
341.551857
 21
120.223105
 31
0.0
  0
LINE
  5
2467
330
2EF9
100
AcDbEntity
  8
V0-OBRYS
  6
CONTINUOUS
 62
    90
100
AcDbLine
 10
321.267413
 20
127.151004
 30
0.0
 11
336.197435
 21
114.904946
 31
0.0
  0
LINE
  5
2468
330
2EF9
100
AcDbEntity
  8
V0-OBRYS
  6
CONTINUOUS
 62
    90
100
AcDbLine
 10
329.096748
 20
43.76683
 30
0.0
 11
341.342807
 21
58.696852
 31
0.0
  0
LINE
  5
2469
330
2EF9
100
AcDbEntity
  8
V0-OBRYS
  6
CONTINUOUS
 62
    90
100
AcDbLine
 10
321.443349
 20
51.994734
 30
0.0
 11
336.024647
 21
64.05127400000001
 31
0.0
  0
LINE
  5
246A
330
2EF9
100
AcDbEntity
  8
V0-OBRYS
  6
CONTINUOUS
 62
    90
100
AcDbLine
 10
412.480922
 20
51.596165
 30
0.0
 11
397.5509
 21
63.842224
 31
0.0
  0
LINE
  5
246B
330
2EF9
100
AcDbEntity
  8
V0-OBRYS
  6
CONTINUOUS
 62
    90
100
AcDbLine
 10
404.253018
 20
43.942766
 30
0.0
 11
392.196478
 21
58.524064
 31
0.0
  0
LINE
  5
246C
330
2EF9
100
AcDbEntity
  8
V0-OBRYS
  6
CONTINUOUS
 62
    90
100
AcDbLine
 10
404.651587
 20
134.980339
 30
0.0
 11
392.405529
 21
120.050317
 31
0.0
  0
LINE
  5
246D
330
2EF9
100
AcDbEntity
  8
V0-OBRYS
  6
CONTINUOUS
 62
    90
100
AcDbLine
 10
412.304987
 20
126.752435
 30
0.0
 11
397.723688
 21
114.695895
 31
0.0
  0
CIRCLE
  5
246E
330
2EF9
100
AcDbEntity
  8
V0-VYPLNE
  6
DASHDOT
 62
    63
100
AcDbCircle
 10
366.874168
 20
89.37358500000001
 30
0.0
 40
146.0
  0
CIRCLE
  5
246F
330
2EF9
100
AcDbEntity
  8
V0-OBRYS
  6
CONTINUOUS
 62
    90
100
AcDbCircle
 10
366.874168
 20
235.373585
 30
0.0
 40
5.0
  0
CIRCLE
  5
2470
330
2EF9
100
AcDbEntity
  8
V0-OBRYS
  6
CONTINUOUS
 62
    90
100
AcDbCircle
 10
220.874168
 20
89.37358500000001
 30
0.0
 40
5.0
  0
CIRCLE
  5
2471
330
2EF9
100
AcDbEntity
  8
V0-OBRYS
  6
CONTINUOUS
 62
    90
100
AcDbCircle
 10
366.874168
 20
-56.626415
 30
0.0
 40
5.0
  0
CIRCLE
  5
2472
330
2EF9
100
AcDbEntity
  8
V0-OBRYS
  6
CONTINUOUS
 62
    90
100
AcDbCircle
 10
512.8741680000001
 20
89.37358500000001
 30
0.0
 40
5.0
  0
LINE
  5
25FB
330
2EF9
100
AcDbEntity
  8
V0-OBRYS
  6
CONTINUOUS
 62
    90
100
AcDbLine
 10
-13.754965
 20
89.37358500000001
 30
0.0
 11
-13.754965
 21
252.873585
 31
0.0
  0
LINE
  5
25FD
330
2EF9
100
AcDbEntity
  8
V0-OBRYS
  6
CONTINUOUS
 62
    90
100
AcDbLine
 10
-15.754965
 20
216.373585
 30
0.0
 11
-119.190653
 21
216.373585
 31
0.0
  0
LINE
  5
25FE
330
2EF9
100
AcDbEntity
  8
V0-OBRYS
  6
CONTINUOUS
 62
    90
100
AcDbLine
 10
-133.754965
 20
89.37358500000001
 30
0.0
 11
-133.754965
 21
252.873585
 31
0.0
  0
LINE
  5
2601
330
2EF9
100
AcDbEntity
  8
V0-OBRYS
  6
CONTINUOUS
 62
    90
100
AcDbLine
 10
-131.754965
 20
-37.626415
 30
0.0
 11
-131.754965
 21
252.873585
 31
0.0
  0
LINE
  5
2602
330
2EF9
100
AcDbEntity
  8
V0-OBRYS
  6
CONTINUOUS
 62
    90
100
AcDbLine
 10
-15.754965
 20
-37.626415
 30
0.0
 11
-15.754965
 21
252.873585
 31
0.0
  0
LINE
  5
2603
330
2EF9
100
AcDbEntity
  8
V0-VYPLNE
  6
DASHED
 62
    52
100
AcDbLine
 10
-119.190653
 20
213.884247
 30
0.0
 11
-119.190653
 21
159.373585
 31
0.0
  0
LINE
  5
2604
330
2EF9
100
AcDbEntity
  8
V0-OBRYS
  6
CONTINUOUS
 62
    90
100
AcDbLine
 10
-121.190653
 20
216.373585
 30
0.0
 11
-131.754965
 21
216.373585
 31
0.0
  0
LINE
  5
2605
330
2EF9
100
AcDbEntity
  8
V0-VYPLNE
  6
DASHED
 62
    52
100
AcDbLine
 10
-121.190653
 20
216.373585
 30
0.0
 11
-121.190653
 21
215.884247
 31
0.0
  0
LINE
  5
26CA
330
2EF9
100
AcDbEntity
  8
V0-VYPLNE
  6
DASHED
 62
    52
100
AcDbLine
 10
-119.30922
 20
142.868402
 30
0.0
 11
-127.520703
 21
128.95962
 31
0.0
  0
LINE
  5
26CB
330
2EF9
100
AcDbEntity
  8
V0-VYPLNE
  6
DASHED
 62
    52
100
AcDbLine
 10
-119.519772
 20
132.796523
 30
0.0
 11
-127.310153
 21
123.20426
 31
0.0
  0
LINE
  5
26CC
330
2EF9
100
AcDbEntity
  8
V0-VYPLNE
  6
DASHED
 62
    52
100
AcDbLine
 10
-119.519772
 20
109.295479
 30
0.0
 11
-127.520703
 21
107.377025
 31
0.0
  0
LINE
  5
26CD
330
2EF9
100
AcDbEntity
  8
V0-VYPLNE
  6
DASHED
 62
    52
100
AcDbLine
 10
-119.519772
 20
97.784761
 30
0.0
 11
-127.520703
 21
97.305148
 31
0.0
  0
LINE
  5
26CE
330
2EF9
100
AcDbEntity
  8
V0-VYPLNE
  6
DASHED
 62
    52
100
AcDbLine
 10
-119.30922
 20
120.806193
 30
0.0
 11
-127.731255
 21
116.489675
 31
0.0
  0
LINE
  5
26D0
330
2EF9
100
AcDbEntity
  8
V0-VYPLNE
  6
DASHED
 62
    52
100
AcDbLine
 10
-119.30922
 20
57.940976
 30
0.0
 11
-127.731255
 21
62.257494
 31
0.0
  0
LINE
  5
26D1
330
2EF9
100
AcDbEntity
  8
V0-VYPLNE
  6
DASHED
 62
    52
100
AcDbLine
 10
-119.519772
 20
80.962408
 30
0.0
 11
-127.520703
 21
81.442021
 31
0.0
  0
LINE
  5
26D2
330
2EF9
100
AcDbEntity
  8
V0-VYPLNE
  6
DASHED
 62
    52
100
AcDbLine
 10
-119.519772
 20
69.451691
 30
0.0
 11
-127.520703
 21
71.37014499999999
 31
0.0
  0
LINE
  5
26D3
330
2EF9
100
AcDbEntity
  8
V0-VYPLNE
  6
DASHED
 62
    52
100
AcDbLine
 10
-119.519772
 20
45.950646
 30
0.0
 11
-127.310153
 21
55.542909
 31
0.0
  0
LINE
  5
26D4
330
2EF9
100
AcDbEntity
  8
V0-VYPLNE
  6
DASHED
 62
    52
100
AcDbLine
 10
-119.30922
 20
35.878768
 30
0.0
 11
-127.520703
 21
49.787549
 31
0.0
  0
LINE
  5
26E2
330
2EF9
100
AcDbEntity
  8
V0-VYPLNE
  6
DASHED
 62
    52
100
AcDbLine
 10
-127.570651
 20
89.37358500000001
 30
0.0
 11
-127.570651
 21
42.383925
 31
0.0
  0
ELLIPSE
  5
26E3
330
2EF9
100
AcDbEntity
  8
V0-VYPLNE
  6
DASHED
 62
    52
100
AcDbEllipse
 10
-123.185651
 20
42.383925
 30
0.0
 11
0.0
 21
9.997800000000005
 31
0.0
210
0.0
220
0.0
230
-1.0
 40
0.438596
 41
3.141592653589792
 42
4.712388980384688
  0
LINE
  5
26E4
330
2EF9
100
AcDbEntity
  8
V0-VYPLNE
  6
DASHED
 62
    52
100
AcDbLine
 10
-127.570651
 20
89.37358500000001
 30
0.0
 11
-127.570651
 21
136.363245
 31
0.0
  0
ELLIPSE
  5
26E5
330
2EF9
100
AcDbEntity
  8
V0-VYPLNE
  6
DASHED
 62
    52
100
AcDbEllipse
 10
-123.185651
 20
136.363245
 30
0.0
 11
-1.421085471520200E-14
 21
9.997800000000012
 31
0.0
210
0.0
220
0.0
230
-1.0
 40
0.438596
 41
-1.570796326794898
 42
6.283185307179586
  0
LINE
  5
26E6
330
2EF9
100
AcDbEntity
  8
V0-VYPLNE
  6
DASHED
 62
    52
100
AcDbLine
 10
-84.72579
 20
37.385025
 30
0.0
 11
-84.72579
 21
89.37358500000001
 31
0.0
  0
LINE
  5
26E7
330
2EF9
100
AcDbEntity
  8
V0-VYPLNE
  6
DASHED
 62
    52
100
AcDbLine
 10
-119.239151
 20
89.37358500000001
 30
0.0
 11
-119.239151
 21
32.386125
 31
0.0
  0
LINE
  5
26E8
330
2EF9
100
AcDbEntity
  8
V0-VYPLNE
  6
DASHED
 62
    52
100
AcDbLine
 10
-119.239151
 20
80.962408
 30
0.0
 11
-84.93634
 21
80.962408
 31
0.0
  0
LINE
  5
26E9
330
2EF9
100
AcDbEntity
  8
V0-VYPLNE
  6
DASHED
 62
    52
100
AcDbLine
 10
-119.239151
 20
69.451691
 30
0.0
 11
-84.72579
 21
69.451691
 31
0.0
  0
LINE
  5
26EA
330
2EF9
100
AcDbEntity
  8
V0-VYPLNE
  6
DASHED
 62
    52
100
AcDbLine
 10
-119.239151
 20
57.940976
 30
0.0
 11
-84.93634
 21
57.940976
 31
0.0
  0
LINE
  5
26EB
330
2EF9
100
AcDbEntity
  8
V0-VYPLNE
  6
DASHED
 62
    52
100
AcDbLine
 10
-119.239151
 20
45.950646
 30
0.0
 11
-84.72579
 21
45.950646
 31
0.0
  0
LINE
  5
26EC
330
2EF9
100
AcDbEntity
  8
V0-VYPLNE
  6
DASHED
 62
    52
100
AcDbLine
 10
-119.239151
 20
32.386125
 30
0.0
 11
-86.91829
 21
32.386125
 31
0.0
  0
LINE
  5
26ED
330
2EF9
100
AcDbEntity
  8
V0-VYPLNE
  6
DASHED
 62
    52
100
AcDbLine
 10
-119.239151
 20
35.878768
 30
0.0
 11
-84.72579
 21
35.878768
 31
0.0
  0
LINE
  5
26F3
330
2EF9
100
AcDbEntity
  8
V0-VYPLNE
  6
DASHED
 62
    52
100
AcDbLine
 10
-119.519772
 20
69.451691
 30
0.0
 11
-118.256466
 21
69.451691
 31
0.0
  0
ELLIPSE
  5
26F4
330
2EF9
100
AcDbEntity
  8
V0-VYPLNE
  6
DASHED
 62
    52
100
AcDbEllipse
 10
-86.91829
 20
37.385025
 30
0.0
 11
0.0
 21
4.998899999999999
 31
0.0
210
0.0
220
0.0
230
-1.0
 40
0.438596
 41
1.570796326794896
 42
3.14159265358979
  0
LINE
  5
26F5
330
2EF9
100
AcDbEntity
  8
V0-VYPLNE
  6
DASHED
 62
    52
100
AcDbLine
 10
-119.239151
 20
142.868402
 30
0.0
 11
-84.72579
 21
142.868402
 31
0.0
  0
LINE
  5
26F6
330
2EF9
100
AcDbEntity
  8
V0-VYPLNE
  6
DASHED
 62
    52
100
AcDbLine
 10
-119.239151
 20
146.361045
 30
0.0
 11
-86.91829
 21
146.361045
 31
0.0
  0
LINE
  5
26F7
330
2EF9
100
AcDbEntity
  8
V0-VYPLNE
  6
DASHED
 62
    52
100
AcDbLine
 10
-119.239151
 20
132.796523
 30
0.0
 11
-84.72579
 21
132.796523
 31
0.0
  0
LINE
  5
26F8
330
2EF9
100
AcDbEntity
  8
V0-VYPLNE
  6
DASHED
 62
    52
100
AcDbLine
 10
-119.239151
 20
120.806193
 30
0.0
 11
-84.93634
 21
120.806193
 31
0.0
  0
LINE
  5
26F9
330
2EF9
100
AcDbEntity
  8
V0-VYPLNE
  6
DASHED
 62
    52
100
AcDbLine
 10
-119.239151
 20
109.295479
 30
0.0
 11
-84.72579
 21
109.295479
 31
0.0
  0
LINE
  5
26FA
330
2EF9
100
AcDbEntity
  8
V0-VYPLNE
  6
DASHED
 62
    52
100
AcDbLine
 10
-119.239151
 20
97.784761
 30
0.0
 11
-84.93634
 21
97.784761
 31
0.0
  0
LINE
  5
26FB
330
2EF9
100
AcDbEntity
  8
V0-VYPLNE
  6
DASHED
 62
    52
100
AcDbLine
 10
-119.239151
 20
89.37358500000001
 30
0.0
 11
-119.239151
 21
146.361045
 31
0.0
  0
LINE
  5
26FE
330
2EF9
100
AcDbEntity
  8
V0-VYPLNE
  6
DASHED
 62
    52
100
AcDbLine
 10
-119.519772
 20
109.295479
 30
0.0
 11
-118.256466
 21
109.295479
 31
0.0
  0
LINE
  5
2702
330
2EF9
100
AcDbEntity
  8
V0-VYPLNE
  6
DASHED
 62
    52
100
AcDbLine
 10
-84.72579
 20
141.362145
 30
0.0
 11
-84.72579
 21
89.37358500000001
 31
0.0
  0
ELLIPSE
  5
2703
330
2EF9
100
AcDbEntity
  8
V0-VYPLNE
  6
DASHED
 62
    52
100
AcDbEllipse
 10
-86.91829
 20
141.362145
 30
0.0
 11
0.0
 21
4.998899999999992
 31
0.0
210
0.0
220
0.0
230
-1.0
 40
0.438596
 41
0.0
 42
1.570796326794896
  0
LINE
  5
2710
330
2EF9
100
AcDbEntity
  8
V0-VYPLNE
100
AcDbLine
 10
11.234283
 20
89.37358500000001
 30
0.0
 11
-150.059957
 21
89.37358500000001
 31
0.0
  0
LINE
  5
2713
330
2EF9
100
AcDbEntity
  8
V0-VYPLNE
  6
DASHED
 62
    52
100
AcDbLine
 10
-121.190653
 20
160.49511
 30
0.0
 11
-106.3139
 21
152.941306
 31
0.0
  0
LINE
  5
2714
330
2EF9
100
AcDbEntity
  8
V0-VYPLNE
  6
DASHED
 62
    52
100
AcDbLine
 10
-121.190653
 20
158.252059
 30
0.0
 11
-108.3139
 21
151.713774
 31
0.0
  0
LINE
  5
2715
330
2EF9
100
AcDbEntity
  8
V0-VYPLNE
  6
DASHED
 62
    52
100
AcDbLine
 10
-106.3139
 20
152.941306
 30
0.0
 11
-106.3139
 21
146.361045
 31
0.0
  0
LINE
  5
2716
330
2EF9
100
AcDbEntity
  8
V0-VYPLNE
  6
DASHED
 62
    52
100
AcDbLine
 10
-108.3139
 20
151.713774
 30
0.0
 11
-108.3139
 21
146.361045
 31
0.0
  0
LINE
  5
277B
330
2EF9
100
AcDbEntity
  8
V0-VYPLNE
  6
DASHED
 62
    52
100
AcDbLine
 10
-26.725442
 20
151.235433
 30
0.0
 11
-38.825513
 21
214.558307
 31
0.0
  0
LINE
  5
277C
330
2EF9
100
AcDbEntity
  8
V0-VYPLNE
  6
DASHED
 62
    52
100
AcDbLine
 10
-80.784488
 20
151.235433
 30
0.0
 11
-68.684417
 21
214.558307
 31
0.0
  0
LINE
  5
277D
330
2EF9
100
AcDbEntity
  8
V0-VYPLNE
  6
DASHED
 62
    52
100
AcDbLine
 10
-26.725442
 20
27.911819
 30
0.0
 11
-38.825513
 21
-35.411055
 31
0.0
  0
LINE
  5
277E
330
2EF9
100
AcDbEntity
  8
V0-VYPLNE
  6
DASHED
 62
    52
100
AcDbLine
 10
-80.784488
 20
27.911819
 30
0.0
 11
-68.684417
 21
-35.411055
 31
0.0
  0
LINE
  5
277F
330
2EF9
100
AcDbEntity
  8
V0-VYPLNE
  6
DASHED
 62
    52
100
AcDbLine
 10
-68.684417
 20
-35.411055
 30
0.0
 11
-38.825513
 21
-35.411055
 31
0.0
  0
LINE
  5
2780
330
2EF9
100
AcDbEntity
  8
V0-VYPLNE
  6
DASHED
 62
    52
100
AcDbLine
 10
-80.754965
 20
89.573626
 30
0.0
 11
-80.754965
 21
32.573626
 31
0.0
  0
ELLIPSE
  5
2781
330
2EF9
100
AcDbEntity
  8
V0-VYPLNE
  6
DASHED
 62
    52
100
AcDbEllipse
 10
-823.8008190000001
 20
96.110725
 30
0.0
 11
800.6842818586885
 21
0.0
 31
0.0
210
0.0
220
0.0
230
1.0
 40
0.833333
 41
-0.0899663602222946
 42
-0.0097974248821555
  0
LINE
  5
2782
330
2EF9
100
AcDbEntity
  8
V0-VYPLNE
  6
DASHED
 62
    52
100
AcDbLine
 10
-53.754965
 20
29.716
 30
0.0
 11
-53.754965
 21
89.573626
 31
0.0
  0
LINE
  5
2783
330
2EF9
100
AcDbEntity
  8
V0-VYPLNE
  6
DASHED
 62
    52
100
AcDbLine
 10
-80.278565
 20
82.729259
 30
0.0
 11
-24.696933
 21
96.652801
 31
0.0
  0
ELLIPSE
  5
2784
330
2EF9
100
AcDbEntity
  8
V0-VYPLNE
  6
DASHED
 62
    52
100
AcDbEllipse
 10
-53.754965
 20
119.723583
 30
0.0
 11
-108.009099361112
 21
1.136868377216160E-13
 31
0.0
210
0.0
220
0.0
230
1.0
 40
0.833333
 41
1.318137823878815
 42
1.782397559380189
  0
LINE
  5
2785
330
2EF9
100
AcDbEntity
  8
V0-VYPLNE
  6
DASHED
 62
    52
100
AcDbLine
 10
-76.174936
 20
31.749569
 30
0.0
 11
-80.784488
 21
27.911819
 31
0.0
  0
ELLIPSE
  5
2786
330
2EF9
100
AcDbEntity
  8
V0-VYPLNE
  6
DASHED
 62
    52
100
AcDbEllipse
 10
-32.330434
 20
36.61202
 30
0.0
 11
6.0
 21
0.0
 31
0.0
210
0.0
220
0.0
230
1.0
 40
0.833333
 41
-1.359195094209612
 42
-0.0899663602222978
  0
LINE
  5
2787
330
2EF9
100
AcDbEntity
  8
V0-VYPLNE
  6
DASHED
 62
    52
100
AcDbLine
 10
-31.334994
 20
31.749569
 30
0.0
 11
-26.725442
 21
27.911819
 31
0.0
  0
ELLIPSE
  5
2788
330
2EF9
100
AcDbEntity
  8
V0-VYPLNE
  6
DASHED
 62
    52
100
AcDbEllipse
 10
-53.754965
 20
59.423669
 30
0.0
 11
-108.0090993611121
 21
1.065814103640150E-13
 31
0.0
210
0.0
220
0.0
230
1.0
 40
0.833333
 41
-1.782397559380188
 42
-1.318137823878814
  0
LINE
  5
2789
330
2EF9
100
AcDbEntity
  8
V0-VYPLNE
  6
DASHED
 62
    52
100
AcDbLine
 10
-53.754965
 20
149.431252
 30
0.0
 11
-53.754965
 21
89.573626
 31
0.0
  0
LINE
  5
278A
330
2EF9
100
AcDbEntity
  8
V0-VYPLNE
  6
DASHED
 62
    52
100
AcDbLine
 10
-80.754965
 20
89.573626
 30
0.0
 11
-80.754965
 21
146.573626
 31
0.0
  0
ELLIPSE
  5
278B
330
2EF9
100
AcDbEntity
  8
V0-VYPLNE
  6
DASHED
 62
    52
100
AcDbEllipse
 10
-53.754965
 20
89.37358500000001
 30
0.0
 11
5.085133049623266
 21
0.0
 31
0.0
210
0.0
220
0.0
230
1.0
 40
0.8333329999999999
 41
0.0
 42
6.283185307179586
  0
LINE
  5
278C
330
2EF9
100
AcDbEntity
  8
V0-VYPLNE
  6
DASHED
 62
    52
100
AcDbLine
 10
-76.174936
 20
147.397683
 30
0.0
 11
-80.784488
 21
151.235433
 31
0.0
  0
ELLIPSE
  5
278D
330
2EF9
100
AcDbEntity
  8
V0-VYPLNE
  6
DASHED
 62
    52
100
AcDbEllipse
 10
-823.8008190000001
 20
83.03652700000001
 30
0.0
 11
800.6842818586885
 21
0.0
 31
0.0
210
0.0
220
0.0
230
1.0
 40
0.833333
 41
0.0097974248821523
 42
0.0899663602222918
  0
LINE
  5
278E
330
2EF9
100
AcDbEntity
  8
V0-VYPLNE
  6
DASHED
 62
    52
100
AcDbLine
 10
-31.334994
 20
147.397683
 30
0.0
 11
-26.725442
 21
151.235433
 31
0.0
  0
LINE
  5
278F
330
2EF9
100
AcDbEntity
  8
V0-VYPLNE
  6
DASHED
 62
    52
 48
0.3
100
AcDbLine
 10
-68.684417
 20
214.558307
 30
0.0
 11
-38.825513
 21
214.558307
 31
0.0
  0
LINE
  5
27A8
330
2EF9
100
AcDbEntity
  8
V0-OBRYS
  6
CONTINUOUS
 62
    90
100
AcDbLine
 10
-133.754965
 20
89.37358500000001
 30
0.0
 11
-133.754965
 21
-74.12641499999999
 31
0.0
  0
LINE
  5
27A9
330
2EF9
100
AcDbEntity
  8
V0-OBRYS
  6
CONTINUOUS
 62
    90
100
AcDbLine
 10
-131.754965
 20
-37.626415
 30
0.0
 11
-131.754965
 21
-74.12641499999999
 31
0.0
  0
LINE
  5
27AA
330
2EF9
100
AcDbEntity
  8
V0-OBRYS
  6
CONTINUOUS
 62
    90
100
AcDbLine
 10
-13.754965
 20
89.37358500000001
 30
0.0
 11
-13.754965
 21
-74.12641499999999
 31
0.0
  0
LINE
  5
27AB
330
2EF9
100
AcDbEntity
  8
V0-OBRYS
  6
CONTINUOUS
 62
    90
100
AcDbLine
 10
-15.754965
 20
-37.626415
 30
0.0
 11
-15.754965
 21
-74.12641499999999
 31
0.0
  0
LINE
  5
27AC
330
2EF9
100
AcDbEntity
  8
V0-OBRYS
  6
CONTINUOUS
 62
    90
100
AcDbLine
 10
-15.754965
 20
-37.626415
 30
0.0
 11
-119.190653
 21
-37.626415
 31
0.0
  0
LINE
  5
27AD
330
2EF9
100
AcDbEntity
  8
V0-OBRYS
  6
CONTINUOUS
 62
    90
100
AcDbLine
 10
-121.190653
 20
-37.626415
 30
0.0
 11
-131.754965
 21
-37.626415
 31
0.0
  0
LINE
  5
27AE
330
2EF9
100
AcDbEntity
  8
V0-VYPLNE
  6
DASHED
 62
    52
100
AcDbLine
 10
-121.190653
 20
20.49511
 30
0.0
 11
-108.3139
 21
27.033396
 31
0.0
  0
LINE
  5
27AF
330
2EF9
100
AcDbEntity
  8
V0-VYPLNE
  6
DASHED
 62
    52
100
AcDbLine
 10
-121.190653
 20
18.252059
 30
0.0
 11
-106.3139
 21
25.805863
 31
0.0
  0
LINE
  5
27B0
330
2EF9
100
AcDbEntity
  8
V0-VYPLNE
  6
DASHED
 62
    52
100
AcDbLine
 10
-121.190653
 20
-37.626415
 30
0.0
 11
-121.190653
 21
20.49511
 31
0.0
  0
LINE
  5
27B1
330
2EF9
100
AcDbEntity
  8
V0-VYPLNE
  6
DASHED
 62
    52
100
AcDbLine
 10
-119.190653
 20
-35.137078
 30
0.0
 11
-119.190653
 21
19.373585
 31
0.0
  0
LINE
  5
27B2
330
2EF9
100
AcDbEntity
  8
V0-VYPLNE
  6
DASHED
 62
    52
100
AcDbLine
 10
-108.3139
 20
27.033396
 30
0.0
 11
-108.3139
 21
32.386125
 31
0.0
  0
LINE
  5
27B3
330
2EF9
100
AcDbEntity
  8
V0-VYPLNE
  6
DASHED
 62
    52
100
AcDbLine
 10
-106.3139
 20
25.805863
 30
0.0
 11
-106.3139
 21
32.386125
 31
0.0
  0
ARC
  5
27B4
330
2EF9
100
AcDbEntity
  8
V0-OBRYS
  6
CONTINUOUS
 62
    90
100
AcDbCircle
 10
-132.754965
 20
252.873585
 30
0.0
 40
1.0
100
AcDbArc
 50
0.0
 51
180.0
  0
ARC
  5
27B5
330
2EF9
100
AcDbEntity
  8
V0-OBRYS
  6
CONTINUOUS
 62
    90
100
AcDbCircle
 10
-14.754965
 20
252.873585
 30
0.0
 40
1.0
100
AcDbArc
 50
0.0
 51
180.0
  0
ARC
  5
27B6
330
2EF9
100
AcDbEntity
  8
V0-OBRYS
  6
CONTINUOUS
 62
    90
100
AcDbCircle
 10
-132.754965
 20
-74.12641499999999
 30
0.0
 40
1.0
100
AcDbArc
 50
180.0
 51
0.0
  0
ARC
  5
27B7
330
2EF9
100
AcDbEntity
  8
V0-OBRYS
  6
CONTINUOUS
 62
    90
100
AcDbCircle
 10
-14.754965
 20
-74.12641499999999
 30
0.0
 40
1.0
100
AcDbArc
 50
180.0
 51
0.0
  0
LINE
  5
27BA
330
2EF9
100
AcDbEntity
  8
V0-VYPLNE
  6
DASHDOT
 62
    63
100
AcDbLine
 10
-143.754965
 20
235.373585
 30
0.0
 11
-115.109169
 21
235.373585
 31
0.0
  0
LINE
  5
27BB
330
2EF9
100
AcDbEntity
  8
V0-VYPLNE
  6
DASHDOT
 62
    63
100
AcDbLine
 10
-25.176336
 20
235.373585
 30
0.0
 11
-2.28434
 21
235.373585
 31
0.0
  0
LINE
  5
27BC
330
2EF9
100
AcDbEntity
  8
V0-VYPLNE
  6
DASHDOT
 62
    63
100
AcDbLine
 10
-143.754965
 20
-56.626415
 30
0.0
 11
-115.109169
 21
-56.626415
 31
0.0
  0
LINE
  5
27BD
330
2EF9
100
AcDbEntity
  8
V0-VYPLNE
  6
DASHDOT
 62
    63
100
AcDbLine
 10
-25.176336
 20
-56.626415
 30
0.0
 11
-2.28434
 21
-56.626415
 31
0.0
  0
LINE
  5
27C2
330
2EF9
100
AcDbEntity
  8
V0-VYPLNE
  6
DASHED
 62
    52
100
AcDbLine
 10
-121.190653
 20
215.884247
 30
0.0
 11
-109.164956
 21
215.884247
 31
0.0
  0
LINE
  5
27C3
330
2EF9
100
AcDbEntity
  8
V0-VYPLNE
  6
DASHED
 62
    52
100
AcDbLine
 10
-121.190653
 20
213.884247
 30
0.0
 11
-121.190653
 21
158.252059
 31
0.0
  0
LINE
  5
27C4
330
2EF9
100
AcDbEntity
  8
V0-VYPLNE
  6
DASHED
 62
    52
100
AcDbLine
 10
-119.190653
 20
213.884247
 30
0.0
 11
-109.164956
 21
213.884247
 31
0.0
  0
LINE
  5
27C5
330
2EF9
100
AcDbEntity
  8
V0-VYPLNE
  6
DASHED
 62
    52
100
AcDbLine
 10
-119.190653
 20
-35.137078
 30
0.0
 11
-109.164956
 21
-35.137078
 31
0.0
  0
LINE
  5
27C6
330
2EF9
100
AcDbEntity
  8
V0-VYPLNE
  6
DASHED
 62
    52
100
AcDbLine
 10
-121.190653
 20
-37.137078
 30
0.0
 11
-109.164956
 21
-37.137078
 31
0.0
  0
LINE
  5
27C7
330
2EF9
100
AcDbEntity
  8
V0-VYPLNE
  6
DASHED
 62
    52
100
AcDbLine
 10
-121.190653
 20
-37.626415
 30
0.0
 11
-121.190653
 21
-37.137078
 31
0.0
  0
LINE
  5
27C8
330
2EF9
100
AcDbEntity
  8
V0-VYPLNE
  6
DASHDOT
 62
    63
100
AcDbLine
 10
-25.176336
 20
-216.107307
 30
0.0
 11
-2.28434
 21
-216.107307
 31
0.0
  0
LINE
  5
27C9
330
2EF9
100
AcDbEntity
  8
V0-VYPLNE
  6
DASHDOT
 62
    63
100
AcDbLine
 10
-25.176336
 20
-508.107307
 30
0.0
 11
-2.28434
 21
-508.107307
 31
0.0
  0
LINE
  5
27CA
330
2EF9
100
AcDbEntity
  8
V0-VYPLNE
100
AcDbLine
 10
11.234283
 20
-362.107307
 30
0.0
 11
-150.059957
 21
-362.107307
 31
0.0
  0
LINE
  5
27CB
330
2EF9
100
AcDbEntity
  8
V0-OBRYS
  6
CONTINUOUS
 62
    90
100
AcDbLine
 10
-15.754965
 20
-489.107307
 30
0.0
 11
-119.190653
 21
-489.107307
 31
0.0
  0
LINE
  5
27CC
330
2EF9
100
AcDbEntity
  8
V0-OBRYS
  6
CONTINUOUS
 62
    90
100
AcDbLine
 10
-15.754965
 20
-235.107307
 30
0.0
 11
-119.190653
 21
-235.107307
 31
0.0
  0
LINE
  5
27CE
330
2EF9
100
AcDbEntity
  8
V0-VYPLNE
  6
DASHED
 62
    52
100
AcDbLine
 10
-84.72579
 20
-310.118747
 30
0.0
 11
-84.72579
 21
-362.107307
 31
0.0
  0
LINE
  5
27CF
330
2EF9
100
AcDbEntity
  8
V0-VYPLNE
  6
DASHED
 62
    52
100
AcDbLine
 10
-80.754965
 20
-361.907265
 30
0.0
 11
-80.754965
 21
-304.907265
 31
0.0
  0
LINE
  5
27D0
330
2EF9
100
AcDbEntity
  8
V0-VYPLNE
  6
DASHED
 62
    52
100
AcDbLine
 10
-53.754965
 20
-302.049639
 30
0.0
 11
-53.754965
 21
-361.907265
 31
0.0
  0
ELLIPSE
  5
27D1
330
2EF9
100
AcDbEntity
  8
V0-VYPLNE
  6
DASHED
 62
    52
100
AcDbEllipse
 10
-823.8008190000001
 20
-368.444364
 30
0.0
 11
800.6842818586885
 21
0.0
 31
0.0
210
0.0
220
0.0
230
1.0
 40
0.833333
 41
0.0097974248821523
 42
0.0899663602222918
  0
LINE
  5
27D2
330
2EF9
100
AcDbEntity
  8
V0-VYPLNE
  6
DASHED
 62
    52
100
AcDbLine
 10
-119.30922
 20
-308.61249
 30
0.0
 11
-127.520703
 21
-322.521271
 31
0.0
  0
LINE
  5
27D3
330
2EF9
100
AcDbEntity
  8
V0-VYPLNE
  6
DASHED
 62
    52
100
AcDbLine
 10
-119.239151
 20
-362.107307
 30
0.0
 11
-119.239151
 21
-305.119847
 31
0.0
  0
ELLIPSE
  5
27D4
330
2EF9
100
AcDbEntity
  8
V0-VYPLNE
  6
DASHED
 62
    52
100
AcDbEllipse
 10
-123.185651
 20
-315.117647
 30
0.0
 11
-1.421085471520200E-14
 21
9.997800000000041
 31
0.0
210
0.0
220
0.0
230
-1.0
 40
0.438596
 41
-1.570796326794898
 42
6.283185307179586
  0
LINE
  5
27D5
330
2EF9
100
AcDbEntity
  8
V0-OBRYS
  6
CONTINUOUS
 62
    90
100
AcDbLine
 10
-133.754965
 20
-362.107307
 30
0.0
 11
-133.754965
 21
-198.607307
 31
0.0
  0
LINE
  5
27D6
330
2EF9
100
AcDbEntity
  8
V0-VYPLNE
  6
DASHED
 62
    52
100
AcDbLine
 10
-80.784488
 20
-423.569072
 30
0.0
 11
-68.684417
 21
-486.891946
 31
0.0
  0
LINE
  5
27D7
330
2EF9
100
AcDbEntity
  8
V0-VYPLNE
  6
DASHED
 62
    52
100
AcDbLine
 10
-26.725442
 20
-423.569072
 30
0.0
 11
-38.825513
 21
-486.891946
 31
0.0
  0
LINE
  5
27D8
330
2EF9
100
AcDbEntity
  8
V0-OBRYS
  6
CONTINUOUS
 62
    90
100
AcDbLine
 10
-133.754965
 20
-362.107307
 30
0.0
 11
-133.754965
 21
-525.607307
 31
0.0
  0
LINE
  5
27D9
330
2EF9
100
AcDbEntity
  8
V0-VYPLNE
  6
DASHED
 62
    52
100
AcDbLine
 10
-121.190653
 20
-488.617969
 30
0.0
 11
-121.190653
 21
-430.985781
 31
0.0
  0
LINE
  5
27DA
330
2EF9
100
AcDbEntity
  8
V0-VYPLNE
  6
DASHED
 62
    52
100
AcDbLine
 10
-119.190653
 20
-486.617969
 30
0.0
 11
-119.190653
 21
-432.107307
 31
0.0
  0
LINE
  5
27DB
330
2EF9
100
AcDbEntity
  8
V0-OBRYS
  6
CONTINUOUS
 62
    90
100
AcDbLine
 10
-131.754965
 20
-489.107307
 30
0.0
 11
-131.754965
 21
-525.607307
 31
0.0
  0
ARC
  5
27DC
330
2EF9
100
AcDbEntity
  8
V0-OBRYS
  6
CONTINUOUS
 62
    90
100
AcDbCircle
 10
-132.754965
 20
-525.607307
 30
0.0
 40
1.0
100
AcDbArc
 50
180.0
 51
0.0
  0
LINE
  5
27DD
330
2EF9
100
AcDbEntity
  8
V0-OBRYS
  6
CONTINUOUS
 62
    90
100
AcDbLine
 10
-121.190653
 20
-489.107307
 30
0.0
 11
-131.754965
 21
-489.107307
 31
0.0
  0
LINE
  5
27DE
330
2EF9
100
AcDbEntity
  8
V0-VYPLNE
  6
DASHDOT
 62
    63
100
AcDbLine
 10
-143.754965
 20
-508.107307
 30
0.0
 11
-115.109169
 21
-508.107307
 31
0.0
  0
LINE
  5
27DF
330
2EF9
100
AcDbEntity
  8
V0-VYPLNE
  6
DASHED
 62
    52
100
AcDbLine
 10
-119.190653
 20
-486.617969
 30
0.0
 11
-109.164956
 21
-486.617969
 31
0.0
  0
LINE
  5
27E0
330
2EF9
100
AcDbEntity
  8
V0-VYPLNE
  6
DASHED
 62
    52
100
AcDbLine
 10
-121.190653
 20
-488.617969
 30
0.0
 11
-109.164956
 21
-488.617969
 31
0.0
  0
LINE
  5
27E2
330
2EF9
100
AcDbEntity
  8
V0-VYPLNE
  6
DASHED
 62
    52
100
AcDbLine
 10
-121.190653
 20
-489.107307
 30
0.0
 11
-121.190653
 21
-488.617969
 31
0.0
  0
LINE
  5
27E3
330
2EF9
100
AcDbEntity
  8
V0-VYPLNE
  6
DASHED
 62
    52
100
AcDbLine
 10
-68.684417
 20
-486.891946
 30
0.0
 11
-38.825513
 21
-486.891946
 31
0.0
  0
LINE
  5
27E4
330
2EF9
100
AcDbEntity
  8
V0-VYPLNE
  6
DASHED
 62
    52
100
AcDbLine
 10
-119.239151
 20
-419.094767
 30
0.0
 11
-86.91829
 21
-419.094767
 31
0.0
  0
LINE
  5
27E5
330
2EF9
100
AcDbEntity
  8
V0-VYPLNE
  6
DASHED
 62
    52
100
AcDbLine
 10
-119.239151
 20
-415.602124
 30
0.0
 11
-84.72579
 21
-415.602124
 31
0.0
  0
LINE
  5
27E6
330
2EF9
100
AcDbEntity
  8
V0-VYPLNE
  6
DASHED
 62
    52
100
AcDbLine
 10
-119.239151
 20
-405.530246
 30
0.0
 11
-84.72579
 21
-405.530246
 31
0.0
  0
LINE
  5
27E7
330
2EF9
100
AcDbEntity
  8
V0-VYPLNE
  6
DASHED
 62
    52
100
AcDbLine
 10
-119.239151
 20
-393.539916
 30
0.0
 11
-84.93634
 21
-393.539916
 31
0.0
  0
LINE
  5
27E8
330
2EF9
100
AcDbEntity
  8
V0-VYPLNE
  6
DASHED
 62
    52
100
AcDbLine
 10
-119.239151
 20
-382.029201
 30
0.0
 11
-84.72579
 21
-382.029201
 31
0.0
  0
LINE
  5
27E9
330
2EF9
100
AcDbEntity
  8
V0-VYPLNE
  6
DASHED
 62
    52
100
AcDbLine
 10
-119.239151
 20
-370.518483
 30
0.0
 11
-84.93634
 21
-370.518483
 31
0.0
  0
LINE
  5
27EA
330
2EF9
100
AcDbEntity
  8
V0-VYPLNE
  6
DASHED
 62
    52
100
AcDbLine
 10
-119.239151
 20
-353.69613
 30
0.0
 11
-84.93634
 21
-353.69613
 31
0.0
  0
LINE
  5
27EB
330
2EF9
100
AcDbEntity
  8
V0-VYPLNE
  6
DASHED
 62
    52
100
AcDbLine
 10
-119.239151
 20
-342.185413
 30
0.0
 11
-84.72579
 21
-342.185413
 31
0.0
  0
LINE
  5
27EC
330
2EF9
100
AcDbEntity
  8
V0-VYPLNE
  6
DASHED
 62
    52
100
AcDbLine
 10
-119.239151
 20
-330.674698
 30
0.0
 11
-84.93634
 21
-330.674698
 31
0.0
  0
LINE
  5
27ED
330
2EF9
100
AcDbEntity
  8
V0-VYPLNE
  6
DASHED
 62
    52
100
AcDbLine
 10
-119.239151
 20
-318.684368
 30
0.0
 11
-84.72579
 21
-318.684368
 31
0.0
  0
LINE
  5
27EE
330
2EF9
100
AcDbEntity
  8
V0-VYPLNE
  6
DASHED
 62
    52
100
AcDbLine
 10
-121.190653
 20
-433.228832
 30
0.0
 11
-106.3139
 21
-425.675029
 31
0.0
  0
LINE
  5
27EF
330
2EF9
100
AcDbEntity
  8
V0-VYPLNE
  6
DASHED
 62
    52
100
AcDbLine
 10
-127.570651
 20
-362.107307
 30
0.0
 11
-127.570651
 21
-409.096967
 31
0.0
  0
LINE
  5
27F0
330
2EF9
100
AcDbEntity
  8
V0-VYPLNE
  6
DASHED
 62
    52
100
AcDbLine
 10
-119.239151
 20
-362.107307
 30
0.0
 11
-119.239151
 21
-419.094767
 31
0.0
  0
LINE
  5
27F1
330
2EF9
100
AcDbEntity
  8
V0-VYPLNE
  6
DASHED
 62
    52
100
AcDbLine
 10
-119.519772
 20
-382.029201
 30
0.0
 11
-127.520703
 21
-380.110747
 31
0.0
  0
LINE
  5
27F2
330
2EF9
100
AcDbEntity
  8
V0-VYPLNE
  6
DASHED
 62
    52
100
AcDbLine
 10
-119.30922
 20
-415.602124
 30
0.0
 11
-127.520703
 21
-401.693342
 31
0.0
  0
ELLIPSE
  5
27F3
330
2EF9
100
AcDbEntity
  8
V0-VYPLNE
  6
DASHED
 62
    52
100
AcDbEllipse
 10
-123.185651
 20
-409.096967
 30
0.0
 11
0.0
 21
9.997799999999984
 31
0.0
210
0.0
220
0.0
230
-1.0
 40
0.438596
 41
3.141592653589792
 42
4.712388980384688
  0
LINE
  5
27F4
330
2EF9
100
AcDbEntity
  8
V0-VYPLNE
  6
DASHED
 62
    52
100
AcDbLine
 10
-121.190653
 20
-430.985781
 30
0.0
 11
-108.3139
 21
-424.447496
 31
0.0
  0
LINE
  5
27F5
330
2EF9
100
AcDbEntity
  8
V0-VYPLNE
  6
DASHED
 62
    52
100
AcDbLine
 10
-108.3139
 20
-424.447496
 30
0.0
 11
-108.3139
 21
-419.094767
 31
0.0
  0
LINE
  5
27F6
330
2EF9
100
AcDbEntity
  8
V0-VYPLNE
  6
DASHED
 62
    52
100
AcDbLine
 10
-119.519772
 20
-405.530246
 30
0.0
 11
-127.310153
 21
-395.937982
 31
0.0
  0
LINE
  5
27F7
330
2EF9
100
AcDbEntity
  8
V0-VYPLNE
  6
DASHED
 62
    52
100
AcDbLine
 10
-119.519772
 20
-382.029201
 30
0.0
 11
-118.256466
 21
-382.029201
 31
0.0
  0
LINE
  5
27F8
330
2EF9
100
AcDbEntity
  8
V0-VYPLNE
  6
DASHED
 62
    52
100
AcDbLine
 10
-119.30922
 20
-393.539916
 30
0.0
 11
-127.731255
 21
-389.223397
 31
0.0
  0
LINE
  5
27F9
330
2EF9
100
AcDbEntity
  8
V0-VYPLNE
  6
DASHED
 62
    52
100
AcDbLine
 10
-127.570651
 20
-362.107307
 30
0.0
 11
-127.570651
 21
-315.117647
 31
0.0
  0
LINE
  5
27FA
330
2EF9
100
AcDbEntity
  8
V0-VYPLNE
  6
DASHED
 62
    52
100
AcDbLine
 10
-119.519772
 20
-370.518483
 30
0.0
 11
-127.520703
 21
-370.038871
 31
0.0
  0
LINE
  5
27FB
330
2EF9
100
AcDbEntity
  8
V0-VYPLNE
  6
DASHED
 62
    52
100
AcDbLine
 10
-119.519772
 20
-353.69613
 30
0.0
 11
-127.520703
 21
-354.175743
 31
0.0
  0
LINE
  5
27FC
330
2EF9
100
AcDbEntity
  8
V0-VYPLNE
  6
DASHED
 62
    52
100
AcDbLine
 10
-119.519772
 20
-342.185413
 30
0.0
 11
-118.256466
 21
-342.185413
 31
0.0
  0
LINE
  5
27FD
330
2EF9
100
AcDbEntity
  8
V0-VYPLNE
  6
DASHED
 62
    52
100
AcDbLine
 10
-119.30922
 20
-330.674698
 30
0.0
 11
-127.731255
 21
-334.991217
 31
0.0
  0
LINE
  5
27FE
330
2EF9
100
AcDbEntity
  8
V0-VYPLNE
  6
DASHED
 62
    52
100
AcDbLine
 10
-119.519772
 20
-342.185413
 30
0.0
 11
-127.520703
 21
-344.103867
 31
0.0
  0
LINE
  5
27FF
330
2EF9
100
AcDbEntity
  8
V0-VYPLNE
  6
DASHED
 62
    52
100
AcDbLine
 10
-119.519772
 20
-318.684368
 30
0.0
 11
-127.310153
 21
-328.276631
 31
0.0
  0
ELLIPSE
  5
2800
330
2EF9
100
AcDbEntity
  8
V0-VYPLNE
  6
DASHED
 62
    52
100
AcDbEllipse
 10
-823.8008190000001
 20
-355.370166
 30
0.0
 11
800.6842818586885
 21
0.0
 31
0.0
210
0.0
220
0.0
230
1.0
 40
0.833333
 41
-0.0899663602222946
 42
-0.0097974248821555
  0
LINE
  5
2801
330
2EF9
100
AcDbEntity
  8
V0-VYPLNE
  6
DASHED
 62
    52
100
AcDbLine
 10
-84.72579
 20
-414.095867
 30
0.0
 11
-84.72579
 21
-362.107307
 31
0.0
  0
LINE
  5
2802
330
2EF9
100
AcDbEntity
  8
V0-VYPLNE
  6
DASHED
 62
    52
100
AcDbLine
 10
-53.754965
 20
-421.764891
 30
0.0
 11
-53.754965
 21
-361.907265
 31
0.0
  0
LINE
  5
2803
330
2EF9
100
AcDbEntity
  8
V0-VYPLNE
  6
DASHED
 62
    52
100
AcDbLine
 10
-80.754965
 20
-361.907265
 30
0.0
 11
-80.754965
 21
-418.907265
 31
0.0
  0
ELLIPSE
  5
2804
330
2EF9
100
AcDbEntity
  8
V0-VYPLNE
  6
DASHED
 62
    52
100
AcDbEllipse
 10
-53.754965
 20
-331.757308
 30
0.0
 11
-108.009099361112
 21
1.136868377216160E-13
 31
0.0
210
0.0
220
0.0
230
1.0
 40
0.833333
 41
1.318137823878815
 42
1.782397559380189
  0
ELLIPSE
  5
2805
330
2EF9
100
AcDbEntity
  8
V0-VYPLNE
  6
DASHED
 62
    52
100
AcDbEllipse
 10
-86.91829
 20
-414.095867
 30
0.0
 11
0.0
 21
4.998899999999992
 31
0.0
210
0.0
220
0.0
230
-1.0
 40
0.438596
 41
1.570796326794896
 42
3.14159265358979
  0
LINE
  5
2806
330
2EF9
100
AcDbEntity
  8
V0-VYPLNE
  6
DASHED
 62
    52
100
AcDbLine
 10
-106.3139
 20
-425.675029
 30
0.0
 11
-106.3139
 21
-419.094767
 31
0.0
  0
LINE
  5
2807
330
2EF9
100
AcDbEntity
  8
V0-VYPLNE
  6
DASHED
 62
    52
100
AcDbLine
 10
-76.174936
 20
-419.731322
 30
0.0
 11
-80.784488
 21
-423.569072
 31
0.0
  0
LINE
  5
2808
330
2EF9
100
AcDbEntity
  8
V0-VYPLNE
  6
DASHED
 62
    52
100
AcDbLine
 10
-31.334994
 20
-419.731322
 30
0.0
 11
-26.725442
 21
-423.569072
 31
0.0
  0
ELLIPSE
  5
2809
330
2EF9
100
AcDbEntity
  8
V0-VYPLNE
  6
DASHED
 62
    52
100
AcDbEllipse
 10
-32.330434
 20
-414.868871
 30
0.0
 11
6.0
 21
0.0
 31
0.0
210
0.0
220
0.0
230
1.0
 40
0.833333
 41
-1.359195094209612
 42
-0.0899663602222978
  0
LINE
  5
280A
330
2EF9
100
AcDbEntity
  8
V0-VYPLNE
  6
DASHED
 62
    52
100
AcDbLine
 10
-80.278565
 20
-368.751633
 30
0.0
 11
-24.696933
 21
-354.82809
 31
0.0
  0
ELLIPSE
  5
280B
330
2EF9
100
AcDbEntity
  8
V0-VYPLNE
  6
DASHED
 62
    52
100
AcDbEllipse
 10
-53.754965
 20
-362.107307
 30
0.0
 11
5.085133049623266
 21
0.0
 31
0.0
210
0.0
220
0.0
230
1.0
 40
0.8333329999999999
 41
0.0
 42
6.283185307179586
  0
LINE
  5
280C
330
2EF9
100
AcDbEntity
  8
V0-VYPLNE
  6
DASHED
 62
    52
100
AcDbLine
 10
-121.190653
 20
-290.985781
 30
0.0
 11
-106.3139
 21
-298.539585
 31
0.0
  0
LINE
  5
280D
330
2EF9
100
AcDbEntity
  8
V0-VYPLNE
  6
DASHED
 62
    52
100
AcDbLine
 10
-119.239151
 20
-308.61249
 30
0.0
 11
-84.72579
 21
-308.61249
 31
0.0
  0
LINE
  5
280E
330
2EF9
100
AcDbEntity
  8
V0-VYPLNE
  6
DASHED
 62
    52
100
AcDbLine
 10
-119.239151
 20
-305.119847
 30
0.0
 11
-86.91829
 21
-305.119847
 31
0.0
  0
LINE
  5
280F
330
2EF9
100
AcDbEntity
  8
V0-VYPLNE
  6
DASHED
 62
    52
100
AcDbLine
 10
-119.190653
 20
-237.596644
 30
0.0
 11
-119.190653
 21
-292.107307
 31
0.0
  0
LINE
  5
2810
330
2EF9
100
AcDbEntity
  8
V0-VYPLNE
  6
DASHED
 62
    52
100
AcDbLine
 10
-121.190653
 20
-237.596644
 30
0.0
 11
-121.190653
 21
-293.228832
 31
0.0
  0
LINE
  5
2811
330
2EF9
100
AcDbEntity
  8
V0-VYPLNE
  6
DASHED
 62
    52
100
AcDbLine
 10
-121.190653
 20
-293.228832
 30
0.0
 11
-108.3139
 21
-299.767118
 31
0.0
  0
LINE
  5
2812
330
2EF9
100
AcDbEntity
  8
V0-VYPLNE
  6
DASHED
 62
    52
100
AcDbLine
 10
-108.3139
 20
-299.767118
 30
0.0
 11
-108.3139
 21
-305.119847
 31
0.0
  0
LINE
  5
2813
330
2EF9
100
AcDbEntity
  8
V0-OBRYS
  6
CONTINUOUS
 62
    90
100
AcDbLine
 10
-131.754965
 20
-489.107307
 30
0.0
 11
-131.754965
 21
-198.607307
 31
0.0
  0
LINE
  5
2814
330
2EF9
100
AcDbEntity
  8
V0-OBRYS
  6
CONTINUOUS
 62
    90
100
AcDbLine
 10
-121.190653
 20
-235.107307
 30
0.0
 11
-131.754965
 21
-235.107307
 31
0.0
  0
LINE
  5
2815
330
2EF9
100
AcDbEntity
  8
V0-VYPLNE
  6
DASHDOT
 62
    63
100
AcDbLine
 10
-143.754965
 20
-216.107307
 30
0.0
 11
-115.109169
 21
-216.107307
 31
0.0
  0
LINE
  5
2816
330
2EF9
100
AcDbEntity
  8
V0-VYPLNE
  6
DASHED
 62
    52
100
AcDbLine
 10
-121.190653
 20
-235.596644
 30
0.0
 11
-109.164956
 21
-235.596644
 31
0.0
  0
LINE
  5
2817
330
2EF9
100
AcDbEntity
  8
V0-VYPLNE
  6
DASHED
 62
    52
100
AcDbLine
 10
-119.190653
 20
-237.596644
 30
0.0
 11
-109.164956
 21
-237.596644
 31
0.0
  0
LINE
  5
2818
330
2EF9
100
AcDbEntity
  8
V0-VYPLNE
  6
DASHED
 62
    52
100
AcDbLine
 10
-121.190653
 20
-235.107307
 30
0.0
 11
-121.190653
 21
-235.596644
 31
0.0
  0
ARC
  5
2819
330
2EF9
100
AcDbEntity
  8
V0-OBRYS
  6
CONTINUOUS
 62
    90
100
AcDbCircle
 10
-132.754965
 20
-198.607307
 30
0.0
 40
1.0
100
AcDbArc
 50
0.0
 51
180.0
  0
LINE
  5
281A
330
2EF9
100
AcDbEntity
  8
V0-VYPLNE
  6
DASHED
 62
    52
100
AcDbLine
 10
-80.784488
 20
-300.245458
 30
0.0
 11
-68.684417
 21
-236.922584
 31
0.0
  0
LINE
  5
281B
330
2EF9
100
AcDbEntity
  8
V0-VYPLNE
  6
DASHED
 62
    52
100
AcDbLine
 10
-26.725442
 20
-300.245458
 30
0.0
 11
-38.825513
 21
-236.922584
 31
0.0
  0
ELLIPSE
  5
281C
330
2EF9
100
AcDbEntity
  8
V0-VYPLNE
  6
DASHED
 62
    52
100
AcDbEllipse
 10
-53.754965
 20
-392.057222
 30
0.0
 11
-108.0090993611121
 21
1.136868377216160E-13
 31
0.0
210
0.0
220
0.0
230
1.0
 40
0.833333
 41
-1.782397559380188
 42
-1.318137823878814
  0
ELLIPSE
  5
281D
330
2EF9
100
AcDbEntity
  8
V0-VYPLNE
  6
DASHED
 62
    52
100
AcDbEllipse
 10
-86.91829
 20
-310.118747
 30
0.0
 11
0.0
 21
4.998899999999992
 31
0.0
210
0.0
220
0.0
230
-1.0
 40
0.438596
 41
0.0
 42
1.570796326794896
  0
LINE
  5
281E
330
2EF9
100
AcDbEntity
  8
V0-VYPLNE
  6
DASHED
 62
    52
100
AcDbLine
 10
-106.3139
 20
-298.539585
 30
0.0
 11
-106.3139
 21
-305.119847
 31
0.0
  0
LINE
  5
281F
330
2EF9
100
AcDbEntity
  8
V0-VYPLNE
  6
DASHED
 62
    52
100
AcDbLine
 10
-76.174936
 20
-304.083208
 30
0.0
 11
-80.784488
 21
-300.245458
 31
0.0
  0
LINE
  5
2820
330
2EF9
100
AcDbEntity
  8
V0-VYPLNE
  6
DASHED
 62
    52
100
AcDbLine
 10
-31.334994
 20
-304.083208
 30
0.0
 11
-26.725442
 21
-300.245458
 31
0.0
  0
LINE
  5
2821
330
2EF9
100
AcDbEntity
  8
V0-VYPLNE
  6
DASHED
 62
    52
 48
0.3
100
AcDbLine
 10
-68.684417
 20
-236.922584
 30
0.0
 11
-38.825513
 21
-236.922584
 31
0.0
  0
LINE
  5
2822
330
2EF9
100
AcDbEntity
  8
V0-OBRYS
  6
CONTINUOUS
 62
    90
100
AcDbLine
 10
-13.754965
 20
-362.107307
 30
0.0
 11
-13.754965
 21
-198.607307
 31
0.0
  0
LINE
  5
2823
330
2EF9
100
AcDbEntity
  8
V0-OBRYS
  6
CONTINUOUS
 62
    90
100
AcDbLine
 10
-13.754965
 20
-362.107307
 30
0.0
 11
-13.754965
 21
-525.607307
 31
0.0
  0
LINE
  5
2824
330
2EF9
100
AcDbEntity
  8
V0-OBRYS
  6
CONTINUOUS
 62
    90
100
AcDbLine
 10
-15.754965
 20
-489.107307
 30
0.0
 11
-15.754965
 21
-525.607307
 31
0.0
  0
ARC
  5
2825
330
2EF9
100
AcDbEntity
  8
V0-OBRYS
  6
CONTINUOUS
 62
    90
100
AcDbCircle
 10
-14.754965
 20
-525.607307
 30
0.0
 40
1.0
100
AcDbArc
 50
180.0
 51
0.0
  0
LINE
  5
2826
330
2EF9
100
AcDbEntity
  8
V0-OBRYS
  6
CONTINUOUS
 62
    90
100
AcDbLine
 10
-15.754965
 20
-489.107307
 30
0.0
 11
-15.754965
 21
-198.607307
 31
0.0
  0
ARC
  5
2827
330
2EF9
100
AcDbEntity
  8
V0-OBRYS
  6
CONTINUOUS
 62
    90
100
AcDbCircle
 10
-14.754965
 20
-198.607307
 30
0.0
 40
1.0
100
AcDbArc
 50
0.0
 51
180.0
  0
DIMENSION
  5
2841
330
2EF9
100
AcDbEntity
  8
V0-VYPLNE
  6
CONTINUOUS
 62
    41
100
AcDbDimension
  2
*D4
 10
81.03544800000054
 20
-56.62641500000001
 30
0.0
 11
69.03544800000056
 21
89.37358499999996
 31
0.0
 70
    32
  1
%%c<>
  3
ED20
100
AcDbAlignedDimension
 13
-2.28434
 23
235.373585
 33
0.0
 14
-2.28434
 24
-56.626415
 34
0.0
 50
90.0
100
AcDbRotatedDimension
  0
DIMENSION
  5
284E
330
2EF9
100
AcDbEntity
  8
V0-VYPLNE
  6
CONTINUOUS
 62
    41
100
AcDbDimension
  2
*D5
 10
39.53710999999998
 20
-37.626415
 30
0.0
 11
27.53710999999998
 21
89.37358499999999
 31
0.0
 70
    32
  1
%%c<>
  3
ED20
100
AcDbAlignedDimension
 13
-15.754965
 23
216.373585
 33
0.0
 14
-15.754965
 24
-37.626415
 34
0.0
 50
90.0
100
AcDbRotatedDimension
  0
DIMENSION
  5
2868
330
2EF9
100
AcDbEntity
  8
V0-VYPLNE
  6
CONTINUOUS
 62
    41
100
AcDbDimension
  2
*D6
 10
-13.754965
 20
-105.4356949999999
 30
0.0
 11
-73.754965
 21
-93.4356949999999
 31
0.0
 70
    32
  3
ED20
100
AcDbAlignedDimension
 13
-133.754965
 23
-74.12641499999999
 33
0.0
 14
-13.754965
 24
-74.12641499999999
 34
0.0
100
AcDbRotatedDimension
  0
DIMENSION
  5
2B40
330
2EF9
100
AcDbEntity
  8
V0-VYPLNE
  6
CONTINUOUS
 62
    41
100
AcDbDimension
  2
*D7
 10
-172.6377060000004
 20
32.386125
 30
0.0
 11
-184.6377060000004
 21
89.37358499999999
 31
0.0
 70
    32
  1
%%c<>
  3
ED20
100
AcDbAlignedDimension
 13
-123.185651
 23
146.361045
 33
0.0
 14
-123.185651
 24
32.386125
 34
0.0
 50
90.0
100
AcDbRotatedDimension
  0
POINT
  5
2BAF
330
2EF9
100
AcDbEntity
  8
V0-VYPLNE
  6
CONTINUOUS
 62
    41
100
AcDbPoint
 10
-133.754965
 20
89.37358500000001
 30
0.0
  0
POINT
  5
2BB0
330
2EF9
100
AcDbEntity
  8
V0-VYPLNE
  6
CONTINUOUS
 62
    41
100
AcDbPoint
 10
-13.754965
 20
89.37358500000001
 30
0.0
  0
POINT
  5
2BB1
330
2EF9
100
AcDbEntity
  8
V0-VYPLNE
  6
CONTINUOUS
 62
    41
100
AcDbPoint
 10
-133.754965
 20
-362.107307
 30
0.0
  0
POINT
  5
2BB2
330
2EF9
100
AcDbEntity
  8
V0-VYPLNE
  6
CONTINUOUS
 62
    41
100
AcDbPoint
 10
-13.754965
 20
-362.107307
 30
0.0
  0
LINE
  5
2E96
330
2EF9
100
AcDbEntity
  8
V0-OBRYS
  6
CONTINUOUS
 62
    90
100
AcDbLine
 10
-40.773643
 20
-392.110097
 30
0.0
 11
-110.773643
 21
-392.110097
 31
0.0
  0
LINE
  5
2E97
330
2EF9
100
AcDbEntity
  8
V0-OBRYS
  6
CONTINUOUS
 62
    90
100
AcDbLine
 10
-110.773643
 20
-332.110097
 30
0.0
 11
-40.77364300000001
 21
-332.110097
 31
0.0
  0
CIRCLE
  5
2E98
330
2EF9
100
AcDbEntity
  8
V0-OBRYS
  6
CONTINUOUS
 62
    90
100
AcDbCircle
 10
-111.104479
 20
-387.644982
 30
0.0
 40
2.347961
  0
CIRCLE
  5
2E99
330
2EF9
100
AcDbEntity
  8
V0-OBRYS
  6
CONTINUOUS
 62
    90
100
AcDbCircle
 10
-111.104479
 20
-336.575213
 30
0.0
 40
2.347961
  0
ARC
  5
2E9A
330
2EF9
100
AcDbEntity
  8
V0-OBRYS
  6
CONTINUOUS
 62
    90
100
AcDbCircle
 10
-110.773643
 20
-337.110097
 30
0.0
 40
5.0
100
AcDbArc
 50
90.0
 51
180.0
  0
LINE
  5
2E9B
330
2EF9
100
AcDbEntity
  8
V0-OBRYS
  6
CONTINUOUS
 62
    90
100
AcDbLine
 10
-115.773643
 20
-387.110097
 30
0.0
 11
-115.773643
 21
-337.110097
 31
0.0
  0
ARC
  5
2E9C
330
2EF9
100
AcDbEntity
  8
V0-OBRYS
  6
CONTINUOUS
 62
    90
100
AcDbCircle
 10
-110.773643
 20
-387.110097
 30
0.0
 40
5.0
100
AcDbArc
 50
180.0
 51
270.0
  0
ARC
  5
2E9D
330
2EF9
100
AcDbEntity
  8
V0-OBRYS
  6
CONTINUOUS
 62
    90
100
AcDbCircle
 10
-40.773643
 20
-337.110097
 30
0.0
 40
5.0
100
AcDbArc
 50
0.0
 51
90.0
  0
LINE
  5
2E9E
330
2EF9
100
AcDbEntity
  8
V0-OBRYS
  6
CONTINUOUS
 62
    90
100
AcDbLine
 10
-35.773643
 20
-337.110097
 30
0.0
 11
-35.773643
 21
-387.110097
 31
0.0
  0
ARC
  5
2E9F
330
2EF9
100
AcDbEntity
  8
V0-OBRYS
  6
CONTINUOUS
 62
    90
100
AcDbCircle
 10
-40.773643
 20
-387.110097
 30
0.0
 40
5.0
100
AcDbArc
 50
270.0
 51
0.0
  0
CIRCLE
  5
2EA0
330
2EF9
100
AcDbEntity
  8
V0-OBRYS
  6
CONTINUOUS
 62
    90
100
AcDbCircle
 10
-40.442807
 20
-387.644982
 30
0.0
 40
2.347961
  0
CIRCLE
  5
2EA1
330
2EF9
100
AcDbEntity
  8
V0-OBRYS
  6
CONTINUOUS
 62
    90
100
AcDbCircle
 10
-40.442807
 20
-336.575213
 30
0.0
 40
2.347961
  0
LINE
  5
2EA2
330
2EF9
100
AcDbEntity
  8
V0-OBRYS
  6
CONTINUOUS
 62
    90
100
AcDbLine
 10
-114.8352
 20
245.904855
 30
0.0
 11
-34.8352
 21
245.904855
 31
0.0
  0
LINE
  5
2EA3
330
2EF9
100
AcDbEntity
  8
V0-OBRYS
  6
CONTINUOUS
 62
    90
100
AcDbLine
 10
-34.8352
 20
215.904855
 30
0.0
 11
-114.8352
 21
215.904855
 31
0.0
  0
LINE
  5
2EA4
330
2EF9
100
AcDbEntity
  8
V0-OBRYS
  6
CONTINUOUS
 62
    90
100
AcDbLine
 10
-114.8352
 20
255.904855
 30
0.0
 11
-34.8352
 21
255.904855
 31
0.0
  0
LINE
  5
2EA5
330
2EF9
100
AcDbEntity
  8
V0-OBRYS
  6
CONTINUOUS
 62
    90
100
AcDbLine
 10
-114.8352
 20
215.904855
 30
0.0
 11
-114.8352
 21
255.904855
 31
0.0
  0
LINE
  5
2EA6
330
2EF9
100
AcDbEntity
  8
V0-OBRYS
  6
CONTINUOUS
 62
    90
100
AcDbLine
 10
-34.8352
 20
255.904855
 30
0.0
 11
-34.8352
 21
215.904855
 31
0.0
  0
DIMENSION
  5
2EB8
330
2EF9
100
AcDbEntity
  8
V0-VYPLNE
  6
CONTINUOUS
 62
    41
100
AcDbDimension
  2
*D8
 10
-215.9895849999994
 20
-74.12641499999999
 30
0.0
 11
-227.9895849999994
 21
89.37358500000003
 31
0.0
 70
    32
  1
%%c<>
  3
ED20
100
AcDbAlignedDimension
 13
-133.754965
 23
252.873585
 33
0.0
 14
-133.754965
 24
-74.12641499999999
 34
0.0
 50
90.0
100
AcDbRotatedDimension
  0
LWPOLYLINE
  5
2ECF
330
2EF9
100
AcDbEntity
  8
V0-OBRYS
  6
CONTINUOUS
 62
    41
100
AcDbPolyline
 90
        4
 70
     1
 43
0.0
 10
350.5460567510118
 20
-68.62501189111094
 10
366.919073
 20
-56.665269
 10
355.3099201886147
 20
-73.28870673450653
 10
355.3099201886147
 20
-73.28870673450653
1001
VDEXTRAPARAM
1071
       65
1071
        0
1071
        0
1040
1.0
1000

1000

1040
0.0
1040
0.0
  0
HATCH
  5
2F66
330
2EF9
100
AcDbEntity
  8
V0-OBRYS
  6
CONTINUOUS
 62
    41
100
AcDbHatch
 10
0.0
 20
0.0
 30
0.0
210
0.0
220
0.0
230
1.0
  2
SOLID
 70
     1
 71
     0
 91
        1
 92
        2
 72
     0
 73
     1
 93
        3
 10
350.5460567510118
 20
-68.62501189111094
 10
366.919073
 20
-56.665269
 10
355.3099201886147
 20
-73.28870673450653
 97
        0
 75
     0
 76
     1
 98
        1
 10
0.0
 20
0.0
1001
VDEXTRAPARAM
1071
       65
1071
        0
1071
        0
1040
1.0
1000

1000

1040
0.0
1040
0.0
1001
VD_TEMPHATCH
1000
VD_TEMPHATCH
  0
LWPOLYLINE
  5
2ED0
330
2EF9
100
AcDbEntity
  8
V0-OBRYS
  6
CONTINUOUS
 62
    41
100
AcDbPolyline
 90
        3
 70
     0
 43
0.0
 10
352.9279884698133
 20
-70.95685931280875
 10
297.749553
 20
-127.320438
 10
107.733805
 20
-127.320438
  0
TEXT
  5
2ED5
330
2EF9
100
AcDbEntity
  8
V0-OBRYS
  6
CONTINUOUS
 62
    41
100
AcDbText
 10
51.94002919047617
 20
-125.320438
 30
0.0
 40
20.0
  1
4 OTVORY %%c10
  7
ED40
100
AcDbText
  0
VIEWPORT
  5
2F67
330
2EF5
100
AcDbEntity
 67
     1
  8
0
 60
     1
100
AcDbViewport
 10
261.517699
 20
148.5
 30
0.0
 40
297.0
 41
297.0
 68
     0
 69
     1
1001
VD_INVISIBLE_NOT_FOR_READ
1000
VD_INVISIBLE_NOT_FOR_READ
1001
ACAD
1000
MVIEW
1002
{
1070
    16
1010
0.0
1020
0.0
1030
0.0
1010
0.0
1020
0.0
1030
1.0
1040
6.2831853071796
1040
297.0
1040
261.517699
1040
148.5
1040
0.0
1040
0.0
1040
0.0
1070
     0
1070
   100
1070
     0
1070
     1
1070
     0
1070
     0
1070
     0
1070
     0
1040
0.0
1040
0.0
1040
0.0
1040
1.0
1040
1.0
1040
0.0
1040
0.0
1070
     0
1002
{
1002
}
1002
}
  0
VIEWPORT
  5
2F68
330
2EF5
100
AcDbEntity
 67
     1
  8
0
 60
     1
100
AcDbViewport
 10
261.517699
 20
148.5
 30
0.0
 40
297.0
 41
297.0
 68
     0
 69
     2
1001
VD_INVISIBLE_NOT_FOR_READ
1000
VD_INVISIBLE_NOT_FOR_READ
1001
ACAD
1000
MVIEW
1002
{
1070
    16
1010
0.0
1020
0.0
1030
0.0
1010
0.0
1020
0.0
1030
1.0
1040
6.2831853071796
1040
297.0
1040
261.517699
1040
148.5
1040
0.0
1040
0.0
1040
0.0
1070
     0
1070
   100
1070
     0
1070
     1
1070
     0
1070
     0
1070
     0
1070
     0
1040
0.0
1040
0.0
1040
0.0
1040
1.0
1040
1.0
1040
0.0
1040
0.0
1070
     0
1002
{
1002
}
1002
}
  0
ENDSEC
  0
SECTION
  2
OBJECTS
  0
DICTIONARY
  5
2EE6
330
0
100
AcDbDictionary
  3
ACAD_GROUP
350
2EE7
  3
ACAD_LAYOUT
350
2EF4
  3
ACAD_MLINESTYLE
350
2EF1
  3
ACAD_PLOTSETTINGS
350
2EF3
  3
ACDBHEADERROUNDTRIPXREC
350
2F69
  3
VECTORDRAW_OBJECTS
350
2F09
  0
DICTIONARY
  5
2F89
330
2F03
100
AcDbDictionary
280
     1
  3
ACAD_XREC_ROUNDTRIP
360
2F8A
  0
DICTIONARY
  5
2EE7
102
{ACAD_REACTORS
330
2EE6
102
}
330
2EE6
100
AcDbDictionary
  0
DICTIONARY
  5
2EF4
102
{ACAD_REACTORS
330
2EE6
102
}
330
2EE6
100
AcDbDictionary
  0
DICTIONARY
  5
2EF1
102
{ACAD_REACTORS
330
2EE6
102
}
330
2EE6
100
AcDbDictionary
  3
STANDARD
350
2EF2
  0
DICTIONARY
  5
2EF3
102
{ACAD_REACTORS
330
2EE6
102
}
330
2EE6
100
AcDbDictionary
  0
DICTIONARY
  5
2F69
102
{ACAD_REACTORS
330
2EE6
102
}
330
2EE6
100
AcDbDictionary
  3
CEPSNTYPE
350
2F72
  3
DIMSTYLEDATA
350
2F88
  3
FINGERPRINTGUID
350
2F73
  3
HYPERLINKBASE
350
2F6C
  3
INSUNITS
350
2F71
  3
LAYOUTDICT
350
2F6E
  3
LWETCUNION
350
2F70
  3
PLOTSETDICT
350
2F6F
  3
PSVPSCALE
350
2F75
  3
PUCSBASE
350
2F78
  3
PUCSORGBACK
350
2F7E
  3
PUCSORGBOTTOM
350
2F7A
  3
PUCSORGFRONT
350
2F7D
  3
PUCSORGLEFT
350
2F7B
  3
PUCSORGRIGHT
350
2F7C
  3
PUCSORGTOP
350
2F79
  3
PUCSORTHOREF
350
2F76
  3
PUCSORTHOVIEW
350
2F77
  3
STYLESHEET
350
2F6D
  3
TSTACKALIGN
350
2F6A
  3
TSTACKSIZE
350
2F6B
  3
UCSBASE
350
2F81
  3
UCSORGBACK
350
2F87
  3
UCSORGBOTTOM
350
2F83
  3
UCSORGFRONT
350
2F86
  3
UCSORGLEFT
350
2F84
  3
UCSORGRIGHT
350
2F85
  3
UCSORGTOP
350
2F82
  3
UCSORTHOREF
350
2F7F
  3
UCSORTHOVIEW
350
2F80
  3
VERSIONGUID
350
2F74
  0
DICTIONARY
  5
2F09
102
{ACAD_REACTORS
330
2EE6
102
}
330
2EE6
100
AcDbDictionary
  3
SERIALNO
350
2F0A
  0
XRECORD
  5
2F8A
102
{ACAD_REACTORS
330
2F89
102
}
330
2F89
100
AcDbXrecord
102
UCS
 74
     0
 71
     1
 10
0.0
 20
0.0
 30
0.0
 10
1.0
 20
0.0
 30
0.0
 10
0.0
 20
1.0
 30
0.0
146
0.0
 79
     0
102
VIEW
281
     0
  0
MLINESTYLE
  5
2EF2
102
{ACAD_REACTORS
330
2EF1
102
}
330
2EF1
100
AcDbMlineStyle
  2
Standard
 70
     0
  3

 62
   256
 51
90.0
 52
90.0
 71
     2
 49
0.5
 62
   256
  6
BYLAYER
 49
-0.5
 62
   256
  6
BYLAYER
  0
XRECORD
  5
2F72
102
{ACAD_REACTORS
330
2F69
102
}
330
2F69
100
AcDbXrecord
 90
        0
  0
XRECORD
  5
2F88
102
{ACAD_REACTORS
330
2F69
102
}
330
2F69
100
AcDbXrecord
1000
DSTYLE
1002
{
1070
    41
 40
20.0
1070
   342
340
90
1070
   177
 70
    41
1070
   178
 70
    41
1070
   271
 70
     0
1070
    44
 40
1.25
1070
    42
 40
1.0
1070
   147
 40
2.0
1070
    77
 70
     1
1070
    73
 70
     0
1070
   174
 70
     1
1070
   172
 70
     1
1070
    74
 70
     0
1070
   340
340
331
1070
   140
 40
20.0
1070
   288
 70
     1
1002
}
  0
XRECORD
  5
2F73
102
{ACAD_REACTORS
330
2F69
102
}
330
2F69
100
AcDbXrecord
  1
{FAEB1C30-E019-11D5-929B-00C0DF256EC4}
  0
XRECORD
  5
2F6C
102
{ACAD_REACTORS
330
2F69
102
}
330
2F69
100
AcDbXrecord
  1

  0
XRECORD
  5
2F71
102
{ACAD_REACTORS
330
2F69
102
}
330
2F69
100
AcDbXrecord
 90
        1
  0
XRECORD
  5
2F6E
102
{ACAD_REACTORS
330
2F69
102
}
330
2F69
100
AcDbXrecord
340
2EF4
  0
XRECORD
  5
2F70
102
{ACAD_REACTORS
330
2F69
102
}
330
2F69
100
AcDbXrecord
 90
     2560
  0
XRECORD
  5
2F6F
102
{ACAD_REACTORS
330
2F69
102
}
330
2F69
100
AcDbXrecord
340
2EF3
  0
XRECORD
  5
2F75
102
{ACAD_REACTORS
330
2F69
102
}
330
2F69
100
AcDbXrecord
 40
0.0
  0
XRECORD
  5
2F78
102
{ACAD_REACTORS
330
2F69
102
}
330
2F69
100
AcDbXrecord
340
0
  0
XRECORD
  5
2F7E
102
{ACAD_REACTORS
330
2F69
102
}
330
2F69
100
AcDbXrecord
 10
0.0
 20
0.0
 30
0.0
  0
XRECORD
  5
2F7A
102
{ACAD_REACTORS
330
2F69
102
}
330
2F69
100
AcDbXrecord
 10
0.0
 20
0.0
 30
0.0
  0
XRECORD
  5
2F7D
102
{ACAD_REACTORS
330
2F69
102
}
330
2F69
100
AcDbXrecord
 10
0.0
 20
0.0
 30
0.0
  0
XRECORD
  5
2F7B
102
{ACAD_REACTORS
330
2F69
102
}
330
2F69
100
AcDbXrecord
 10
0.0
 20
0.0
 30
0.0
  0
XRECORD
  5
2F7C
102
{ACAD_REACTORS
330
2F69
102
}
330
2F69
100
AcDbXrecord
 10
0.0
 20
0.0
 30
0.0
  0
XRECORD
  5
2F79
102
{ACAD_REACTORS
330
2F69
102
}
330
2F69
100
AcDbXrecord
 10
0.0
 20
0.0
 30
0.0
  0
XRECORD
  5
2F76
102
{ACAD_REACTORS
330
2F69
102
}
330
2F69
100
AcDbXrecord
340
0
  0
XRECORD
  5
2F77
102
{ACAD_REACTORS
330
2F69
102
}
330
2F69
100
AcDbXrecord
 70
     0
  0
XRECORD
  5
2F6D
102
{ACAD_REACTORS
330
2F69
102
}
330
2F69
100
AcDbXrecord
  1

  0
XRECORD
  5
2F6A
102
{ACAD_REACTORS
330
2F69
102
}
330
2F69
100
AcDbXrecord
 90
        1
  0
XRECORD
  5
2F6B
102
{ACAD_REACTORS
330
2F69
102
}
330
2F69
100
AcDbXrecord
 90
       70
  0
XRECORD
  5
2F81
102
{ACAD_REACTORS
330
2F69
102
}
330
2F69
100
AcDbXrecord
340
0
  0
XRECORD
  5
2F87
102
{ACAD_REACTORS
330
2F69
102
}
330
2F69
100
AcDbXrecord
 10
0.0
 20
0.0
 30
0.0
  0
XRECORD
  5
2F83
102
{ACAD_REACTORS
330
2F69
102
}
330
2F69
100
AcDbXrecord
 10
0.0
 20
0.0
 30
0.0
  0
XRECORD
  5
2F86
102
{ACAD_REACTORS
330
2F69
102
}
330
2F69
100
AcDbXrecord
 10
0.0
 20
0.0
 30
0.0
  0
XRECORD
  5
2F84
102
{ACAD_REACTORS
330
2F69
102
}
330
2F69
100
AcDbXrecord
 10
0.0
 20
0.0
 30
0.0
  0
XRECORD
  5
2F85
102
{ACAD_REACTORS
330
2F69
102
}
330
2F69
100
AcDbXrecord
 10
0.0
 20
0.0
 30
0.0
  0
XRECORD
  5
2F82
102
{ACAD_REACTORS
330
2F69
102
}
330
2F69
100
AcDbXrecord
 10
0.0
 20
0.0
 30
0.0
  0
XRECORD
  5
2F7F
102
{ACAD_REACTORS
330
2F69
102
}
330
2F69
100
AcDbXrecord
340
0
  0
XRECORD
  5
2F80
102
{ACAD_REACTORS
330
2F69
102
}
330
2F69
100
AcDbXrecord
 70
     0
  0
XRECORD
  5
2F74
102
{ACAD_REACTORS
330
2F69
102
}
330
2F69
100
AcDbXrecord
  1
{FAEB1C32-E019-11D5-929B-00C0DF256EC4}
  0
XRECORD
  5
2F0A
102
{ACAD_REACTORS
330
2F09
102
}
330
2F09
100
AcDbXrecord
1000
rInJVR9YY4Q8hfPWdUq5j5319
1070
     4
1070
     6
  0
ENDSEC
  0
EOF
