  0
SECTION
  2
HEADER
  9
$ACADVER
  1
AC1014
  9
$ACADMAINTVER
 70
     0
  9
$DWGCODEPAGE
  3
ANSI_1250
  9
$INSBASE
 10
0.0
 20
0.0
 30
0.0
  9
$EXTMIN
 10
884.90747
 20
-974.77357
 30
0.0
  9
$EXTMAX
 10
2200.508625
 20
212.54744
 30
0.0
  9
$LIMMIN
 10
0.0
 20
0.0
  9
$LIMMAX
 10
420.0
 20
297.0
  9
$ORTHOMODE
 70
     0
  9
$REGENMODE
 70
     1
  9
$FILLMODE
 70
     1
  9
$QTEXTMODE
 70
     0
  9
$MIRRTEXT
 70
     1
  9
$DRAGMODE
 70
     2
  9
$LTSCALE
 40
1.0
  9
$OSMODE
 70
    39
  9
$ATTMODE
 70
     1
  9
$TEXTSIZE
 40
30.0
  9
$TRACEWID
 40
5.0
  9
$TEXTSTYLE
  7
20A
  9
$CLAYER
  8
V0-KOTY
  9
$CELTYPE
  6
BYLAYER
  9
$CECOLOR
 62
   256
  9
$CELTSCALE
 40
1.0
  9
$DELOBJ
 70
     1
  9
$DISPSILH
 70
     0
  9
$DIMSCALE
 40
1.0
  9
$DIMASZ
 40
25.0
  9
$DIMEXO
 40
1.0
  9
$DIMDLI
 40
3.75
  9
$DIMRND
 40
0.0
  9
$DIMDLE
 40
0.0
  9
$DIMEXE
 40
1.25
  9
$DIMTP
 40
0.0
  9
$DIMTM
 40
0.0
  9
$DIMTXT
 40
30.0
  9
$DIMCEN
 40
3.0
  9
$DIMTSZ
 40
0.0
  9
$DIMTOL
 70
     0
  9
$DIMLIM
 70
     0
  9
$DIMTIH
 70
     0
  9
$DIMTOH
 70
     0
  9
$DIMSE1
 70
     0
  9
$DIMSE2
 70
     0
  9
$DIMTAD
 70
     1
  9
$DIMZIN
 70
     8
  9
$DIMBLK
  1

  9
$DIMASO
 70
     1
  9
$DIMSHO
 70
     1
  9
$DIMPOST
  1

  9
$DIMAPOST
  1

  9
$DIMALT
 70
     0
  9
$DIMALTD
 70
     4
  9
$DIMALTF
 40
0.0394
  9
$DIMLFAC
 40
1.0
  9
$DIMTOFL
 70
     1
  9
$DIMTVP
 40
0.0
  9
$DIMTIX
 70
     0
  9
$DIMSOXD
 70
     0
  9
$DIMSAH
 70
     1
  9
$DIMBLK1
  1
_OPEN
  9
$DIMBLK2
  1
_OPEN
  9
$DIMSTYLE
  2
ED30
  9
$DIMCLRD
 70
   256
  9
$DIMCLRE
 70
   256
  9
$DIMCLRT
 70
   256
  9
$DIMTFAC
 40
1.0
  9
$DIMGAP
 40
2.0
  9
$DIMJUST
 70
     0
  9
$DIMSD1
 70
     0
  9
$DIMSD2
 70
     0
  9
$DIMTOLJ
 70
     1
  9
$DIMTZIN
 70
     8
  9
$DIMALTZ
 70
     0
  9
$DIMALTTZ
 70
     0
  9
$DIMFIT
 70
     3
  9
$DIMUPT
 70
     0
  9
$DIMUNIT
 70
     2
  9
$DIMDEC
 70
     0
  9
$DIMTDEC
 70
     1
  9
$DIMALTU
 70
     8
  9
$DIMALTTD
 70
     4
  9
$DIMTXSTY
  7
ED30
  9
$DIMAUNIT
 70
     0
  9
$LUNITS
 70
     2
  9
$LUPREC
 70
     4
  9
$SKETCHINC
 40
1.0
  9
$FILLETRAD
 40
15.0
  9
$AUNITS
 70
     0
  9
$AUPREC
 70
     0
  9
$MENU
  1
.
  9
$ELEVATION
 40
0.0
  9
$PELEVATION
 40
0.0
  9
$THICKNESS
 40
0.0
  9
$LIMCHECK
 70
     0
  9
$BLIPMODE
 70
     0
  9
$CHAMFERA
 40
20.0
  9
$CHAMFERB
 40
20.0
  9
$CHAMFERC
 40
20.0
  9
$CHAMFERD
 40
0.0
  9
$SKPOLY
 70
     1
  9
$TDCREATE
 40
2451196.643769328
  9
$TDUPDATE
 40
2452941.364077083
  9
$TDINDWG
 40
0.7108230324
  9
$TDUSRTIMER
 40
0.7108230324
  9
$USRTIMER
 70
     1
  9
$ANGBASE
 50
0.0
  9
$ANGDIR
 70
     0
  9
$PDMODE
 70
     3
  9
$PDSIZE
 40
20.0
  9
$PLINEWID
 40
0.0
  9
$COORDS
 70
     2
  9
$SPLFRAME
 70
     0
  9
$SPLINETYPE
 70
     6
  9
$SPLINESEGS
 70
     8
  9
$ATTDIA
 70
     0
  9
$ATTREQ
 70
     1
  9
$HANDLING
 70
     1
  9
$HANDSEED
  5
2A21
  9
$SURFTAB1
 70
     6
  9
$SURFTAB2
 70
     6
  9
$SURFTYPE
 70
     6
  9
$SURFU
 70
     6
  9
$SURFV
 70
     6
  9
$UCSNAME
  2

  9
$UCSORG
 10
631.0930539653663
 20
-184.0
 30
0.0
  9
$UCSXDIR
 10
1.0
 20
0.0
 30
0.0
  9
$UCSYDIR
 10
0.0
 20
1.0
 30
0.0
  9
$PUCSNAME
  2

  9
$PUCSORG
 10
0.0
 20
0.0
 30
0.0
  9
$PUCSXDIR
 10
1.0
 20
0.0
 30
0.0
  9
$PUCSYDIR
 10
0.0
 20
1.0
 30
0.0
  9
$USERI1
 70
     0
  9
$USERI2
 70
     0
  9
$USERI3
 70
     2
  9
$USERI4
 70
     2
  9
$USERI5
 70
     6
  9
$USERR1
 40
281.0
  9
$USERR2
 40
321.0
  9
$USERR3
 40
0.0
  9
$USERR4
 40
0.0
  9
$USERR5
 40
0.0
  9
$WORLDVIEW
 70
     1
  9
$SHADEDGE
 70
     3
  9
$SHADEDIF
 70
    70
  9
$TILEMODE
 70
     1
  9
$MAXACTVP
 70
    48
  9
$PINSBASE
 10
0.0
 20
0.0
 30
0.0
  9
$PLIMCHECK
 70
     0
  9
$PEXTMIN
 10
1.000000E+20
 20
1.000000E+20
 30
1.000000E+20
  9
$PEXTMAX
 10
-1.000000E+20
 20
-1.000000E+20
 30
-1.000000E+20
  9
$PLIMMIN
 10
0.0
 20
0.0
  9
$PLIMMAX
 10
420.0
 20
297.0
  9
$UNITMODE
 70
     0
  9
$VISRETAIN
 70
     1
  9
$PLINEGEN
 70
     0
  9
$PSLTSCALE
 70
     0
  9
$TREEDEPTH
 70
  3020
  9
$PICKSTYLE
 70
     1
  9
$CMLSTYLE
  2
STANDARD
  9
$CMLJUST
 70
     0
  9
$CMLSCALE
 40
1.0
  9
$PROXYGRAPHICS
 70
     1
  9
$MEASUREMENT
 70
     1
  0
ENDSEC
  0
SECTION
  2
CLASSES
  0
CLASS
  1
DICTIONARYVAR
  2
AcDbDictionaryVar
  3
"AutoCAD"
 90
        0
280
     0
281
     0
  0
CLASS
  1
LWPOLYLINE
  2
AcDbPolyline
  3
"AutoCAD"
 90
        0
280
     0
281
     1
  0
CLASS
  1
HATCH
  2
AcDbHatch
  3
"ACAD_SEDONA"
 90
        0
280
     0
281
     1
  0
ENDSEC
  0
SECTION
  2
TABLES
  0
TABLE
  2
VPORT
  5
8
100
AcDbSymbolTable
 70
     2
  0
VPORT
  5
2A20
100
AcDbSymbolTableRecord
100
AcDbViewportTableRecord
  2
*ACTIVE
 70
     0
 10
0.0
 20
0.0
 11
1.0
 21
1.0
 12
1645.507156
 22
-327.742353
 13
0.0
 23
0.0
 14
10.0
 24
10.0
 15
10.0
 25
10.0
 16
0.0
 26
0.0
 36
1.0
 17
0.0
 27
0.0
 37
0.0
 40
1178.237286
 41
1.636179
 42
50.0
 43
0.0
 44
0.0
 50
0.0
 51
0.0
 71
     0
 72
   100
 73
     1
 74
     1
 75
     0
 76
     0
 77
     0
 78
     0
  0
ENDTAB
  0
TABLE
  2
LTYPE
  5
5
100
AcDbSymbolTable
 70
    46
  0
LTYPE
  5
14
100
AcDbSymbolTableRecord
100
AcDbLinetypeTableRecord
  2
BYBLOCK
 70
     0
  3

 72
    65
 73
     0
 40
0.0
  0
LTYPE
  5
15
100
AcDbSymbolTableRecord
100
AcDbLinetypeTableRecord
  2
BYLAYER
 70
     0
  3

 72
    65
 73
     0
 40
0.0
  0
LTYPE
  5
16
100
AcDbSymbolTableRecord
100
AcDbLinetypeTableRecord
  2
CONTINUOUS
 70
     0
  3
Solid line
 72
    65
 73
     0
 40
0.0
  0
LTYPE
  5
7F
100
AcDbSymbolTableRecord
100
AcDbLinetypeTableRecord
  2
DASHDOT
 70
     0
  3
Dash dot __ . __ . __ . __ . __ . __ . __ . __
 72
    65
 73
     4
 40
25.4
 49
12.7
 74
     0
 49
-6.35
 74
     0
 49
0.0
 74
     0
 49
-6.35
 74
     0
  0
LTYPE
  5
80
100
AcDbSymbolTableRecord
100
AcDbLinetypeTableRecord
  2
DASHED
 70
     0
  3
Dashed __ __ __ __ __ __ __ __ __ __ __ __ __ _
 72
    65
 73
     2
 40
19.05
 49
12.7
 74
     0
 49
-6.35
 74
     0
  0
LTYPE
  5
713
100
AcDbSymbolTableRecord
100
AcDbLinetypeTableRecord
  2
DOT2
 70
     0
  3
...............................................
 72
    65
 73
     2
 40
0.125
 49
0.0
 74
     0
 49
-0.125
 74
     0
  0
LTYPE
  5
714
100
AcDbSymbolTableRecord
100
AcDbLinetypeTableRecord
  2
ACAD_ISO02W100
 70
     0
  3
ISO dash __ __ __ __ __ __ __ __ __ __ __ __ __
 72
    65
 73
     2
 40
15.0
 49
12.0
 74
     0
 49
-3.0
 74
     0
  0
LTYPE
  5
715
100
AcDbSymbolTableRecord
100
AcDbLinetypeTableRecord
  2
ACAD_ISO03W100
 70
     0
  3
ISO dash space __    __    __    __    __    __
 72
    65
 73
     2
 40
30.0
 49
12.0
 74
     0
 49
-18.0
 74
     0
  0
LTYPE
  5
716
100
AcDbSymbolTableRecord
100
AcDbLinetypeTableRecord
  2
ACAD_ISO04W100
 70
     0
  3
ISO long-dash dot ____ . ____ . ____ . ____ . _
 72
    65
 73
     4
 40
30.5
 49
24.0
 74
     0
 49
-3.0
 74
     0
 49
0.5
 74
     0
 49
-3.0
 74
     0
  0
LTYPE
  5
717
100
AcDbSymbolTableRecord
100
AcDbLinetypeTableRecord
  2
ACAD_ISO05W100
 70
     0
  3
ISO long-dash double-dot ____ .. ____ .. ____ .
 72
    65
 73
     6
 40
34.0
 49
24.0
 74
     0
 49
-3.0
 74
     0
 49
0.5
 74
     0
 49
-3.0
 74
     0
 49
0.5
 74
     0
 49
-3.0
 74
     0
  0
LTYPE
  5
718
100
AcDbSymbolTableRecord
100
AcDbLinetypeTableRecord
  2
ACAD_ISO06W100
 70
     0
  3
ISO long-dash triple-dot ____ ... ____ ... ____
 72
    65
 73
     8
 40
37.5
 49
24.0
 74
     0
 49
-3.0
 74
     0
 49
0.5
 74
     0
 49
-3.0
 74
     0
 49
0.5
 74
     0
 49
-3.0
 74
     0
 49
0.5
 74
     0
 49
-3.0
 74
     0
  0
LTYPE
  5
719
100
AcDbSymbolTableRecord
100
AcDbLinetypeTableRecord
  2
ACAD_ISO07W100
 70
     0
  3
ISO dot . . . . . . . . . . . . . . . . . . . .
 72
    65
 73
     2
 40
3.5
 49
0.5
 74
     0
 49
-3.0
 74
     0
  0
LTYPE
  5
71A
100
AcDbSymbolTableRecord
100
AcDbLinetypeTableRecord
  2
ACAD_ISO08W100
 70
     0
  3
ISO long-dash short-dash ____ __ ____ __ ____ _
 72
    65
 73
     4
 40
36.0
 49
24.0
 74
     0
 49
-3.0
 74
     0
 49
6.0
 74
     0
 49
-3.0
 74
     0
  0
LTYPE
  5
71B
100
AcDbSymbolTableRecord
100
AcDbLinetypeTableRecord
  2
ACAD_ISO09W100
 70
     0
  3
ISO long-dash double-short-dash ____ __ __ ____
 72
    65
 73
     6
 40
45.0
 49
24.0
 74
     0
 49
-3.0
 74
     0
 49
6.0
 74
     0
 49
-3.0
 74
     0
 49
6.0
 74
     0
 49
-3.0
 74
     0
  0
LTYPE
  5
71C
100
AcDbSymbolTableRecord
100
AcDbLinetypeTableRecord
  2
ACAD_ISO10W100
 70
     0
  3
ISO dash dot __ . __ . __ . __ . __ . __ . __ .
 72
    65
 73
     4
 40
18.5
 49
12.0
 74
     0
 49
-3.0
 74
     0
 49
0.5
 74
     0
 49
-3.0
 74
     0
  0
LTYPE
  5
71D
100
AcDbSymbolTableRecord
100
AcDbLinetypeTableRecord
  2
ACAD_ISO11W100
 70
     0
  3
ISO double-dash dot __ __ . __ __ . __ __ . __ 
 72
    65
 73
     6
 40
33.5
 49
12.0
 74
     0
 49
-3.0
 74
     0
 49
12.0
 74
     0
 49
-3.0
 74
     0
 49
0.5
 74
     0
 49
-3.0
 74
     0
  0
LTYPE
  5
71E
100
AcDbSymbolTableRecord
100
AcDbLinetypeTableRecord
  2
ACAD_ISO12W100
 70
     0
  3
ISO dash double-dot __ . . __ . . __ . . __ . .
 72
    65
 73
     6
 40
22.0
 49
12.0
 74
     0
 49
-3.0
 74
     0
 49
0.5
 74
     0
 49
-3.0
 74
     0
 49
0.5
 74
     0
 49
-3.0
 74
     0
  0
LTYPE
  5
71F
100
AcDbSymbolTableRecord
100
AcDbLinetypeTableRecord
  2
ACAD_ISO13W100
 70
     0
  3
ISO double-dash double-dot __ __ . . __ __ . . 
 72
    65
 73
     8
 40
37.0
 49
12.0
 74
     0
 49
-3.0
 74
     0
 49
12.0
 74
     0
 49
-3.0
 74
     0
 49
0.5
 74
     0
 49
-3.0
 74
     0
 49
0.5
 74
     0
 49
-3.0
 74
     0
  0
LTYPE
  5
720
100
AcDbSymbolTableRecord
100
AcDbLinetypeTableRecord
  2
ACAD_ISO14W100
 70
     0
  3
ISO dash triple-dot __ . . . __ . . . __ . . . 
 72
    65
 73
     8
 40
25.5
 49
12.0
 74
     0
 49
-3.0
 74
     0
 49
0.5
 74
     0
 49
-3.0
 74
     0
 49
0.5
 74
     0
 49
-3.0
 74
     0
 49
0.5
 74
     0
 49
-3.0
 74
     0
  0
LTYPE
  5
721
100
AcDbSymbolTableRecord
100
AcDbLinetypeTableRecord
  2
ACAD_ISO15W100
 70
     0
  3
ISO double-dash triple-dot __ __ . . . __ __ . 
 72
    65
 73
    10
 40
40.5
 49
12.0
 74
     0
 49
-3.0
 74
     0
 49
12.0
 74
     0
 49
-3.0
 74
     0
 49
0.5
 74
     0
 49
-3.0
 74
     0
 49
0.5
 74
     0
 49
-3.0
 74
     0
 49
0.5
 74
     0
 49
-3.0
 74
     0
  0
LTYPE
  5
722
100
AcDbSymbolTableRecord
100
AcDbLinetypeTableRecord
  2
BATTING
 70
     0
  3
Batting SSSSSSSSSSSSSSSSSSSSSSSSSSSSSSSSSSSSSSS
 72
    65
 73
     4
 40
0.4001
 49
0.0001
 74
     0
 49
-0.1
 74
     4
 75
   134
340
743
 46
0.1
 50
0.0
 44
-0.1
 45
0.0
 49
-0.2
 74
     4
 75
   134
340
743
 46
0.1
 50
180.0
 44
0.1
 45
0.0
 49
-0.1
 74
     0
  0
LTYPE
  5
723
100
AcDbSymbolTableRecord
100
AcDbLinetypeTableRecord
  2
BORDER
 70
     0
  3
Border __ __ . __ __ . __ __ . __ __ . __ __ .
 72
    65
 73
     6
 40
1.75
 49
0.5
 74
     0
 49
-0.25
 74
     0
 49
0.5
 74
     0
 49
-0.25
 74
     0
 49
0.0
 74
     0
 49
-0.25
 74
     0
  0
LTYPE
  5
724
100
AcDbSymbolTableRecord
100
AcDbLinetypeTableRecord
  2
BORDER2
 70
     0
  3
Border (.5x) __.__.__.__.__.__.__.__.__.__.__.
 72
    65
 73
     6
 40
0.875
 49
0.25
 74
     0
 49
-0.125
 74
     0
 49
0.25
 74
     0
 49
-0.125
 74
     0
 49
0.0
 74
     0
 49
-0.125
 74
     0
  0
LTYPE
  5
725
100
AcDbSymbolTableRecord
100
AcDbLinetypeTableRecord
  2
BORDERX2
 70
     0
  3
Border (2x) ____  ____  .  ____  ____  .  ___
 72
    65
 73
     6
 40
3.5
 49
1.0
 74
     0
 49
-0.5
 74
     0
 49
1.0
 74
     0
 49
-0.5
 74
     0
 49
0.0
 74
     0
 49
-0.5
 74
     0
  0
LTYPE
  5
726
100
AcDbSymbolTableRecord
100
AcDbLinetypeTableRecord
  2
CENTER
 70
     0
  3
Center ____ _ ____ _ ____ _ ____ _ ____ _ ____
 72
    65
 73
     4
 40
2.0
 49
1.25
 74
     0
 49
-0.25
 74
     0
 49
0.25
 74
     0
 49
-0.25
 74
     0
  0
LTYPE
  5
727
100
AcDbSymbolTableRecord
100
AcDbLinetypeTableRecord
  2
CENTER2
 70
     0
  3
Center (.5x) ___ _ ___ _ ___ _ ___ _ ___ _ ___
 72
    65
 73
     4
 40
1.125
 49
0.75
 74
     0
 49
-0.125
 74
     0
 49
0.125
 74
     0
 49
-0.125
 74
     0
  0
LTYPE
  5
728
100
AcDbSymbolTableRecord
100
AcDbLinetypeTableRecord
  2
CENTERX2
 70
     0
  3
Center (2x) ________  __  ________  __  _____
 72
    65
 73
     4
 40
4.0
 49
2.5
 74
     0
 49
-0.5
 74
     0
 49
0.5
 74
     0
 49
-0.5
 74
     0
  0
LTYPE
  5
729
100
AcDbSymbolTableRecord
100
AcDbLinetypeTableRecord
  2
DASHDOT2
 70
     0
  3
Dash dot (.5x) _._._._._._._._._._._._._._._.
 72
    65
 73
     4
 40
0.5
 49
0.25
 74
     0
 49
-0.125
 74
     0
 49
0.0
 74
     0
 49
-0.125
 74
     0
  0
LTYPE
  5
72A
100
AcDbSymbolTableRecord
100
AcDbLinetypeTableRecord
  2
DASHDOTX2
 70
     0
  3
Dash dot (2x) ____  .  ____  .  ____  .  ___
 72
    65
 73
     4
 40
2.0
 49
1.0
 74
     0
 49
-0.5
 74
     0
 49
0.0
 74
     0
 49
-0.5
 74
     0
  0
LTYPE
  5
72B
100
AcDbSymbolTableRecord
100
AcDbLinetypeTableRecord
  2
DASHED2
 70
     0
  3
Dashed (.5x) _ _ _ _ _ _ _ _ _ _ _ _ _ _ _ _ _
 72
    65
 73
     2
 40
0.375
 49
0.25
 74
     0
 49
-0.125
 74
     0
  0
LTYPE
  5
72C
100
AcDbSymbolTableRecord
100
AcDbLinetypeTableRecord
  2
DASHEDX2
 70
     0
  3
Dashed (2x) ____  ____  ____  ____  ____  ___
 72
    65
 73
     2
 40
1.5
 49
1.0
 74
     0
 49
-0.5
 74
     0
  0
LTYPE
  5
72D
100
AcDbSymbolTableRecord
100
AcDbLinetypeTableRecord
  2
DIVIDE
 70
     0
  3
Divide ____ . . ____ . . ____ . . ____ . . ____
 72
    65
 73
     6
 40
1.25
 49
0.5
 74
     0
 49
-0.25
 74
     0
 49
0.0
 74
     0
 49
-0.25
 74
     0
 49
0.0
 74
     0
 49
-0.25
 74
     0
  0
LTYPE
  5
72E
100
AcDbSymbolTableRecord
100
AcDbLinetypeTableRecord
  2
DIVIDE2
 70
     0
  3
Divide (.5x) __..__..__..__..__..__..__..__.._
 72
    65
 73
     6
 40
0.625
 49
0.25
 74
     0
 49
-0.125
 74
     0
 49
0.0
 74
     0
 49
-0.125
 74
     0
 49
0.0
 74
     0
 49
-0.125
 74
     0
  0
LTYPE
  5
72F
100
AcDbSymbolTableRecord
100
AcDbLinetypeTableRecord
  2
DIVIDEX2
 70
     0
  3
Divide (2x) ________  .  .  ________  .  .  _
 72
    65
 73
     6
 40
2.5
 49
1.0
 74
     0
 49
-0.5
 74
     0
 49
0.0
 74
     0
 49
-0.5
 74
     0
 49
0.0
 74
     0
 49
-0.5
 74
     0
  0
LTYPE
  5
730
100
AcDbSymbolTableRecord
100
AcDbLinetypeTableRecord
  2
DOT
 70
     0
  3
Dot . . . . . . . . . . . . . . . . . . . . . .
 72
    65
 73
     2
 40
0.25
 49
0.0
 74
     0
 49
-0.25
 74
     0
  0
LTYPE
  5
731
100
AcDbSymbolTableRecord
100
AcDbLinetypeTableRecord
  2
DOTX2
 70
     0
  3
Dot (2x) .  .  .  .  .  .  .  .  .  .  .  .  . 
 72
    65
 73
     2
 40
0.5
 49
0.0
 74
     0
 49
-0.5
 74
     0
  0
LTYPE
  5
732
100
AcDbSymbolTableRecord
100
AcDbLinetypeTableRecord
  2
FENCELINE1
 70
     0
  3
Fenceline circle ----0-----0----0-----0----0---
 72
    65
 73
     4
 40
1.45
 49
0.25
 74
     0
 49
-0.1
 74
     4
 75
   133
340
743
 46
0.1
 50
0.0
 44
-0.1
 45
0.0
 49
-0.1
 74
     0
 49
1.0
 74
     0
  0
LTYPE
  5
733
100
AcDbSymbolTableRecord
100
AcDbLinetypeTableRecord
  2
FENCELINE2
 70
     0
  3
Fenceline square ----[]-----[]----[]-----[]----
 72
    65
 73
     4
 40
1.45
 49
0.25
 74
     0
 49
-0.1
 74
     4
 75
   132
340
743
 46
0.1
 50
0.0
 44
-0.1
 45
0.0
 49
-0.1
 74
     0
 49
1.0
 74
     0
  0
LTYPE
  5
734
100
AcDbSymbolTableRecord
100
AcDbLinetypeTableRecord
  2
GAS_LINE
 70
     0
  3
Gas line ----GAS----GAS----GAS----GAS----GAS---
 72
    65
 73
     3
 40
0.95
 49
0.5
 74
     0
 49
-0.2
 74
     2
 75
     0
340
10
 46
0.1
 50
0.0
 44
-0.1
 45
-0.05
  9
GAS
 49
-0.25
 74
     0
  0
LTYPE
  5
735
100
AcDbSymbolTableRecord
100
AcDbLinetypeTableRecord
  2
HIDDEN
 70
     0
  3
Hidden __ __ __ __ __ __ __ __ __ __ __ __ __ _
 72
    65
 73
     2
 40
0.375
 49
0.25
 74
     0
 49
-0.125
 74
     0
  0
LTYPE
  5
736
100
AcDbSymbolTableRecord
100
AcDbLinetypeTableRecord
  2
HIDDEN2
 70
     0
  3
Hidden (.5x) _ _ _ _ _ _ _ _ _ _ _ _ _ _ _ _ _
 72
    65
 73
     2
 40
0.1875
 49
0.125
 74
     0
 49
-0.0625
 74
     0
  0
LTYPE
  5
737
100
AcDbSymbolTableRecord
100
AcDbLinetypeTableRecord
  2
HIDDENX2
 70
     0
  3
Hidden (2x) ____ ____ ____ ____ ____ ____ ____
 72
    65
 73
     2
 40
0.75
 49
0.5
 74
     0
 49
-0.25
 74
     0
  0
LTYPE
  5
738
100
AcDbSymbolTableRecord
100
AcDbLinetypeTableRecord
  2
HOT_WATER_SUPPLY
 70
     0
  3
Hot water supply ---- HW ---- HW ---- HW ----
 72
    65
 73
     3
 40
0.9
 49
0.5
 74
     0
 49
-0.2
 74
     2
 75
     0
340
10
 46
0.1
 50
0.0
 44
-0.1
 45
-0.05
  9
HW
 49
-0.2
 74
     0
  0
LTYPE
  5
739
100
AcDbSymbolTableRecord
100
AcDbLinetypeTableRecord
  2
PHANTOM
 70
     0
  3
Phantom ______  __  __  ______  __  __  ______
 72
    65
 73
     6
 40
2.5
 49
1.25
 74
     0
 49
-0.25
 74
     0
 49
0.25
 74
     0
 49
-0.25
 74
     0
 49
0.25
 74
     0
 49
-0.25
 74
     0
  0
LTYPE
  5
73A
100
AcDbSymbolTableRecord
100
AcDbLinetypeTableRecord
  2
PHANTOM2
 70
     0
  3
Phantom (.5x) ___ _ _ ___ _ _ ___ _ _ ___ _ _
 72
    65
 73
     6
 40
1.25
 49
0.625
 74
     0
 49
-0.125
 74
     0
 49
0.125
 74
     0
 49
-0.125
 74
     0
 49
0.125
 74
     0
 49
-0.125
 74
     0
  0
LTYPE
  5
73B
100
AcDbSymbolTableRecord
100
AcDbLinetypeTableRecord
  2
PHANTOMX2
 70
     0
  3
Phantom (2x) ____________    ____    ____   _
 72
    65
 73
     6
 40
5.0
 49
2.5
 74
     0
 49
-0.5
 74
     0
 49
0.5
 74
     0
 49
-0.5
 74
     0
 49
0.5
 74
     0
 49
-0.5
 74
     0
  0
LTYPE
  5
73C
100
AcDbSymbolTableRecord
100
AcDbLinetypeTableRecord
  2
TRACKS
 70
     0
  3
Tracks -|-|-|-|-|-|-|-|-|-|-|-|-|-|-|-|-|-|-|-|
 72
    65
 73
     2
 40
0.3
 49
0.15
 74
     4
 75
   130
340
743
 46
0.25
 50
0.0
 44
0.0
 45
0.0
 49
0.15
 74
     0
  0
LTYPE
  5
73D
100
AcDbSymbolTableRecord
100
AcDbLinetypeTableRecord
  2
ZIGZAG
 70
     0
  3
Zig zag /\/\/\/\/\/\/\/\/\/\/\/\/\/\/\/\/\/\/\/
 72
    65
 73
     4
 40
0.8001
 49
0.0001
 74
     0
 49
-0.2
 74
     4
 75
   131
340
743
 46
0.2
 50
0.0
 44
-0.2
 45
0.0
 49
-0.4
 74
     4
 75
   131
340
743
 46
0.2
 50
180.0
 44
0.2
 45
0.0
 49
-0.2
 74
     0
  0
ENDTAB
  0
TABLE
  2
LAYER
  5
2
100
AcDbSymbolTable
 70
     8
  0
LAYER
  5
F
100
AcDbSymbolTableRecord
100
AcDbLayerTableRecord
  2
0
 70
     0
 62
     7
  6
CONTINUOUS
  0
LAYER
  5
9E
100
AcDbSymbolTableRecord
100
AcDbLayerTableRecord
  2
DEFPOINTS
 70
     0
 62
     7
  6
CONTINUOUS
  0
LAYER
  5
377
100
AcDbSymbolTableRecord
100
AcDbLayerTableRecord
  2
V0-OBRYS
 70
     0
 62
    90
  6
CONTINUOUS
  0
LAYER
  5
378
100
AcDbSymbolTableRecord
100
AcDbLayerTableRecord
  2
V0-VYPLNE
 70
     0
 62
    63
  6
ACAD_ISO02W100
  0
LAYER
  5
37A
100
AcDbSymbolTableRecord
100
AcDbLayerTableRecord
  2
V0-NAZVY
 70
     0
 62
   210
  6
CONTINUOUS
  0
LAYER
  5
559
100
AcDbSymbolTableRecord
100
AcDbLayerTableRecord
  2
V0-ZBYTEK
 70
     0
 62
    51
  6
CONTINUOUS
  0
LAYER
  5
116E
100
AcDbSymbolTableRecord
100
AcDbLayerTableRecord
  2
V0-KOTY
 70
     0
 62
    41
  6
CONTINUOUS
  0
LAYER
  5
15F3
100
AcDbSymbolTableRecord
100
AcDbLayerTableRecord
  2
V0-OSY
 70
     0
 62
    63
  6
DASHDOT
  0
ENDTAB
  0
TABLE
  2
STYLE
  5
3
100
AcDbSymbolTable
 70
     8
  0
STYLE
  5
10
100
AcDbSymbolTableRecord
100
AcDbTextStyleTableRecord
  2
STANDARD
 70
     0
 40
7.0
 41
1.0
 50
0.0
 71
     0
 42
20.0
  3
ISOCP.shx
  4

  0
STYLE
  5
331
100
AcDbSymbolTableRecord
100
AcDbTextStyleTableRecord
  2
ED30
 70
     0
 40
30.0
 41
1.0
 50
0.0
 71
     0
 42
30.0
  3
ISOCP.shx
  4

  0
STYLE
  5
5D2
100
AcDbSymbolTableRecord
100
AcDbTextStyleTableRecord
  2
ED20
 70
     0
 40
20.0
 41
1.0
 50
0.0
 71
     0
 42
20.0
  3
isocp.shx
  4

  0
STYLE
  5
64F
100
AcDbSymbolTableRecord
100
AcDbTextStyleTableRecord
  2
ED40
 70
     0
 40
40.0
 41
1.0
 50
0.0
 71
     0
 42
20.0
  3
isocp.shx
  4

  0
STYLE
  5
650
100
AcDbSymbolTableRecord
100
AcDbTextStyleTableRecord
  2
ED10
 70
     0
 40
10.0
 41
1.0
 50
0.0
 71
     0
 42
20.0
  3
isocp.shx
  4

  0
STYLE
  5
743
100
AcDbSymbolTableRecord
100
AcDbTextStyleTableRecord
  2

 70
     1
 40
0.0
 41
1.0
 50
0.0
 71
     0
 42
0.2
  3
ltypeshp.shx
  4

  0
STYLE
  5
12AA
100
AcDbSymbolTableRecord
100
AcDbTextStyleTableRecord
  2
20A
 70
     0
 40
20.0
 41
1.0
 50
0.0
 71
     0
 42
30.0
  3
isocp2.shx
  4

  0
STYLE
  5
15F4
100
AcDbSymbolTableRecord
100
AcDbTextStyleTableRecord
  2
ED
 70
     0
 40
20.0
 41
1.0
 50
0.0
 71
     0
 42
2.5
  3
ISOCP.shx
  4

  0
ENDTAB
  0
TABLE
  2
VIEW
  5
6
100
AcDbSymbolTable
 70
     0
  0
ENDTAB
  0
TABLE
  2
UCS
  5
7
100
AcDbSymbolTable
 70
     0
  0
ENDTAB
  0
TABLE
  2
APPID
  5
9
100
AcDbSymbolTable
 70
     5
  0
APPID
  5
11
100
AcDbSymbolTableRecord
100
AcDbRegAppTableRecord
  2
ACAD
 70
     0
  0
APPID
  5
744
100
AcDbSymbolTableRecord
100
AcDbRegAppTableRecord
  2
CONTENTTABDATA
 70
     0
  0
APPID
  5
745
100
AcDbSymbolTableRecord
100
AcDbRegAppTableRecord
  2
CONTENTCURRENTTAB
 70
     0
  0
APPID
  5
746
100
AcDbSymbolTableRecord
100
AcDbRegAppTableRecord
  2
CONTENTBLOCKDESCRIPTION
 70
     0
  0
APPID
  5
E04
100
AcDbSymbolTableRecord
100
AcDbRegAppTableRecord
  2
CONTENTBLOCKICON
 70
     0
  0
ENDTAB
  0
TABLE
  2
DIMSTYLE
  5
A
100
AcDbSymbolTable
 70
     5
  0
DIMSTYLE
105
1D
100
AcDbSymbolTableRecord
100
AcDbDimStyleTableRecord
  2
STANDARD
 70
     0
  3

  4

  5

  6
_OPEN
  7
_OPEN
 40
0.0
 41
15.0
 42
0.625
 43
3.75
 44
1.25
 45
0.0
 46
0.0
 47
0.0
 48
0.0
140
15.0
141
2.5
142
0.0
143
0.0394
144
1.0
145
0.0
146
1.0
147
3.0
 71
     0
 72
     0
 73
     0
 74
     0
 75
     0
 76
     0
 77
     1
 78
     8
170
     0
171
     4
172
     1
173
     1
174
     0
175
     0
176
     0
177
     0
178
     0
270
     2
271
     0
272
     1
273
     8
274
     4
340
331
275
     0
280
     0
281
     0
282
     0
283
     1
284
     8
285
     0
286
     0
287
     3
288
     0
  0
DIMSTYLE
105
397
102
{ACAD_REACTORS
330
28EB
330
2913
330
2950
330
295D
102
}
100
AcDbSymbolTableRecord
100
AcDbDimStyleTableRecord
  2
ED40
 70
     0
  3

  4

  5

  6
_OPEN
  7
_OPEN
 40
0.0
 41
35.0
 42
1.0
 43
3.75
 44
1.25
 45
0.0
 46
0.0
 47
0.0
 48
0.0
140
40.0
141
3.0
142
0.0
143
0.0394
144
1.0
145
0.0
146
1.0
147
3.0
 71
     0
 72
     0
 73
     0
 74
     0
 75
     0
 76
     0
 77
     1
 78
     8
170
     0
171
     4
172
     1
173
     1
174
     0
175
     0
176
   256
177
   256
178
   256
270
     2
271
     0
272
     1
273
     8
274
     4
340
64F
275
     0
280
     0
281
     0
282
     0
283
     1
284
     8
285
     0
286
     0
287
     3
288
     0
  0
DIMSTYLE
105
656
102
{ACAD_REACTORS
330
29D8
102
}
100
AcDbSymbolTableRecord
100
AcDbDimStyleTableRecord
  2
ED30
 70
     0
  3

  4

  5

  6
_OPEN
  7
_OPEN
 40
1.0
 41
25.0
 42
1.0
 43
3.75
 44
1.25
 45
0.0
 46
0.0
 47
0.0
 48
0.0
140
30.0
141
3.0
142
0.0
143
0.0394
144
1.0
145
0.0
146
1.0
147
2.0
 71
     0
 72
     0
 73
     0
 74
     0
 75
     0
 76
     0
 77
     1
 78
     8
170
     0
171
     4
172
     1
173
     1
174
     0
175
     0
176
   256
177
   256
178
   256
270
     2
271
     0
272
     1
273
     8
274
     4
340
331
275
     0
280
     0
281
     0
282
     0
283
     1
284
     8
285
     0
286
     0
287
     3
288
     0
  0
DIMSTYLE
105
657
100
AcDbSymbolTableRecord
100
AcDbDimStyleTableRecord
  2
ED20
 70
     0
  3

  4

  5

  6
_OPEN
  7
_OPEN
 40
1.0
 41
20.0
 42
1.0
 43
3.75
 44
1.25
 45
0.0
 46
0.0
 47
0.0
 48
0.0
140
20.0
141
3.0
142
0.0
143
0.0394
144
1.0
145
0.0
146
1.0
147
3.0
 71
     0
 72
     0
 73
     0
 74
     0
 75
     0
 76
     0
 77
     1
 78
     8
170
     0
171
     4
172
     1
173
     1
174
     0
175
     0
176
   256
177
   256
178
   256
270
     2
271
     0
272
     1
273
     8
274
     4
340
12AA
275
     0
280
     0
281
     0
282
     0
283
     1
284
     8
285
     0
286
     0
287
     3
288
     0
  0
DIMSTYLE
105
658
100
AcDbSymbolTableRecord
100
AcDbDimStyleTableRecord
  2
ED10
 70
     0
  3

  4

  5

  6
_OPEN
  7
_OPEN
 40
0.0
 41
15.0
 42
1.0
 43
3.75
 44
1.25
 45
0.0
 46
0.0
 47
0.0
 48
0.0
140
10.0
141
3.0
142
0.0
143
0.0394
144
1.0
145
0.0
146
1.0
147
1.5
 71
     0
 72
     0
 73
     0
 74
     0
 75
     0
 76
     0
 77
     1
 78
     8
170
     0
171
     4
172
     1
173
     1
174
     0
175
     0
176
     0
177
     0
178
     0
270
     2
271
     0
272
     1
273
     8
274
     4
340
5D2
275
     0
280
     0
281
     0
282
     0
283
     1
284
     8
285
     0
286
     0
287
     3
288
     0
  0
ENDTAB
  0
TABLE
  2
BLOCK_RECORD
  5
1
100
AcDbSymbolTable
 70
     9
  0
BLOCK_RECORD
  5
1A
100
AcDbSymbolTableRecord
100
AcDbBlockTableRecord
  2
*MODEL_SPACE
  0
BLOCK_RECORD
  5
17
100
AcDbSymbolTableRecord
100
AcDbBlockTableRecord
  2
*PAPER_SPACE
  0
BLOCK_RECORD
  5
90
100
AcDbSymbolTableRecord
100
AcDbBlockTableRecord
  2
_OPEN
  0
BLOCK_RECORD
  5
15F5
100
AcDbSymbolTableRecord
100
AcDbBlockTableRecord
  2
TELESO1-N
  0
BLOCK_RECORD
  5
179A
100
AcDbSymbolTableRecord
100
AcDbBlockTableRecord
  2
NAPIS
  0
BLOCK_RECORD
  5
1C72
100
AcDbSymbolTableRecord
100
AcDbBlockTableRecord
  2
MOTOR-NAR
  0
BLOCK_RECORD
  5
28DF
100
AcDbSymbolTableRecord
100
AcDbBlockTableRecord
  2
*D4
  0
BLOCK_RECORD
  5
2907
100
AcDbSymbolTableRecord
100
AcDbBlockTableRecord
  2
*D5
  0
BLOCK_RECORD
  5
2944
100
AcDbSymbolTableRecord
100
AcDbBlockTableRecord
  2
*D6
  0
BLOCK_RECORD
  5
2951
100
AcDbSymbolTableRecord
100
AcDbBlockTableRecord
  2
*D7
  0
BLOCK_RECORD
  5
29CC
100
AcDbSymbolTableRecord
100
AcDbBlockTableRecord
  2
*D8
  0
ENDTAB
  0
ENDSEC
  0
SECTION
  2
BLOCKS
  0
BLOCK
  5
1B
100
AcDbEntity
  8
0
100
AcDbBlockBegin
  2
*MODEL_SPACE
 70
     0
 10
0.0
 20
0.0
 30
0.0
  3
*MODEL_SPACE
  1

  0
ENDBLK
  5
1C
100
AcDbEntity
  8
0
100
AcDbBlockEnd
  0
BLOCK
  5
18
100
AcDbEntity
 67
     1
  8
0
100
AcDbBlockBegin
  2
*PAPER_SPACE
 70
     0
 10
0.0
 20
0.0
 30
0.0
  3
*PAPER_SPACE
  1

  0
ENDBLK
  5
19
100
AcDbEntity
 67
     1
  8
0
100
AcDbBlockEnd
  0
BLOCK
  5
91
100
AcDbEntity
  8
0
100
AcDbBlockBegin
  2
_OPEN
 70
     0
 10
0.0
 20
0.0
 30
0.0
  3
_OPEN
  1

  0
LINE
  5
92
100
AcDbEntity
  8
0
  6
BYBLOCK
 62
     0
100
AcDbLine
 10
-1.0
 20
0.166667
 30
0.0
 11
0.0
 21
0.0
 31
0.0
  0
LINE
  5
93
100
AcDbEntity
  8
0
  6
BYBLOCK
 62
     0
100
AcDbLine
 10
0.0
 20
0.0
 30
0.0
 11
-1.0
 21
-0.166667
 31
0.0
  0
LINE
  5
94
100
AcDbEntity
  8
0
  6
BYBLOCK
 62
     0
100
AcDbLine
 10
0.0
 20
0.0
 30
0.0
 11
-1.0
 21
0.0
 31
0.0
  0
ENDBLK
  5
95
100
AcDbEntity
  8
0
100
AcDbBlockEnd
  0
BLOCK
  5
1601
100
AcDbEntity
  8
0
100
AcDbBlockBegin
  2
TELESO1-N
 70
     0
 10
0.0
 20
0.0
 30
0.0
  3
TELESO1-N
  1

  0
LINE
  5
15F6
100
AcDbEntity
  8
V0-OSY
 48
3.0
100
AcDbLine
 10
0.0
 20
200.942547
 30
0.0
 11
0.0
 21
-263.958416
 31
0.0
  0
ARC
  5
15F7
100
AcDbEntity
  8
V0-OBRYS
 48
3.0
100
AcDbCircle
 10
-4.429061
 20
-3.479282
 30
0.0
 40
195.30182
100
AcDbArc
 50
180.350249
 51
7.020069
  0
LINE
  5
15F8
100
AcDbEntity
  8
V0-OBRYS
 48
3.0
100
AcDbLine
 10
0.149862
 20
-199.612153
 30
0.0
 11
-115.657227
 21
-199.612153
 31
0.0
  0
LINE
  5
15F9
100
AcDbEntity
  8
V0-OSY
 48
3.0
100
AcDbLine
 10
-249.877282
 20
0.0
 30
0.0
 11
230.57573
 21
0.0
 31
0.0
  0
ARC
  5
15FA
100
AcDbEntity
  8
V0-OBRYS
 48
3.0
100
AcDbCircle
 10
18.535954
 20
0.875054
 30
0.0
 40
172.308032
100
AcDbArc
 50
359.709026
 51
117.0138
  0
CIRCLE
  5
15FB
100
AcDbEntity
  8
V0-OBRYS
 48
3.0
100
AcDbCircle
 10
0.0
 20
0.0
 30
0.0
 40
133.356567
  0
LINE
  5
15FC
100
AcDbEntity
  8
V0-OBRYS
 48
3.0
100
AcDbLine
 10
-199.727232
 20
250.326847
 30
0.0
 11
-59.727232
 21
250.326847
 31
0.0
  0
LINE
  5
15FD
100
AcDbEntity
  8
V0-OBRYS
 48
3.0
100
AcDbLine
 10
-199.727232
 20
-4.673153
 30
0.0
 11
-199.727232
 21
250.326847
 31
0.0
  0
LINE
  5
15FE
100
AcDbEntity
  8
V0-OSY
 48
3.0
100
AcDbLine
 10
-129.727232
 20
284.874351
 30
0.0
 11
-129.727232
 21
0.0
 31
0.0
  0
LINE
  5
15FF
100
AcDbEntity
  8
V0-OBRYS
 48
3.0
100
AcDbLine
 10
-59.727232
 20
114.282726
 30
0.0
 11
-59.727232
 21
250.326847
 31
0.0
  0
CIRCLE
  5
1600
100
AcDbEntity
  8
V0-OBRYS
 48
3.0
100
AcDbCircle
 10
0.0
 20
0.0
 30
0.0
 40
70.0
  0
ENDBLK
  5
1602
100
AcDbEntity
  8
0
100
AcDbBlockEnd
  0
BLOCK
  5
179B
100
AcDbEntity
  8
0
100
AcDbBlockBegin
  2
NAPIS
 70
     0
 10
0.0
 20
0.0
 30
0.0
  3
NAPIS
  1

  0
MTEXT
  5
17A5
100
AcDbEntity
  8
V0-NAZVY
100
AcDbMText
 10
2.257404
 20
152.880361
 30
0.0
 40
45.375
 41
373.2376
 71
     5
 72
     5
  1
CRMT - 225
  7
ED10
  0
MTEXT
  5
17A6
100
AcDbEntity
  8
V0-ZBYTEK
 62
    51
100
AcDbMText
 10
13.902733
 20
66.200656
 30
0.0
 40
25.41
 41
719.815206
 71
     5
 72
     5
  1
RADIALNI VENTILATOR
  7
ED10
  0
ENDBLK
  5
179C
100
AcDbEntity
  8
0
100
AcDbBlockEnd
  0
BLOCK
  5
1C8B
100
AcDbEntity
  8
0
100
AcDbBlockBegin
  2
MOTOR-NAR
 70
     0
 10
0.0
 20
0.0
 30
0.0
  3
MOTOR-NAR
  1

  0
LINE
  5
1C73
100
AcDbEntity
  8
V0-OBRYS
100
AcDbLine
 10
-39.092426
 20
-79.771273
 30
0.0
 11
-239.680746
 21
-79.771273
 31
0.0
  0
LINE
  5
1C74
100
AcDbEntity
  8
V0-OBRYS
100
AcDbLine
 10
-37.109841
 20
80.228487
 30
0.0
 11
-239.680746
 21
80.228487
 31
0.0
  0
LINE
  5
1C75
100
AcDbEntity
  8
V0-OBRYS
100
AcDbLine
 10
-237.654628
 20
69.795404
 30
0.0
 11
-37.09533
 21
69.795404
 31
0.0
  0
LINE
  5
1C76
100
AcDbEntity
  8
V0-OBRYS
100
AcDbLine
 10
-237.654628
 20
53.834011
 30
0.0
 11
-39.092426
 21
53.834011
 31
0.0
  0
LINE
  5
1C77
100
AcDbEntity
  8
V0-OBRYS
100
AcDbLine
 10
-239.651724
 20
29.891918
 30
0.0
 11
-39.092426
 21
29.891918
 31
0.0
  0
LINE
  5
1C78
100
AcDbEntity
  8
V0-OBRYS
100
AcDbLine
 10
-239.680746
 20
0.228607
 30
0.0
 11
-39.092426
 21
0.228607
 31
0.0
  0
LINE
  5
1C79
100
AcDbEntity
  8
V0-OBRYS
100
AcDbLine
 10
-239.688571
 20
-29.595004
 30
0.0
 11
-39.129412
 21
-29.817673
 31
0.0
  0
LINE
  5
1C7A
100
AcDbEntity
  8
V0-OBRYS
100
AcDbLine
 10
-237.721137
 20
-53.539552
 30
0.0
 11
-39.159072
 21
-53.759747
 31
0.0
  0
LINE
  5
1C7B
100
AcDbEntity
  8
V0-OBRYS
100
AcDbLine
 10
-237.740911
 20
-69.500933
 30
0.0
 11
-37.181751
 21
-69.723602
 31
0.0
  0
LINE
  5
1C7C
100
AcDbEntity
  8
V0-OBRYS
100
AcDbLine
 10
-259.680746
 20
-59.771273
 30
0.0
 11
-259.680746
 21
-0.035693
 31
0.0
  0
LINE
  5
1C7D
100
AcDbEntity
  8
V0-OBRYS
100
AcDbLine
 10
-239.680746
 20
-79.771273
 30
0.0
 11
-239.680746
 21
0.228607
 31
0.0
  0
LINE
  5
1C7E
100
AcDbEntity
  8
V0-OBRYS
100
AcDbLine
 10
-259.680746
 20
-59.771273
 30
0.0
 11
-239.680746
 21
-79.771273
 31
0.0
  0
LINE
  5
1C7F
100
AcDbEntity
  8
V0-OBRYS
100
AcDbLine
 10
-259.680746
 20
60.228487
 30
0.0
 11
-239.680746
 21
80.228487
 31
0.0
  0
LINE
  5
1C80
100
AcDbEntity
  8
V0-OBRYS
100
AcDbLine
 10
-259.680746
 20
60.228487
 30
0.0
 11
-259.680746
 21
0.492907
 31
0.0
  0
LINE
  5
1C81
100
AcDbEntity
  8
V0-OBRYS
100
AcDbLine
 10
-239.680746
 20
80.228487
 30
0.0
 11
-239.680746
 21
0.228607
 31
0.0
  0
LINE
  5
1C82
100
AcDbEntity
  8
V0-OBRYS
100
AcDbLine
 10
-27.109841
 20
-14.001914
 30
0.0
 11
0.0
 21
-14.001914
 31
0.0
  0
LINE
  5
1C83
100
AcDbEntity
  8
V0-OBRYS
100
AcDbLine
 10
-27.109841
 20
14.459128
 30
0.0
 11
0.0
 21
14.459128
 31
0.0
  0
LINE
  5
1C84
100
AcDbEntity
  8
V0-OBRYS
100
AcDbLine
 10
-27.109841
 20
-69.771273
 30
0.0
 11
-27.109841
 21
0.228607
 31
0.0
  0
LINE
  5
1C85
100
AcDbEntity
  8
V0-OBRYS
100
AcDbLine
 10
-39.092426
 20
-79.771273
 30
0.0
 11
-39.092426
 21
0.228607
 31
0.0
  0
ARC
  5
1C86
100
AcDbEntity
  8
V0-OBRYS
100
AcDbCircle
 10
-37.109841
 20
-69.771273
 30
0.0
 40
10.0
100
AcDbArc
 50
270.0
 51
0.0
  0
LINE
  5
1C87
100
AcDbEntity
  8
V0-OBRYS
100
AcDbLine
 10
-39.092426
 20
80.228487
 30
0.0
 11
-39.092426
 21
0.228607
 31
0.0
  0
LINE
  5
1C88
100
AcDbEntity
  8
V0-OBRYS
100
AcDbLine
 10
-27.109841
 20
70.228487
 30
0.0
 11
-27.109841
 21
0.228607
 31
0.0
  0
ARC
  5
1C89
100
AcDbEntity
  8
V0-OBRYS
100
AcDbCircle
 10
-37.109841
 20
70.228487
 30
0.0
 40
10.0
100
AcDbArc
 50
0.0
 51
90.0
  0
LINE
  5
1C8A
100
AcDbEntity
  8
V0-OBRYS
100
AcDbLine
 10
0.0
 20
-79.771273
 30
0.0
 11
0.0
 21
79.771273
 31
0.0
  0
ENDBLK
  5
1C8C
100
AcDbEntity
  8
0
100
AcDbBlockEnd
  0
BLOCK
  5
29EA
100
AcDbEntity
  8
0
100
AcDbBlockBegin
  2
*D4
 70
     1
 10
0.0
 20
0.0
 30
0.0
  3
*D4
  1

  0
LINE
  5
29EB
100
AcDbEntity
  8
0
  6
BYBLOCK
100
AcDbLine
 10
1040.953111
 20
58.0
 30
0.0
 11
914.15747
 21
58.0
 31
0.0
  0
LINE
  5
29EC
100
AcDbEntity
  8
0
  6
BYBLOCK
100
AcDbLine
 10
1040.953111
 20
-426.0
 30
0.0
 11
914.15747
 21
-426.0
 31
0.0
  0
LINE
  5
29ED
100
AcDbEntity
  8
0
  6
BYBLOCK
100
AcDbLine
 10
915.40747
 20
33.0
 30
0.0
 11
915.40747
 21
-401.0
 31
0.0
  0
INSERT
  5
29EE
100
AcDbEntity
  8
0
  6
BYBLOCK
100
AcDbBlockReference
  2
_OPEN
 10
915.40747
 20
58.0
 30
0.0
 41
25.0
 42
25.0
 43
25.0
 50
90.0
  0
INSERT
  5
29EF
100
AcDbEntity
  8
0
  6
BYBLOCK
100
AcDbBlockReference
  2
_OPEN
 10
915.40747
 20
-426.0
 30
0.0
 41
25.0
 42
25.0
 43
25.0
 50
270.0
  0
MTEXT
  5
29F0
100
AcDbEntity
  8
0
  6
BYBLOCK
100
AcDbMText
 10
898.40747
 20
-184.0
 30
0.0
 40
30.0
 41
0.0
 71
     5
 72
     1
  1
\A1;\U+2205484
  7
ED30
 11
0.0
 21
1.0
 31
0.0
  0
POINT
  5
29F1
100
AcDbEntity
  8
DEFPOINTS
  6
BYBLOCK
 62
     0
100
AcDbPoint
 10
1041.953111
 20
58.0
 30
0.0
  0
POINT
  5
29F2
100
AcDbEntity
  8
DEFPOINTS
  6
BYBLOCK
 62
     0
100
AcDbPoint
 10
1041.953111
 20
-426.0
 30
0.0
  0
POINT
  5
29F3
100
AcDbEntity
  8
DEFPOINTS
  6
BYBLOCK
 62
     0
100
AcDbPoint
 10
915.40747
 20
-426.0
 30
0.0
  0
ENDBLK
  5
29F4
100
AcDbEntity
  8
0
100
AcDbBlockEnd
  0
BLOCK
  5
29F5
100
AcDbEntity
  8
0
100
AcDbBlockBegin
  2
*D5
 70
     1
 10
0.0
 20
0.0
 30
0.0
  3
*D5
  1

  0
LINE
  5
29F6
100
AcDbEntity
  8
0
  6
BYBLOCK
100
AcDbLine
 10
1048.29617
 20
16.0
 30
0.0
 11
985.074258
 21
16.0
 31
0.0
  0
LINE
  5
29F7
100
AcDbEntity
  8
0
  6
BYBLOCK
100
AcDbLine
 10
1048.29617
 20
-384.0
 30
0.0
 11
985.074258
 21
-384.0
 31
0.0
  0
LINE
  5
29F8
100
AcDbEntity
  8
0
  6
BYBLOCK
100
AcDbLine
 10
986.324258
 20
-9.0
 30
0.0
 11
986.324258
 21
-359.0
 31
0.0
  0
INSERT
  5
29F9
100
AcDbEntity
  8
0
  6
BYBLOCK
100
AcDbBlockReference
  2
_OPEN
 10
986.324258
 20
16.0
 30
0.0
 41
25.0
 42
25.0
 43
25.0
 50
90.0
  0
INSERT
  5
29FA
100
AcDbEntity
  8
0
  6
BYBLOCK
100
AcDbBlockReference
  2
_OPEN
 10
986.324258
 20
-384.0
 30
0.0
 41
25.0
 42
25.0
 43
25.0
 50
270.0
  0
MTEXT
  5
29FB
100
AcDbEntity
  8
0
  6
BYBLOCK
100
AcDbMText
 10
969.324258
 20
-184.0
 30
0.0
 40
30.0
 41
0.0
 71
     5
 72
     1
  1
\A1;\U+2205400
  7
ED30
 11
0.0
 21
1.0
 31
0.0
  0
POINT
  5
29FC
100
AcDbEntity
  8
DEFPOINTS
  6
BYBLOCK
 62
     0
100
AcDbPoint
 10
1049.29617
 20
16.0
 30
0.0
  0
POINT
  5
29FD
100
AcDbEntity
  8
DEFPOINTS
  6
BYBLOCK
 62
     0
100
AcDbPoint
 10
1049.29617
 20
-384.0
 30
0.0
  0
POINT
  5
29FE
100
AcDbEntity
  8
DEFPOINTS
  6
BYBLOCK
 62
     0
100
AcDbPoint
 10
986.324258
 20
-384.0
 30
0.0
  0
ENDBLK
  5
29FF
100
AcDbEntity
  8
0
100
AcDbBlockEnd
  0
BLOCK
  5
29A0
100
AcDbEntity
  8
0
100
AcDbBlockBegin
  2
*D6
 70
     1
 10
0.0
 20
0.0
 30
0.0
  3
*D6
  1

  0
LINE
  5
29A1
100
AcDbEntity
  8
0
  6
BYBLOCK
100
AcDbLine
 10
1041.953111
 20
59.0
 30
0.0
 11
1041.953111
 21
181.788582
 31
0.0
  0
LINE
  5
29A2
100
AcDbEntity
  8
0
  6
BYBLOCK
100
AcDbLine
 10
1368.953111
 20
-183.0
 30
0.0
 11
1368.953111
 21
181.788582
 31
0.0
  0
LINE
  5
29A3
100
AcDbEntity
  8
0
  6
BYBLOCK
100
AcDbLine
 10
1066.953111
 20
180.538582
 30
0.0
 11
1343.953111
 21
180.538582
 31
0.0
  0
INSERT
  5
29A4
100
AcDbEntity
  8
0
  6
BYBLOCK
100
AcDbBlockReference
  2
_OPEN
 10
1041.953111
 20
180.538582
 30
0.0
 41
25.0
 42
25.0
 43
25.0
 50
180.0
  0
INSERT
  5
29A5
100
AcDbEntity
  8
0
  6
BYBLOCK
100
AcDbBlockReference
  2
_OPEN
 10
1368.953111
 20
180.538582
 30
0.0
 41
25.0
 42
25.0
 43
25.0
  0
MTEXT
  5
29A6
100
AcDbEntity
  8
0
  6
BYBLOCK
100
AcDbMText
 10
1205.453111
 20
197.541534
 30
0.0
 40
30.0
 41
0.0
 71
     5
 72
     1
  1
\A1;327
  7
ED30
  0
POINT
  5
29A7
100
AcDbEntity
  8
DEFPOINTS
  6
BYBLOCK
 62
     0
100
AcDbPoint
 10
1041.953111
 20
58.0
 30
0.0
  0
POINT
  5
29A8
100
AcDbEntity
  8
DEFPOINTS
  6
BYBLOCK
 62
     0
100
AcDbPoint
 10
1368.953111
 20
-184.0
 30
0.0
  0
POINT
  5
29A9
100
AcDbEntity
  8
DEFPOINTS
  6
BYBLOCK
 62
     0
100
AcDbPoint
 10
1368.953111
 20
180.538582
 30
0.0
  0
ENDBLK
  5
29AA
100
AcDbEntity
  8
0
100
AcDbBlockEnd
  0
BLOCK
  5
29AB
100
AcDbEntity
  8
0
100
AcDbBlockBegin
  2
*D7
 70
     1
 10
0.0
 20
0.0
 30
0.0
  3
*D7
  1

  0
LINE
  5
29AC
100
AcDbEntity
  8
0
  6
BYBLOCK
100
AcDbLine
 10
1041.953111
 20
59.0
 30
0.0
 11
1041.953111
 21
116.667038
 31
0.0
  0
LINE
  5
29AD
100
AcDbEntity
  8
0
  6
BYBLOCK
100
AcDbLine
 10
1261.953111
 20
59.0
 30
0.0
 11
1261.953111
 21
116.667038
 31
0.0
  0
LINE
  5
29AE
100
AcDbEntity
  8
0
  6
BYBLOCK
100
AcDbLine
 10
1066.953111
 20
115.417038
 30
0.0
 11
1236.953111
 21
115.417038
 31
0.0
  0
INSERT
  5
29AF
100
AcDbEntity
  8
0
  6
BYBLOCK
100
AcDbBlockReference
  2
_OPEN
 10
1041.953111
 20
115.417038
 30
0.0
 41
25.0
 42
25.0
 43
25.0
 50
180.0
  0
INSERT
  5
29B0
100
AcDbEntity
  8
0
  6
BYBLOCK
100
AcDbBlockReference
  2
_OPEN
 10
1261.953111
 20
115.417038
 30
0.0
 41
25.0
 42
25.0
 43
25.0
  0
MTEXT
  5
29B1
100
AcDbEntity
  8
0
  6
BYBLOCK
100
AcDbMText
 10
1163.616231
 20
132.419991
 30
0.0
 40
30.0
 41
0.0
 71
     5
 72
     1
  1
\A1;220
  7
ED30
  0
POINT
  5
29B2
100
AcDbEntity
  8
DEFPOINTS
  6
BYBLOCK
 62
     0
100
AcDbPoint
 10
1041.953111
 20
58.0
 30
0.0
  0
POINT
  5
29B3
100
AcDbEntity
  8
DEFPOINTS
  6
BYBLOCK
 62
     0
100
AcDbPoint
 10
1261.953111
 20
58.0
 30
0.0
  0
POINT
  5
29B4
100
AcDbEntity
  8
DEFPOINTS
  6
BYBLOCK
 62
     0
100
AcDbPoint
 10
1261.953111
 20
115.417038
 30
0.0
  0
ENDBLK
  5
29B5
100
AcDbEntity
  8
0
100
AcDbBlockEnd
  0
BLOCK
  5
29DF
100
AcDbEntity
  8
0
100
AcDbBlockBegin
  2
*D8
 70
     1
 10
0.0
 20
0.0
 30
0.0
  3
*D8
  1

  0
LINE
  5
29E0
100
AcDbEntity
  8
0
  6
BYBLOCK
100
AcDbLine
 10
1844.997461
 20
40.944444
 30
0.0
 11
2197.591959
 21
40.944444
 31
0.0
  0
LINE
  5
29E1
100
AcDbEntity
  8
0
  6
BYBLOCK
100
AcDbLine
 10
1844.997461
 20
-408.944444
 30
0.0
 11
2197.591959
 21
-408.944444
 31
0.0
  0
LINE
  5
29E2
100
AcDbEntity
  8
0
  6
BYBLOCK
100
AcDbLine
 10
2196.341959
 20
15.944444
 30
0.0
 11
2196.341959
 21
-383.944444
 31
0.0
  0
INSERT
  5
29E3
100
AcDbEntity
  8
0
  6
BYBLOCK
100
AcDbBlockReference
  2
_OPEN
 10
2196.341959
 20
40.944444
 30
0.0
 41
25.0
 42
25.0
 43
25.0
 50
90.0
  0
INSERT
  5
29E4
100
AcDbEntity
  8
0
  6
BYBLOCK
100
AcDbBlockReference
  2
_OPEN
 10
2196.341959
 20
-408.944444
 30
0.0
 41
25.0
 42
25.0
 43
25.0
 50
270.0
  0
MTEXT
  5
29E5
100
AcDbEntity
  8
0
  6
BYBLOCK
100
AcDbMText
 10
2179.341959
 20
-184.0
 30
0.0
 40
30.0
 41
0.0
 71
     5
 72
     1
  1
\A1;\U+2205450
  7
ED30
 11
0.0
 21
1.0
 31
0.0
  0
POINT
  5
29E6
100
AcDbEntity
  8
DEFPOINTS
  6
BYBLOCK
 62
     0
100
AcDbPoint
 10
1843.997461
 20
40.944444
 30
0.0
  0
POINT
  5
29E7
100
AcDbEntity
  8
DEFPOINTS
  6
BYBLOCK
 62
     0
100
AcDbPoint
 10
1843.997461
 20
-408.944444
 30
0.0
  0
POINT
  5
29E8
100
AcDbEntity
  8
DEFPOINTS
  6
BYBLOCK
 62
     0
100
AcDbPoint
 10
2196.341959
 20
-408.944444
 30
0.0
  0
ENDBLK
  5
29E9
100
AcDbEntity
  8
0
100
AcDbBlockEnd
  0
ENDSEC
  0
SECTION
  2
ENTITIES
  0
MTEXT
  5
17A8
100
AcDbEntity
  8
V0-NAZVY
100
AcDbMText
 10
1836.620879
 20
-691.468166
 30
0.0
 40
50.025937
 41
411.494454
 71
     5
 72
     5
  1
TBT - 400
  7
ED10
  0
MTEXT
  5
17A9
100
AcDbEntity
  8
V0-ZBYTEK
 62
    51
100
AcDbMText
 10
1849.459854
 20
-787.032542
 30
0.0
 40
28.014525
 41
793.596265
 71
     5
 72
     5
  1
SPECIALNI AXIALNI VENTILATOR
  7
ED10
  0
LINE
  5
27A1
100
AcDbEntity
  8
V0-OSY
 48
3.0
100
AcDbLine
 10
1548.997153
 20
-184.0
 30
0.0
 11
2137.131948
 21
-184.0
 31
0.0
  0
LINE
  5
27A4
100
AcDbEntity
  8
V0-OSY
 48
3.0
100
AcDbLine
 10
1848.997153
 20
6.225678
 30
0.0
 11
1848.997153
 21
-434.0
 31
0.0
  0
CIRCLE
  5
27A5
100
AcDbEntity
  8
V0-OBRYS
100
AcDbCircle
 10
1848.997153
 20
-184.0
 30
0.0
 40
242.0
  0
CIRCLE
  5
27A6
100
AcDbEntity
  8
V0-OBRYS
100
AcDbCircle
 10
1848.997153
 20
-184.0
 30
0.0
 40
200.0
  0
CIRCLE
  5
27A7
100
AcDbEntity
  8
V0-OSY
100
AcDbCircle
 10
1848.997153
 20
-184.0
 30
0.0
 40
225.0
  0
CIRCLE
  5
27A8
100
AcDbEntity
  8
V0-OBRYS
100
AcDbCircle
 10
1848.997153
 20
41.0
 30
0.0
 40
5.0
  0
LINE
  5
27AA
100
AcDbEntity
  8
V0-OSY
100
AcDbLine
 10
1848.997153
 20
6.225678
 30
0.0
 11
1848.997153
 21
78.386266
 31
0.0
  0
LINE
  5
27AB
100
AcDbEntity
  8
V0-OSY
100
AcDbLine
 10
1714.487286
 20
-49.490133
 30
0.0
 11
1663.462044
 21
1.535108
 31
0.0
  0
CIRCLE
  5
27AC
100
AcDbEntity
  8
V0-OBRYS
100
AcDbCircle
 10
1689.898127
 20
-24.900974
 30
0.0
 40
5.0
  0
LINE
  5
27AD
100
AcDbEntity
  8
V0-OSY
100
AcDbLine
 10
1658.771474
 20
-184.0
 30
0.0
 11
1586.610886
 21
-184.0
 31
0.0
  0
CIRCLE
  5
27AE
100
AcDbEntity
  8
V0-OBRYS
100
AcDbCircle
 10
1623.997153
 20
-184.0
 30
0.0
 40
5.0
  0
LINE
  5
27AF
100
AcDbEntity
  8
V0-OSY
100
AcDbLine
 10
1714.487286
 20
-318.509867
 30
0.0
 11
1663.462044
 21
-369.535108
 31
0.0
  0
CIRCLE
  5
27B0
100
AcDbEntity
  8
V0-OBRYS
100
AcDbCircle
 10
1689.898127
 20
-343.099026
 30
0.0
 40
5.0
  0
LINE
  5
27B1
100
AcDbEntity
  8
V0-OSY
100
AcDbLine
 10
1848.997153
 20
-374.225678
 30
0.0
 11
1848.997153
 21
-446.386266
 31
0.0
  0
CIRCLE
  5
27B2
100
AcDbEntity
  8
V0-OBRYS
100
AcDbCircle
 10
1848.997153
 20
-409.0
 30
0.0
 40
5.0
  0
LINE
  5
27B3
100
AcDbEntity
  8
V0-OSY
100
AcDbLine
 10
1983.50702
 20
-318.509867
 30
0.0
 11
2034.532261
 21
-369.535108
 31
0.0
  0
CIRCLE
  5
27B4
100
AcDbEntity
  8
V0-OBRYS
100
AcDbCircle
 10
2008.096178
 20
-343.099026
 30
0.0
 40
5.0
  0
LINE
  5
27B5
100
AcDbEntity
  8
V0-OSY
100
AcDbLine
 10
2039.222831
 20
-184.0
 30
0.0
 11
2111.383419
 21
-184.0
 31
0.0
  0
CIRCLE
  5
27B6
100
AcDbEntity
  8
V0-OBRYS
100
AcDbCircle
 10
2073.997153
 20
-184.0
 30
0.0
 40
5.0
  0
LINE
  5
27B7
100
AcDbEntity
  8
V0-OSY
100
AcDbLine
 10
1983.50702
 20
-49.490133
 30
0.0
 11
2034.532261
 21
1.535108
 31
0.0
  0
CIRCLE
  5
27B8
100
AcDbEntity
  8
V0-OBRYS
100
AcDbCircle
 10
2008.096178
 20
-24.900974
 30
0.0
 40
5.0
  0
CIRCLE
  5
27BA
100
AcDbEntity
  8
V0-OBRYS
100
AcDbCircle
 10
1848.997153
 20
-184.0
 30
0.0
 40
140.0
  0
CIRCLE
  5
27BB
100
AcDbEntity
  8
V0-OBRYS
100
AcDbCircle
 10
1848.997153
 20
-184.0
 30
0.0
 40
127.770133
  0
CIRCLE
  5
27BC
100
AcDbEntity
  8
V0-OBRYS
100
AcDbCircle
 10
1848.997153
 20
-184.0
 30
0.0
 40
64.170967
  0
LINE
  5
27BE
100
AcDbEntity
  8
V0-OBRYS
100
AcDbLine
 10
1821.533662
 20
7.85977
 30
0.0
 11
1818.192252
 21
-23.127781
 31
0.0
  0
LINE
  5
27C0
100
AcDbEntity
  8
V0-OBRYS
100
AcDbLine
 10
1935.384481
 20
-294.169095
 30
0.0
 11
1946.562996
 21
-351.467372
 31
0.0
  0
ARC
  5
27C1
100
AcDbEntity
  8
V0-OBRYS
100
AcDbCircle
 10
1848.997153
 20
-184.0
 30
0.0
 40
193.815414
100
AcDbArc
 50
81.853816
 51
98.146184
  0
LINE
  5
27E3
100
AcDbEntity
  8
V0-OBRYS
100
AcDbLine
 10
1876.460643
 20
7.85977
 30
0.0
 11
1879.802054
 21
-23.127781
 31
0.0
  0
LINE
  5
27E4
100
AcDbEntity
  8
V0-OBRYS
100
AcDbLine
 10
1776.851348
 20
-4.11282
 30
0.0
 11
1810.851238
 21
-50.645326
 31
0.0
  0
LINE
  5
27E5
100
AcDbEntity
  8
V0-OBRYS
100
AcDbLine
 10
1729.283187
 20
-31.576311
 30
0.0
 11
1752.581574
 21
-84.287332
 31
0.0
  0
ARC
  5
27E6
100
AcDbEntity
  8
V0-OBRYS
100
AcDbCircle
 10
1848.997153
 20
-184.0
 30
0.0
 40
193.815414
100
AcDbArc
 50
111.853816
 51
128.146184
  0
LINE
  5
27E7
100
AcDbEntity
  8
V0-OBRYS
100
AcDbLine
 10
1696.573463
 20
-64.286035
 30
0.0
 11
1749.284484
 21
-87.584422
 31
0.0
  0
LINE
  5
27E8
100
AcDbEntity
  8
V0-OBRYS
100
AcDbLine
 10
1669.109973
 20
-111.854196
 30
0.0
 11
1715.642478
 21
-145.854085
 31
0.0
  0
ARC
  5
27E9
100
AcDbEntity
  8
V0-OBRYS
100
AcDbCircle
 10
1848.997153
 20
-184.0
 30
0.0
 40
193.815414
100
AcDbArc
 50
141.853816
 51
158.146184
  0
LINE
  5
27EA
100
AcDbEntity
  8
V0-OBRYS
100
AcDbLine
 10
1657.137383
 20
-156.53651
 30
0.0
 11
1714.43566
 21
-150.357994
 31
0.0
  0
LINE
  5
27EB
100
AcDbEntity
  8
V0-OBRYS
100
AcDbLine
 10
1657.137383
 20
-211.46349
 30
0.0
 11
1714.43566
 21
-217.642006
 31
0.0
  0
ARC
  5
27EC
100
AcDbEntity
  8
V0-OBRYS
100
AcDbCircle
 10
1848.997153
 20
-184.0
 30
0.0
 40
193.815414
100
AcDbArc
 50
171.853816
 51
188.146184
  0
LINE
  5
27ED
100
AcDbEntity
  8
V0-OBRYS
100
AcDbLine
 10
1669.109973
 20
-256.145804
 30
0.0
 11
1715.642478
 21
-222.145915
 31
0.0
  0
LINE
  5
27EE
100
AcDbEntity
  8
V0-OBRYS
100
AcDbLine
 10
1696.573463
 20
-303.713965
 30
0.0
 11
1749.284484
 21
-280.415578
 31
0.0
  0
ARC
  5
27EF
100
AcDbEntity
  8
V0-OBRYS
100
AcDbCircle
 10
1848.997153
 20
-184.0
 30
0.0
 40
193.815414
100
AcDbArc
 50
201.853816
 51
218.146184
  0
LINE
  5
27F0
100
AcDbEntity
  8
V0-OBRYS
100
AcDbLine
 10
1729.283187
 20
-336.423689
 30
0.0
 11
1752.581574
 21
-283.712668
 31
0.0
  0
LINE
  5
27F1
100
AcDbEntity
  8
V0-OBRYS
100
AcDbLine
 10
1776.851348
 20
-363.88718
 30
0.0
 11
1810.851238
 21
-317.354674
 31
0.0
  0
ARC
  5
27F2
100
AcDbEntity
  8
V0-OBRYS
100
AcDbCircle
 10
1848.997153
 20
-184.0
 30
0.0
 40
193.815414
100
AcDbArc
 50
231.853816
 51
248.146184
  0
LINE
  5
27F3
100
AcDbEntity
  8
V0-OBRYS
100
AcDbLine
 10
1821.533662
 20
-375.85977
 30
0.0
 11
1815.355147
 21
-318.561493
 31
0.0
  0
LINE
  5
27F4
100
AcDbEntity
  8
V0-OBRYS
100
AcDbLine
 10
1876.460643
 20
-375.85977
 30
0.0
 11
1882.639159
 21
-318.561493
 31
0.0
  0
ARC
  5
27F5
100
AcDbEntity
  8
V0-OBRYS
100
AcDbCircle
 10
1848.997153
 20
-184.0
 30
0.0
 40
193.815414
100
AcDbArc
 50
261.853816
 51
278.146184
  0
LINE
  5
27F6
100
AcDbEntity
  8
V0-OBRYS
100
AcDbLine
 10
1921.142957
 20
-363.88718
 30
0.0
 11
1887.143067
 21
-317.354674
 31
0.0
  0
LINE
  5
27F7
100
AcDbEntity
  8
V0-OBRYS
100
AcDbLine
 10
1968.711118
 20
-336.423689
 30
0.0
 11
1945.412731
 21
-283.712668
 31
0.0
  0
ARC
  5
27F8
100
AcDbEntity
  8
V0-OBRYS
100
AcDbCircle
 10
1848.997153
 20
-184.0
 30
0.0
 40
193.815414
100
AcDbArc
 50
291.853816
 51
308.146184
  0
LINE
  5
27F9
100
AcDbEntity
  8
V0-OBRYS
100
AcDbLine
 10
2001.420842
 20
-303.713965
 30
0.0
 11
1948.709821
 21
-280.415578
 31
0.0
  0
LINE
  5
27FA
100
AcDbEntity
  8
V0-OBRYS
100
AcDbLine
 10
2028.884332
 20
-256.145804
 30
0.0
 11
1982.351827
 21
-222.145915
 31
0.0
  0
ARC
  5
27FB
100
AcDbEntity
  8
V0-OBRYS
100
AcDbCircle
 10
1848.997153
 20
-184.0
 30
0.0
 40
193.815414
100
AcDbArc
 50
321.853816
 51
338.146184
  0
LINE
  5
27FC
100
AcDbEntity
  8
V0-OBRYS
100
AcDbLine
 10
2040.856922
 20
-211.46349
 30
0.0
 11
1983.558646
 21
-217.642006
 31
0.0
  0
LINE
  5
27FD
100
AcDbEntity
  8
V0-OBRYS
100
AcDbLine
 10
2040.856922
 20
-156.53651
 30
0.0
 11
1983.558646
 21
-150.357994
 31
0.0
  0
ARC
  5
27FE
100
AcDbEntity
  8
V0-OBRYS
100
AcDbCircle
 10
1848.997153
 20
-184.0
 30
0.0
 40
193.815414
100
AcDbArc
 50
351.853816
 51
8.146184
  0
LINE
  5
27FF
100
AcDbEntity
  8
V0-OBRYS
100
AcDbLine
 10
2028.884332
 20
-111.854196
 30
0.0
 11
1982.351827
 21
-145.854085
 31
0.0
  0
LINE
  5
2800
100
AcDbEntity
  8
V0-OBRYS
100
AcDbLine
 10
2001.420842
 20
-64.286035
 30
0.0
 11
1948.709821
 21
-87.584422
 31
0.0
  0
ARC
  5
2801
100
AcDbEntity
  8
V0-OBRYS
100
AcDbCircle
 10
1848.997153
 20
-184.0
 30
0.0
 40
193.815414
100
AcDbArc
 50
21.853816
 51
38.146184
  0
LINE
  5
2802
100
AcDbEntity
  8
V0-OBRYS
100
AcDbLine
 10
1968.711118
 20
-31.576311
 30
0.0
 11
1945.412731
 21
-84.287332
 31
0.0
  0
LINE
  5
2803
100
AcDbEntity
  8
V0-OBRYS
100
AcDbLine
 10
1921.142957
 20
-4.11282
 30
0.0
 11
1887.143067
 21
-50.645326
 31
0.0
  0
ARC
  5
2804
100
AcDbEntity
  8
V0-OBRYS
100
AcDbCircle
 10
1848.997153
 20
-184.0
 30
0.0
 40
193.815414
100
AcDbArc
 50
51.853816
 51
68.146184
  0
LINE
  5
2805
100
AcDbEntity
  8
V0-OBRYS
100
AcDbLine
 10
1810.036592
 20
-49.530395
 30
0.0
 11
1810.200269
 21
-23.127781
 31
0.0
  0
LINE
  5
2806
100
AcDbEntity
  8
V0-OBRYS
100
AcDbLine
 10
1810.200269
 20
-23.127781
 30
0.0
 11
1848.997153
 21
-23.127781
 31
0.0
  0
LINE
  5
2807
100
AcDbEntity
  8
V0-OBRYS
100
AcDbLine
 10
1887.794037
 20
-23.127781
 30
0.0
 11
1848.997153
 21
-23.127781
 31
0.0
  0
LINE
  5
2808
100
AcDbEntity
  8
V0-OBRYS
100
AcDbLine
 10
1887.957714
 20
-49.530395
 30
0.0
 11
1887.794037
 21
-23.127781
 31
0.0
  0
LINE
  5
2809
100
AcDbEntity
  8
V0-OBRYS
100
AcDbLine
 10
1041.953111
 20
58.0
 30
0.0
 11
1049.29617
 21
58.0
 31
0.0
  0
LINE
  5
280B
100
AcDbEntity
  8
V0-OBRYS
100
AcDbLine
 10
1041.953111
 20
58.0
 30
0.0
 11
1041.953111
 21
-184.0
 31
0.0
  0
LINE
  5
280C
100
AcDbEntity
  8
V0-OBRYS
100
AcDbLine
 10
1049.29617
 20
58.0
 30
0.0
 11
1049.29617
 21
-391.327801
 31
0.0
  0
LINE
  5
280D
100
AcDbEntity
  8
V0-OBRYS
100
AcDbLine
 10
1049.29617
 20
16.0
 30
0.0
 11
1254.610051
 21
16.0
 31
0.0
  0
LINE
  5
280E
100
AcDbEntity
  8
V0-OBRYS
100
AcDbLine
 10
1041.953111
 20
58.0
 30
0.0
 11
1049.29617
 21
58.0
 31
0.0
  0
LINE
  5
280F
100
AcDbEntity
  8
V0-OBRYS
100
AcDbLine
 10
1261.953111
 20
58.0
 30
0.0
 11
1261.953111
 21
-184.0
 31
0.0
  0
LINE
  5
2810
100
AcDbEntity
  8
V0-OBRYS
100
AcDbLine
 10
1254.610051
 20
58.0
 30
0.0
 11
1254.610051
 21
-391.327801
 31
0.0
  0
LINE
  5
2811
100
AcDbEntity
  8
V0-OBRYS
100
AcDbLine
 10
1254.610051
 20
58.0
 30
0.0
 11
1261.953111
 21
58.0
 31
0.0
  0
LINE
  5
2812
100
AcDbEntity
  8
V0-OBRYS
100
AcDbLine
 10
1254.610051
 20
58.0
 30
0.0
 11
1261.953111
 21
58.0
 31
0.0
  0
LINE
  5
2820
100
AcDbEntity
  8
V0-OBRYS
100
AcDbLine
 10
1261.953111
 20
-44.0
 30
0.0
 11
1342.233883
 21
-44.0
 31
0.0
  0
LINE
  5
2825
100
AcDbEntity
  8
V0-OBRYS
100
AcDbLine
 10
1341.794844
 20
-44.0
 30
0.0
 11
1341.794844
 21
-184.0
 31
0.0
  0
ARC
  5
2826
100
AcDbEntity
  8
V0-OBRYS
100
AcDbCircle
 10
873.35184
 20
-165.969498
 30
0.0
 40
495.929146
100
AcDbArc
 50
357.916437
 51
12.851362
  0
ARC
  5
2827
100
AcDbEntity
  8
V0-OBRYS
100
AcDbCircle
 10
1342.233883
 20
-59.0
 30
0.0
 40
15.0
100
AcDbArc
 50
12.851362
 51
90.0
  0
LINE
  5
2828
100
AcDbEntity
  8
V0-OBRYS
100
AcDbLine
 10
1312.422592
 20
-44.0
 30
0.0
 11
1312.422592
 21
-184.0
 31
0.0
  0
LINE
  5
2829
100
AcDbEntity
  8
V0-OBRYS
100
AcDbLine
 10
1261.953111
 20
-56.171152
 30
0.0
 11
1312.422592
 21
-56.171152
 31
0.0
  0
LINE
  5
282B
100
AcDbEntity
  8
V0-OBRYS
100
AcDbLine
 10
1261.953111
 20
-70.847879
 30
0.0
 11
1312.422592
 21
-70.847879
 31
0.0
  0
LINE
  5
282C
100
AcDbEntity
  8
V0-OBRYS
100
AcDbLine
 10
1261.953111
 20
-91.639914
 30
0.0
 11
1312.422592
 21
-91.639914
 31
0.0
  0
LINE
  5
282D
100
AcDbEntity
  8
V0-OBRYS
100
AcDbLine
 10
1261.953111
 20
-123.439493
 30
0.0
 11
1312.422592
 21
-123.439493
 31
0.0
  0
LINE
  5
282E
100
AcDbEntity
  8
V0-OBRYS
100
AcDbLine
 10
1261.953111
 20
-168.692746
 30
0.0
 11
1312.422592
 21
-168.692746
 31
0.0
  0
LINE
  5
282F
100
AcDbEntity
  8
V0-OBRYS
100
AcDbLine
 10
1041.953111
 20
-426.0
 30
0.0
 11
1041.953111
 21
-184.0
 31
0.0
  0
LINE
  5
2830
100
AcDbEntity
  8
V0-OBRYS
100
AcDbLine
 10
1261.953111
 20
-426.0
 30
0.0
 11
1261.953111
 21
-184.0
 31
0.0
  0
LINE
  5
2831
100
AcDbEntity
  8
V0-OBRYS
100
AcDbLine
 10
1312.422592
 20
-324.0
 30
0.0
 11
1312.422592
 21
-184.0
 31
0.0
  0
ARC
  5
2832
100
AcDbEntity
  8
V0-OBRYS
100
AcDbCircle
 10
873.35184
 20
-202.030502
 30
0.0
 40
495.929146
100
AcDbArc
 50
347.148638
 51
2.083563
  0
LINE
  5
2833
100
AcDbEntity
  8
V0-OBRYS
100
AcDbLine
 10
1341.794844
 20
-324.0
 30
0.0
 11
1341.794844
 21
-184.0
 31
0.0
  0
LINE
  5
2834
100
AcDbEntity
  8
V0-OBRYS
100
AcDbLine
 10
1261.953111
 20
-199.307254
 30
0.0
 11
1312.422592
 21
-199.307254
 31
0.0
  0
LINE
  5
2835
100
AcDbEntity
  8
V0-OBRYS
100
AcDbLine
 10
1261.953111
 20
-244.560507
 30
0.0
 11
1312.422592
 21
-244.560507
 31
0.0
  0
LINE
  5
2836
100
AcDbEntity
  8
V0-OBRYS
100
AcDbLine
 10
1261.953111
 20
-276.360086
 30
0.0
 11
1312.422592
 21
-276.360086
 31
0.0
  0
LINE
  5
2837
100
AcDbEntity
  8
V0-OBRYS
100
AcDbLine
 10
1261.953111
 20
-297.152121
 30
0.0
 11
1312.422592
 21
-297.152121
 31
0.0
  0
LINE
  5
2838
100
AcDbEntity
  8
V0-OBRYS
100
AcDbLine
 10
1261.953111
 20
-311.828848
 30
0.0
 11
1312.422592
 21
-311.828848
 31
0.0
  0
LINE
  5
2839
100
AcDbEntity
  8
V0-OBRYS
100
AcDbLine
 10
1261.953111
 20
-324.0
 30
0.0
 11
1342.233883
 21
-324.0
 31
0.0
  0
ARC
  5
283A
100
AcDbEntity
  8
V0-OBRYS
100
AcDbCircle
 10
1342.233883
 20
-309.0
 30
0.0
 40
15.0
100
AcDbArc
 50
270.0
 51
347.148638
  0
LINE
  5
283C
100
AcDbEntity
  8
V0-OBRYS
100
AcDbLine
 10
1049.29617
 20
-426.0
 30
0.0
 11
1049.29617
 21
-391.327801
 31
0.0
  0
LINE
  5
283D
100
AcDbEntity
  8
V0-OBRYS
100
AcDbLine
 10
1041.953111
 20
-426.0
 30
0.0
 11
1049.29617
 21
-426.0
 31
0.0
  0
LINE
  5
283E
100
AcDbEntity
  8
V0-OBRYS
100
AcDbLine
 10
1041.953111
 20
-426.0
 30
0.0
 11
1049.29617
 21
-426.0
 31
0.0
  0
LINE
  5
283F
100
AcDbEntity
  8
V0-OBRYS
100
AcDbLine
 10
1254.610051
 20
-426.0
 30
0.0
 11
1254.610051
 21
-391.327801
 31
0.0
  0
LINE
  5
2840
100
AcDbEntity
  8
V0-OBRYS
100
AcDbLine
 10
1254.610051
 20
-426.0
 30
0.0
 11
1261.953111
 21
-426.0
 31
0.0
  0
LINE
  5
2841
100
AcDbEntity
  8
V0-OBRYS
100
AcDbLine
 10
1254.610051
 20
-426.0
 30
0.0
 11
1261.953111
 21
-426.0
 31
0.0
  0
LINE
  5
2842
100
AcDbEntity
  8
V0-OBRYS
100
AcDbLine
 10
1261.953111
 20
-23.127781
 30
0.0
 11
1301.407996
 21
-23.127781
 31
0.0
  0
LINE
  5
2843
100
AcDbEntity
  8
V0-OBRYS
100
AcDbLine
 10
1301.407996
 20
-23.127781
 30
0.0
 11
1301.407996
 21
-44.0
 31
0.0
  0
LINE
  5
2844
100
AcDbEntity
  8
V0-OBRYS
100
AcDbLine
 10
1811.930364
 20
-30.486871
 30
0.0
 11
1889.032531
 21
-30.486871
 31
0.0
  0
LINE
  5
2845
100
AcDbEntity
  8
V0-OBRYS
100
AcDbLine
 10
1300.184157
 20
-31.709934
 30
0.0
 11
1262.245
 21
-31.709934
 31
0.0
  0
LINE
  5
284A
100
AcDbEntity
  8
V0-VYPLNE
100
AcDbLine
 10
1059.086918
 20
-56.171151
 30
0.0
 11
1059.086918
 21
-184.0
 31
0.0
  0
LINE
  5
284B
100
AcDbEntity
  8
V0-VYPLNE
100
AcDbLine
 10
1253.67809
 20
-43.940543
 30
0.0
 11
1133.371396
 21
-43.940543
 31
0.0
  0
LINE
  5
284C
100
AcDbEntity
  8
V0-VYPLNE
100
AcDbLine
 10
1059.086918
 20
-56.229867
 30
0.0
 11
1076.220733
 21
-43.940543
 31
0.0
  0
LINE
  5
284D
100
AcDbEntity
  8
V0-VYPLNE
100
AcDbLine
 10
1076.220733
 20
-184.0
 30
0.0
 11
1076.220733
 21
-43.940543
 31
0.0
  0
LINE
  5
284E
100
AcDbEntity
  8
V0-VYPLNE
100
AcDbLine
 10
1136.189083
 20
-43.940543
 30
0.0
 11
1136.189083
 21
-184.0
 31
0.0
  0
LINE
  5
284F
100
AcDbEntity
  8
V0-VYPLNE
100
AcDbLine
 10
1076.220733
 20
-43.940543
 30
0.0
 11
1085.448257
 21
11.0
 31
0.0
  0
LINE
  5
2850
100
AcDbEntity
  8
V0-VYPLNE
100
AcDbLine
 10
1085.448257
 20
11.0
 30
0.0
 11
1124.611261
 21
11.0
 31
0.0
  0
LINE
  5
2851
100
AcDbEntity
  8
V0-VYPLNE
100
AcDbLine
 10
1125.796159
 20
11.0
 30
0.0
 11
1136.189083
 21
-45.163602
 31
0.0
  0
LINE
  5
2852
100
AcDbEntity
  8
V0-VYPLNE
100
AcDbLine
 10
1076.220733
 20
-77.220668
 30
0.0
 11
1136.189083
 21
-57.394209
 31
0.0
  0
LINE
  5
2853
100
AcDbEntity
  8
V0-VYPLNE
100
AcDbLine
 10
1136.189083
 20
-57.394209
 30
0.0
 11
1125.174486
 21
-4.802597
 31
0.0
  0
LINE
  5
2854
100
AcDbEntity
  8
V0-VYPLNE
100
AcDbLine
 10
1125.174486
 20
-4.802597
 30
0.0
 11
1087.235325
 21
-30.486874
 31
0.0
  0
LINE
  5
2855
100
AcDbEntity
  8
V0-VYPLNE
100
AcDbLine
 10
1087.235325
 20
-30.486874
 30
0.0
 11
1076.220733
 21
-79.409304
 31
0.0
  0
LINE
  5
2856
100
AcDbEntity
  8
V0-VYPLNE
100
AcDbLine
 10
1084.206312
 20
-43.940543
 30
0.0
 11
1076.220733
 21
-43.940543
 31
0.0
  0
LINE
  5
2857
100
AcDbEntity
  8
V0-VYPLNE
100
AcDbLine
 10
1076.220733
 20
-132.00092
 30
0.0
 11
1134.965234
 21
-97.755218
 31
0.0
  0
LINE
  5
2858
100
AcDbEntity
  8
V0-VYPLNE
100
AcDbLine
 10
1136.189083
 20
-155.239077
 30
0.0
 11
1076.220733
 21
-217.615177
 31
0.0
  0
LINE
  5
2859
100
AcDbEntity
  8
V0-VYPLNE
100
AcDbLine
 10
1076.220733
 20
-184.0
 30
0.0
 11
1076.220733
 21
-324.059457
 31
0.0
  0
LINE
  5
285A
100
AcDbEntity
  8
V0-VYPLNE
100
AcDbLine
 10
1136.189083
 20
-324.059457
 30
0.0
 11
1136.189083
 21
-184.0
 31
0.0
  0
LINE
  5
285B
100
AcDbEntity
  8
V0-VYPLNE
100
AcDbLine
 10
1086.011482
 20
-381.976612
 30
0.0
 11
1125.174486
 21
-381.976612
 31
0.0
  0
LINE
  5
285C
100
AcDbEntity
  8
V0-VYPLNE
100
AcDbLine
 10
1253.67809
 20
-324.059457
 30
0.0
 11
1130.701776
 21
-324.059457
 31
0.0
  0
LINE
  5
285D
100
AcDbEntity
  8
V0-VYPLNE
100
AcDbLine
 10
1078.828365
 20
-324.059457
 30
0.0
 11
1076.220733
 21
-324.059457
 31
0.0
  0
LINE
  5
285E
100
AcDbEntity
  8
V0-VYPLNE
100
AcDbLine
 10
1059.086918
 20
-311.770133
 30
0.0
 11
1076.220733
 21
-324.059457
 31
0.0
  0
LINE
  5
285F
100
AcDbEntity
  8
V0-VYPLNE
100
AcDbLine
 10
1059.086918
 20
-311.828849
 30
0.0
 11
1059.086918
 21
-184.0
 31
0.0
  0
LINE
  5
2860
100
AcDbEntity
  8
V0-VYPLNE
100
AcDbLine
 10
1076.220733
 20
-324.059457
 30
0.0
 11
1086.011482
 21
-381.976612
 31
0.0
  0
LINE
  5
2861
100
AcDbEntity
  8
V0-VYPLNE
100
AcDbLine
 10
1125.174486
 20
-381.976612
 30
0.0
 11
1136.189083
 21
-322.836398
 31
0.0
  0
LINE
  5
2862
100
AcDbEntity
  8
V0-VYPLNE
100
AcDbLine
 10
1136.189083
 20
-233.514966
 30
0.0
 11
1076.220733
 21
-278.768218
 31
0.0
  0
LINE
  5
2863
100
AcDbEntity
  8
V0-VYPLNE
100
AcDbLine
 10
1134.965234
 20
-299.560252
 30
0.0
 11
1125.174486
 21
-355.821049
 31
0.0
  0
LINE
  5
2864
100
AcDbEntity
  8
V0-VYPLNE
100
AcDbLine
 10
1125.174486
 20
-355.821049
 30
0.0
 11
1092.130705
 21
-374.166959
 31
0.0
  0
LINE
  5
2865
100
AcDbEntity
  8
V0-VYPLNE
100
AcDbLine
 10
1092.130705
 20
-374.166959
 30
0.0
 11
1076.220733
 21
-314.236979
 31
0.0
  0
LINE
  5
2866
100
AcDbEntity
  8
V0-VYPLNE
100
AcDbLine
 10
1076.220733
 20
-314.236979
 30
0.0
 11
1136.189083
 21
-298.33719
 31
0.0
  0
LINE
  5
2867
100
AcDbEntity
  8
V0-VYPLNE
100
AcDbLine
 10
1199.828958
 20
-43.940543
 30
0.0
 11
1199.828958
 21
-324.021467
 31
0.0
  0
LINE
  5
2868
100
AcDbEntity
  8
V0-VYPLNE
100
AcDbLine
 10
1262.536879
 20
-56.171152
 30
0.0
 11
1199.828958
 21
-56.171152
 31
0.0
  0
LINE
  5
2869
100
AcDbEntity
  8
V0-VYPLNE
100
AcDbLine
 10
1262.536879
 20
-70.847879
 30
0.0
 11
1199.828958
 21
-70.847879
 31
0.0
  0
LINE
  5
286A
100
AcDbEntity
  8
V0-VYPLNE
100
AcDbLine
 10
1262.536879
 20
-91.639914
 30
0.0
 11
1199.828958
 21
-91.639914
 31
0.0
  0
LINE
  5
286B
100
AcDbEntity
  8
V0-VYPLNE
100
AcDbLine
 10
1262.536879
 20
-123.439493
 30
0.0
 11
1199.828958
 21
-123.439493
 31
0.0
  0
LINE
  5
286C
100
AcDbEntity
  8
V0-VYPLNE
100
AcDbLine
 10
1262.536879
 20
-168.692746
 30
0.0
 11
1199.828958
 21
-168.692746
 31
0.0
  0
LINE
  5
286D
100
AcDbEntity
  8
V0-VYPLNE
100
AcDbLine
 10
1262.536879
 20
-199.307254
 30
0.0
 11
1199.828958
 21
-199.307254
 31
0.0
  0
LINE
  5
286E
100
AcDbEntity
  8
V0-VYPLNE
100
AcDbLine
 10
1262.536879
 20
-244.560507
 30
0.0
 11
1199.828958
 21
-244.560507
 31
0.0
  0
LINE
  5
286F
100
AcDbEntity
  8
V0-VYPLNE
100
AcDbLine
 10
1262.536879
 20
-276.360086
 30
0.0
 11
1199.828958
 21
-276.360086
 31
0.0
  0
LINE
  5
2870
100
AcDbEntity
  8
V0-VYPLNE
100
AcDbLine
 10
1262.536879
 20
-297.152121
 30
0.0
 11
1199.828958
 21
-297.152121
 31
0.0
  0
LINE
  5
2871
100
AcDbEntity
  8
V0-VYPLNE
100
AcDbLine
 10
1262.536879
 20
-311.828848
 30
0.0
 11
1199.828958
 21
-311.828848
 31
0.0
  0
LINE
  5
2872
100
AcDbEntity
  8
V0-VYPLNE
100
AcDbLine
 10
1224.305832
 20
-31.709934
 30
0.0
 11
1262.244989
 21
-31.709934
 31
0.0
  0
LINE
  5
2873
100
AcDbEntity
  8
V0-VYPLNE
100
AcDbLine
 10
1262.536879
 20
-23.127781
 30
0.0
 11
1223.081993
 21
-23.127781
 31
0.0
  0
LINE
  5
2874
100
AcDbEntity
  8
V0-VYPLNE
100
AcDbLine
 10
1223.081993
 20
-23.127781
 30
0.0
 11
1223.081993
 21
-44.0
 31
0.0
  0
LINE
  5
2875
100
AcDbEntity
  8
V0-OSY
 48
3.0
100
AcDbLine
 10
1007.212297
 20
-184.0
 30
0.0
 11
1438.336093
 21
-184.0
 31
0.0
  0
LINE
  5
2876
100
AcDbEntity
  8
V0-OSY
 48
3.0
100
AcDbLine
 10
1007.212297
 20
-740.27357
 30
0.0
 11
1438.336093
 21
-740.27357
 31
0.0
  0
LINE
  5
2877
100
AcDbEntity
  8
V0-VYPLNE
100
AcDbLine
 10
1253.67809
 20
-880.333027
 30
0.0
 11
1130.701776
 21
-880.333027
 31
0.0
  0
LINE
  5
2878
100
AcDbEntity
  8
V0-VYPLNE
100
AcDbLine
 10
1253.67809
 20
-600.214113
 30
0.0
 11
1133.371396
 21
-600.214113
 31
0.0
  0
LINE
  5
2879
100
AcDbEntity
  8
V0-OBRYS
100
AcDbLine
 10
1049.29617
 20
-540.445769
 30
0.0
 11
1254.610051
 21
-540.445769
 31
0.0
  0
LINE
  5
287A
100
AcDbEntity
  8
V0-OBRYS
100
AcDbLine
 10
1049.29617
 20
-940.101371
 30
0.0
 11
1254.610051
 21
-940.101371
 31
0.0
  0
LINE
  5
287B
100
AcDbEntity
  8
V0-VYPLNE
100
AcDbLine
 10
1125.174486
 20
-544.114949
 30
0.0
 11
1136.189083
 21
-601.437172
 31
0.0
  0
LINE
  5
287C
100
AcDbEntity
  8
V0-VYPLNE
100
AcDbLine
 10
1076.220733
 20
-600.214113
 30
0.0
 11
1086.011482
 21
-544.114949
 31
0.0
  0
LINE
  5
287D
100
AcDbEntity
  8
V0-OBRYS
100
AcDbLine
 10
1049.29617
 20
-498.27357
 30
0.0
 11
1049.29617
 21
-940.101371
 31
0.0
  0
LINE
  5
287E
100
AcDbEntity
  8
V0-OBRYS
100
AcDbLine
 10
1041.953111
 20
-498.27357
 30
0.0
 11
1041.953111
 21
-740.27357
 31
0.0
  0
LINE
  5
287F
100
AcDbEntity
  8
V0-VYPLNE
100
AcDbLine
 10
1136.189083
 20
-789.788537
 30
0.0
 11
1076.220733
 21
-835.041788
 31
0.0
  0
LINE
  5
2880
100
AcDbEntity
  8
V0-VYPLNE
100
AcDbLine
 10
1059.086918
 20
-868.102419
 30
0.0
 11
1059.086918
 21
-740.27357
 31
0.0
  0
LINE
  5
2881
100
AcDbEntity
  8
V0-VYPLNE
100
AcDbLine
 10
1136.189083
 20
-880.333027
 30
0.0
 11
1136.189083
 21
-740.27357
 31
0.0
  0
LINE
  5
2882
100
AcDbEntity
  8
V0-VYPLNE
100
AcDbLine
 10
1076.220733
 20
-740.27357
 30
0.0
 11
1076.220733
 21
-880.333027
 31
0.0
  0
LINE
  5
2883
100
AcDbEntity
  8
V0-OBRYS
100
AcDbLine
 10
1041.953111
 20
-974.77357
 30
0.0
 11
1041.953111
 21
-740.27357
 31
0.0
  0
LINE
  5
2884
100
AcDbEntity
  8
V0-VYPLNE
100
AcDbLine
 10
1092.130705
 20
-930.440529
 30
0.0
 11
1076.220733
 21
-870.51055
 31
0.0
  0
LINE
  5
2885
100
AcDbEntity
  8
V0-VYPLNE
100
AcDbLine
 10
1125.174486
 20
-912.094619
 30
0.0
 11
1092.130705
 21
-930.440529
 31
0.0
  0
LINE
  5
2886
100
AcDbEntity
  8
V0-VYPLNE
100
AcDbLine
 10
1125.174486
 20
-936.432192
 30
0.0
 11
1136.189083
 21
-879.109968
 31
0.0
  0
LINE
  5
2887
100
AcDbEntity
  8
V0-VYPLNE
100
AcDbLine
 10
1076.220733
 20
-880.333027
 30
0.0
 11
1086.011482
 21
-936.432192
 31
0.0
  0
LINE
  5
2888
100
AcDbEntity
  8
V0-OBRYS
100
AcDbLine
 10
1049.29617
 20
-974.77357
 30
0.0
 11
1049.29617
 21
-940.101371
 31
0.0
  0
LINE
  5
2889
100
AcDbEntity
  8
V0-OBRYS
100
AcDbLine
 10
1041.953111
 20
-974.77357
 30
0.0
 11
1049.29617
 21
-974.77357
 31
0.0
  0
LINE
  5
288A
100
AcDbEntity
  8
V0-OBRYS
100
AcDbLine
 10
1041.953111
 20
-974.77357
 30
0.0
 11
1049.29617
 21
-974.77357
 31
0.0
  0
LINE
  5
288B
100
AcDbEntity
  8
V0-VYPLNE
100
AcDbLine
 10
1086.011482
 20
-936.432192
 30
0.0
 11
1125.174486
 21
-936.432192
 31
0.0
  0
LINE
  5
288C
100
AcDbEntity
  8
V0-VYPLNE
100
AcDbLine
 10
1076.220733
 20
-870.51055
 30
0.0
 11
1136.189083
 21
-854.61076
 31
0.0
  0
LINE
  5
288D
100
AcDbEntity
  8
V0-VYPLNE
100
AcDbLine
 10
1059.086918
 20
-868.043703
 30
0.0
 11
1076.220733
 21
-880.333027
 31
0.0
  0
LINE
  5
288E
100
AcDbEntity
  8
V0-VYPLNE
100
AcDbLine
 10
1078.828365
 20
-880.333027
 30
0.0
 11
1076.220733
 21
-880.333027
 31
0.0
  0
LINE
  5
288F
100
AcDbEntity
  8
V0-VYPLNE
100
AcDbLine
 10
1134.965234
 20
-855.833822
 30
0.0
 11
1125.174486
 21
-912.094619
 31
0.0
  0
LINE
  5
2890
100
AcDbEntity
  8
V0-VYPLNE
100
AcDbLine
 10
1076.220733
 20
-688.27449
 30
0.0
 11
1134.965234
 21
-654.028788
 31
0.0
  0
LINE
  5
2891
100
AcDbEntity
  8
V0-VYPLNE
100
AcDbLine
 10
1076.220733
 20
-740.27357
 30
0.0
 11
1076.220733
 21
-600.214113
 31
0.0
  0
LINE
  5
2892
100
AcDbEntity
  8
V0-VYPLNE
100
AcDbLine
 10
1136.189083
 20
-600.214113
 30
0.0
 11
1136.189083
 21
-740.27357
 31
0.0
  0
LINE
  5
2893
100
AcDbEntity
  8
V0-VYPLNE
100
AcDbLine
 10
1059.086918
 20
-612.444721
 30
0.0
 11
1059.086918
 21
-740.27357
 31
0.0
  0
LINE
  5
2894
100
AcDbEntity
  8
V0-VYPLNE
100
AcDbLine
 10
1136.189083
 20
-711.512647
 30
0.0
 11
1076.220733
 21
-773.888747
 31
0.0
  0
LINE
  5
2895
100
AcDbEntity
  8
V0-VYPLNE
100
AcDbLine
 10
1076.220733
 20
-633.494238
 30
0.0
 11
1136.189083
 21
-613.66778
 31
0.0
  0
LINE
  5
2896
100
AcDbEntity
  8
V0-VYPLNE
100
AcDbLine
 10
1084.206312
 20
-600.214113
 30
0.0
 11
1076.220733
 21
-600.214113
 31
0.0
  0
LINE
  5
2897
100
AcDbEntity
  8
V0-VYPLNE
100
AcDbLine
 10
1087.235325
 20
-586.760444
 30
0.0
 11
1076.220733
 21
-635.682875
 31
0.0
  0
LINE
  5
2898
100
AcDbEntity
  8
V0-VYPLNE
100
AcDbLine
 10
1059.086918
 20
-612.503437
 30
0.0
 11
1076.220733
 21
-600.214113
 31
0.0
  0
LINE
  5
2899
100
AcDbEntity
  8
V0-VYPLNE
100
AcDbLine
 10
1136.189083
 20
-613.66778
 30
0.0
 11
1125.174486
 21
-561.076167
 31
0.0
  0
LINE
  5
289A
100
AcDbEntity
  8
V0-VYPLNE
100
AcDbLine
 10
1125.174486
 20
-561.076167
 30
0.0
 11
1087.235325
 21
-586.760444
 31
0.0
  0
LINE
  5
289B
100
AcDbEntity
  8
V0-OBRYS
100
AcDbLine
 10
1041.953111
 20
-498.27357
 30
0.0
 11
1049.29617
 21
-498.27357
 31
0.0
  0
LINE
  5
289C
100
AcDbEntity
  8
V0-OBRYS
100
AcDbLine
 10
1041.953111
 20
-498.27357
 30
0.0
 11
1049.29617
 21
-498.27357
 31
0.0
  0
LINE
  5
289D
100
AcDbEntity
  8
V0-VYPLNE
100
AcDbLine
 10
1086.011482
 20
-544.114949
 30
0.0
 11
1125.174486
 21
-544.114949
 31
0.0
  0
LINE
  5
289E
100
AcDbEntity
  8
V0-OBRYS
100
AcDbLine
 10
1254.610051
 20
-498.27357
 30
0.0
 11
1254.610051
 21
-940.101371
 31
0.0
  0
LINE
  5
289F
100
AcDbEntity
  8
V0-OBRYS
100
AcDbLine
 10
1261.953111
 20
-498.27357
 30
0.0
 11
1261.953111
 21
-740.27357
 31
0.0
  0
LINE
  5
28A0
100
AcDbEntity
  8
V0-VYPLNE
100
AcDbLine
 10
1199.828958
 20
-600.214113
 30
0.0
 11
1199.828958
 21
-880.295037
 31
0.0
  0
LINE
  5
28A1
100
AcDbEntity
  8
V0-OBRYS
100
AcDbLine
 10
1341.794844
 20
-880.27357
 30
0.0
 11
1341.794844
 21
-740.27357
 31
0.0
  0
ARC
  5
28A2
100
AcDbEntity
  8
V0-OBRYS
100
AcDbCircle
 10
873.35184
 20
-758.304073
 30
0.0
 40
495.929146
100
AcDbArc
 50
347.148638
 51
2.083563
  0
LINE
  5
28A3
100
AcDbEntity
  8
V0-OBRYS
100
AcDbLine
 10
1312.422592
 20
-880.27357
 30
0.0
 11
1312.422592
 21
-740.27357
 31
0.0
  0
LINE
  5
28A4
100
AcDbEntity
  8
V0-OBRYS
100
AcDbLine
 10
1261.953111
 20
-974.77357
 30
0.0
 11
1261.953111
 21
-740.27357
 31
0.0
  0
ARC
  5
28A5
100
AcDbEntity
  8
V0-OBRYS
100
AcDbCircle
 10
1342.233883
 20
-865.27357
 30
0.0
 40
15.0
100
AcDbArc
 50
270.0
 51
347.148638
  0
LINE
  5
28A6
100
AcDbEntity
  8
V0-OBRYS
100
AcDbLine
 10
1254.610051
 20
-974.77357
 30
0.0
 11
1254.610051
 21
-940.101371
 31
0.0
  0
LINE
  5
28A7
100
AcDbEntity
  8
V0-OBRYS
100
AcDbLine
 10
1254.610051
 20
-974.77357
 30
0.0
 11
1261.953111
 21
-974.77357
 31
0.0
  0
LINE
  5
28A8
100
AcDbEntity
  8
V0-OBRYS
100
AcDbLine
 10
1254.610051
 20
-974.77357
 30
0.0
 11
1261.953111
 21
-974.77357
 31
0.0
  0
LINE
  5
28A9
100
AcDbEntity
  8
V0-OBRYS
100
AcDbLine
 10
1261.953111
 20
-880.27357
 30
0.0
 11
1342.233883
 21
-880.27357
 31
0.0
  0
LINE
  5
28AA
100
AcDbEntity
  8
V0-OBRYS
100
AcDbLine
 10
1261.953111
 20
-868.102418
 30
0.0
 11
1312.422592
 21
-868.102418
 31
0.0
  0
LINE
  5
28AB
100
AcDbEntity
  8
V0-OBRYS
100
AcDbLine
 10
1261.953111
 20
-853.425691
 30
0.0
 11
1312.422592
 21
-853.425691
 31
0.0
  0
LINE
  5
28AC
100
AcDbEntity
  8
V0-OBRYS
100
AcDbLine
 10
1261.953111
 20
-832.633656
 30
0.0
 11
1312.422592
 21
-832.633656
 31
0.0
  0
LINE
  5
28AD
100
AcDbEntity
  8
V0-OBRYS
100
AcDbLine
 10
1261.953111
 20
-800.834077
 30
0.0
 11
1312.422592
 21
-800.834077
 31
0.0
  0
LINE
  5
28AE
100
AcDbEntity
  8
V0-VYPLNE
100
AcDbLine
 10
1262.536879
 20
-868.102418
 30
0.0
 11
1199.828958
 21
-868.102418
 31
0.0
  0
LINE
  5
28AF
100
AcDbEntity
  8
V0-VYPLNE
100
AcDbLine
 10
1262.536879
 20
-853.425691
 30
0.0
 11
1199.828958
 21
-853.425691
 31
0.0
  0
LINE
  5
28B0
100
AcDbEntity
  8
V0-VYPLNE
100
AcDbLine
 10
1262.536879
 20
-832.633656
 30
0.0
 11
1199.828958
 21
-832.633656
 31
0.0
  0
LINE
  5
28B1
100
AcDbEntity
  8
V0-VYPLNE
100
AcDbLine
 10
1262.536879
 20
-800.834077
 30
0.0
 11
1199.828958
 21
-800.834077
 31
0.0
  0
ARC
  5
28B2
100
AcDbEntity
  8
V0-OBRYS
100
AcDbCircle
 10
1342.233883
 20
-615.27357
 30
0.0
 40
15.0
100
AcDbArc
 50
12.851362
 51
90.0
  0
ARC
  5
28B3
100
AcDbEntity
  8
V0-OBRYS
100
AcDbCircle
 10
873.35184
 20
-722.243068
 30
0.0
 40
495.929146
100
AcDbArc
 50
357.916437
 51
12.851362
  0
LINE
  5
28B4
100
AcDbEntity
  8
V0-OBRYS
100
AcDbLine
 10
1312.422592
 20
-600.27357
 30
0.0
 11
1312.422592
 21
-740.27357
 31
0.0
  0
LINE
  5
28B5
100
AcDbEntity
  8
V0-OBRYS
100
AcDbLine
 10
1341.794844
 20
-600.27357
 30
0.0
 11
1341.794844
 21
-740.27357
 31
0.0
  0
LINE
  5
28B6
100
AcDbEntity
  8
V0-OBRYS
100
AcDbLine
 10
1301.402831
 20
-755.580824
 30
0.0
 11
1312.422592
 21
-755.580824
 31
0.0
  0
LINE
  5
28B7
100
AcDbEntity
  8
V0-OBRYS
100
AcDbLine
 10
1301.407996
 20
-724.966316
 30
0.0
 11
1312.422592
 21
-724.966316
 31
0.0
  0
LINE
  5
28B8
100
AcDbEntity
  8
V0-OBRYS
100
AcDbLine
 10
1261.953111
 20
-679.713063
 30
0.0
 11
1312.422592
 21
-679.713063
 31
0.0
  0
LINE
  5
28B9
100
AcDbEntity
  8
V0-VYPLNE
100
AcDbLine
 10
1223.076824
 20
-755.580824
 30
0.0
 11
1199.828958
 21
-755.580824
 31
0.0
  0
LINE
  5
28BA
100
AcDbEntity
  8
V0-VYPLNE
100
AcDbLine
 10
1223.081993
 20
-724.966316
 30
0.0
 11
1199.828958
 21
-724.966316
 31
0.0
  0
LINE
  5
28BB
100
AcDbEntity
  8
V0-VYPLNE
100
AcDbLine
 10
1262.536879
 20
-679.713063
 30
0.0
 11
1199.828958
 21
-679.713063
 31
0.0
  0
LINE
  5
28BE
100
AcDbEntity
  8
V0-OBRYS
100
AcDbLine
 10
1261.953111
 20
-647.913484
 30
0.0
 11
1312.422592
 21
-647.913484
 31
0.0
  0
LINE
  5
28BF
100
AcDbEntity
  8
V0-OBRYS
100
AcDbLine
 10
1261.953111
 20
-627.121449
 30
0.0
 11
1312.422592
 21
-627.121449
 31
0.0
  0
LINE
  5
28C0
100
AcDbEntity
  8
V0-OBRYS
100
AcDbLine
 10
1261.953111
 20
-612.444722
 30
0.0
 11
1312.422592
 21
-612.444722
 31
0.0
  0
LINE
  5
28C1
100
AcDbEntity
  8
V0-OBRYS
100
AcDbLine
 10
1261.953111
 20
-600.27357
 30
0.0
 11
1342.233883
 21
-600.27357
 31
0.0
  0
LINE
  5
28C2
100
AcDbEntity
  8
V0-VYPLNE
100
AcDbLine
 10
1262.536879
 20
-647.913484
 30
0.0
 11
1199.828958
 21
-647.913484
 31
0.0
  0
LINE
  5
28C3
100
AcDbEntity
  8
V0-VYPLNE
100
AcDbLine
 10
1262.536879
 20
-627.121449
 30
0.0
 11
1199.828958
 21
-627.121449
 31
0.0
  0
LINE
  5
28C4
100
AcDbEntity
  8
V0-VYPLNE
100
AcDbLine
 10
1262.536879
 20
-612.444722
 30
0.0
 11
1199.828958
 21
-612.444722
 31
0.0
  0
LINE
  5
28C9
100
AcDbEntity
  8
V0-OBRYS
100
AcDbLine
 10
1254.610051
 20
-498.27357
 30
0.0
 11
1261.953111
 21
-498.27357
 31
0.0
  0
LINE
  5
28CA
100
AcDbEntity
  8
V0-OBRYS
100
AcDbLine
 10
1254.610051
 20
-498.27357
 30
0.0
 11
1261.953111
 21
-498.27357
 31
0.0
  0
LINE
  5
28D2
100
AcDbEntity
  8
V0-OBRYS
100
AcDbLine
 10
1261.953111
 20
-709.731806
 30
0.0
 11
1301.407996
 21
-709.731806
 31
0.0
  0
LINE
  5
28D4
100
AcDbEntity
  8
V0-VYPLNE
100
AcDbLine
 10
1262.536879
 20
-709.731806
 30
0.0
 11
1223.081993
 21
-709.731806
 31
0.0
  0
LINE
  5
28D5
100
AcDbEntity
  8
V0-VYPLNE
100
AcDbLine
 10
1223.081993
 20
-709.731806
 30
0.0
 11
1223.081993
 21
-740.27357
 31
0.0
  0
LINE
  5
28D6
100
AcDbEntity
  8
V0-OBRYS
100
AcDbLine
 10
1301.407996
 20
-709.731806
 30
0.0
 11
1301.407996
 21
-740.27357
 31
0.0
  0
LINE
  5
28DB
100
AcDbEntity
  8
V0-VYPLNE
100
AcDbLine
 10
1223.081993
 20
-770.815334
 30
0.0
 11
1223.081993
 21
-740.27357
 31
0.0
  0
LINE
  5
28DC
100
AcDbEntity
  8
V0-VYPLNE
100
AcDbLine
 10
1262.536879
 20
-770.815334
 30
0.0
 11
1223.081993
 21
-770.815334
 31
0.0
  0
LINE
  5
28DD
100
AcDbEntity
  8
V0-OBRYS
100
AcDbLine
 10
1261.953111
 20
-770.815334
 30
0.0
 11
1301.407996
 21
-770.815334
 31
0.0
  0
LINE
  5
28DE
100
AcDbEntity
  8
V0-OBRYS
100
AcDbLine
 10
1301.407996
 20
-770.815334
 30
0.0
 11
1301.407996
 21
-740.27357
 31
0.0
  0
DIMENSION
  5
28EB
100
AcDbEntity
  8
V0-KOTY
100
AcDbDimension
  2
*D4
 10
915.40747
 20
-426.0
 30
0.0
 11
915.40747
 21
-184.0
 31
0.0
 70
   160
  1
%%c484
  3
ED30
100
AcDbAlignedDimension
 13
1041.953111
 23
58.0
 33
0.0
 14
1041.953111
 24
-426.0
 34
0.0
 50
90.0
100
AcDbRotatedDimension
1001
ACAD
1000
DSTYLE
1002
{
1070
    40
1040
1.0
1070
   178
1070
   256
1070
   177
1070
   256
1070
   176
1070
   256
1002
}
  0
LINE
  5
2906
100
AcDbEntity
  8
V0-OBRYS
100
AcDbLine
 10
1049.29617
 20
-384.0
 30
0.0
 11
1254.610051
 21
-384.0
 31
0.0
  0
DIMENSION
  5
2913
100
AcDbEntity
  8
V0-KOTY
100
AcDbDimension
  2
*D5
 10
986.324258
 20
-384.0
 30
0.0
 11
969.324258
 21
-184.0
 31
0.0
 70
    32
  1
%%c400
  3
ED30
100
AcDbAlignedDimension
 13
1049.29617
 23
16.0
 33
0.0
 14
1049.29617
 24
-384.0
 34
0.0
 50
90.0
100
AcDbRotatedDimension
1001
ACAD
1000
DSTYLE
1002
{
1070
    40
1040
1.0
1070
   178
1070
   256
1070
   177
1070
   256
1070
   176
1070
   256
1002
}
  0
DIMENSION
  5
2950
100
AcDbEntity
  8
V0-KOTY
100
AcDbDimension
  2
*D6
 10
1368.953111
 20
180.538582
 30
0.0
 11
1205.453111
 21
180.538582
 31
0.0
 70
   160
  3
ED30
100
AcDbAlignedDimension
 13
1041.953111
 23
58.0
 33
0.0
 14
1368.953111
 24
-184.0
 34
0.0
100
AcDbRotatedDimension
1001
ACAD
1000
DSTYLE
1002
{
1070
    40
1040
1.0
1070
   178
1070
   256
1070
   177
1070
   256
1070
   176
1070
   256
1002
}
  0
DIMENSION
  5
295D
100
AcDbEntity
  8
V0-KOTY
100
AcDbDimension
  2
*D7
 10
1261.953111
 20
115.417038
 30
0.0
 11
1163.616231
 21
115.417038
 31
0.0
 70
   160
  3
ED30
100
AcDbAlignedDimension
 13
1041.953111
 23
58.0
 33
0.0
 14
1261.953111
 24
58.0
 34
0.0
100
AcDbRotatedDimension
1001
ACAD
1000
DSTYLE
1002
{
1070
    40
1040
1.0
1070
   178
1070
   256
1070
   177
1070
   256
1070
   176
1070
   256
1002
}
  0
DIMENSION
  5
29D8
100
AcDbEntity
  8
V0-KOTY
100
AcDbDimension
  2
*D8
 10
2196.341959
 20
-408.944444
 30
0.0
 11
2179.341959
 21
-184.0
 31
0.0
 70
    32
  1
%%c450
  3
ED30
100
AcDbAlignedDimension
 13
1843.997461
 23
40.944444
 33
0.0
 14
1843.997461
 24
-408.944444
 34
0.0
 50
90.0
100
AcDbRotatedDimension
  0
TEXT
  5
2A0A
100
AcDbEntity
  8
V0-KOTY
100
AcDbText
 10
1416.460395
 20
-425.371574
 30
0.0
 40
30.0
  1
%%
  7
ED30
100
AcDbText
  0
TEXT
  5
2A0C
100
AcDbEntity
  8
V0-KOTY
100
AcDbText
 10
1504.700174
 20
-428.862207
 30
0.0
 40
30.0
  1
8 x 
  7
ED30
100
AcDbText
  0
TEXT
  5
2A0D
100
AcDbEntity
  8
V0-KOTY
100
AcDbText
 10
1570.700174
 20
-428.862207
 30
0.0
 40
30.0
  1
\U+2205
  7
ED30
100
AcDbText
  0
TEXT
  5
2A0E
100
AcDbEntity
  8
V0-KOTY
100
AcDbText
 10
1597.700174
 20
-428.862207
 30
0.0
 40
30.0
  1
10
  7
ED30
100
AcDbText
  0
INSERT
  5
2A0F
100
AcDbEntity
  8
V0-KOTY
100
AcDbBlockReference
  2
_OPEN
 10
1689.898127
 20
-343.099026
 30
0.0
 41
25.0
 42
25.0
 43
25.0
 50
60.084971
  0
LINE
  5
2A11
100
AcDbEntity
  8
V0-KOTY
100
AcDbLine
 10
1677.430249
 20
-364.768175
 30
0.0
 11
1635.656098
 21
-437.371574
 31
0.0
  0
LINE
  5
2A13
100
AcDbEntity
  8
V0-KOTY
100
AcDbLine
 10
1635.656098
 20
-437.371574
 30
0.0
 11
1491.606371
 21
-437.371574
 31
0.0
  0
VIEWPORT
  5
22
100
AcDbEntity
 67
     1
  8
0
100
AcDbViewport
 10
261.517699
 20
148.5
 30
0.0
 40
523.035398
 41
297.0
 68
    -1
 69
     1
1001
ACAD
1000
MVIEW
1002
{
1070
    16
1010
0.0
1020
0.0
1030
0.0
1010
0.0
1020
0.0
1030
1.0
1040
0.0
1040
297.0
1040
261.517699
1040
148.5
1040
50.0
1040
0.0
1040
0.0
1070
     0
1070
   100
1070
     1
1070
     1
1070
     0
1070
     0
1070
     0
1070
     0
1040
0.0
1040
0.0
1040
0.0
1040
1.0
1040
1.0
1040
10.0
1040
10.0
1070
     0
1002
{
1002
}
1002
}
  0
ENDSEC
  0
SECTION
  2
OBJECTS
  0
DICTIONARY
  5
C
100
AcDbDictionary
  3
ACAD_GROUP
350
D
  3
ACAD_MLINESTYLE
350
E
  3
ACDBVARIABLEDICTIONARY
350
5D
  0
DICTIONARY
  5
D
102
{ACAD_REACTORS
330
C
102
}
100
AcDbDictionary
  0
DICTIONARY
  5
E
102
{ACAD_REACTORS
330
C
102
}
100
AcDbDictionary
  3
STANDARD
350
13
  0
DICTIONARY
  5
5D
102
{ACAD_REACTORS
330
C
102
}
100
AcDbDictionary
  3
DIMADEC
350
5E
  3
SORTENTS
350
3D8
  0
MLINESTYLE
  5
13
102
{ACAD_REACTORS
330
E
102
}
100
AcDbMlineStyle
  2
STANDARD
 70
     0
  3

 62
     0
 51
90.0
 52
90.0
 71
     2
 49
0.5
 62
   256
  6
BYLAYER
 49
-0.5
 62
   256
  6
BYLAYER
  0
DICTIONARYVAR
  5
5E
102
{ACAD_REACTORS
330
5D
102
}
100
DictionaryVariables
280
     0
  1
0
  0
DICTIONARYVAR
  5
3D8
102
{ACAD_REACTORS
330
5D
102
}
100
DictionaryVariables
280
     0
  1
96
  0
ENDSEC
  0
EOF
