  0
SECTION
  2
HEADER
  9
$ACADVER
  1
AC1014
  9
$ACADMAINTVER
 70
     0
  9
$DWGCODEPAGE
  3
ANSI_1250
  9
$INSBASE
 10
0.0
 20
0.0
 30
0.0
  9
$EXTMIN
 10
-101.352153
 20
-462.484061
 30
0.0
  9
$EXTMAX
 10
290.769695
 20
13.877165
 30
0.0
  9
$LIMMIN
 10
-1040.805314
 20
-347.068924
  9
$LIMMAX
 10
643.686187
 20
495.293187
  9
$ORTHOMODE
 70
     0
  9
$REGENMODE
 70
     1
  9
$FILLMODE
 70
     1
  9
$QTEXTMODE
 70
     0
  9
$MIRRTEXT
 70
     1
  9
$DRAGMODE
 70
     2
  9
$LTSCALE
 40
5.0
  9
$OSMODE
 70
  1023
  9
$ATTMODE
 70
     1
  9
$TEXTSIZE
 40
15.0
  9
$TRACEWID
 40
1.0
  9
$TEXTSTYLE
  7
STANDARD
  9
$CLAYER
  8
0
  9
$CELTYPE
  6
BYLAYER
  9
$CECOLOR
 62
   256
  9
$CELTSCALE
 40
5.0
  9
$DELOBJ
 70
     1
  9
$DISPSILH
 70
     0
  9
$DIMSCALE
 40
5.0
  9
$DIMASZ
 40
3.5
  9
$DIMEXO
 40
0.0625
  9
$DIMDLI
 40
0.38
  9
$DIMRND
 40
0.0
  9
$DIMDLE
 40
0.0
  9
$DIMEXE
 40
0.18
  9
$DIMTP
 40
0.0
  9
$DIMTM
 40
0.0
  9
$DIMTXT
 40
3.5
  9
$DIMCEN
 40
0.0
  9
$DIMTSZ
 40
0.0
  9
$DIMTOL
 70
     0
  9
$DIMLIM
 70
     0
  9
$DIMTIH
 70
     0
  9
$DIMTOH
 70
     0
  9
$DIMSE1
 70
     0
  9
$DIMSE2
 70
     0
  9
$DIMTAD
 70
     1
  9
$DIMZIN
 70
     0
  9
$DIMBLK
  1

  9
$DIMASO
 70
     1
  9
$DIMSHO
 70
     1
  9
$DIMPOST
  1

  9
$DIMAPOST
  1

  9
$DIMALT
 70
     0
  9
$DIMALTD
 70
     2
  9
$DIMALTF
 40
25.4
  9
$DIMLFAC
 40
1.0
  9
$DIMTOFL
 70
     0
  9
$DIMTVP
 40
0.0
  9
$DIMTIX
 70
     0
  9
$DIMSOXD
 70
     0
  9
$DIMSAH
 70
     1
  9
$DIMBLK1
  1
_OPEN
  9
$DIMBLK2
  1
_OPEN
  9
$DIMSTYLE
  2
STANDARD
  9
$DIMCLRD
 70
     0
  9
$DIMCLRE
 70
     0
  9
$DIMCLRT
 70
     0
  9
$DIMTFAC
 40
1.0
  9
$DIMGAP
 40
0.625
  9
$DIMJUST
 70
     0
  9
$DIMSD1
 70
     0
  9
$DIMSD2
 70
     0
  9
$DIMTOLJ
 70
     1
  9
$DIMTZIN
 70
     0
  9
$DIMALTZ
 70
     0
  9
$DIMALTTZ
 70
     0
  9
$DIMFIT
 70
     0
  9
$DIMUPT
 70
     0
  9
$DIMUNIT
 70
     2
  9
$DIMDEC
 70
     0
  9
$DIMTDEC
 70
     4
  9
$DIMALTU
 70
     2
  9
$DIMALTTD
 70
     2
  9
$DIMTXSTY
  7
STANDARD
  9
$DIMAUNIT
 70
     0
  9
$LUNITS
 70
     2
  9
$LUPREC
 70
     4
  9
$SKETCHINC
 40
1.0
  9
$FILLETRAD
 40
10.0
  9
$AUNITS
 70
     0
  9
$AUPREC
 70
     0
  9
$MENU
  1
.
  9
$ELEVATION
 40
0.0
  9
$PELEVATION
 40
0.0
  9
$THICKNESS
 40
0.0
  9
$LIMCHECK
 70
     0
  9
$BLIPMODE
 70
     1
  9
$CHAMFERA
 40
10.0
  9
$CHAMFERB
 40
10.0
  9
$CHAMFERC
 40
20.0
  9
$CHAMFERD
 40
0.0
  9
$SKPOLY
 70
     0
  9
$TDCREATE
 40
2450763.421427893
  9
$TDUPDATE
 40
2453313.409058136
  9
$TDINDWG
 40
1.1648790509
  9
$TDUSRTIMER
 40
1.1648790509
  9
$USRTIMER
 70
     1
  9
$ANGBASE
 50
0.0
  9
$ANGDIR
 70
     0
  9
$PDMODE
 70
     3
  9
$PDSIZE
 40
0.0
  9
$PLINEWID
 40
0.0
  9
$COORDS
 70
     2
  9
$SPLFRAME
 70
     0
  9
$SPLINETYPE
 70
     6
  9
$SPLINESEGS
 70
     8
  9
$ATTDIA
 70
     0
  9
$ATTREQ
 70
     1
  9
$HANDLING
 70
     1
  9
$HANDSEED
  5
2112
  9
$SURFTAB1
 70
     6
  9
$SURFTAB2
 70
     6
  9
$SURFTYPE
 70
     6
  9
$SURFU
 70
     6
  9
$SURFV
 70
     6
  9
$UCSNAME
  2

  9
$UCSORG
 10
-50.00000000000003
 20
-100.0
 30
0.0
  9
$UCSXDIR
 10
1.0
 20
0.0
 30
0.0
  9
$UCSYDIR
 10
0.0
 20
1.0
 30
0.0
  9
$PUCSNAME
  2

  9
$PUCSORG
 10
0.0
 20
0.0
 30
0.0
  9
$PUCSXDIR
 10
1.0
 20
0.0
 30
0.0
  9
$PUCSYDIR
 10
0.0
 20
1.0
 30
0.0
  9
$USERI1
 70
     0
  9
$USERI2
 70
     0
  9
$USERI3
 70
     0
  9
$USERI4
 70
     0
  9
$USERI5
 70
     0
  9
$USERR1
 40
0.0
  9
$USERR2
 40
0.0
  9
$USERR3
 40
0.0
  9
$USERR4
 40
0.0
  9
$USERR5
 40
0.0
  9
$WORLDVIEW
 70
     1
  9
$SHADEDGE
 70
     3
  9
$SHADEDIF
 70
    70
  9
$TILEMODE
 70
     1
  9
$MAXACTVP
 70
    16
  9
$PINSBASE
 10
0.0
 20
0.0
 30
0.0
  9
$PLIMCHECK
 70
     0
  9
$PEXTMIN
 10
1.000000E+20
 20
1.000000E+20
 30
1.000000E+20
  9
$PEXTMAX
 10
-1.000000E+20
 20
-1.000000E+20
 30
-1.000000E+20
  9
$PLIMMIN
 10
0.0
 20
0.0
  9
$PLIMMAX
 10
420.0
 20
297.0
  9
$UNITMODE
 70
     0
  9
$VISRETAIN
 70
     0
  9
$PLINEGEN
 70
     0
  9
$PSLTSCALE
 70
     0
  9
$TREEDEPTH
 70
  3020
  9
$PICKSTYLE
 70
     1
  9
$CMLSTYLE
  2
STANDARD
  9
$CMLJUST
 70
     1
  9
$CMLSCALE
 40
5.0
  9
$PROXYGRAPHICS
 70
     1
  9
$MEASUREMENT
 70
     1
  0
ENDSEC
  0
SECTION
  2
CLASSES
  0
CLASS
  1
LWPOLYLINE
  2
AcDbPolyline
  3
"AutoCAD"
 90
        0
280
     0
281
     1
  0
CLASS
  1
DICTIONARYVAR
  2
AcDbDictionaryVar
  3
"AutoCAD"
 90
        0
280
     0
281
     0
  0
CLASS
  1
HATCH
  2
AcDbHatch
  3
"ACAD_SEDONA"
 90
        0
280
     0
281
     1
  0
ENDSEC
  0
SECTION
  2
TABLES
  0
TABLE
  2
VPORT
  5
8
100
AcDbSymbolTable
 70
     2
  0
VPORT
  5
2111
100
AcDbSymbolTableRecord
100
AcDbViewportTableRecord
  2
*ACTIVE
 70
     0
 10
0.0
 20
0.0
 11
1.0
 21
1.0
 12
128.800609
 22
-179.673965
 13
0.0
 23
0.0
 14
10.0
 24
10.0
 15
50.0
 25
50.0
 16
0.0
 26
0.0
 36
1.0
 17
0.0
 27
0.0
 37
0.0
 40
578.835494
 41
1.523346
 42
50.0
 43
0.0
 44
0.0
 50
0.0
 51
0.0
 71
     0
 72
   100
 73
     1
 74
     0
 75
     0
 76
     0
 77
     0
 78
     0
  0
ENDTAB
  0
TABLE
  2
LTYPE
  5
5
100
AcDbSymbolTable
 70
     4
  0
LTYPE
  5
14
100
AcDbSymbolTableRecord
100
AcDbLinetypeTableRecord
  2
BYBLOCK
 70
     0
  3

 72
    65
 73
     0
 40
0.0
  0
LTYPE
  5
15
100
AcDbSymbolTableRecord
100
AcDbLinetypeTableRecord
  2
BYLAYER
 70
     0
  3

 72
    65
 73
     0
 40
0.0
  0
LTYPE
  5
16
100
AcDbSymbolTableRecord
100
AcDbLinetypeTableRecord
  2
CONTINUOUS
 70
     0
  3
Solid line
 72
    65
 73
     0
 40
0.0
  0
LTYPE
  5
1D7
100
AcDbSymbolTableRecord
100
AcDbLinetypeTableRecord
  2
DASHED
 70
     0
  3
__ __ __ __ __ __ __ __ __ __ __ __ __ __ __ __
 72
    65
 73
     2
 40
0.75
 49
0.5
 74
     0
 49
-0.25
 74
     0
  0
LTYPE
  5
492
100
AcDbSymbolTableRecord
100
AcDbLinetypeTableRecord
  2
DASHDOT
 70
     0
  3
__ . __ . __ . __ . __ . __ . __ . __ . __ . __
 72
    65
 73
     4
 40
1.0
 49
0.5
 74
     0
 49
-0.25
 74
     0
 49
0.0
 74
     0
 49
-0.25
 74
     0
  0
LTYPE
  5
2085
100
AcDbSymbolTableRecord
100
AcDbLinetypeTableRecord
  2
DOT
 70
     0
  3
Dot . . . . . . . . . . . . . . . . . . . . . .
 72
    65
 73
     2
 40
6.35
 49
0.0
 74
     0
 49
-6.35
 74
     0
  0
ENDTAB
  0
TABLE
  2
LAYER
  5
2
100
AcDbSymbolTable
 70
     6
  0
LAYER
  5
F
100
AcDbSymbolTableRecord
100
AcDbLayerTableRecord
  2
0
 70
     0
 62
     7
  6
CONTINUOUS
  0
LAYER
  5
1A22
100
AcDbSymbolTableRecord
100
AcDbLayerTableRecord
  2
DEFPOINTS
 70
     0
 62
     7
  6
CONTINUOUS
  0
LAYER
  5
2086
100
AcDbSymbolTableRecord
100
AcDbLayerTableRecord
  2
V0-OBRYS
 70
     0
 62
    90
  6
CONTINUOUS
  0
LAYER
  5
2087
100
AcDbSymbolTableRecord
100
AcDbLayerTableRecord
  2
V0-VYPLNE
 70
     0
 62
    52
  6
CONTINUOUS
  0
LAYER
  5
2088
100
AcDbSymbolTableRecord
100
AcDbLayerTableRecord
  2
V0-NAZVY
 70
     0
 62
   210
  6
CONTINUOUS
  0
LAYER
  5
2089
100
AcDbSymbolTableRecord
100
AcDbLayerTableRecord
  2
V0-ZBYTEK
 70
     0
 62
    51
  6
CONTINUOUS
  0
ENDTAB
  0
TABLE
  2
STYLE
  5
3
100
AcDbSymbolTable
 70
     6
  0
STYLE
  5
10
100
AcDbSymbolTableRecord
100
AcDbTextStyleTableRecord
  2
STANDARD
 70
     0
 40
0.0
 41
1.0
 50
0.0
 71
     0
 42
15.0
  3
ISOCP
  4

  0
STYLE
  5
208A
100
AcDbSymbolTableRecord
100
AcDbTextStyleTableRecord
  2
ED
 70
     0
 40
20.0
 41
1.0
 50
0.0
 71
     0
 42
2.5
  3
ISOCP.shx
  4

  0
STYLE
  5
208B
100
AcDbSymbolTableRecord
100
AcDbTextStyleTableRecord
  2
EDVENT
 70
     0
 40
10.0
 41
1.0
 50
0.0
 71
     0
 42
2.5
  3
ISOCP.shx
  4

  0
STYLE
  5
208C
100
AcDbSymbolTableRecord
100
AcDbTextStyleTableRecord
  2
E
 70
     0
 40
25.0
 41
1.0
 50
0.0
 71
     0
 42
2.5
  3
ISOCP.shx
  4

  0
STYLE
  5
208D
100
AcDbSymbolTableRecord
100
AcDbTextStyleTableRecord
  2
ED-VENT
 70
     0
 40
25.0
 41
1.0
 50
0.0
 71
     0
 42
2.5
  3
ISOCP.shx
  4

  0
STYLE
  5
208E
100
AcDbSymbolTableRecord
100
AcDbTextStyleTableRecord
  2
ED2
 70
     0
 40
25.0
 41
1.0
 50
0.0
 71
     0
 42
2.5
  3
ISOCP.shx
  4

  0
ENDTAB
  0
TABLE
  2
VIEW
  5
6
100
AcDbSymbolTable
 70
     0
  0
ENDTAB
  0
TABLE
  2
UCS
  5
7
100
AcDbSymbolTable
 70
     0
  0
ENDTAB
  0
TABLE
  2
APPID
  5
9
100
AcDbSymbolTable
 70
     4
  0
APPID
  5
11
100
AcDbSymbolTableRecord
100
AcDbRegAppTableRecord
  2
ACAD
 70
     0
  0
APPID
  5
906
100
AcDbSymbolTableRecord
100
AcDbRegAppTableRecord
  2
CONTENTTABDATA
 70
     0
  0
APPID
  5
907
100
AcDbSymbolTableRecord
100
AcDbRegAppTableRecord
  2
CONTENTCURRENTTAB
 70
     0
  0
APPID
  5
908
100
AcDbSymbolTableRecord
100
AcDbRegAppTableRecord
  2
CONTENTBLOCKDESCRIPTION
 70
     0
  0
ENDTAB
  0
TABLE
  2
DIMSTYLE
  5
A
100
AcDbSymbolTable
 70
     3
  0
DIMSTYLE
105
1D
102
{ACAD_REACTORS
330
201A
330
2027
330
2000
330
200D
102
}
100
AcDbSymbolTableRecord
100
AcDbDimStyleTableRecord
  2
STANDARD
 70
     0
  3

  4

  5

  6
_OPEN
  7
_OPEN
 40
5.0
 41
3.5
 42
0.0625
 43
0.38
 44
0.18
 45
0.0
 46
0.0
 47
0.0
 48
0.0
140
3.5
141
0.0
142
0.0
143
25.4
144
1.0
145
0.0
146
1.0
147
0.625
 71
     0
 72
     0
 73
     0
 74
     0
 75
     0
 76
     0
 77
     1
 78
     0
170
     0
171
     2
172
     0
173
     1
174
     0
175
     0
176
     0
177
     0
178
     0
270
     2
271
     0
272
     4
273
     2
274
     2
340
10
275
     0
280
     0
281
     0
282
     0
283
     1
284
     0
285
     0
286
     0
287
     0
288
     0
  0
DIMSTYLE
105
208F
100
AcDbSymbolTableRecord
100
AcDbDimStyleTableRecord
  2
ED
 70
     0
  3

  4

  5

  6
_OPEN
  7
_OPEN
 40
0.0
 41
15.0
 42
0.625
 43
3.75
 44
1.25
 45
0.0
 46
0.0
 47
0.0
 48
0.0
140
15.0
141
2.5
142
0.0
143
0.0394
144
1.0
145
0.0
146
1.0
147
3.0
 71
     0
 72
     0
 73
     0
 74
     0
 75
     0
 76
     0
 77
     1
 78
     8
170
     0
171
     4
172
     1
173
     1
174
     0
175
     0
176
     0
177
     0
178
     0
270
     2
271
     0
272
     1
273
     8
274
     4
340
208A
275
     0
280
     0
281
     0
282
     0
283
     1
284
     8
285
     0
286
     0
287
     3
288
     0
  0
DIMSTYLE
105
2090
100
AcDbSymbolTableRecord
100
AcDbDimStyleTableRecord
  2
ED2
 70
     0
  3

  4

  5

  6
_OPEN
  7
_OPEN
 40
0.0
 41
25.0
 42
0.625
 43
3.75
 44
1.25
 45
0.0
 46
0.0
 47
0.0
 48
0.0
140
30.0
141
2.5
142
0.0
143
0.0394
144
1.0
145
0.0
146
1.0
147
5.0
 71
     0
 72
     0
 73
     0
 74
     0
 75
     0
 76
     0
 77
     1
 78
     8
170
     0
171
     4
172
     1
173
     1
174
     0
175
     0
176
     0
177
     0
178
     0
270
     2
271
     0
272
     1
273
     8
274
     4
340
208A
275
     0
280
     0
281
     0
282
     0
283
     1
284
     8
285
     0
286
     0
287
     3
288
     0
  0
ENDTAB
  0
TABLE
  2
BLOCK_RECORD
  5
1
100
AcDbSymbolTable
 70
     9
  0
BLOCK_RECORD
  5
1A
100
AcDbSymbolTableRecord
100
AcDbBlockTableRecord
  2
*MODEL_SPACE
  0
BLOCK_RECORD
  5
17
100
AcDbSymbolTableRecord
100
AcDbBlockTableRecord
  2
*PAPER_SPACE
  0
BLOCK_RECORD
  5
1A05
100
AcDbSymbolTableRecord
100
AcDbBlockTableRecord
  2
_OPEN
  0
BLOCK_RECORD
  5
20B5
100
AcDbSymbolTableRecord
100
AcDbBlockTableRecord
  2
*D5
  0
BLOCK_RECORD
  5
20C1
100
AcDbSymbolTableRecord
100
AcDbBlockTableRecord
  2
*D6
  0
BLOCK_RECORD
  5
20CD
100
AcDbSymbolTableRecord
100
AcDbBlockTableRecord
  2
*D7
  0
BLOCK_RECORD
  5
20D9
100
AcDbSymbolTableRecord
100
AcDbBlockTableRecord
  2
*D8
  0
ENDTAB
  0
ENDSEC
  0
SECTION
  2
BLOCKS
  0
BLOCK
  5
1B
100
AcDbEntity
  8
0
100
AcDbBlockBegin
  2
*MODEL_SPACE
 70
     0
 10
0.0
 20
0.0
 30
0.0
  3
*MODEL_SPACE
  1

  0
ENDBLK
  5
1C
100
AcDbEntity
  8
0
100
AcDbBlockEnd
  0
BLOCK
  5
18
100
AcDbEntity
 67
     1
  8
0
100
AcDbBlockBegin
  2
*PAPER_SPACE
 70
     0
 10
0.0
 20
0.0
 30
0.0
  3
*PAPER_SPACE
  1

  0
ENDBLK
  5
19
100
AcDbEntity
 67
     1
  8
0
100
AcDbBlockEnd
  0
BLOCK
  5
1A09
100
AcDbEntity
  8
0
100
AcDbBlockBegin
  2
_OPEN
 70
     0
 10
0.0
 20
0.0
 30
0.0
  3
_OPEN
  1

  0
LINE
  5
1A06
100
AcDbEntity
  8
0
  6
BYBLOCK
 62
     0
100
AcDbLine
 10
-1.0
 20
0.166667
 30
0.0
 11
0.0
 21
0.0
 31
0.0
  0
LINE
  5
1A07
100
AcDbEntity
  8
0
  6
BYBLOCK
 62
     0
100
AcDbLine
 10
0.0
 20
0.0
 30
0.0
 11
-1.0
 21
-0.166667
 31
0.0
  0
LINE
  5
1A08
100
AcDbEntity
  8
0
  6
BYBLOCK
 62
     0
100
AcDbLine
 10
0.0
 20
0.0
 30
0.0
 11
-1.0
 21
0.0
 31
0.0
  0
ENDBLK
  5
1A0A
100
AcDbEntity
  8
0
100
AcDbBlockEnd
  0
BLOCK
  5
20B6
100
AcDbEntity
  8
0
 48
5.0
100
AcDbBlockBegin
  2
*D5
 70
     1
 10
0.0
 20
0.0
 30
0.0
  3
*D5
  1

  0
LINE
  5
20B7
100
AcDbEntity
  8
0
  6
BYBLOCK
 62
     0
 48
5.0
100
AcDbLine
 10
15.0
 20
-180.3125
 30
0.0
 11
15.0
 21
-207.244371
 31
0.0
  0
LINE
  5
20B8
100
AcDbEntity
  8
0
  6
BYBLOCK
 62
     0
 48
5.0
100
AcDbLine
 10
70.0
 20
-180.3125
 30
0.0
 11
70.0
 21
-207.244371
 31
0.0
  0
LINE
  5
20B9
100
AcDbEntity
  8
0
  6
BYBLOCK
 62
     0
 48
5.0
100
AcDbLine
 10
32.5
 20
-206.344371
 30
0.0
 11
52.5
 21
-206.344371
 31
0.0
  0
INSERT
  5
20BA
100
AcDbEntity
  8
0
  6
BYBLOCK
 62
     0
 48
5.0
100
AcDbBlockReference
  2
_OPEN
 10
15.0
 20
-206.344371
 30
0.0
 41
17.5
 42
17.5
 43
17.5
 50
180.0
  0
INSERT
  5
20BB
100
AcDbEntity
  8
0
  6
BYBLOCK
 62
     0
 48
5.0
100
AcDbBlockReference
  2
_OPEN
 10
70.0
 20
-206.344371
 30
0.0
 41
17.5
 42
17.5
 43
17.5
  0
MTEXT
  5
20BC
100
AcDbEntity
  8
0
  6
BYBLOCK
 62
     0
 48
5.0
100
AcDbMText
 10
42.5
 20
-194.469371
 30
0.0
 40
17.5
 41
0.0
 71
     5
 72
     1
  1
\A1;55
  0
POINT
  5
20BD
100
AcDbEntity
  8
DEFPOINTS
  6
BYBLOCK
 62
     0
 48
5.0
100
AcDbPoint
 10
15.0
 20
-180.0
 30
0.0
  0
POINT
  5
20BE
100
AcDbEntity
  8
DEFPOINTS
  6
BYBLOCK
 62
     0
 48
5.0
100
AcDbPoint
 10
70.0
 20
-180.0
 30
0.0
  0
POINT
  5
20BF
100
AcDbEntity
  8
DEFPOINTS
  6
BYBLOCK
 62
     0
 48
5.0
100
AcDbPoint
 10
70.0
 20
-206.344371
 30
0.0
  0
ENDBLK
  5
20C0
100
AcDbEntity
  8
0
 48
5.0
100
AcDbBlockEnd
  0
BLOCK
  5
20C2
100
AcDbEntity
  8
0
 48
5.0
100
AcDbBlockBegin
  2
*D6
 70
     1
 10
0.0
 20
0.0
 30
0.0
  3
*D6
  1

  0
LINE
  5
20C3
100
AcDbEntity
  8
0
  6
BYBLOCK
 62
     0
 48
5.0
100
AcDbLine
 10
-50.3125
 20
-180.3125
 30
0.0
 11
-50.3125
 21
-237.532056
 31
0.0
  0
LINE
  5
20C4
100
AcDbEntity
  8
0
  6
BYBLOCK
 62
     0
 48
5.0
100
AcDbLine
 10
70.0
 20
-180.625
 30
0.0
 11
70.0
 21
-237.532056
 31
0.0
  0
LINE
  5
20C5
100
AcDbEntity
  8
0
  6
BYBLOCK
 62
     0
 48
5.0
100
AcDbLine
 10
-32.8125
 20
-236.632056
 30
0.0
 11
52.5
 21
-236.632056
 31
0.0
  0
INSERT
  5
20C6
100
AcDbEntity
  8
0
  6
BYBLOCK
 62
     0
 48
5.0
100
AcDbBlockReference
  2
_OPEN
 10
-50.3125
 20
-236.632056
 30
0.0
 41
17.5
 42
17.5
 43
17.5
 50
180.0
  0
INSERT
  5
20C7
100
AcDbEntity
  8
0
  6
BYBLOCK
 62
     0
 48
5.0
100
AcDbBlockReference
  2
_OPEN
 10
70.0
 20
-236.632056
 30
0.0
 41
17.5
 42
17.5
 43
17.5
  0
MTEXT
  5
20C8
100
AcDbEntity
  8
0
  6
BYBLOCK
 62
     0
 48
5.0
100
AcDbMText
 10
9.84375
 20
-224.755334
 30
0.0
 40
17.5
 41
0.0
 71
     5
 72
     1
  1
\A1;120
  0
POINT
  5
20C9
100
AcDbEntity
  8
DEFPOINTS
  6
BYBLOCK
 62
     0
 48
5.0
100
AcDbPoint
 10
-50.3125
 20
-180.0
 30
0.0
  0
POINT
  5
20CA
100
AcDbEntity
  8
DEFPOINTS
  6
BYBLOCK
 62
     0
 48
5.0
100
AcDbPoint
 10
70.0
 20
-180.3125
 30
0.0
  0
POINT
  5
20CB
100
AcDbEntity
  8
DEFPOINTS
  6
BYBLOCK
 62
     0
 48
5.0
100
AcDbPoint
 10
70.0
 20
-236.632056
 30
0.0
  0
ENDBLK
  5
20CC
100
AcDbEntity
  8
0
 48
5.0
100
AcDbBlockEnd
  0
BLOCK
  5
20CE
100
AcDbEntity
  8
0
 48
5.0
100
AcDbBlockBegin
  2
*D7
 70
     1
 10
0.0
 20
0.0
 30
0.0
  3
*D7
  1

  0
LINE
  5
20CF
100
AcDbEntity
  8
0
  6
BYBLOCK
 62
     0
 48
5.0
100
AcDbLine
 10
-50.3125
 20
-20.0
 30
0.0
 11
-81.71672
 21
-20.0
 31
0.0
  0
LINE
  5
20D0
100
AcDbEntity
  8
0
  6
BYBLOCK
 62
     0
 48
5.0
100
AcDbLine
 10
-50.3125
 20
-180.0
 30
0.0
 11
-81.71672
 21
-180.0
 31
0.0
  0
LINE
  5
20D1
100
AcDbEntity
  8
0
  6
BYBLOCK
 62
     0
 48
5.0
100
AcDbLine
 10
-80.81672
 20
-37.5
 30
0.0
 11
-80.81672
 21
-162.5
 31
0.0
  0
INSERT
  5
20D2
100
AcDbEntity
  8
0
  6
BYBLOCK
 62
     0
 48
5.0
100
AcDbBlockReference
  2
_OPEN
 10
-80.81672
 20
-20.0
 30
0.0
 41
17.5
 42
17.5
 43
17.5
 50
90.0
  0
INSERT
  5
20D3
100
AcDbEntity
  8
0
  6
BYBLOCK
 62
     0
 48
5.0
100
AcDbBlockReference
  2
_OPEN
 10
-80.81672
 20
-180.0
 30
0.0
 41
17.5
 42
17.5
 43
17.5
 50
270.0
  0
MTEXT
  5
20D4
100
AcDbEntity
  8
0
  6
BYBLOCK
 62
     0
 48
5.0
100
AcDbMText
 10
-92.69172
 20
-100.0
 30
0.0
 40
17.5
 41
0.0
 71
     5
 72
     1
  1
\A1;\U+2205160
 11
0.0
 21
1.0
 31
0.0
  0
POINT
  5
20D5
100
AcDbEntity
  8
DEFPOINTS
  6
BYBLOCK
 62
     0
 48
5.0
100
AcDbPoint
 10
-50.0
 20
-20.0
 30
0.0
  0
POINT
  5
20D6
100
AcDbEntity
  8
DEFPOINTS
  6
BYBLOCK
 62
     0
 48
5.0
100
AcDbPoint
 10
-50.0
 20
-180.0
 30
0.0
  0
POINT
  5
20D7
100
AcDbEntity
  8
DEFPOINTS
  6
BYBLOCK
 62
     0
 48
5.0
100
AcDbPoint
 10
-80.81672
 20
-180.0
 30
0.0
  0
ENDBLK
  5
20D8
100
AcDbEntity
  8
0
 48
5.0
100
AcDbBlockEnd
  0
BLOCK
  5
20DA
100
AcDbEntity
  8
0
 48
5.0
100
AcDbBlockBegin
  2
*D8
 70
     1
 10
0.0
 20
0.0
 30
0.0
  3
*D8
  1

  0
LINE
  5
20DB
100
AcDbEntity
  8
0
  6
BYBLOCK
 62
     0
 48
5.0
100
AcDbLine
 10
-50.0
 20
-180.3125
 30
0.0
 11
-50.0
 21
-207.244371
 31
0.0
  0
LINE
  5
20DC
100
AcDbEntity
  8
0
  6
BYBLOCK
 62
     0
 48
5.0
100
AcDbLine
 10
3.0
 20
-180.3125
 30
0.0
 11
3.0
 21
-207.244371
 31
0.0
  0
LINE
  5
20DD
100
AcDbEntity
  8
0
  6
BYBLOCK
 62
     0
 48
5.0
100
AcDbLine
 10
-32.5
 20
-206.344371
 30
0.0
 11
-14.5
 21
-206.344371
 31
0.0
  0
INSERT
  5
20DE
100
AcDbEntity
  8
0
  6
BYBLOCK
 62
     0
 48
5.0
100
AcDbBlockReference
  2
_OPEN
 10
-50.0
 20
-206.344371
 30
0.0
 41
17.5
 42
17.5
 43
17.5
 50
180.0
  0
INSERT
  5
20DF
100
AcDbEntity
  8
0
  6
BYBLOCK
 62
     0
 48
5.0
100
AcDbBlockReference
  2
_OPEN
 10
3.0
 20
-206.344371
 30
0.0
 41
17.5
 42
17.5
 43
17.5
  0
MTEXT
  5
20E0
100
AcDbEntity
  8
0
  6
BYBLOCK
 62
     0
 48
5.0
100
AcDbMText
 10
-23.5
 20
-194.469371
 30
0.0
 40
17.5
 41
0.0
 71
     5
 72
     1
  1
\A1;53
  0
POINT
  5
20E1
100
AcDbEntity
  8
DEFPOINTS
  6
BYBLOCK
 62
     0
 48
5.0
100
AcDbPoint
 10
-50.0
 20
-180.0
 30
0.0
  0
POINT
  5
20E2
100
AcDbEntity
  8
DEFPOINTS
  6
BYBLOCK
 62
     0
 48
5.0
100
AcDbPoint
 10
3.0
 20
-180.0
 30
0.0
  0
POINT
  5
20E3
100
AcDbEntity
  8
DEFPOINTS
  6
BYBLOCK
 62
     0
 48
5.0
100
AcDbPoint
 10
3.0
 20
-206.344371
 30
0.0
  0
ENDBLK
  5
20E4
100
AcDbEntity
  8
0
 48
5.0
100
AcDbBlockEnd
  0
ENDSEC
  0
SECTION
  2
ENTITIES
  0
TEXT
  5
1D80
100
AcDbEntity
  8
V0-ZBYTEK
  6
CONTINUOUS
 62
    51
100
AcDbText
 10
110.834318
 20
-384.320573
 30
0.0
 40
12.0
  1
PRO KRUHOVE POTRUBI
 72
     1
 11
194.264318
 21
-384.320573
 31
0.0
100
AcDbText
  0
TEXT
  5
1D81
100
AcDbEntity
  8
V0-NAZVY
  6
CONTINUOUS
 62
   210
100
AcDbText
 10
135.004951
 20
-313.961079
 30
0.0
 40
24.0
  1
RSK-160
 72
     1
 11
195.0744
 21
-313.961079
 31
0.0
100
AcDbText
  0
TEXT
  5
1D82
100
AcDbEntity
  8
V0-ZBYTEK
  6
CONTINUOUS
 62
   130
100
AcDbText
 10
104.0844
 20
-348.624371
 30
0.0
 40
18.0
  1
ZPETNA KLAPKA
 72
     1
 11
195.0744
 21
-348.624371
 31
0.0
100
AcDbText
  0
LINE
  5
1FC0
100
AcDbEntity
  8
V0-VYPLNE
  6
DASHDOT
 62
    63
 48
2.0
100
AcDbLine
 10
-60.39715
 20
-100.0
 30
0.0
 11
80.524172
 21
-100.0
 31
0.0
  0
LINE
  5
1FC1
100
AcDbEntity
  8
V0-VYPLNE
  6
DASHDOT
 62
    63
 48
2.0
100
AcDbLine
 10
200.0
 20
-13.567909
 30
0.0
 11
200.0
 21
-188.391881
 31
0.0
  0
LINE
  5
1FC2
100
AcDbEntity
  8
V0-OBRYS
  6
CONTINUOUS
 62
    90
100
AcDbLine
 10
-50.0
 20
-100.0
 30
0.0
 11
-50.0
 21
-20.0
 31
0.0
  0
LINE
  5
1FC3
100
AcDbEntity
  8
V0-OBRYS
  6
CONTINUOUS
 62
    90
100
AcDbLine
 10
-50.0
 20
-20.0
 30
0.0
 11
3.0
 21
-20.0
 31
0.0
  0
LINE
  5
1FC4
100
AcDbEntity
  8
V0-OBRYS
  6
CONTINUOUS
 62
    90
100
AcDbLine
 10
70.0
 20
-20.0
 30
0.0
 11
70.0
 21
-100.0
 31
0.0
  0
LINE
  5
1FC6
100
AcDbEntity
  8
V0-OBRYS
  6
CONTINUOUS
 62
    90
100
AcDbLine
 10
3.0
 20
-100.0
 30
0.0
 11
3.0
 21
-20.0
 31
0.0
  0
LINE
  5
1FC7
100
AcDbEntity
  8
V0-OBRYS
  6
CONTINUOUS
 62
    90
100
AcDbLine
 10
15.0
 20
-100.0
 30
0.0
 11
15.0
 21
-20.0
 31
0.0
  0
ARC
  5
1FC8
100
AcDbEntity
  8
V0-OBRYS
  6
CONTINUOUS
 62
    90
100
AcDbCircle
 10
9.0
 20
-17.2479
 30
0.0
 40
6.601065
100
AcDbArc
 50
204.640132
 51
335.359868
  0
LINE
  5
1FC9
100
AcDbEntity
  8
V0-OBRYS
  6
CONTINUOUS
 62
    90
100
AcDbLine
 10
15.0
 20
-20.0
 30
0.0
 11
70.0
 21
-20.0
 31
0.0
  0
CIRCLE
  5
1FCA
100
AcDbEntity
  8
V0-OBRYS
  6
CONTINUOUS
 62
    90
100
AcDbCircle
 10
200.0
 20
-100.0
 30
0.0
 40
80.0
  0
CIRCLE
  5
1FCB
100
AcDbEntity
  8
V0-OBRYS
  6
CONTINUOUS
 62
    90
100
AcDbCircle
 10
200.0
 20
-100.0
 30
0.0
 40
75.0
  0
MLINE
  5
1FCD
100
AcDbEntity
  8
V0-OBRYS
  6
CONTINUOUS
 62
    90
100
AcDbMline
  2
STANDARD
340
13
 40
5.0
 70
     1
 71
     1
 72
     2
 73
     2
 10
199.9999999999999
 20
-25.0
 30
0.0
210
0.0
220
0.0
230
1.0
 11
199.9999999999999
 21
-25.0
 31
0.0
 12
0.0
 22
-1.0
 32
0.0
 13
1.0
 23
0.0
 33
0.0
 74
     2
 41
2.5
 41
0.0
 75
     0
 74
     2
 41
-2.5
 41
0.0
 75
     0
 11
199.9999999999999
 21
-175.0
 31
0.0
 12
0.0
 22
-1.0
 32
0.0
 13
1.0
 23
0.0
 33
0.0
 74
     2
 41
2.5
 41
0.0
 75
     0
 74
     2
 41
-2.5
 41
0.0
 75
     0
  0
ELLIPSE
  5
1FCE
100
AcDbEntity
  8
V0-OBRYS
  6
CONTINUOUS
 62
    90
100
AcDbEllipse
 10
200.0
 20
-100.0
 30
0.0
 11
0.0
 21
75.0
 31
0.0
210
0.0
220
0.0
230
1.0
 40
0.666667
 41
0.0
 42
6.283185307179586
  0
LINE
  5
1FCF
100
AcDbEntity
  8
V0-OBRYS
  6
CONTINUOUS
 62
    90
100
AcDbLine
 10
15.0
 20
-100.0
 30
0.0
 11
15.0
 21
-180.0
 31
0.0
  0
LINE
  5
1FD0
100
AcDbEntity
  8
V0-OBRYS
  6
CONTINUOUS
 62
    90
100
AcDbLine
 10
3.0
 20
-100.0
 30
0.0
 11
3.0
 21
-180.0
 31
0.0
  0
LINE
  5
1FD1
100
AcDbEntity
  8
V0-OBRYS
  6
CONTINUOUS
 62
    90
100
AcDbLine
 10
70.0
 20
-180.0
 30
0.0
 11
70.0
 21
-100.0
 31
0.0
  0
LINE
  5
1FD2
100
AcDbEntity
  8
V0-OBRYS
  6
CONTINUOUS
 62
    90
100
AcDbLine
 10
-50.0
 20
-100.0
 30
0.0
 11
-50.0
 21
-180.0
 31
0.0
  0
LINE
  5
1FD3
100
AcDbEntity
  8
V0-OBRYS
  6
CONTINUOUS
 62
    90
100
AcDbLine
 10
15.0
 20
-180.0
 30
0.0
 11
70.0
 21
-180.0
 31
0.0
  0
LINE
  5
1FD4
100
AcDbEntity
  8
V0-OBRYS
  6
CONTINUOUS
 62
    90
100
AcDbLine
 10
-50.0
 20
-180.0
 30
0.0
 11
3.0
 21
-180.0
 31
0.0
  0
ARC
  5
1FD5
100
AcDbEntity
  8
V0-OBRYS
  6
CONTINUOUS
 62
    90
100
AcDbCircle
 10
9.0
 20
-182.7521
 30
0.0
 40
6.601065
100
AcDbArc
 50
24.640132
 51
155.359868
  0
LINE
  5
1FD7
100
AcDbEntity
  8
V0-VYPLNE
  6
CONTINUOUS
 62
    41
100
AcDbLine
 10
9.0
 20
-190.0
 30
0.0
 11
9.0
 21
-10.0
 31
0.0
  0
ELLIPSE
  5
1FD9
100
AcDbEntity
  8
V0-VYPLNE
  6
DASHED
 62
    56
 48
2.0
100
AcDbEllipse
 10
9.0
 20
-100.0
 30
0.0
 11
0.0
 21
76.15103518393138
 31
0.0
210
0.0
220
0.0
230
1.0
 40
0.643458
 41
3.094213085340923
 42
6.341233213031651
  0
LINE
  5
1FDA
100
AcDbEntity
  8
V0-VYPLNE
  6
DASHDOT
 62
    63
 48
2.0
100
AcDbLine
 10
111.208654
 20
-100.0
 30
0.0
 11
290.769695
 21
-100.0
 31
0.0
  0
LINE
  5
1FDC
100
AcDbEntity
  8
V0-OBRYS
  6
CONTINUOUS
 62
    90
100
AcDbLine
 10
15.0
 20
-350.0
 30
0.0
 11
15.0
 21
-270.0
 31
0.0
  0
LINE
  5
1FDD
100
AcDbEntity
  8
V0-OBRYS
  6
CONTINUOUS
 62
    90
100
AcDbLine
 10
3.0
 20
-350.0
 30
0.0
 11
3.0
 21
-270.0
 31
0.0
  0
LINE
  5
1FDE
100
AcDbEntity
  8
V0-OBRYS
  6
CONTINUOUS
 62
    90
100
AcDbLine
 10
70.0
 20
-270.0
 30
0.0
 11
70.0
 21
-350.0
 31
0.0
  0
LINE
  5
1FDF
100
AcDbEntity
  8
V0-OBRYS
  6
CONTINUOUS
 62
    90
100
AcDbLine
 10
-50.0
 20
-350.0
 30
0.0
 11
-50.0
 21
-270.0
 31
0.0
  0
LINE
  5
1FE0
100
AcDbEntity
  8
V0-VYPLNE
  6
DASHDOT
 62
    63
 48
2.0
100
AcDbLine
 10
-60.39715
 20
-350.0
 30
0.0
 11
80.524172
 21
-350.0
 31
0.0
  0
LINE
  5
1FE1
100
AcDbEntity
  8
V0-OBRYS
  6
CONTINUOUS
 62
    90
100
AcDbLine
 10
15.0
 20
-430.0
 30
0.0
 11
70.0
 21
-430.0
 31
0.0
  0
LINE
  5
1FE2
100
AcDbEntity
  8
V0-OBRYS
  6
CONTINUOUS
 62
    90
100
AcDbLine
 10
-50.0
 20
-350.0
 30
0.0
 11
-50.0
 21
-430.0
 31
0.0
  0
LINE
  5
1FE3
100
AcDbEntity
  8
V0-OBRYS
  6
CONTINUOUS
 62
    90
100
AcDbLine
 10
3.0
 20
-350.0
 30
0.0
 11
3.0
 21
-430.0
 31
0.0
  0
LINE
  5
1FE4
100
AcDbEntity
  8
V0-OBRYS
  6
CONTINUOUS
 62
    90
100
AcDbLine
 10
15.0
 20
-350.0
 30
0.0
 11
15.0
 21
-430.0
 31
0.0
  0
LINE
  5
1FE5
100
AcDbEntity
  8
V0-OBRYS
  6
CONTINUOUS
 62
    90
100
AcDbLine
 10
-50.0
 20
-430.0
 30
0.0
 11
3.0
 21
-430.0
 31
0.0
  0
ARC
  5
1FE6
100
AcDbEntity
  8
V0-OBRYS
  6
CONTINUOUS
 62
    90
100
AcDbCircle
 10
9.0
 20
-432.7521
 30
0.0
 40
6.601065
100
AcDbArc
 50
24.640132
 51
155.359868
  0
LINE
  5
1FE7
100
AcDbEntity
  8
V0-OBRYS
  6
CONTINUOUS
 62
    90
100
AcDbLine
 10
70.0
 20
-430.0
 30
0.0
 11
70.0
 21
-350.0
 31
0.0
  0
LINE
  5
1FE8
100
AcDbEntity
  8
V0-OBRYS
  6
CONTINUOUS
 62
    90
100
AcDbLine
 10
15.0
 20
-270.0
 30
0.0
 11
70.0
 21
-270.0
 31
0.0
  0
LINE
  5
1FE9
100
AcDbEntity
  8
V0-OBRYS
  6
CONTINUOUS
 62
    90
100
AcDbLine
 10
-50.0
 20
-270.0
 30
0.0
 11
3.0
 21
-270.0
 31
0.0
  0
ARC
  5
1FEA
100
AcDbEntity
  8
V0-OBRYS
  6
CONTINUOUS
 62
    90
100
AcDbCircle
 10
9.0
 20
-267.2479
 30
0.0
 40
6.601065
100
AcDbArc
 50
204.640132
 51
335.359868
  0
LINE
  5
1FEB
100
AcDbEntity
  8
V0-VYPLNE
  6
DASHDOT
 62
    63
 48
2.0
100
AcDbLine
 10
9.0
 20
-440.0
 30
0.0
 11
9.0
 21
-260.0
 31
0.0
  0
LINE
  5
1FEC
100
AcDbEntity
  8
V0-VYPLNE
  6
DASHED
 62
    56
 48
2.0
100
AcDbLine
 10
11.054892
 20
-345.340779
 30
0.0
 11
57.649847
 21
-281.768426
 31
0.0
  0
LINE
  5
1FED
100
AcDbEntity
  8
V0-VYPLNE
  6
DASHED
 62
    56
 48
2.0
100
AcDbLine
 10
11.054892
 20
-354.659221
 30
0.0
 11
57.649847
 21
-418.231574
 31
0.0
  0
CIRCLE
  5
1FEE
100
AcDbEntity
  8
V0-OBRYS
  6
CONTINUOUS
 62
    90
100
AcDbCircle
 10
9.0
 20
-350.0
 30
0.0
 40
6.280573
  0
POINT
  5
1FF1
100
AcDbEntity
  8
V0-VYPLNE
  6
CONTINUOUS
 62
    52
100
AcDbPoint
 10
-50.0
 20
-100.0
 30
0.0
  0
POINT
  5
1FF2
100
AcDbEntity
  8
V0-VYPLNE
  6
CONTINUOUS
 62
    52
100
AcDbPoint
 10
-50.0
 20
-350.0
 30
0.0
  0
POINT
  5
1FF3
100
AcDbEntity
  8
V0-VYPLNE
  6
CONTINUOUS
 62
    52
100
AcDbPoint
 10
200.0
 20
-100.0
 30
0.0
  0
DIMENSION
  5
2000
100
AcDbEntity
  8
V0-VYPLNE
  6
CONTINUOUS
 62
    41
100
AcDbDimension
  2
*D7
 10
-80.81672
 20
-180.0
 30
0.0
 11
-92.69172
 21
-100.0
 31
0.0
 70
    32
  1
%%c<>
  3
STANDARD
100
AcDbAlignedDimension
 13
-50.0
 23
-20.0
 33
0.0
 14
-50.0
 24
-180.0
 34
0.0
 50
90.0
100
AcDbRotatedDimension
  0
DIMENSION
  5
200D
100
AcDbEntity
  8
V0-VYPLNE
  6
CONTINUOUS
 62
    41
100
AcDbDimension
  2
*D8
 10
3.0
 20
-206.344371
 30
0.0
 11
-23.5
 21
-194.469371
 31
0.0
 70
    32
  3
STANDARD
100
AcDbAlignedDimension
 13
-50.0
 23
-180.0
 33
0.0
 14
3.0
 24
-180.0
 34
0.0
100
AcDbRotatedDimension
  0
DIMENSION
  5
201A
100
AcDbEntity
  8
V0-VYPLNE
  6
CONTINUOUS
 62
    41
100
AcDbDimension
  2
*D5
 10
70.0
 20
-206.344371
 30
0.0
 11
42.5
 21
-194.469371
 31
0.0
 70
    32
  3
STANDARD
100
AcDbAlignedDimension
 13
15.0
 23
-180.0
 33
0.0
 14
70.0
 24
-180.0
 34
0.0
100
AcDbRotatedDimension
  0
DIMENSION
  5
2027
100
AcDbEntity
  8
V0-VYPLNE
  6
CONTINUOUS
 62
    41
100
AcDbDimension
  2
*D6
 10
70.0
 20
-236.632056
 30
0.0
 11
9.84375
 21
-224.755334
 31
0.0
 70
    32
  3
STANDARD
100
AcDbAlignedDimension
 13
-50.3125
 23
-180.0
 33
0.0
 14
70.0
 24
-180.3125
 34
0.0
100
AcDbRotatedDimension
  0
TEXT
  5
2073
100
AcDbEntity
  8
V0-NAZVY
  6
CONTINUOUS
 62
   210
100
AcDbText
 10
-51.069449
 20
-10.0
 30
0.0
 40
24.0
  1
RSK-160
 72
     1
 11
9.0
 21
-10.0
 31
0.0
100
AcDbText
  0
TEXT
  5
2074
100
AcDbEntity
  8
V0-NAZVY
  6
CONTINUOUS
 62
   210
100
AcDbText
 10
139.930551
 20
-10.0
 30
0.0
 40
24.0
  1
RSK-160
 72
     1
 11
200.0
 21
-10.0
 31
0.0
100
AcDbText
  0
TEXT
  5
2075
100
AcDbEntity
  8
V0-NAZVY
  6
CONTINUOUS
 62
   210
100
AcDbText
 10
-51.375485
 20
-462.833667
 30
0.0
 40
24.0
  1
RSK-160
 72
     1
 11
8.693964
 21
-462.833667
 31
0.0
100
AcDbText
  0
LINE
  5
2091
100
AcDbEntity
  8
V0-VYPLNE
  6
CONTINUOUS
 62
    52
100
AcDbLine
 10
-27.99213
 20
-85.679044
 30
0.0
 11
-27.99213
 21
-113.679044
 31
0.0
  0
LINE
  5
2092
100
AcDbEntity
  8
V0-VYPLNE
  6
CONTINUOUS
 62
    52
100
AcDbLine
 10
-27.99213
 20
-113.679044
 30
0.0
 11
-6.99213
 21
-99.679044
 31
0.0
  0
LINE
  5
2093
100
AcDbEntity
  8
V0-VYPLNE
  6
CONTINUOUS
 62
    52
100
AcDbLine
 10
-6.99213
 20
-99.679044
 30
0.0
 11
-27.99213
 21
-85.679044
 31
0.0
  0
LINE
  5
2094
100
AcDbEntity
  8
V0-VYPLNE
  6
CONTINUOUS
 62
    52
100
AcDbLine
 10
-27.99213
 20
-335.881663
 30
0.0
 11
-27.99213
 21
-363.881663
 31
0.0
  0
LINE
  5
2095
100
AcDbEntity
  8
V0-VYPLNE
  6
CONTINUOUS
 62
    52
100
AcDbLine
 10
-27.99213
 20
-363.881663
 30
0.0
 11
-6.99213
 21
-349.881663
 31
0.0
  0
LINE
  5
2096
100
AcDbEntity
  8
V0-VYPLNE
  6
CONTINUOUS
 62
    52
100
AcDbLine
 10
-6.99213
 20
-349.881663
 30
0.0
 11
-27.99213
 21
-335.881663
 31
0.0
  0
VIEWPORT
  5
22
100
AcDbEntity
 67
     1
  8
0
100
AcDbViewport
 10
261.517699
 20
154.724298
 30
0.0
 40
523.035398
 41
309.448596
 68
    -1
 69
     1
1001
ACAD
1000
MVIEW
1002
{
1070
    16
1010
0.0
1020
0.0
1030
0.0
1010
0.0
1020
0.0
1030
1.0
1040
0.0
1040
309.448596
1040
261.517699
1040
154.724298
1040
50.0
1040
0.0
1040
0.0
1070
     0
1070
   100
1070
     1
1070
     0
1070
     0
1070
     0
1070
     0
1070
     0
1040
0.0
1040
0.0
1040
0.0
1040
1.0
1040
1.0
1040
10.0
1040
10.0
1070
     0
1002
{
1002
}
1002
}
  0
ENDSEC
  0
SECTION
  2
OBJECTS
  0
DICTIONARY
  5
C
100
AcDbDictionary
  3
ACAD_GROUP
350
D
  3
ACAD_MLINESTYLE
350
E
  3
ACDBVARIABLEDICTIONARY
350
86C
  3
CONTENTDICTIONARY
350
905
  0
DICTIONARY
  5
D
102
{ACAD_REACTORS
330
C
102
}
100
AcDbDictionary
  0
DICTIONARY
  5
E
102
{ACAD_REACTORS
330
C
102
}
100
AcDbDictionary
  3
STANDARD
350
13
  0
DICTIONARY
  5
86C
102
{ACAD_REACTORS
330
C
102
}
100
AcDbDictionary
  3
SORTENTS
350
86D
  0
DICTIONARY
  5
905
102
{ACAD_REACTORS
330
C
102
}
100
AcDbDictionary
  0
MLINESTYLE
  5
13
102
{ACAD_REACTORS
330
E
102
}
100
AcDbMlineStyle
  2
STANDARD
 70
     0
  3

 62
     0
 51
90.0
 52
90.0
 71
     2
 49
0.5
 62
   256
  6
BYLAYER
 49
-0.5
 62
   256
  6
BYLAYER
  0
DICTIONARYVAR
  5
86D
102
{ACAD_REACTORS
330
86C
102
}
100
DictionaryVariables
280
     0
  1
96
  0
ENDSEC
  0
EOF
