  0
SECTION
  2
HEADER
  9
$ACADVER
  1
AC1014
  9
$ACADMAINTVER
 70
     0
  9
$DWGCODEPAGE
  3
ANSI_1250
  9
$INSBASE
 10
0.0
 20
0.0
 30
0.0
  9
$EXTMIN
 10
17.518747
 20
-304.972963
 30
0.0
  9
$EXTMAX
 10
365.912213
 20
82.435269
 30
0.0
  9
$LIMMIN
 10
-1040.805314
 20
-347.068924
  9
$LIMMAX
 10
643.686187
 20
495.293187
  9
$ORTHOMODE
 70
     1
  9
$REGENMODE
 70
     1
  9
$FILLMODE
 70
     1
  9
$QTEXTMODE
 70
     0
  9
$MIRRTEXT
 70
     1
  9
$DRAGMODE
 70
     2
  9
$LTSCALE
 40
15.0
  9
$OSMODE
 70
  1023
  9
$ATTMODE
 70
     1
  9
$TEXTSIZE
 40
15.0
  9
$TRACEWID
 40
1.0
  9
$TEXTSTYLE
  7
STANDARD
  9
$CLAYER
  8
V0-OBRYS
  9
$CELTYPE
  6
BYLAYER
  9
$CECOLOR
 62
   256
  9
$CELTSCALE
 40
5.0
  9
$DELOBJ
 70
     1
  9
$DISPSILH
 70
     0
  9
$DIMSCALE
 40
5.0
  9
$DIMASZ
 40
3.5
  9
$DIMEXO
 40
0.0625
  9
$DIMDLI
 40
0.38
  9
$DIMRND
 40
0.0
  9
$DIMDLE
 40
0.0
  9
$DIMEXE
 40
0.18
  9
$DIMTP
 40
0.0
  9
$DIMTM
 40
0.0
  9
$DIMTXT
 40
3.5
  9
$DIMCEN
 40
0.0
  9
$DIMTSZ
 40
0.0
  9
$DIMTOL
 70
     0
  9
$DIMLIM
 70
     0
  9
$DIMTIH
 70
     0
  9
$DIMTOH
 70
     0
  9
$DIMSE1
 70
     0
  9
$DIMSE2
 70
     0
  9
$DIMTAD
 70
     1
  9
$DIMZIN
 70
     0
  9
$DIMBLK
  1

  9
$DIMASO
 70
     1
  9
$DIMSHO
 70
     1
  9
$DIMPOST
  1

  9
$DIMAPOST
  1

  9
$DIMALT
 70
     0
  9
$DIMALTD
 70
     2
  9
$DIMALTF
 40
25.4
  9
$DIMLFAC
 40
1.0
  9
$DIMTOFL
 70
     0
  9
$DIMTVP
 40
0.0
  9
$DIMTIX
 70
     0
  9
$DIMSOXD
 70
     0
  9
$DIMSAH
 70
     1
  9
$DIMBLK1
  1
_OPEN
  9
$DIMBLK2
  1
_OPEN
  9
$DIMSTYLE
  2
STANDARD
  9
$DIMCLRD
 70
     0
  9
$DIMCLRE
 70
     0
  9
$DIMCLRT
 70
     0
  9
$DIMTFAC
 40
1.0
  9
$DIMGAP
 40
0.625
  9
$DIMJUST
 70
     0
  9
$DIMSD1
 70
     0
  9
$DIMSD2
 70
     0
  9
$DIMTOLJ
 70
     1
  9
$DIMTZIN
 70
     0
  9
$DIMALTZ
 70
     0
  9
$DIMALTTZ
 70
     0
  9
$DIMFIT
 70
     0
  9
$DIMUPT
 70
     0
  9
$DIMUNIT
 70
     2
  9
$DIMDEC
 70
     0
  9
$DIMTDEC
 70
     4
  9
$DIMALTU
 70
     2
  9
$DIMALTTD
 70
     2
  9
$DIMTXSTY
  7
STANDARD
  9
$DIMAUNIT
 70
     0
  9
$LUNITS
 70
     2
  9
$LUPREC
 70
     4
  9
$SKETCHINC
 40
1.0
  9
$FILLETRAD
 40
10.0
  9
$AUNITS
 70
     0
  9
$AUPREC
 70
     0
  9
$MENU
  1
.
  9
$ELEVATION
 40
0.0
  9
$PELEVATION
 40
0.0
  9
$THICKNESS
 40
0.0
  9
$LIMCHECK
 70
     0
  9
$BLIPMODE
 70
     1
  9
$CHAMFERA
 40
10.0
  9
$CHAMFERB
 40
10.0
  9
$CHAMFERC
 40
20.0
  9
$CHAMFERD
 40
0.0
  9
$SKPOLY
 70
     0
  9
$TDCREATE
 40
2450763.421427893
  9
$TDUPDATE
 40
2453313.409741411
  9
$TDINDWG
 40
1.1464089005
  9
$TDUSRTIMER
 40
1.1464089005
  9
$USRTIMER
 70
     1
  9
$ANGBASE
 50
0.0
  9
$ANGDIR
 70
     0
  9
$PDMODE
 70
     3
  9
$PDSIZE
 40
0.0
  9
$PLINEWID
 40
0.0
  9
$COORDS
 70
     2
  9
$SPLFRAME
 70
     0
  9
$SPLINETYPE
 70
     6
  9
$SPLINESEGS
 70
     8
  9
$ATTDIA
 70
     0
  9
$ATTREQ
 70
     1
  9
$HANDLING
 70
     1
  9
$HANDSEED
  5
2053
  9
$SURFTAB1
 70
     6
  9
$SURFTAB2
 70
     6
  9
$SURFTYPE
 70
     6
  9
$SURFU
 70
     6
  9
$SURFV
 70
     6
  9
$UCSNAME
  2

  9
$UCSORG
 10
99.99999999999998
 20
0.0
 30
0.0
  9
$UCSXDIR
 10
1.0
 20
0.0
 30
0.0
  9
$UCSYDIR
 10
0.0
 20
1.0
 30
0.0
  9
$PUCSNAME
  2

  9
$PUCSORG
 10
0.0
 20
0.0
 30
0.0
  9
$PUCSXDIR
 10
1.0
 20
0.0
 30
0.0
  9
$PUCSYDIR
 10
0.0
 20
1.0
 30
0.0
  9
$USERI1
 70
     0
  9
$USERI2
 70
     0
  9
$USERI3
 70
     0
  9
$USERI4
 70
     0
  9
$USERI5
 70
     0
  9
$USERR1
 40
0.0
  9
$USERR2
 40
0.0
  9
$USERR3
 40
0.0
  9
$USERR4
 40
0.0
  9
$USERR5
 40
0.0
  9
$WORLDVIEW
 70
     1
  9
$SHADEDGE
 70
     3
  9
$SHADEDIF
 70
    70
  9
$TILEMODE
 70
     1
  9
$MAXACTVP
 70
    16
  9
$PINSBASE
 10
0.0
 20
0.0
 30
0.0
  9
$PLIMCHECK
 70
     0
  9
$PEXTMIN
 10
1.000000E+20
 20
1.000000E+20
 30
1.000000E+20
  9
$PEXTMAX
 10
-1.000000E+20
 20
-1.000000E+20
 30
-1.000000E+20
  9
$PLIMMIN
 10
0.0
 20
0.0
  9
$PLIMMAX
 10
420.0
 20
297.0
  9
$UNITMODE
 70
     0
  9
$VISRETAIN
 70
     0
  9
$PLINEGEN
 70
     0
  9
$PSLTSCALE
 70
     0
  9
$TREEDEPTH
 70
  3020
  9
$PICKSTYLE
 70
     1
  9
$CMLSTYLE
  2
STANDARD
  9
$CMLJUST
 70
     0
  9
$CMLSCALE
 40
1.0
  9
$PROXYGRAPHICS
 70
     1
  9
$MEASUREMENT
 70
     1
  0
ENDSEC
  0
SECTION
  2
CLASSES
  0
CLASS
  1
LWPOLYLINE
  2
AcDbPolyline
  3
"AutoCAD"
 90
        0
280
     0
281
     1
  0
CLASS
  1
DICTIONARYVAR
  2
AcDbDictionaryVar
  3
"AutoCAD"
 90
        0
280
     0
281
     0
  0
CLASS
  1
HATCH
  2
AcDbHatch
  3
"ACAD_SEDONA"
 90
        0
280
     0
281
     1
  0
ENDSEC
  0
SECTION
  2
TABLES
  0
TABLE
  2
VPORT
  5
8
100
AcDbSymbolTable
 70
     2
  0
VPORT
  5
2052
100
AcDbSymbolTableRecord
100
AcDbViewportTableRecord
  2
*ACTIVE
 70
     0
 10
0.0
 20
0.0
 11
1.0
 21
1.0
 12
214.067922
 22
-75.194967
 13
0.0
 23
0.0
 14
10.0
 24
10.0
 15
50.0
 25
50.0
 16
0.0
 26
0.0
 36
1.0
 17
0.0
 27
0.0
 37
0.0
 40
490.900224
 41
1.523346
 42
50.0
 43
0.0
 44
0.0
 50
0.0
 51
0.0
 71
     0
 72
   100
 73
     1
 74
     0
 75
     0
 76
     0
 77
     0
 78
     0
  0
ENDTAB
  0
TABLE
  2
LTYPE
  5
5
100
AcDbSymbolTable
 70
     3
  0
LTYPE
  5
14
100
AcDbSymbolTableRecord
100
AcDbLinetypeTableRecord
  2
BYBLOCK
 70
     0
  3

 72
    65
 73
     0
 40
0.0
  0
LTYPE
  5
15
100
AcDbSymbolTableRecord
100
AcDbLinetypeTableRecord
  2
BYLAYER
 70
     0
  3

 72
    65
 73
     0
 40
0.0
  0
LTYPE
  5
16
100
AcDbSymbolTableRecord
100
AcDbLinetypeTableRecord
  2
CONTINUOUS
 70
     0
  3
Solid line
 72
    65
 73
     0
 40
0.0
  0
LTYPE
  5
1D7
100
AcDbSymbolTableRecord
100
AcDbLinetypeTableRecord
  2
DASHED
 70
     0
  3
__ __ __ __ __ __ __ __ __ __ __ __ __ __ __ __
 72
    65
 73
     2
 40
0.75
 49
0.5
 74
     0
 49
-0.25
 74
     0
  0
LTYPE
  5
492
100
AcDbSymbolTableRecord
100
AcDbLinetypeTableRecord
  2
DASHDOT
 70
     0
  3
__ . __ . __ . __ . __ . __ . __ . __ . __ . __
 72
    65
 73
     4
 40
1.0
 49
0.5
 74
     0
 49
-0.25
 74
     0
 49
0.0
 74
     0
 49
-0.25
 74
     0
  0
ENDTAB
  0
TABLE
  2
LAYER
  5
2
100
AcDbSymbolTable
 70
     6
  0
LAYER
  5
F
100
AcDbSymbolTableRecord
100
AcDbLayerTableRecord
  2
0
 70
     0
 62
     7
  6
CONTINUOUS
  0
LAYER
  5
1A22
100
AcDbSymbolTableRecord
100
AcDbLayerTableRecord
  2
DEFPOINTS
 70
     0
 62
     7
  6
CONTINUOUS
  0
LAYER
  5
1FBD
100
AcDbSymbolTableRecord
100
AcDbLayerTableRecord
  2
V0-OBRYS
 70
     0
 62
    90
  6
CONTINUOUS
  0
LAYER
  5
1FBE
100
AcDbSymbolTableRecord
100
AcDbLayerTableRecord
  2
V0-VYPLNE
 70
     0
 62
    52
  6
CONTINUOUS
  0
LAYER
  5
1FBF
100
AcDbSymbolTableRecord
100
AcDbLayerTableRecord
  2
V0-NAZVY
 70
     0
 62
   210
  6
CONTINUOUS
  0
LAYER
  5
1FC0
100
AcDbSymbolTableRecord
100
AcDbLayerTableRecord
  2
V0-ZBYTEK
 70
     0
 62
    51
  6
CONTINUOUS
  0
ENDTAB
  0
TABLE
  2
STYLE
  5
3
100
AcDbSymbolTable
 70
     6
  0
STYLE
  5
10
100
AcDbSymbolTableRecord
100
AcDbTextStyleTableRecord
  2
STANDARD
 70
     0
 40
0.0
 41
1.0
 50
0.0
 71
     0
 42
15.0
  3
ISOCP
  4

  0
STYLE
  5
1FC1
100
AcDbSymbolTableRecord
100
AcDbTextStyleTableRecord
  2
ED
 70
     0
 40
20.0
 41
1.0
 50
0.0
 71
     0
 42
2.5
  3
ISOCP.shx
  4

  0
STYLE
  5
1FC2
100
AcDbSymbolTableRecord
100
AcDbTextStyleTableRecord
  2
EDVENT
 70
     0
 40
10.0
 41
1.0
 50
0.0
 71
     0
 42
2.5
  3
ISOCP.shx
  4

  0
STYLE
  5
1FC3
100
AcDbSymbolTableRecord
100
AcDbTextStyleTableRecord
  2
E
 70
     0
 40
25.0
 41
1.0
 50
0.0
 71
     0
 42
2.5
  3
ISOCP.shx
  4

  0
STYLE
  5
1FC4
100
AcDbSymbolTableRecord
100
AcDbTextStyleTableRecord
  2
ED-VENT
 70
     0
 40
25.0
 41
1.0
 50
0.0
 71
     0
 42
2.5
  3
ISOCP.shx
  4

  0
STYLE
  5
1FC5
100
AcDbSymbolTableRecord
100
AcDbTextStyleTableRecord
  2
ED2
 70
     0
 40
25.0
 41
1.0
 50
0.0
 71
     0
 42
2.5
  3
ISOCP.shx
  4

  0
ENDTAB
  0
TABLE
  2
VIEW
  5
6
100
AcDbSymbolTable
 70
     0
  0
ENDTAB
  0
TABLE
  2
UCS
  5
7
100
AcDbSymbolTable
 70
     0
  0
ENDTAB
  0
TABLE
  2
APPID
  5
9
100
AcDbSymbolTable
 70
     4
  0
APPID
  5
11
100
AcDbSymbolTableRecord
100
AcDbRegAppTableRecord
  2
ACAD
 70
     0
  0
APPID
  5
906
100
AcDbSymbolTableRecord
100
AcDbRegAppTableRecord
  2
CONTENTTABDATA
 70
     0
  0
APPID
  5
907
100
AcDbSymbolTableRecord
100
AcDbRegAppTableRecord
  2
CONTENTCURRENTTAB
 70
     0
  0
APPID
  5
908
100
AcDbSymbolTableRecord
100
AcDbRegAppTableRecord
  2
CONTENTBLOCKDESCRIPTION
 70
     0
  0
ENDTAB
  0
TABLE
  2
DIMSTYLE
  5
A
100
AcDbSymbolTable
 70
     3
  0
DIMSTYLE
105
1D
102
{ACAD_REACTORS
330
1D2D
330
1D2E
330
1F2C
330
1D2C
102
}
100
AcDbSymbolTableRecord
100
AcDbDimStyleTableRecord
  2
STANDARD
 70
     0
  3

  4

  5

  6
_OPEN
  7
_OPEN
 40
5.0
 41
3.5
 42
0.0625
 43
0.38
 44
0.18
 45
0.0
 46
0.0
 47
0.0
 48
0.0
140
3.5
141
0.0
142
0.0
143
25.4
144
1.0
145
0.0
146
1.0
147
0.625
 71
     0
 72
     0
 73
     0
 74
     0
 75
     0
 76
     0
 77
     1
 78
     0
170
     0
171
     2
172
     0
173
     1
174
     0
175
     0
176
     0
177
     0
178
     0
270
     2
271
     0
272
     4
273
     2
274
     2
340
10
275
     0
280
     0
281
     0
282
     0
283
     1
284
     0
285
     0
286
     0
287
     0
288
     0
  0
DIMSTYLE
105
1FC6
100
AcDbSymbolTableRecord
100
AcDbDimStyleTableRecord
  2
ED
 70
     0
  3

  4

  5

  6
_OPEN
  7
_OPEN
 40
0.0
 41
15.0
 42
0.625
 43
3.75
 44
1.25
 45
0.0
 46
0.0
 47
0.0
 48
0.0
140
15.0
141
2.5
142
0.0
143
0.0394
144
1.0
145
0.0
146
1.0
147
3.0
 71
     0
 72
     0
 73
     0
 74
     0
 75
     0
 76
     0
 77
     1
 78
     8
170
     0
171
     4
172
     1
173
     1
174
     0
175
     0
176
     0
177
     0
178
     0
270
     2
271
     0
272
     1
273
     8
274
     4
340
1FC1
275
     0
280
     0
281
     0
282
     0
283
     1
284
     8
285
     0
286
     0
287
     3
288
     0
  0
DIMSTYLE
105
1FC7
100
AcDbSymbolTableRecord
100
AcDbDimStyleTableRecord
  2
ED2
 70
     0
  3

  4

  5

  6
_OPEN
  7
_OPEN
 40
0.0
 41
25.0
 42
0.625
 43
3.75
 44
1.25
 45
0.0
 46
0.0
 47
0.0
 48
0.0
140
30.0
141
2.5
142
0.0
143
0.0394
144
1.0
145
0.0
146
1.0
147
5.0
 71
     0
 72
     0
 73
     0
 74
     0
 75
     0
 76
     0
 77
     1
 78
     8
170
     0
171
     4
172
     1
173
     1
174
     0
175
     0
176
     0
177
     0
178
     0
270
     2
271
     0
272
     1
273
     8
274
     4
340
1FC1
275
     0
280
     0
281
     0
282
     0
283
     1
284
     8
285
     0
286
     0
287
     3
288
     0
  0
ENDTAB
  0
TABLE
  2
BLOCK_RECORD
  5
1
100
AcDbSymbolTable
 70
     9
  0
BLOCK_RECORD
  5
1A
100
AcDbSymbolTableRecord
100
AcDbBlockTableRecord
  2
*MODEL_SPACE
  0
BLOCK_RECORD
  5
17
100
AcDbSymbolTableRecord
100
AcDbBlockTableRecord
  2
*PAPER_SPACE
  0
BLOCK_RECORD
  5
1A05
100
AcDbSymbolTableRecord
100
AcDbBlockTableRecord
  2
_OPEN
  0
BLOCK_RECORD
  5
1FEB
100
AcDbSymbolTableRecord
100
AcDbBlockTableRecord
  2
*D5
  0
BLOCK_RECORD
  5
1FF8
100
AcDbSymbolTableRecord
100
AcDbBlockTableRecord
  2
*D6
  0
BLOCK_RECORD
  5
2004
100
AcDbSymbolTableRecord
100
AcDbBlockTableRecord
  2
*D7
  0
BLOCK_RECORD
  5
2010
100
AcDbSymbolTableRecord
100
AcDbBlockTableRecord
  2
*D8
  0
ENDTAB
  0
ENDSEC
  0
SECTION
  2
BLOCKS
  0
BLOCK
  5
1B
100
AcDbEntity
  8
0
100
AcDbBlockBegin
  2
*MODEL_SPACE
 70
     0
 10
0.0
 20
0.0
 30
0.0
  3
*MODEL_SPACE
  1

  0
ENDBLK
  5
1C
100
AcDbEntity
  8
0
100
AcDbBlockEnd
  0
BLOCK
  5
18
100
AcDbEntity
 67
     1
  8
0
100
AcDbBlockBegin
  2
*PAPER_SPACE
 70
     0
 10
0.0
 20
0.0
 30
0.0
  3
*PAPER_SPACE
  1

  0
ENDBLK
  5
19
100
AcDbEntity
 67
     1
  8
0
100
AcDbBlockEnd
  0
BLOCK
  5
1A09
100
AcDbEntity
  8
0
100
AcDbBlockBegin
  2
_OPEN
 70
     0
 10
0.0
 20
0.0
 30
0.0
  3
_OPEN
  1

  0
LINE
  5
1A06
100
AcDbEntity
  8
0
  6
BYBLOCK
 62
     0
100
AcDbLine
 10
-1.0
 20
0.166667
 30
0.0
 11
0.0
 21
0.0
 31
0.0
  0
LINE
  5
1A07
100
AcDbEntity
  8
0
  6
BYBLOCK
 62
     0
100
AcDbLine
 10
0.0
 20
0.0
 30
0.0
 11
-1.0
 21
-0.166667
 31
0.0
  0
LINE
  5
1A08
100
AcDbEntity
  8
0
  6
BYBLOCK
 62
     0
100
AcDbLine
 10
0.0
 20
0.0
 30
0.0
 11
-1.0
 21
0.0
 31
0.0
  0
ENDBLK
  5
1A0A
100
AcDbEntity
  8
0
100
AcDbBlockEnd
  0
BLOCK
  5
1FEC
100
AcDbEntity
  8
0
 48
5.0
100
AcDbBlockBegin
  2
*D5
 70
     1
 10
0.0
 20
0.0
 30
0.0
  3
*D5
  1

  0
LINE
  5
1FED
100
AcDbEntity
  8
0
  6
BYBLOCK
 62
     0
 48
5.0
100
AcDbLine
 10
93.3125
 20
-50.3125
 30
0.0
 11
93.3125
 21
-112.813291
 31
0.0
  0
LINE
  5
1FEE
100
AcDbEntity
  8
0
  6
BYBLOCK
 62
     0
 48
5.0
100
AcDbLine
 10
62.3125
 20
-50.3125
 30
0.0
 11
62.3125
 21
-112.813291
 31
0.0
  0
LINE
  5
1FEF
100
AcDbEntity
  8
0
  6
BYBLOCK
 62
     0
 48
5.0
100
AcDbLine
 10
110.8125
 20
-111.913291
 30
0.0
 11
128.3125
 21
-111.913291
 31
0.0
  0
LINE
  5
1FF0
100
AcDbEntity
  8
0
  6
BYBLOCK
 62
     0
 48
5.0
100
AcDbLine
 10
44.8125
 20
-111.913291
 30
0.0
 11
27.3125
 21
-111.913291
 31
0.0
  0
INSERT
  5
1FF1
100
AcDbEntity
  8
0
  6
BYBLOCK
 62
     0
 48
5.0
100
AcDbBlockReference
  2
_OPEN
 10
93.3125
 20
-111.913291
 30
0.0
 41
17.5
 42
17.5
 43
17.5
 50
180.0
  0
INSERT
  5
1FF2
100
AcDbEntity
  8
0
  6
BYBLOCK
 62
     0
 48
5.0
100
AcDbBlockReference
  2
_OPEN
 10
62.3125
 20
-111.913291
 30
0.0
 41
17.5
 42
17.5
 43
17.5
  0
MTEXT
  5
1FF3
100
AcDbEntity
  8
0
  6
BYBLOCK
 62
     0
 48
5.0
100
AcDbMText
 10
77.8125
 20
-100.038291
 30
0.0
 40
17.5
 41
0.0
 71
     5
 72
     1
  1
\A1;31
  0
POINT
  5
1FF4
100
AcDbEntity
  8
DEFPOINTS
  6
BYBLOCK
 62
     0
 48
5.0
100
AcDbPoint
 10
93.3125
 20
-50.0
 30
0.0
  0
POINT
  5
1FF5
100
AcDbEntity
  8
DEFPOINTS
  6
BYBLOCK
 62
     0
 48
5.0
100
AcDbPoint
 10
62.3125
 20
-50.0
 30
0.0
  0
POINT
  5
1FF6
100
AcDbEntity
  8
DEFPOINTS
  6
BYBLOCK
 62
     0
 48
5.0
100
AcDbPoint
 10
62.3125
 20
-111.913291
 30
0.0
  0
ENDBLK
  5
1FF7
100
AcDbEntity
  8
0
 48
5.0
100
AcDbBlockEnd
  0
BLOCK
  5
1FF9
100
AcDbEntity
  8
0
 48
5.0
100
AcDbBlockBegin
  2
*D6
 70
     1
 10
0.0
 20
0.0
 30
0.0
  3
*D6
  1

  0
LINE
  5
1FFA
100
AcDbEntity
  8
0
  6
BYBLOCK
 62
     0
 48
5.0
100
AcDbLine
 10
142.3125
 20
-50.3125
 30
0.0
 11
142.3125
 21
-143.674472
 31
0.0
  0
LINE
  5
1FFB
100
AcDbEntity
  8
0
  6
BYBLOCK
 62
     0
 48
5.0
100
AcDbLine
 10
62.3125
 20
-50.3125
 30
0.0
 11
62.3125
 21
-143.674472
 31
0.0
  0
LINE
  5
1FFC
100
AcDbEntity
  8
0
  6
BYBLOCK
 62
     0
 48
5.0
100
AcDbLine
 10
124.8125
 20
-142.774472
 30
0.0
 11
79.8125
 21
-142.774472
 31
0.0
  0
INSERT
  5
1FFD
100
AcDbEntity
  8
0
  6
BYBLOCK
 62
     0
 48
5.0
100
AcDbBlockReference
  2
_OPEN
 10
142.3125
 20
-142.774472
 30
0.0
 41
17.5
 42
17.5
 43
17.5
  0
INSERT
  5
1FFE
100
AcDbEntity
  8
0
  6
BYBLOCK
 62
     0
 48
5.0
100
AcDbBlockReference
  2
_OPEN
 10
62.3125
 20
-142.774472
 30
0.0
 41
17.5
 42
17.5
 43
17.5
 50
180.0
  0
MTEXT
  5
1FFF
100
AcDbEntity
  8
0
  6
BYBLOCK
 62
     0
 48
5.0
100
AcDbMText
 10
105.9595
 20
-130.899472
 30
0.0
 40
17.5
 41
0.0
 71
     5
 72
     1
  1
\A1;80
  0
POINT
  5
2000
100
AcDbEntity
  8
DEFPOINTS
  6
BYBLOCK
 62
     0
 48
5.0
100
AcDbPoint
 10
142.3125
 20
-50.0
 30
0.0
  0
POINT
  5
2001
100
AcDbEntity
  8
DEFPOINTS
  6
BYBLOCK
 62
     0
 48
5.0
100
AcDbPoint
 10
62.3125
 20
-50.0
 30
0.0
  0
POINT
  5
2002
100
AcDbEntity
  8
DEFPOINTS
  6
BYBLOCK
 62
     0
 48
5.0
100
AcDbPoint
 10
62.3125
 20
-142.774472
 30
0.0
  0
ENDBLK
  5
2003
100
AcDbEntity
  8
0
 48
5.0
100
AcDbBlockEnd
  0
BLOCK
  5
203F
100
AcDbEntity
  8
0
 48
5.0
100
AcDbBlockBegin
  2
*D7
 70
     1
 10
0.0
 20
0.0
 30
0.0
  3
*D7
  1

  0
LINE
  5
2040
100
AcDbEntity
  8
0
  6
BYBLOCK
 62
     0
 48
5.0
100
AcDbLine
 10
61.6875
 20
50.0
 30
0.0
 11
36.375637
 21
50.0
 31
0.0
  0
LINE
  5
2041
100
AcDbEntity
  8
0
  6
BYBLOCK
 62
     0
 48
5.0
100
AcDbLine
 10
62.0
 20
-50.3125
 30
0.0
 11
36.375637
 21
-50.3125
 31
0.0
  0
LINE
  5
2042
100
AcDbEntity
  8
0
  6
BYBLOCK
 62
     0
 48
5.0
100
AcDbLine
 10
37.275637
 20
32.5
 30
0.0
 11
37.275637
 21
-32.8125
 31
0.0
  0
INSERT
  5
2043
100
AcDbEntity
  8
0
  6
BYBLOCK
 62
     0
 48
5.0
100
AcDbBlockReference
  2
_OPEN
 10
37.275637
 20
50.0
 30
0.0
 41
17.5
 42
17.5
 43
17.5
 50
90.0
  0
INSERT
  5
2044
100
AcDbEntity
  8
0
  6
BYBLOCK
 62
     0
 48
5.0
100
AcDbBlockReference
  2
_OPEN
 10
37.275637
 20
-50.3125
 30
0.0
 41
17.5
 42
17.5
 43
17.5
 50
270.0
  0
MTEXT
  5
2045
100
AcDbEntity
  8
0
  6
BYBLOCK
 62
     0
 48
5.0
100
AcDbMText
 10
25.400637
 20
-0.15625
 30
0.0
 40
17.5
 41
0.0
 71
     5
 72
     1
  1
\A1;\U+2205100
 11
0.0
 21
1.0
 31
0.0
  0
POINT
  5
2046
100
AcDbEntity
  8
DEFPOINTS
  6
BYBLOCK
 62
     0
 48
5.0
100
AcDbPoint
 10
62.0
 20
50.0
 30
0.0
  0
POINT
  5
2047
100
AcDbEntity
  8
DEFPOINTS
  6
BYBLOCK
 62
     0
 48
5.0
100
AcDbPoint
 10
62.3125
 20
-50.3125
 30
0.0
  0
POINT
  5
2048
100
AcDbEntity
  8
DEFPOINTS
  6
BYBLOCK
 62
     0
 48
5.0
100
AcDbPoint
 10
37.275637
 20
-50.3125
 30
0.0
  0
ENDBLK
  5
2049
100
AcDbEntity
  8
0
 48
5.0
100
AcDbBlockEnd
  0
BLOCK
  5
2011
100
AcDbEntity
  8
0
 48
5.0
100
AcDbBlockBegin
  2
*D8
 70
     1
 10
0.0
 20
0.0
 30
0.0
  3
*D8
  1

  0
LINE
  5
2012
100
AcDbEntity
  8
0
  6
BYBLOCK
 62
     0
 48
5.0
100
AcDbLine
 10
142.3125
 20
-50.3125
 30
0.0
 11
142.3125
 21
-85.381129
 31
0.0
  0
LINE
  5
2013
100
AcDbEntity
  8
0
  6
BYBLOCK
 62
     0
 48
5.0
100
AcDbLine
 10
107.3125
 20
-50.3125
 30
0.0
 11
107.3125
 21
-85.381129
 31
0.0
  0
LINE
  5
2014
100
AcDbEntity
  8
0
  6
BYBLOCK
 62
     0
 48
5.0
100
AcDbLine
 10
159.8125
 20
-84.481129
 30
0.0
 11
177.3125
 21
-84.481129
 31
0.0
  0
LINE
  5
2015
100
AcDbEntity
  8
0
  6
BYBLOCK
 62
     0
 48
5.0
100
AcDbLine
 10
89.8125
 20
-84.481129
 30
0.0
 11
72.3125
 21
-84.481129
 31
0.0
  0
INSERT
  5
2016
100
AcDbEntity
  8
0
  6
BYBLOCK
 62
     0
 48
5.0
100
AcDbBlockReference
  2
_OPEN
 10
142.3125
 20
-84.481129
 30
0.0
 41
17.5
 42
17.5
 43
17.5
 50
180.0
  0
INSERT
  5
2017
100
AcDbEntity
  8
0
  6
BYBLOCK
 62
     0
 48
5.0
100
AcDbBlockReference
  2
_OPEN
 10
107.3125
 20
-84.481129
 30
0.0
 41
17.5
 42
17.5
 43
17.5
  0
MTEXT
  5
2018
100
AcDbEntity
  8
0
  6
BYBLOCK
 62
     0
 48
5.0
100
AcDbMText
 10
124.8125
 20
-72.606129
 30
0.0
 40
17.5
 41
0.0
 71
     5
 72
     1
  1
\A1;35
  0
POINT
  5
2019
100
AcDbEntity
  8
DEFPOINTS
  6
BYBLOCK
 62
     0
 48
5.0
100
AcDbPoint
 10
142.3125
 20
-50.0
 30
0.0
  0
POINT
  5
201A
100
AcDbEntity
  8
DEFPOINTS
  6
BYBLOCK
 62
     0
 48
5.0
100
AcDbPoint
 10
107.3125
 20
-50.0
 30
0.0
  0
POINT
  5
201B
100
AcDbEntity
  8
DEFPOINTS
  6
BYBLOCK
 62
     0
 48
5.0
100
AcDbPoint
 10
107.3125
 20
-84.481129
 30
0.0
  0
ENDBLK
  5
201C
100
AcDbEntity
  8
0
 48
5.0
100
AcDbBlockEnd
  0
ENDSEC
  0
SECTION
  2
ENTITIES
  0
LINE
  5
1D16
100
AcDbEntity
  8
V0-VYPLNE
  6
DASHDOT
 62
    63
 48
2.0
100
AcDbLine
 10
147.0
 20
0.0
 30
0.0
 11
57.0
 21
0.0
 31
0.0
  0
LINE
  5
1D17
100
AcDbEntity
  8
V0-VYPLNE
  6
DASHDOT
 62
    63
 48
2.0
100
AcDbLine
 10
222.770824
 20
0.0
 30
0.0
 11
322.770824
 21
0.0
 31
0.0
  0
LINE
  5
1D18
100
AcDbEntity
  8
V0-VYPLNE
  6
DASHDOT
 62
    63
 48
2.0
100
AcDbLine
 10
272.770824
 20
-50.0
 30
0.0
 11
272.770824
 21
50.0
 31
0.0
  0
LINE
  5
1D19
100
AcDbEntity
  8
V0-OBRYS
  6
CONTINUOUS
 62
    90
100
AcDbLine
 10
142.0
 20
-50.0
 30
0.0
 11
142.0
 21
50.0
 31
0.0
  0
LINE
  5
1D1A
100
AcDbEntity
  8
V0-OBRYS
  6
CONTINUOUS
 62
    90
100
AcDbLine
 10
142.0
 20
50.0
 30
0.0
 11
108.0
 21
50.0
 31
0.0
  0
LINE
  5
1D1B
100
AcDbEntity
  8
V0-OBRYS
  6
CONTINUOUS
 62
    90
100
AcDbLine
 10
107.0
 20
49.257009
 30
0.0
 11
107.0
 21
-49.748471
 31
0.0
  0
LINE
  5
1D1C
100
AcDbEntity
  8
V0-OBRYS
  6
CONTINUOUS
 62
    90
100
AcDbLine
 10
93.0
 20
-50.0
 30
0.0
 11
93.0
 21
50.0
 31
0.0
  0
LINE
  5
1D1D
100
AcDbEntity
  8
V0-OBRYS
  6
CONTINUOUS
 62
    90
100
AcDbLine
 10
94.0
 20
50.0
 30
0.0
 11
62.0
 21
50.0
 31
0.0
  0
LINE
  5
1D1E
100
AcDbEntity
  8
V0-OBRYS
  6
CONTINUOUS
 62
    90
100
AcDbLine
 10
62.0
 20
50.0
 30
0.0
 11
62.0
 21
-50.0
 31
0.0
  0
ARC
  5
1D1F
100
AcDbEntity
  8
V0-OBRYS
  6
CONTINUOUS
 62
    90
100
AcDbCircle
 10
101.0
 20
58.376931
 30
0.0
 40
10.916638
100
AcDbArc
 50
230.116919
 51
309.883081
  0
LINE
  5
1D20
100
AcDbEntity
  8
V0-OBRYS
  6
CONTINUOUS
 62
    90
100
AcDbLine
 10
93.3125
 20
-50.501406
 30
0.0
 11
62.0
 21
-50.501406
 31
0.0
  0
LINE
  5
1D24
100
AcDbEntity
  8
V0-OBRYS
  6
CONTINUOUS
 62
    90
100
AcDbLine
 10
142.3125
 20
-50.0
 30
0.0
 11
107.3125
 21
-50.0
 31
0.0
  0
ARC
  5
1D25
100
AcDbEntity
  8
V0-OBRYS
  6
CONTINUOUS
 62
    90
100
AcDbCircle
 10
100.3125
 20
-58.878338
 30
0.0
 40
10.916638
100
AcDbArc
 50
50.116919
 51
129.883081
  0
LINE
  5
1D29
100
AcDbEntity
  8
V0-OBRYS
  6
CONTINUOUS
 62
    90
100
AcDbLine
 10
269.998273
 20
42.804743
 30
0.0
 11
269.998273
 21
-42.804743
 31
0.0
  0
LINE
  5
1D2A
100
AcDbEntity
  8
V0-OBRYS
  6
CONTINUOUS
 62
    90
100
AcDbLine
 10
275.543375
 20
42.804743
 30
0.0
 11
275.543375
 21
-42.804743
 31
0.0
  0
DIMENSION
  5
1D2C
100
AcDbEntity
  8
V0-VYPLNE
  6
CONTINUOUS
 62
    41
100
AcDbDimension
  2
*D8
 10
107.3125
 20
-84.481129
 30
0.0
 11
124.8125
 21
-84.481129
 31
0.0
 70
   160
  3
STANDARD
100
AcDbAlignedDimension
 13
142.3125
 23
-50.0
 33
0.0
 14
107.3125
 24
-50.0
 34
0.0
100
AcDbRotatedDimension
  0
DIMENSION
  5
1D2D
100
AcDbEntity
  8
V0-VYPLNE
  6
CONTINUOUS
 62
    41
100
AcDbDimension
  2
*D5
 10
62.3125
 20
-111.913291
 30
0.0
 11
77.8125
 21
-111.913291
 31
0.0
 70
   160
  3
STANDARD
100
AcDbAlignedDimension
 13
93.3125
 23
-50.0
 33
0.0
 14
62.3125
 24
-50.0
 34
0.0
100
AcDbRotatedDimension
  0
DIMENSION
  5
1D2E
100
AcDbEntity
  8
V0-VYPLNE
  6
CONTINUOUS
 62
    41
100
AcDbDimension
  2
*D6
 10
62.3125
 20
-142.774472
 30
0.0
 11
105.9595
 21
-142.774472
 31
0.0
 70
   160
  3
STANDARD
100
AcDbAlignedDimension
 13
142.3125
 23
-50.0
 33
0.0
 14
62.3125
 24
-50.0
 34
0.0
100
AcDbRotatedDimension
  0
TEXT
  5
1D80
100
AcDbEntity
  8
V0-ZBYTEK
  6
CONTINUOUS
 62
    51
100
AcDbText
 10
193.382131
 20
-270.626136
 30
0.0
 40
12.0
  1
PRO KRUHOVE POTRUBI
 72
     1
 11
276.812131
 21
-270.626136
 31
0.0
100
AcDbText
  0
TEXT
  5
1D81
100
AcDbEntity
  8
V0-NAZVY
  6
CONTINUOUS
 62
   210
100
AcDbText
 10
217.552764
 20
-200.266642
 30
0.0
 40
24.0
  1
RSK-100
 72
     1
 11
277.622213
 21
-200.266642
 31
0.0
100
AcDbText
  0
TEXT
  5
1D82
100
AcDbEntity
  8
V0-ZBYTEK
  6
CONTINUOUS
 62
   130
100
AcDbText
 10
186.632213
 20
-234.929934
 30
0.0
 40
18.0
  1
ZPETNA KLAPKA
 72
     1
 11
277.622213
 21
-234.929934
 31
0.0
100
AcDbText
  0
TEXT
  5
1DC4
100
AcDbEntity
  8
V0-NAZVY
  6
CONTINUOUS
 62
   210
100
AcDbText
 10
49.323044
 20
63.514954
 30
0.0
 40
19.2
  1
RSK-100
 72
     1
 11
97.378603
 21
63.514954
 31
0.0
100
AcDbText
  0
TEXT
  5
1DC5
100
AcDbEntity
  8
V0-NAZVY
  6
CONTINUOUS
 62
   210
100
AcDbText
 10
57.974401
 20
-305.252648
 30
0.0
 40
19.2
  1
RSK-100
 72
     1
 11
106.02996
 21
-305.252648
 31
0.0
100
AcDbText
  0
TEXT
  5
1DC6
100
AcDbEntity
  8
V0-NAZVY
  6
CONTINUOUS
 62
   210
100
AcDbText
 10
218.777078
 20
59.172465
 30
0.0
 40
19.2
  1
RSK-100
 72
     1
 11
266.832637
 21
59.172465
 31
0.0
100
AcDbText
  0
LINE
  5
1F0F
100
AcDbEntity
  8
V0-OBRYS
  6
CONTINUOUS
 62
    90
100
AcDbLine
 10
107.0
 20
-177.058325
 30
0.0
 11
107.0
 21
-276.063806
 31
0.0
  0
LINE
  5
1F10
100
AcDbEntity
  8
V0-OBRYS
  6
CONTINUOUS
 62
    90
100
AcDbLine
 10
93.0
 20
-276.315335
 30
0.0
 11
93.0
 21
-176.315335
 31
0.0
  0
LINE
  5
1F11
100
AcDbEntity
  8
V0-OBRYS
  6
CONTINUOUS
 62
    90
100
AcDbLine
 10
142.0
 20
-276.315335
 30
0.0
 11
142.0
 21
-176.315335
 31
0.0
  0
LINE
  5
1F14
100
AcDbEntity
  8
V0-OBRYS
  6
CONTINUOUS
 62
    90
100
AcDbLine
 10
93.3125
 20
-276.315335
 30
0.0
 11
62.0
 21
-276.315335
 31
0.0
  0
LINE
  5
1F15
100
AcDbEntity
  8
V0-OBRYS
  6
CONTINUOUS
 62
    90
100
AcDbLine
 10
142.3125
 20
-276.315335
 30
0.0
 11
107.3125
 21
-276.315335
 31
0.0
  0
ARC
  5
1F16
100
AcDbEntity
  8
V0-OBRYS
  6
CONTINUOUS
 62
    90
100
AcDbCircle
 10
100.3125
 20
-284.692266
 30
0.0
 40
10.916638
100
AcDbArc
 50
50.116919
 51
129.883081
  0
LINE
  5
1F17
100
AcDbEntity
  8
V0-OBRYS
  6
CONTINUOUS
 62
    90
100
AcDbLine
 10
94.0
 20
-176.315335
 30
0.0
 11
62.0
 21
-176.315335
 31
0.0
  0
LINE
  5
1F18
100
AcDbEntity
  8
V0-VYPLNE
  6
DASHDOT
 62
    63
 48
2.0
100
AcDbLine
 10
147.0
 20
-226.315335
 30
0.0
 11
57.0
 21
-226.315335
 31
0.0
  0
LINE
  5
1F19
100
AcDbEntity
  8
V0-OBRYS
  6
CONTINUOUS
 62
    90
100
AcDbLine
 10
62.0
 20
-176.315335
 30
0.0
 11
62.0
 21
-276.315335
 31
0.0
  0
LINE
  5
1F1A
100
AcDbEntity
  8
V0-OBRYS
  6
CONTINUOUS
 62
    90
100
AcDbLine
 10
142.0
 20
-176.315335
 30
0.0
 11
108.0
 21
-176.315335
 31
0.0
  0
ARC
  5
1F1B
100
AcDbEntity
  8
V0-OBRYS
  6
CONTINUOUS
 62
    90
100
AcDbCircle
 10
101.0
 20
-167.938403
 30
0.0
 40
10.916638
100
AcDbArc
 50
230.116919
 51
309.883081
  0
CIRCLE
  5
1F1C
100
AcDbEntity
  8
V0-OBRYS
  6
CONTINUOUS
 62
    90
100
AcDbCircle
 10
272.770824
 20
0.0
 30
0.0
 40
50.0
  0
CIRCLE
  5
1F1D
100
AcDbEntity
  8
V0-OBRYS
  6
CONTINUOUS
 62
    90
100
AcDbCircle
 10
272.770824
 20
0.0
 30
0.0
 40
42.894441
  0
DIMENSION
  5
1F2C
100
AcDbEntity
  8
V0-VYPLNE
  6
CONTINUOUS
 62
    41
100
AcDbDimension
  2
*D7
 10
37.275637
 20
-50.3125
 30
0.0
 11
37.275637
 21
-0.15625
 31
0.0
 70
   160
  1
%%c100
  3
STANDARD
100
AcDbAlignedDimension
 13
62.0
 23
50.0
 33
0.0
 14
62.3125
 24
-50.3125
 34
0.0
 50
90.0
100
AcDbRotatedDimension
  0
LINE
  5
1F4A
100
AcDbEntity
  8
V0-VYPLNE
  6
CONTINUOUS
 62
    41
100
AcDbLine
 10
62.3125
 20
-111.913291
 30
0.0
 11
93.349776
 21
-111.913291
 31
0.0
  0
LINE
  5
1F4B
100
AcDbEntity
  8
V0-VYPLNE
  6
CONTINUOUS
 62
    41
100
AcDbLine
 10
93.349776
 20
-111.913291
 30
0.0
 11
96.782183
 21
-111.913291
 31
0.0
  0
LINE
  5
1F4C
100
AcDbEntity
  8
V0-VYPLNE
  6
CONTINUOUS
 62
    41
100
AcDbLine
 10
107.3125
 20
-84.481129
 30
0.0
 11
146.552096
 21
-84.481129
 31
0.0
  0
ELLIPSE
  5
1F4D
100
AcDbEntity
  8
V0-VYPLNE
  6
DASHED
 62
    56
 48
2.0
100
AcDbEllipse
 10
100.883506
 20
0.166313
 30
0.0
 11
0.0
 21
-47.25927863946128
 31
0.0
210
0.0
220
0.0
230
1.0
 40
0.708565
 41
6.218467883753202
 42
9.542469808559443
  0
POINT
  5
1F5D
100
AcDbEntity
  8
V0-VYPLNE
  6
CONTINUOUS
 62
    52
100
AcDbPoint
 10
62.0
 20
0.0
 30
0.0
  0
POINT
  5
1F5E
100
AcDbEntity
  8
V0-VYPLNE
  6
CONTINUOUS
 62
    52
100
AcDbPoint
 10
62.0
 20
-226.315335
 30
0.0
  0
POINT
  5
1F5F
100
AcDbEntity
  8
V0-VYPLNE
  6
CONTINUOUS
 62
    52
100
AcDbPoint
 10
272.770824
 20
0.0
 30
0.0
  0
CIRCLE
  5
1FB5
100
AcDbEntity
  8
V0-OBRYS
  6
CONTINUOUS
 62
    90
100
AcDbCircle
 10
99.844032
 20
-225.85416
 30
0.0
 40
5.682311
  0
LINE
  5
1FB6
100
AcDbEntity
  8
V0-VYPLNE
  6
DASHED
 62
    56
 48
2.0
100
AcDbLine
 10
104.389881
 20
-221.313278
 30
0.0
 11
130.528513
 21
-187.25666
 31
0.0
  0
LINE
  5
1FB7
100
AcDbEntity
  8
V0-VYPLNE
  6
DASHED
 62
    56
 48
2.0
100
AcDbLine
 10
104.389881
 20
-231.317391
 30
0.0
 11
130.528513
 21
-265.374009
 31
0.0
  0
LINE
  5
1FC8
100
AcDbEntity
  8
V0-VYPLNE
  6
CONTINUOUS
 62
    52
100
AcDbLine
 10
74.965396
 20
-216.331179
 30
0.0
 11
74.965396
 21
-236.331179
 31
0.0
  0
LINE
  5
1FC9
100
AcDbEntity
  8
V0-VYPLNE
  6
CONTINUOUS
 62
    52
100
AcDbLine
 10
74.965396
 20
-236.331179
 30
0.0
 11
89.965396
 21
-226.331179
 31
0.0
  0
LINE
  5
1FCA
100
AcDbEntity
  8
V0-VYPLNE
  6
CONTINUOUS
 62
    52
100
AcDbLine
 10
89.965396
 20
-226.331179
 30
0.0
 11
74.965396
 21
-216.331179
 31
0.0
  0
LINE
  5
1FCB
100
AcDbEntity
  8
V0-VYPLNE
  6
CONTINUOUS
 62
    52
100
AcDbLine
 10
74.965398
 20
9.984156
 30
0.0
 11
74.965398
 21
-10.015844
 31
0.0
  0
LINE
  5
1FCC
100
AcDbEntity
  8
V0-VYPLNE
  6
CONTINUOUS
 62
    52
100
AcDbLine
 10
74.965398
 20
-10.015844
 30
0.0
 11
89.965398
 21
-0.015844
 31
0.0
  0
LINE
  5
1FCD
100
AcDbEntity
  8
V0-VYPLNE
  6
CONTINUOUS
 62
    52
100
AcDbLine
 10
89.965398
 20
-0.015844
 30
0.0
 11
74.965398
 21
9.984156
 31
0.0
  0
ELLIPSE
  5
1FCE
100
AcDbEntity
  8
V0-OBRYS
 48
5.0
100
AcDbEllipse
 10
272.770824
 20
0.0
 30
0.0
 11
0.0
 21
42.89444090136725
 31
0.0
210
0.0
220
0.0
230
1.0
 40
0.716018
 41
0.0
 42
6.283185307179586
  0
VIEWPORT
  5
22
100
AcDbEntity
 67
     1
  8
0
100
AcDbViewport
 10
261.517699
 20
154.724298
 30
0.0
 40
523.035398
 41
309.448596
 68
    -1
 69
     1
1001
ACAD
1000
MVIEW
1002
{
1070
    16
1010
0.0
1020
0.0
1030
0.0
1010
0.0
1020
0.0
1030
1.0
1040
0.0
1040
309.448596
1040
261.517699
1040
154.724298
1040
50.0
1040
0.0
1040
0.0
1070
     0
1070
   100
1070
     1
1070
     0
1070
     0
1070
     0
1070
     0
1070
     0
1040
0.0
1040
0.0
1040
0.0
1040
1.0
1040
1.0
1040
10.0
1040
10.0
1070
     0
1002
{
1002
}
1002
}
  0
ENDSEC
  0
SECTION
  2
OBJECTS
  0
DICTIONARY
  5
C
100
AcDbDictionary
  3
ACAD_GROUP
350
D
  3
ACAD_MLINESTYLE
350
E
  3
ACDBVARIABLEDICTIONARY
350
86C
  3
CONTENTDICTIONARY
350
905
  0
DICTIONARY
  5
D
102
{ACAD_REACTORS
330
C
102
}
100
AcDbDictionary
  0
DICTIONARY
  5
E
102
{ACAD_REACTORS
330
C
102
}
100
AcDbDictionary
  3
STANDARD
350
13
  0
DICTIONARY
  5
86C
102
{ACAD_REACTORS
330
C
102
}
100
AcDbDictionary
  3
SORTENTS
350
86D
  0
DICTIONARY
  5
905
102
{ACAD_REACTORS
330
C
102
}
100
AcDbDictionary
  0
MLINESTYLE
  5
13
102
{ACAD_REACTORS
330
E
102
}
100
AcDbMlineStyle
  2
STANDARD
 70
     0
  3

 62
     0
 51
90.0
 52
90.0
 71
     2
 49
0.5
 62
   256
  6
BYLAYER
 49
-0.5
 62
   256
  6
BYLAYER
  0
DICTIONARYVAR
  5
86D
102
{ACAD_REACTORS
330
86C
102
}
100
DictionaryVariables
280
     0
  1
96
  0
ENDSEC
  0
EOF
