  0
SECTION
  2
HEADER
  9
$ACADVER
  1
AC1014
  9
$ACADMAINTVER
 70
     9
  9
$DWGCODEPAGE
  3
ANSI_1250
  9
$INSBASE
 10
0.0
 20
0.0
 30
0.0
  9
$EXTMIN
 10
23.5994306153852
 20
-794.710957
 30
0.0
  9
$EXTMAX
 10
957.359391
 20
200.5
 30
0.0
  9
$LIMMIN
 10
0.0
 20
0.0
  9
$LIMMAX
 10
0.0
 20
0.0
  9
$ORTHOMODE
 70
     1
  9
$REGENMODE
 70
     1
  9
$FILLMODE
 70
     1
  9
$QTEXTMODE
 70
     0
  9
$MIRRTEXT
 70
     1
  9
$DRAGMODE
 70
     2
  9
$LTSCALE
 40
1.0
  9
$OSMODE
 70
    37
  9
$ATTMODE
 70
     1
  9
$TEXTSIZE
 40
0.2
  9
$TRACEWID
 40
0.05
  9
$TEXTSTYLE
  7
ED10
  9
$CLAYER
  8
V0-OBRYS
  9
$CELTYPE
  6
CONTINUOUS
  9
$CECOLOR
 62
    90
  9
$CELTSCALE
 40
1.0
  9
$DELOBJ
 70
     1
  9
$DISPSILH
 70
     0
  9
$DIMSCALE
 40
1.0
  9
$DIMASZ
 40
15.0
  9
$DIMEXO
 40
1.0
  9
$DIMDLI
 40
0.38
  9
$DIMRND
 40
0.0
  9
$DIMDLE
 40
0.0
  9
$DIMEXE
 40
1.25
  9
$DIMTP
 40
0.0
  9
$DIMTM
 40
0.0
  9
$DIMTXT
 40
10.0
  9
$DIMCEN
 40
0.09
  9
$DIMTSZ
 40
0.0
  9
$DIMTOL
 70
     0
  9
$DIMLIM
 70
     0
  9
$DIMTIH
 70
     0
  9
$DIMTOH
 70
     0
  9
$DIMSE1
 70
     0
  9
$DIMSE2
 70
     0
  9
$DIMTAD
 70
     1
  9
$DIMZIN
 70
     0
  9
$DIMBLK
  1
OPEN
  9
$DIMASO
 70
     1
  9
$DIMSHO
 70
     1
  9
$DIMPOST
  1

  9
$DIMAPOST
  1

  9
$DIMALT
 70
     0
  9
$DIMALTD
 70
     2
  9
$DIMALTF
 40
25.4
  9
$DIMLFAC
 40
1.0
  9
$DIMTOFL
 70
     1
  9
$DIMTVP
 40
0.0
  9
$DIMTIX
 70
     1
  9
$DIMSOXD
 70
     0
  9
$DIMSAH
 70
     0
  9
$DIMBLK1
  1

  9
$DIMBLK2
  1

  9
$DIMSTYLE
  2
ED10
  9
$DIMCLRD
 70
     0
  9
$DIMCLRE
 70
     0
  9
$DIMCLRT
 70
     0
  9
$DIMTFAC
 40
1.0
  9
$DIMGAP
 40
1.5
  9
$DIMJUST
 70
     0
  9
$DIMSD1
 70
     0
  9
$DIMSD2
 70
     0
  9
$DIMTOLJ
 70
     1
  9
$DIMTZIN
 70
     0
  9
$DIMALTZ
 70
     0
  9
$DIMALTTZ
 70
     0
  9
$DIMFIT
 70
     3
  9
$DIMUPT
 70
     1
  9
$DIMUNIT
 70
     2
  9
$DIMDEC
 70
     0
  9
$DIMTDEC
 70
     4
  9
$DIMALTU
 70
     2
  9
$DIMALTTD
 70
     2
  9
$DIMTXSTY
  7
ED20
  9
$DIMAUNIT
 70
     0
  9
$LUNITS
 70
     2
  9
$LUPREC
 70
     4
  9
$SKETCHINC
 40
0.1
  9
$FILLETRAD
 40
0.5
  9
$AUNITS
 70
     0
  9
$AUPREC
 70
     0
  9
$MENU
  1
.
  9
$ELEVATION
 40
0.0
  9
$PELEVATION
 40
0.0
  9
$THICKNESS
 40
0.0
  9
$LIMCHECK
 70
     0
  9
$BLIPMODE
 70
     0
  9
$CHAMFERA
 40
0.5
  9
$CHAMFERB
 40
0.5
  9
$CHAMFERC
 40
1.0
  9
$CHAMFERD
 40
0.0
  9
$SKPOLY
 70
     0
  9
$TDCREATE
 40
2455642.654538299
  9
$TDUPDATE
 40
2455642.65453831
  9
$TDINDWG
 40
0.0000000116
  9
$TDUSRTIMER
 40
0.0000000116
  9
$USRTIMER
 70
     1
  9
$ANGBASE
 50
0.0
  9
$ANGDIR
 70
     0
  9
$PDMODE
 70
     3
  9
$PDSIZE
 40
15.0
  9
$PLINEWID
 40
0.0
  9
$COORDS
 70
     1
  9
$SPLFRAME
 70
     0
  9
$SPLINETYPE
 70
     6
  9
$SPLINESEGS
 70
     8
  9
$ATTDIA
 70
     0
  9
$ATTREQ
 70
     1
  9
$HANDLING
 70
     1
  9
$HANDSEED
  5
F6C
  9
$SURFTAB1
 70
     6
  9
$SURFTAB2
 70
     6
  9
$SURFTYPE
 70
     6
  9
$SURFU
 70
     6
  9
$SURFV
 70
     6
  9
$UCSNAME
  2

  9
$UCSORG
 10
0.0
 20
0.0
 30
0.0
  9
$UCSXDIR
 10
1.0
 20
0.0
 30
0.0
  9
$UCSYDIR
 10
0.0
 20
1.0
 30
0.0
  9
$PUCSNAME
  2

  9
$PUCSORG
 10
0.0
 20
0.0
 30
0.0
  9
$PUCSXDIR
 10
1.0
 20
0.0
 30
0.0
  9
$PUCSYDIR
 10
0.0
 20
1.0
 30
0.0
  9
$USERI1
 70
     0
  9
$USERI2
 70
     0
  9
$USERI3
 70
     0
  9
$USERI4
 70
     0
  9
$USERI5
 70
     0
  9
$USERR1
 40
0.0
  9
$USERR2
 40
0.0
  9
$USERR3
 40
0.0
  9
$USERR4
 40
0.0
  9
$USERR5
 40
0.0
  9
$WORLDVIEW
 70
     1
  9
$SHADEDGE
 70
     3
  9
$SHADEDIF
 70
    70
  9
$TILEMODE
 70
     1
  9
$MAXACTVP
 70
    64
  9
$PINSBASE
 10
0.0
 20
0.0
 30
0.0
  9
$PLIMCHECK
 70
     0
  9
$PEXTMIN
 10
1.000000000000000E+20
 20
1.000000000000000E+20
 30
1.000000000000000E+20
  9
$PEXTMAX
 10
-1.000000000000000E+20
 20
-1.000000000000000E+20
 30
-1.000000000000000E+20
  9
$PLIMMIN
 10
0.0
 20
0.0
  9
$PLIMMAX
 10
0.0
 20
0.0
  9
$UNITMODE
 70
     0
  9
$VISRETAIN
 70
     1
  9
$PLINEGEN
 70
     0
  9
$PSLTSCALE
 70
     1
  9
$TREEDEPTH
 70
  3020
  9
$PICKSTYLE
 70
     1
  9
$CMLSTYLE
  2
STANDARD
  9
$CMLJUST
 70
     0
  9
$CMLSCALE
 40
1.0
  9
$PROXYGRAPHICS
 70
     1
  9
$MEASUREMENT
 70
     0
  0
ENDSEC
  0
SECTION
  2
CLASSES
  0
CLASS
  1
ACDBDICTIONARYWDFLT
  2
AcDbDictionaryWithDefault
  3
ObjectDBX Classes
 90
        0
280
     0
281
     0
  0
CLASS
  1
XRECORD
  2
AcDbXrecord
  3
AutoCAD 2000
 90
        0
280
     0
281
     0
  0
CLASS
  1
LWPOLYLINE
  2
AcDbPolyline
  3
AutoCAD 2000
 90
        0
280
     0
281
     1
  0
CLASS
  1
HATCH
  2
AcDbHatch
  3
AutoCAD 2000
 90
        0
280
     0
281
     1
  0
CLASS
  1
ACDBPLACEHOLDER
  2
AcDbPlaceHolder
  3
ObjectDBX Classes
 90
        0
280
     0
281
     0
  0
CLASS
  1
LAYOUT
  2
AcDbLayout
  3
ObjectDBX Classes
 90
        0
280
     0
281
     0
  0
ENDSEC
  0
SECTION
  2
TABLES
  0
TABLE
  2
VPORT
  5
EB3
330
0
100
AcDbSymbolTable
 70
     2
  0
VPORT
  5
ED4
102
{ACAD_XDICTIONARY
360
F6A
102
}
330
EB3
100
AcDbSymbolTableRecord
100
AcDbViewportTableRecord
  2
*ACTIVE
 70
     0
 10
0.0
 20
0.0
 11
1.0
 21
1.0
 12
415.92545
 22
-205.074055
 13
0.0
 23
0.0
 14
10.0
 24
10.0
 15
10.0
 25
10.0
 16
0.0
 26
0.0
 36
1.0
 17
0.0
 27
0.0
 37
0.0
 40
1241.278448
 41
0.0143052163551727
 42
50.0
 43
0.0
 44
0.0
 50
0.0
 51
0.0000000000007958
 71
     0
 72
   100
 73
     1
 74
     3
 75
     0
 76
     0
 77
     0
 78
     0
  0
ENDTAB
  0
TABLE
  2
LTYPE
  5
EB0
330
0
100
AcDbSymbolTable
 70
    25
  0
LTYPE
  5
EBF
330
EB0
100
AcDbSymbolTableRecord
100
AcDbLinetypeTableRecord
  2
BYBLOCK
 70
     0
  3

 72
    65
 73
     0
 40
0.0
  0
LTYPE
  5
EC0
330
EB0
100
AcDbSymbolTableRecord
100
AcDbLinetypeTableRecord
  2
BYLAYER
 70
     0
  3

 72
    65
 73
     0
 40
0.0
  0
LTYPE
  5
EC1
330
EB0
100
AcDbSymbolTableRecord
100
AcDbLinetypeTableRecord
  2
CONTINUOUS
 70
     0
  3
Solid line
 72
    65
 73
     0
 40
0.0
  0
LTYPE
  5
EDC
330
EB0
100
AcDbSymbolTableRecord
100
AcDbLinetypeTableRecord
  2
CENTER
 70
     0
  3
Center ____ _ ____ _ ____ _ ____ _ ____ _ ____
 72
    65
 73
     4
 40
2.0
 49
1.25
 74
     0
 49
-0.25
 74
     0
 49
0.25
 74
     0
 49
-0.25
 74
     0
  0
LTYPE
  5
EDD
330
EB0
100
AcDbSymbolTableRecord
100
AcDbLinetypeTableRecord
  2
DASHDOT
 70
     0
  3
Dashdot __ . __ . __ . __ . __ . __ . __ . __
 72
    65
 73
     4
 40
1.0
 49
0.5
 74
     0
 49
-0.25
 74
     0
 49
0.0
 74
     0
 49
-0.25
 74
     0
  0
LTYPE
  5
EDE
330
EB0
100
AcDbSymbolTableRecord
100
AcDbLinetypeTableRecord
  2
DASHED
 70
     0
  3
Dashed __ __ __ __ __ __ __ __ __ __ __ __ __ _
 72
    65
 73
     2
 40
0.75
 49
0.5
 74
     0
 49
-0.25
 74
     0
  0
LTYPE
  5
EDF
330
EB0
100
AcDbSymbolTableRecord
100
AcDbLinetypeTableRecord
  2
HIDDEN
 70
     0
  3
Hidden __ __ __ __ __ __ __ __ __ __ __ __ __ __
 72
    65
 73
     2
 40
0.375
 49
0.25
 74
     0
 49
-0.125
 74
     0
  0
LTYPE
  5
EE0
330
EB0
100
AcDbSymbolTableRecord
100
AcDbLinetypeTableRecord
  2
HIDDEN2
 70
     0
  3
Hidden2 _ _ _ _ _ _ _ _ _ _ _ _ _ _ _ _ _ 
 72
    65
 73
     2
 40
0.1875
 49
0.125
 74
     0
 49
-0.0625
 74
     0
  0
LTYPE
  5
EE1
330
EB0
100
AcDbSymbolTableRecord
100
AcDbLinetypeTableRecord
  2
BORDER
 70
     0
  3
Border __ __ . __ __ . __ __ . __ __ . __ __ .
 72
    65
 73
     6
 40
1.75
 49
0.5
 74
     0
 49
-0.25
 74
     0
 49
0.5
 74
     0
 49
-0.25
 74
     0
 49
0.0
 74
     0
 49
-0.25
 74
     0
  0
LTYPE
  5
EE2
330
EB0
100
AcDbSymbolTableRecord
100
AcDbLinetypeTableRecord
  2
BORDER2
 70
     0
  3
Border2 __.__.__.__.__.__.__.__.__.__.__.
 72
    65
 73
     6
 40
0.875
 49
0.25
 74
     0
 49
-0.125
 74
     0
 49
0.25
 74
     0
 49
-0.125
 74
     0
 49
0.0
 74
     0
 49
-0.125
 74
     0
  0
LTYPE
  5
EE3
330
EB0
100
AcDbSymbolTableRecord
100
AcDbLinetypeTableRecord
  2
BORDERX2
 70
     0
  3
Borderx2  ____  ____  .  ____  ____  .  ___
 72
    65
 73
     6
 40
3.5
 49
1.0
 74
     0
 49
-0.5
 74
     0
 49
1.0
 74
     0
 49
-0.5
 74
     0
 49
0.0
 74
     0
 49
-0.5
 74
     0
  0
LTYPE
  5
EE4
330
EB0
100
AcDbSymbolTableRecord
100
AcDbLinetypeTableRecord
  2
CENTER2
 70
     0
  3
Center2  ___ _ ___ _ ___ _ ___ _ ___ _ ___
 72
    65
 73
     4
 40
1.125
 49
0.75
 74
     0
 49
-0.125
 74
     0
 49
0.125
 74
     0
 49
-0.125
 74
     0
  0
LTYPE
  5
EE5
330
EB0
100
AcDbSymbolTableRecord
100
AcDbLinetypeTableRecord
  2
CENTERX2
 70
     0
  3
Centerx2  ________  __  ________  __  _____
 72
    65
 73
     4
 40
4.0
 49
2.5
 74
     0
 49
-0.5
 74
     0
 49
0.5
 74
     0
 49
-0.5
 74
     0
  0
LTYPE
  5
EE6
330
EB0
100
AcDbSymbolTableRecord
100
AcDbLinetypeTableRecord
  2
DASHDOT2
 70
     0
  3
Dashdot2  _._._._._._._._._._._._._._._.
 72
    65
 73
     4
 40
0.5
 49
0.25
 74
     0
 49
-0.125
 74
     0
 49
0.0
 74
     0
 49
-0.125
 74
     0
  0
LTYPE
  5
EE7
330
EB0
100
AcDbSymbolTableRecord
100
AcDbLinetypeTableRecord
  2
DASHDOTX2
 70
     0
  3
Dashdotx2 ____  .  ____  .  ____  .  ___
 72
    65
 73
     4
 40
2.0
 49
1.0
 74
     0
 49
-0.5
 74
     0
 49
0.0
 74
     0
 49
-0.5
 74
     0
  0
LTYPE
  5
EE8
330
EB0
100
AcDbSymbolTableRecord
100
AcDbLinetypeTableRecord
  2
DASHED2
 70
     0
  3
Dashed2 _ _ _ _ _ _ _ _ _ _ _ _ _ _ _ _ _ 
 72
    65
 73
     2
 40
0.375
 49
0.25
 74
     0
 49
-0.125
 74
     0
  0
LTYPE
  5
EE9
330
EB0
100
AcDbSymbolTableRecord
100
AcDbLinetypeTableRecord
  2
DASHEDX2
 70
     0
  3
Dashedx2 ____  ____  ____  ____  ____  ___
 72
    65
 73
     2
 40
1.5
 49
1.0
 74
     0
 49
-0.5
 74
     0
  0
LTYPE
  5
EEA
330
EB0
100
AcDbSymbolTableRecord
100
AcDbLinetypeTableRecord
  2
DIVIDE
 70
     0
  3
Divide ____ . . ____ . . ____ . . ____ . . ____
 72
    65
 73
     6
 40
1.25
 49
0.5
 74
     0
 49
-0.25
 74
     0
 49
0.0
 74
     0
 49
-0.25
 74
     0
 49
0.0
 74
     0
 49
-0.25
 74
     0
  0
LTYPE
  5
EEB
330
EB0
100
AcDbSymbolTableRecord
100
AcDbLinetypeTableRecord
  2
DIVIDE2
 70
     0
  3
Divide2 __..__..__..__..__..__..__..__.._
 72
    65
 73
     6
 40
0.625
 49
0.25
 74
     0
 49
-0.125
 74
     0
 49
0.0
 74
     0
 49
-0.125
 74
     0
 49
0.0
 74
     0
 49
-0.125
 74
     0
  0
LTYPE
  5
EEC
330
EB0
100
AcDbSymbolTableRecord
100
AcDbLinetypeTableRecord
  2
DIVIDEX2
 70
     0
  3
Dividex2 ________  .  .  ________  .  .  _
 72
    65
 73
     6
 40
2.5
 49
1.0
 74
     0
 49
-0.5
 74
     0
 49
0.0
 74
     0
 49
-0.5
 74
     0
 49
0.0
 74
     0
 49
-0.5
 74
     0
  0
LTYPE
  5
EED
330
EB0
100
AcDbSymbolTableRecord
100
AcDbLinetypeTableRecord
  2
DOT
 70
     0
  3
Dot . . . . . . . . . . . . . . . . . . . . . . . .
 72
    65
 73
     2
 40
0.25
 49
0.0
 74
     0
 49
-0.25
 74
     0
  0
LTYPE
  5
EEE
330
EB0
100
AcDbSymbolTableRecord
100
AcDbLinetypeTableRecord
  2
DOT2
 70
     0
  3
Dot2 ........................................
 72
    65
 73
     2
 40
0.125
 49
0.0
 74
     0
 49
-0.125
 74
     0
  0
LTYPE
  5
EEF
330
EB0
100
AcDbSymbolTableRecord
100
AcDbLinetypeTableRecord
  2
DOTX2
 70
     0
  3
Dotx2 .  .  .  .  .  .  .  .  .  .  .  .  .  .
 72
    65
 73
     2
 40
0.5
 49
0.0
 74
     0
 49
-0.5
 74
     0
  0
LTYPE
  5
EF0
330
EB0
100
AcDbSymbolTableRecord
100
AcDbLinetypeTableRecord
  2
HIDDENX2
 70
     0
  3
Hiddenx2 ____ ____ ____ ____ ____ ____ ____ 
 72
    65
 73
     2
 40
0.75
 49
0.5
 74
     0
 49
-0.25
 74
     0
  0
LTYPE
  5
EF1
330
EB0
100
AcDbSymbolTableRecord
100
AcDbLinetypeTableRecord
  2
PHANTOM
 70
     0
  3
Phantom ______  __  __  ______  __  __  ______ 
 72
    65
 73
     6
 40
2.5
 49
1.25
 74
     0
 49
-0.25
 74
     0
 49
0.25
 74
     0
 49
-0.25
 74
     0
 49
0.25
 74
     0
 49
-0.25
 74
     0
  0
LTYPE
  5
EF2
330
EB0
100
AcDbSymbolTableRecord
100
AcDbLinetypeTableRecord
  2
PHANTOM2
 70
     0
  3
Phantom2 ___ _ _ ___ _ _ ___ _ _ ___ _ _
 72
    65
 73
     6
 40
1.25
 49
0.625
 74
     0
 49
-0.125
 74
     0
 49
0.125
 74
     0
 49
-0.125
 74
     0
 49
0.125
 74
     0
 49
-0.125
 74
     0
  0
LTYPE
  5
EF3
330
EB0
100
AcDbSymbolTableRecord
100
AcDbLinetypeTableRecord
  2
PHANTOMX2
 70
     0
  3
Phantomx2 ____________    ____    ____   _
 72
    65
 73
     6
 40
5.0
 49
2.5
 74
     0
 49
-0.5
 74
     0
 49
0.5
 74
     0
 49
-0.5
 74
     0
 49
0.5
 74
     0
 49
-0.5
 74
     0
  0
ENDTAB
  0
TABLE
  2
LAYER
  5
EAD
330
0
100
AcDbSymbolTable
 70
     6
  0
LAYER
  5
EBB
330
EAD
100
AcDbSymbolTableRecord
100
AcDbLayerTableRecord
  2
0
 70
     0
 62
     7
  6
CONTINUOUS
  0
LAYER
  5
9E
330
EAD
100
AcDbSymbolTableRecord
100
AcDbLayerTableRecord
  2
DEFPOINTS
 70
     0
 62
     7
  6
CONTINUOUS
  0
LAYER
  5
377
330
EAD
100
AcDbSymbolTableRecord
100
AcDbLayerTableRecord
  2
V0-OBRYS
 70
     0
 62
    90
  6
CONTINUOUS
  0
LAYER
  5
378
330
EAD
100
AcDbSymbolTableRecord
100
AcDbLayerTableRecord
  2
V0-VYPLNE
 70
     0
 62
    63
  6
DASHDOT
  0
LAYER
  5
37A
330
EAD
100
AcDbSymbolTableRecord
100
AcDbLayerTableRecord
  2
V0-NAZVY
 70
     0
 62
   210
  6
CONTINUOUS
  0
LAYER
  5
559
330
EAD
100
AcDbSymbolTableRecord
100
AcDbLayerTableRecord
  2
V0-ZBYTEK
 70
     0
 62
    51
  6
CONTINUOUS
  0
ENDTAB
  0
TABLE
  2
STYLE
  5
EAE
330
0
100
AcDbSymbolTable
 70
     5
  0
STYLE
  5
EBC
330
EAE
100
AcDbSymbolTableRecord
100
AcDbTextStyleTableRecord
  2
STANDARD
 70
     0
 40
7.0
 41
1.0
 50
0.0
 71
     0
 42
0.2
  3
ISOCP.shx
  4

1001
ACAD
1000
ISOCP.shx
1071
        0
  0
STYLE
  5
331
330
EAE
100
AcDbSymbolTableRecord
100
AcDbTextStyleTableRecord
  2
ED30
 70
     0
 40
30.0
 41
1.0
 50
0.0
 71
     0
 42
0.2
  3
ISOCP.shx
  4

1001
ACAD
1000
ISOCP.shx
1071
        0
  0
STYLE
  5
5D2
330
EAE
100
AcDbSymbolTableRecord
100
AcDbTextStyleTableRecord
  2
ED20
 70
     0
 40
20.0
 41
1.0
 50
0.0
 71
     0
 42
0.2
  3
isocp.shx
  4

1001
ACAD
1000
isocp.shx
1071
        0
  0
STYLE
  5
64F
330
EAE
100
AcDbSymbolTableRecord
100
AcDbTextStyleTableRecord
  2
ED40
 70
     0
 40
40.0
 41
1.0
 50
0.0
 71
     0
 42
0.2
  3
isocp.shx
  4

1001
ACAD
1000
isocp.shx
1071
        0
  0
STYLE
  5
650
330
EAE
100
AcDbSymbolTableRecord
100
AcDbTextStyleTableRecord
  2
ED10
 70
     0
 40
10.0
 41
1.0
 50
0.0
 71
     0
 42
0.2
  3
isocp.shx
  4

1001
ACAD
1000
isocp.shx
1071
        0
  0
ENDTAB
  0
TABLE
  2
VIEW
  5
EB1
330
0
100
AcDbSymbolTable
 70
     0
  0
ENDTAB
  0
TABLE
  2
UCS
  5
EB2
330
0
100
AcDbSymbolTable
 70
     0
  0
ENDTAB
  0
TABLE
  2
APPID
  5
EB4
330
0
100
AcDbSymbolTable
 70
     6
  0
APPID
  5
EBD
330
EB4
100
AcDbSymbolTableRecord
100
AcDbRegAppTableRecord
  2
ACAD
 70
     0
  0
APPID
  5
ED5
330
EB4
100
AcDbSymbolTableRecord
100
AcDbRegAppTableRecord
  2
VD_INVISIBLE_NOT_FOR_READ
 70
     0
  0
APPID
  5
ED6
330
EB4
100
AcDbSymbolTableRecord
100
AcDbRegAppTableRecord
  2
VD_TEMPHATCH
 70
     0
  0
APPID
  5
ED7
330
EB4
100
AcDbSymbolTableRecord
100
AcDbRegAppTableRecord
  2
VDEXTRAPARAM
 70
     0
  0
APPID
  5
ED8
330
EB4
100
AcDbSymbolTableRecord
100
AcDbRegAppTableRecord
  2
PE_URL
 70
     0
  0
APPID
  5
ED9
330
EB4
100
AcDbSymbolTableRecord
100
AcDbRegAppTableRecord
  2
VD_UNKNOWN
 70
     0
  0
ENDTAB
  0
TABLE
  2
DIMSTYLE
  5
EB5
330
0
100
AcDbSymbolTable
 70
     5
  0
DIMSTYLE
105
ED2
330
EB5
100
AcDbSymbolTableRecord
100
AcDbDimStyleTableRecord
  2
STANDARD
 70
     0
  3

  4

  5
OPEN
  6

  7

 40
1.0
 41
15.0
 42
0.625
 43
0.38
 44
1.25
 45
0.0
 46
0.0
 47
0.0
 48
0.0
140
15.0
141
0.09
142
0.0
143
25.4
144
1.0
145
0.0
146
1.0
147
3.0
 71
     0
 72
     0
 73
     0
 74
     0
 75
     0
 76
     0
 77
     1
 78
     0
170
     0
171
     2
172
     1
173
     0
174
     1
175
     0
176
     0
177
     0
178
     0
270
     2
271
     0
272
     4
273
     2
274
     2
340
331
275
     0
280
     0
281
     0
282
     0
283
     1
284
     0
285
     0
286
     0
287
     3
288
     1
  0
DIMSTYLE
105
397
330
EB5
100
AcDbSymbolTableRecord
100
AcDbDimStyleTableRecord
  2
ED40
 70
     0
  3

  4

  5
OPEN
  6

  7

 40
1.0
 41
35.0
 42
1.0
 43
0.38
 44
1.25
 45
0.0
 46
0.0
 47
0.0
 48
0.0
140
40.0
141
0.09
142
0.0
143
25.4
144
1.0
145
0.0
146
1.0
147
3.0
 71
     0
 72
     0
 73
     0
 74
     0
 75
     0
 76
     0
 77
     1
 78
     0
170
     0
171
     2
172
     1
173
     0
174
     1
175
     0
176
     0
177
     0
178
     0
270
     2
271
     0
272
     4
273
     2
274
     2
340
64F
275
     0
280
     0
281
     0
282
     0
283
     1
284
     0
285
     0
286
     0
287
     3
288
     1
  0
DIMSTYLE
105
656
330
EB5
100
AcDbSymbolTableRecord
100
AcDbDimStyleTableRecord
  2
ED30
 70
     0
  3

  4

  5
OPEN
  6

  7

 40
1.0
 41
25.0
 42
1.0
 43
0.38
 44
1.25
 45
0.0
 46
0.0
 47
0.0
 48
0.0
140
30.0
141
0.09
142
0.0
143
25.4
144
1.0
145
0.0
146
1.0
147
2.0
 71
     0
 72
     0
 73
     0
 74
     0
 75
     0
 76
     0
 77
     1
 78
     0
170
     0
171
     2
172
     1
173
     0
174
     1
175
     0
176
     0
177
     0
178
     0
270
     2
271
     0
272
     4
273
     2
274
     2
340
331
275
     0
280
     0
281
     0
282
     0
283
     1
284
     0
285
     0
286
     0
287
     3
288
     1
  0
DIMSTYLE
105
657
330
EB5
100
AcDbSymbolTableRecord
100
AcDbDimStyleTableRecord
  2
ED20
 70
     0
  3

  4

  5
OPEN
  6

  7

 40
1.0
 41
20.0
 42
1.0
 43
0.38
 44
1.25
 45
0.0
 46
0.0
 47
0.0
 48
0.0
140
20.0
141
0.09
142
0.0
143
25.4
144
1.0
145
0.0
146
1.0
147
1.5
 71
     0
 72
     0
 73
     0
 74
     0
 75
     0
 76
     0
 77
     1
 78
     0
170
     0
171
     2
172
     1
173
     0
174
     1
175
     0
176
     0
177
     0
178
     0
270
     2
271
     0
272
     4
273
     2
274
     2
340
5D2
275
     0
280
     0
281
     0
282
     0
283
     1
284
     0
285
     0
286
     0
287
     3
288
     1
  0
DIMSTYLE
105
658
102
{ACAD_REACTORS
330
715
330
724
330
731
330
74B
330
758
330
98A
102
}
330
EB5
100
AcDbSymbolTableRecord
100
AcDbDimStyleTableRecord
  2
ED10
 70
     0
  3

  4

  5
OPEN
  6

  7

 40
1.0
 41
15.0
 42
1.0
 43
0.38
 44
1.25
 45
0.0
 46
0.0
 47
0.0
 48
0.0
140
10.0
141
0.09
142
0.0
143
25.4
144
1.0
145
0.0
146
1.0
147
1.5
 71
     0
 72
     0
 73
     0
 74
     0
 75
     0
 76
     0
 77
     1
 78
     0
170
     0
171
     2
172
     1
173
     0
174
     1
175
     0
176
     0
177
     0
178
     0
270
     2
271
     0
272
     4
273
     2
274
     2
340
5D2
275
     0
280
     0
281
     0
282
     0
283
     1
284
     0
285
     0
286
     0
287
     3
288
     1
  0
ENDTAB
  0
TABLE
  2
BLOCK_RECORD
  5
EAC
330
0
100
AcDbSymbolTable
 70
    10
  0
BLOCK_RECORD
  5
ECA
330
EAC
100
AcDbSymbolTableRecord
100
AcDbBlockTableRecord
  2
*MODEL_SPACE
  0
BLOCK_RECORD
  5
EC6
330
EAC
100
AcDbSymbolTableRecord
100
AcDbBlockTableRecord
  2
*PAPER_SPACE
  0
BLOCK_RECORD
  5
90
330
EAC
100
AcDbSymbolTableRecord
100
AcDbBlockTableRecord
  2
_OPEN
  0
BLOCK_RECORD
  5
EA8
330
EAC
100
AcDbSymbolTableRecord
100
AcDbBlockTableRecord
  2
VDDIM_DEFAULT
  0
BLOCK_RECORD
  5
EAA
330
EAC
100
AcDbSymbolTableRecord
100
AcDbBlockTableRecord
  2
VDDIM_NONE
  0
BLOCK_RECORD
  5
EFB
330
EAC
100
AcDbSymbolTableRecord
100
AcDbBlockTableRecord
  2
*D4
  0
BLOCK_RECORD
  5
F09
330
EAC
100
AcDbSymbolTableRecord
100
AcDbBlockTableRecord
  2
*D5
  0
BLOCK_RECORD
  5
F17
330
EAC
100
AcDbSymbolTableRecord
100
AcDbBlockTableRecord
  2
*D6
  0
BLOCK_RECORD
  5
F24
330
EAC
100
AcDbSymbolTableRecord
100
AcDbBlockTableRecord
  2
*D7
  0
BLOCK_RECORD
  5
F30
330
EAC
100
AcDbSymbolTableRecord
100
AcDbBlockTableRecord
  2
*D8
  0
BLOCK_RECORD
  5
F3C
330
EAC
100
AcDbSymbolTableRecord
100
AcDbBlockTableRecord
  2
*D9
  0
ENDTAB
  0
ENDSEC
  0
SECTION
  2
BLOCKS
  0
BLOCK
  5
ECB
330
ECA
100
AcDbEntity
  8
0
100
AcDbBlockBegin
  2
*MODEL_SPACE
 70
     0
 71
     0
 10
0.0
 20
0.0
 30
0.0
  3
*MODEL_SPACE
  1

  0
ENDBLK
  5
ECC
330
ECA
100
AcDbEntity
  8
0
100
AcDbBlockEnd
  0
BLOCK
  5
EC7
330
EC6
100
AcDbEntity
 67
     1
  8
0
100
AcDbBlockBegin
  2
*PAPER_SPACE
 70
     0
 71
     0
 10
0.0
 20
0.0
 30
0.0
  3
*PAPER_SPACE
  1

  0
ENDBLK
  5
EC8
330
EC6
100
AcDbEntity
 67
     1
  8
0
100
AcDbBlockEnd
  0
BLOCK
  5
EF4
330
90
100
AcDbEntity
  8
0
100
AcDbBlockBegin
  2
_OPEN
 70
     0
 71
     0
 10
0.0
 20
0.0
 30
0.0
  3
_OPEN
  1

  0
LINE
  5
92
330
90
100
AcDbEntity
  8
0
  6
BYBLOCK
 62
     0
100
AcDbLine
 10
-1.0
 20
0.166667
 30
0.0
 11
0.0
 21
0.0
 31
0.0
  0
LINE
  5
93
330
90
100
AcDbEntity
  8
0
  6
BYBLOCK
 62
     0
100
AcDbLine
 10
0.0
 20
0.0
 30
0.0
 11
-1.0
 21
-0.166667
 31
0.0
  0
LINE
  5
94
330
90
100
AcDbEntity
  8
0
  6
BYBLOCK
 62
     0
100
AcDbLine
 10
0.0
 20
0.0
 30
0.0
 11
-1.0
 21
0.0
 31
0.0
  0
ENDBLK
  5
EF5
330
90
100
AcDbEntity
  8
0
100
AcDbBlockEnd
  0
BLOCK
  5
EF6
330
EA8
100
AcDbEntity
  8
0
100
AcDbBlockBegin
  2
VDDIM_DEFAULT
 70
     0
 71
     0
 10
0.0
 20
0.0
 30
0.0
  3
VDDIM_DEFAULT
  1

  0
LWPOLYLINE
  5
EA9
330
EA8
100
AcDbEntity
  8
0
  6
CONTINUOUS
 62
     0
100
AcDbPolyline
 90
        4
 70
     0
 43
0.0
 10
0.0
 20
0.0
 10
-1.0
 20
-0.1665
 10
-1.0
 20
0.1665
 10
0.0
 20
0.0
1001
VDEXTRAPARAM
1071
        1
1071
        0
1071
        0
1040
1.0
1000

1000

1040
0.0
1040
0.0
  0
HATCH
  5
EFA
330
EA8
100
AcDbEntity
  8
0
  6
CONTINUOUS
 62
     0
100
AcDbHatch
 10
0.0
 20
0.0
 30
0.0
210
0.0
220
0.0
230
1.0
  2
SOLID
 70
     1
 71
     0
 91
        1
 92
        2
 72
     0
 73
     1
 93
        3
 10
0.0
 20
0.0
 10
-1.0
 20
-0.1665
 10
-1.0
 20
0.1665
 97
        0
 75
     0
 76
     1
 98
        1
 10
0.0
 20
0.0
1001
VDEXTRAPARAM
1071
        1
1071
        0
1071
        0
1040
1.0
1000

1000

1040
0.0
1040
0.0
1001
VD_TEMPHATCH
1000
VD_TEMPHATCH
  0
ENDBLK
  5
EF7
330
EA8
100
AcDbEntity
  8
0
100
AcDbBlockEnd
  0
BLOCK
  5
EF8
330
EAA
100
AcDbEntity
  8
0
100
AcDbBlockBegin
  2
VDDIM_NONE
 70
     0
 71
     0
 10
0.0
 20
0.0
 30
0.0
  3
VDDIM_NONE
  1

  0
ENDBLK
  5
EF9
330
EAA
100
AcDbEntity
  8
0
100
AcDbBlockEnd
  0
BLOCK
  5
F07
330
EFB
100
AcDbEntity
  8
0
100
AcDbBlockBegin
  2
*D4
 70
     1
 71
     0
 10
0.0
 20
0.0
 30
0.0
  3
*D4
  1

  0
LINE
  5
EFC
330
EFB
100
AcDbEntity
  8
V0-VYPLNE
 62
     0
100
AcDbLine
 10
150.0
 20
-158.5
 30
0.0
 11
150.0
 21
-235.5149600000004
 31
0.0
  0
LINE
  5
EFD
330
EFB
100
AcDbEntity
  8
V0-VYPLNE
 62
     0
100
AcDbLine
 10
180.0
 20
-158.5
 30
0.0
 11
180.0
 21
-235.5149600000004
 31
0.0
  0
LINE
  5
EFE
330
EFB
100
AcDbEntity
  8
V0-VYPLNE
 62
     0
100
AcDbLine
 10
135.0
 20
-234.2649600000004
 30
0.0
 11
120.0
 21
-234.2649600000004
 31
0.0
  0
LINE
  5
EFF
330
EFB
100
AcDbEntity
  8
V0-VYPLNE
 62
     0
100
AcDbLine
 10
195.0
 20
-234.2649600000004
 30
0.0
 11
210.0
 21
-234.2649600000004
 31
0.0
  0
LINE
  5
F00
330
EFB
100
AcDbEntity
  8
V0-VYPLNE
 62
     0
100
AcDbLine
 10
150.0
 20
-234.2649600000004
 30
0.0
 11
180.0
 21
-234.2649600000004
 31
0.0
  0
INSERT
  5
F01
330
EFB
100
AcDbEntity
  8
V0-VYPLNE
 62
     0
100
AcDbBlockReference
  2
_OPEN
 10
150.0
 20
-234.2649600000004
 30
0.0
 41
15.0
 42
15.0
 43
15.0
  0
INSERT
  5
F02
330
EFB
100
AcDbEntity
  8
V0-VYPLNE
 62
     0
100
AcDbBlockReference
  2
_OPEN
 10
180.0
 20
-234.2649600000004
 30
0.0
 41
15.0
 42
15.0
 43
15.0
 50
180.0
  0
MTEXT
  5
F03
330
EFB
100
AcDbEntity
  8
V0-VYPLNE
 62
     0
100
AcDbMText
 10
165.0
 20
-234.26496
 30
0.0
 40
10.0
 41
0.0
 71
     5
 72
     1
  1
\A1;30
  7
ED20
  0
POINT
  5
F04
330
EFB
100
AcDbEntity
  8
DEFPOINTS
 62
     0
100
AcDbPoint
 10
150.0
 20
-157.5
 30
0.0
  0
POINT
  5
F05
330
EFB
100
AcDbEntity
  8
DEFPOINTS
 62
     0
100
AcDbPoint
 10
180.0
 20
-157.5
 30
0.0
  0
POINT
  5
F06
330
EFB
100
AcDbEntity
  8
DEFPOINTS
 62
     0
100
AcDbPoint
 10
180.0
 20
-234.2649600000004
 30
0.0
  0
ENDBLK
  5
F08
330
EFB
100
AcDbEntity
  8
0
100
AcDbBlockEnd
  0
BLOCK
  5
F15
330
F09
100
AcDbEntity
  8
0
100
AcDbBlockBegin
  2
*D5
 70
     1
 71
     0
 10
0.0
 20
0.0
 30
0.0
  3
*D5
  1

  0
LINE
  5
F0A
330
F09
100
AcDbEntity
  8
V0-VYPLNE
 62
     0
100
AcDbLine
 10
325.0
 20
-158.5
 30
0.0
 11
325.0
 21
-234.5149600000004
 31
0.0
  0
LINE
  5
F0B
330
F09
100
AcDbEntity
  8
V0-VYPLNE
 62
     0
100
AcDbLine
 10
355.0
 20
-158.5
 30
0.0
 11
355.0
 21
-234.5149600000004
 31
0.0
  0
LINE
  5
F0C
330
F09
100
AcDbEntity
  8
V0-VYPLNE
 62
     0
100
AcDbLine
 10
310.0
 20
-233.2649600000004
 30
0.0
 11
295.0
 21
-233.2649600000004
 31
0.0
  0
LINE
  5
F0D
330
F09
100
AcDbEntity
  8
V0-VYPLNE
 62
     0
100
AcDbLine
 10
370.0
 20
-233.2649600000004
 30
0.0
 11
385.0
 21
-233.2649600000004
 31
0.0
  0
LINE
  5
F0E
330
F09
100
AcDbEntity
  8
V0-VYPLNE
 62
     0
100
AcDbLine
 10
325.0
 20
-233.2649600000004
 30
0.0
 11
355.0
 21
-233.2649600000004
 31
0.0
  0
INSERT
  5
F0F
330
F09
100
AcDbEntity
  8
V0-VYPLNE
 62
     0
100
AcDbBlockReference
  2
_OPEN
 10
325.0
 20
-233.2649600000004
 30
0.0
 41
15.0
 42
15.0
 43
15.0
  0
INSERT
  5
F10
330
F09
100
AcDbEntity
  8
V0-VYPLNE
 62
     0
100
AcDbBlockReference
  2
_OPEN
 10
355.0
 20
-233.2649600000004
 30
0.0
 41
15.0
 42
15.0
 43
15.0
 50
180.0
  0
MTEXT
  5
F11
330
F09
100
AcDbEntity
  8
V0-VYPLNE
 62
     0
100
AcDbMText
 10
340.0
 20
-226.7649600000004
 30
0.0
 40
10.0
 41
0.0
 71
     5
 72
     1
  1
\A1;30
  7
ED20
  0
POINT
  5
F12
330
F09
100
AcDbEntity
  8
DEFPOINTS
 62
     0
100
AcDbPoint
 10
325.0
 20
-157.5
 30
0.0
  0
POINT
  5
F13
330
F09
100
AcDbEntity
  8
DEFPOINTS
 62
     0
100
AcDbPoint
 10
355.0
 20
-157.5
 30
0.0
  0
POINT
  5
F14
330
F09
100
AcDbEntity
  8
DEFPOINTS
 62
     0
100
AcDbPoint
 10
355.0
 20
-233.2649600000004
 30
0.0
  0
ENDBLK
  5
F16
330
F09
100
AcDbEntity
  8
0
100
AcDbBlockEnd
  0
BLOCK
  5
F22
330
F17
100
AcDbEntity
  8
0
100
AcDbBlockBegin
  2
*D6
 70
     1
 71
     0
 10
0.0
 20
0.0
 30
0.0
  3
*D6
  1

  0
LINE
  5
F18
330
F17
100
AcDbEntity
  8
V0-VYPLNE
 62
     0
100
AcDbLine
 10
150.0
 20
-158.5
 30
0.0
 11
150.0
 21
-261.017645999993
 31
0.0
  0
LINE
  5
F19
330
F17
100
AcDbEntity
  8
V0-VYPLNE
 62
     0
100
AcDbLine
 10
355.0
 20
-158.5
 30
0.0
 11
355.0
 21
-261.017645999993
 31
0.0
  0
LINE
  5
F1A
330
F17
100
AcDbEntity
  8
V0-VYPLNE
 62
     0
100
AcDbLine
 10
165.0
 20
-259.767645999993
 30
0.0
 11
235.6428571428572
 21
-259.767645999993
 31
0.0
  0
LINE
  5
F1B
330
F17
100
AcDbEntity
  8
V0-VYPLNE
 62
     0
100
AcDbLine
 10
340.0
 20
-259.767645999993
 30
0.0
 11
264.3571428571428
 21
-259.767645999993
 31
0.0
  0
INSERT
  5
F1C
330
F17
100
AcDbEntity
  8
V0-VYPLNE
 62
     0
100
AcDbBlockReference
  2
_OPEN
 10
150.0
 20
-259.767645999993
 30
0.0
 41
15.0
 42
15.0
 43
15.0
 50
180.0
  0
INSERT
  5
F1D
330
F17
100
AcDbEntity
  8
V0-VYPLNE
 62
     0
100
AcDbBlockReference
  2
_OPEN
 10
355.0
 20
-259.767645999993
 30
0.0
 41
15.0
 42
15.0
 43
15.0
  0
MTEXT
  5
F1E
330
F17
100
AcDbEntity
  8
V0-VYPLNE
 62
     0
100
AcDbMText
 10
250.0
 20
-259.767646
 30
0.0
 40
10.0
 41
0.0
 71
     5
 72
     1
  1
\A1;205
  7
ED20
  0
POINT
  5
F1F
330
F17
100
AcDbEntity
  8
DEFPOINTS
 62
     0
100
AcDbPoint
 10
150.0
 20
-157.5
 30
0.0
  0
POINT
  5
F20
330
F17
100
AcDbEntity
  8
DEFPOINTS
 62
     0
100
AcDbPoint
 10
355.0
 20
-157.5
 30
0.0
  0
POINT
  5
F21
330
F17
100
AcDbEntity
  8
DEFPOINTS
 62
     0
100
AcDbPoint
 10
355.0
 20
-259.767645999993
 30
0.0
  0
ENDBLK
  5
F23
330
F17
100
AcDbEntity
  8
0
100
AcDbBlockEnd
  0
BLOCK
  5
F2E
330
F24
100
AcDbEntity
  8
0
100
AcDbBlockBegin
  2
*D7
 70
     1
 71
     0
 10
0.0
 20
0.0
 30
0.0
  3
*D7
  1

  0
LINE
  5
F25
330
F24
100
AcDbEntity
  8
V0-VYPLNE
 62
     0
100
AcDbLine
 10
149.0
 20
157.5
 30
0.0
 11
115.2616610000005
 21
157.5000000000001
 31
0.0
  0
LINE
  5
F26
330
F24
100
AcDbEntity
  8
V0-VYPLNE
 62
     0
100
AcDbLine
 10
149.0
 20
-157.5
 30
0.0
 11
115.2616610000005
 21
-157.5
 31
0.0
  0
LINE
  5
F27
330
F24
100
AcDbEntity
  8
V0-VYPLNE
 62
     0
100
AcDbLine
 10
116.5116610000005
 20
142.5000000000001
 30
0.0
 11
116.5116610000005
 21
-142.5
 31
0.0
  0
INSERT
  5
F28
330
F24
100
AcDbEntity
  8
V0-VYPLNE
 62
     0
100
AcDbBlockReference
  2
_OPEN
 10
116.5116610000005
 20
157.5000000000001
 30
0.0
 41
15.0
 42
15.0
 43
15.0
 50
90.0
  0
INSERT
  5
F29
330
F24
100
AcDbEntity
  8
V0-VYPLNE
 62
     0
100
AcDbBlockReference
  2
_OPEN
 10
116.5116610000005
 20
-157.5
 30
0.0
 41
15.0
 42
15.0
 43
15.0
 50
270.0
  0
MTEXT
  5
F2A
330
F24
100
AcDbEntity
  8
V0-VYPLNE
 62
     0
100
AcDbMText
 10
110.0116610000005
 20
0.0
 30
0.0
 40
10.0
 41
0.0
 71
     5
 72
     1
  1
%%c\A1;315
  7
ED20
 11
4.511382449270477E-17
 21
1.0
 31
0.0
  0
POINT
  5
F2B
330
F24
100
AcDbEntity
  8
DEFPOINTS
 62
     0
100
AcDbPoint
 10
150.0
 20
157.5
 30
0.0
  0
POINT
  5
F2C
330
F24
100
AcDbEntity
  8
DEFPOINTS
 62
     0
100
AcDbPoint
 10
150.0
 20
-157.5
 30
0.0
  0
POINT
  5
F2D
330
F24
100
AcDbEntity
  8
DEFPOINTS
 62
     0
100
AcDbPoint
 10
116.5116610000005
 20
-157.5
 30
0.0
  0
ENDBLK
  5
F2F
330
F24
100
AcDbEntity
  8
0
100
AcDbBlockEnd
  0
BLOCK
  5
F3A
330
F30
100
AcDbEntity
  8
0
100
AcDbBlockBegin
  2
*D8
 70
     1
 71
     0
 10
0.0
 20
0.0
 30
0.0
  3
*D8
  1

  0
LINE
  5
F31
330
F30
100
AcDbEntity
  8
V0-VYPLNE
 62
     0
100
AcDbLine
 10
356.0
 20
157.5
 30
0.0
 11
394.8766969999997
 21
157.4999999999999
 31
0.0
  0
LINE
  5
F32
330
F30
100
AcDbEntity
  8
V0-VYPLNE
 62
     0
100
AcDbLine
 10
356.0
 20
-157.5
 30
0.0
 11
394.8766969999997
 21
-157.5
 31
0.0
  0
LINE
  5
F33
330
F30
100
AcDbEntity
  8
V0-VYPLNE
 62
     0
100
AcDbLine
 10
393.6266969999998
 20
142.5
 30
0.0
 11
393.6266969999997
 21
-142.5
 31
0.0
  0
INSERT
  5
F34
330
F30
100
AcDbEntity
  8
V0-VYPLNE
 62
     0
100
AcDbBlockReference
  2
_OPEN
 10
393.6266969999998
 20
157.5
 30
0.0
 41
15.0
 42
15.0
 43
15.0
 50
89.99999999999999
  0
INSERT
  5
F35
330
F30
100
AcDbEntity
  8
V0-VYPLNE
 62
     0
100
AcDbBlockReference
  2
_OPEN
 10
393.6266969999997
 20
-157.5
 30
0.0
 41
15.0
 42
15.0
 43
15.0
 50
270.0
  0
MTEXT
  5
F36
330
F30
100
AcDbEntity
  8
V0-VYPLNE
 62
     0
100
AcDbMText
 10
387.1266969999997
 20
0.0
 30
0.0
 40
10.0
 41
0.0
 71
     5
 72
     1
  1
%%c\A1;315
  7
ED20
 11
0.0
 21
1.0
 31
0.0
  0
POINT
  5
F37
330
F30
100
AcDbEntity
  8
DEFPOINTS
 62
     0
100
AcDbPoint
 10
355.0
 20
157.5
 30
0.0
  0
POINT
  5
F38
330
F30
100
AcDbEntity
  8
DEFPOINTS
 62
     0
100
AcDbPoint
 10
355.0
 20
-157.5
 30
0.0
  0
POINT
  5
F39
330
F30
100
AcDbEntity
  8
DEFPOINTS
 62
     0
100
AcDbPoint
 10
393.6266969999997
 20
-157.5
 30
0.0
  0
ENDBLK
  5
F3B
330
F30
100
AcDbEntity
  8
0
100
AcDbBlockEnd
  0
BLOCK
  5
F46
330
F3C
100
AcDbEntity
  8
0
100
AcDbBlockBegin
  2
*D9
 70
     1
 71
     0
 10
0.0
 20
0.0
 30
0.0
  3
*D9
  1

  0
LINE
  5
F3D
330
F3C
100
AcDbEntity
  8
V0-VYPLNE
 62
     0
100
AcDbLine
 10
212.612466
 20
200.5
 30
0.0
 11
50.0340460000007
 21
200.5
 31
0.0
  0
LINE
  5
F3E
330
F3C
100
AcDbEntity
  8
V0-VYPLNE
 62
     0
100
AcDbLine
 10
212.612466
 20
-200.5
 30
0.0
 11
50.03404600000067
 21
-200.5
 31
0.0
  0
LINE
  5
F3F
330
F3C
100
AcDbEntity
  8
V0-VYPLNE
 62
     0
100
AcDbLine
 10
51.28404600000069
 20
185.5
 30
0.0
 11
51.28404600000068
 21
-185.5
 31
0.0
  0
INSERT
  5
F40
330
F3C
100
AcDbEntity
  8
V0-VYPLNE
 62
     0
100
AcDbBlockReference
  2
_OPEN
 10
51.28404600000069
 20
200.5
 30
0.0
 41
15.0
 42
15.0
 43
15.0
 50
90.0
  0
INSERT
  5
F41
330
F3C
100
AcDbEntity
  8
V0-VYPLNE
 62
     0
100
AcDbBlockReference
  2
_OPEN
 10
51.28404600000068
 20
-200.5
 30
0.0
 41
15.0
 42
15.0
 43
15.0
 50
270.0
  0
MTEXT
  5
F42
330
F3C
100
AcDbEntity
  8
V0-VYPLNE
 62
     0
100
AcDbMText
 10
44.78404600000067
 20
0.0
 30
0.0
 40
10.0
 41
0.0
 71
     5
 72
     1
  1
%%c\A1;401
  7
ED20
 11
5.315781065536909E-17
 21
1.0
 31
0.0
  0
POINT
  5
F43
330
F3C
100
AcDbEntity
  8
DEFPOINTS
 62
     0
100
AcDbPoint
 10
213.612466
 20
200.5
 30
0.0
  0
POINT
  5
F44
330
F3C
100
AcDbEntity
  8
DEFPOINTS
 62
     0
100
AcDbPoint
 10
213.612466
 20
-200.5
 30
0.0
  0
POINT
  5
F45
330
F3C
100
AcDbEntity
  8
DEFPOINTS
 62
     0
100
AcDbPoint
 10
51.28404600000067
 20
-200.5
 30
0.0
  0
ENDBLK
  5
F47
330
F3C
100
AcDbEntity
  8
0
100
AcDbBlockEnd
  0
ENDSEC
  0
SECTION
  2
ENTITIES
  0
LINE
  5
66F
330
ECA
100
AcDbEntity
  8
V0-VYPLNE
 62
    63
100
AcDbLine
 10
150.0
 20
0.0
 30
0.0
 11
362.635079
 21
0.0
 31
0.0
  0
LINE
  5
670
330
ECA
100
AcDbEntity
  8
V0-OBRYS
 62
    90
100
AcDbLine
 10
150.0
 20
0.0
 30
0.0
 11
150.0
 21
157.5
 31
0.0
  0
LINE
  5
671
330
ECA
100
AcDbEntity
  8
V0-OBRYS
 62
    90
100
AcDbLine
 10
150.0
 20
157.5
 30
0.0
 11
180.0
 21
157.5
 31
0.0
  0
LINE
  5
672
330
ECA
100
AcDbEntity
  8
V0-OBRYS
 62
    90
100
AcDbLine
 10
180.0
 20
157.5
 30
0.0
 11
180.0
 21
0.0
 31
0.0
  0
LINE
  5
673
330
ECA
100
AcDbEntity
  8
V0-OBRYS
 62
    90
100
AcDbLine
 10
325.0
 20
0.0
 30
0.0
 11
325.0
 21
159.944174
 31
0.0
  0
LINE
  5
675
330
ECA
100
AcDbEntity
  8
V0-OBRYS
 62
    90
100
AcDbLine
 10
355.0
 20
0.0
 30
0.0
 11
355.0
 21
157.5
 31
0.0
  0
LINE
  5
676
330
ECA
100
AcDbEntity
  8
V0-OBRYS
 62
    90
100
AcDbLine
 10
355.0
 20
157.5
 30
0.0
 11
325.0
 21
157.5
 31
0.0
  0
LINE
  5
679
330
ECA
100
AcDbEntity
  8
V0-OBRYS
 62
    90
100
AcDbLine
 10
213.612466
 20
200.5
 30
0.0
 11
213.612466
 21
0.0
 31
0.0
  0
LINE
  5
67A
330
ECA
100
AcDbEntity
  8
V0-OBRYS
 62
    90
100
AcDbLine
 10
180.0
 20
157.5
 30
0.0
 11
180.0
 21
161.31948
 31
0.0
  0
LINE
  5
67B
330
ECA
100
AcDbEntity
  8
V0-OBRYS
 62
    90
100
AcDbLine
 10
213.612466
 20
197.120908
 30
0.0
 11
210.635916
 21
197.120908
 31
0.0
  0
LINE
  5
67D
330
ECA
100
AcDbEntity
  8
V0-OBRYS
 62
    90
100
AcDbLine
 10
185.0
 20
0.0
 30
0.0
 11
185.0
 21
163.31948
 31
0.0
  0
LINE
  5
67E
330
ECA
100
AcDbEntity
  8
V0-OBRYS
 62
    90
100
AcDbLine
 10
180.0
 20
161.31948
 30
0.0
 11
183.0
 21
161.31948
 31
0.0
  0
ARC
  5
67F
330
ECA
100
AcDbEntity
  8
V0-OBRYS
 62
    90
100
AcDbCircle
 10
183.0
 20
163.31948
 30
0.0
 40
2.0
100
AcDbArc
 50
270.0
 51
0.0
  0
LINE
  5
681
330
ECA
100
AcDbEntity
  8
V0-OBRYS
 62
    90
100
AcDbLine
 10
185.0
 20
163.31948
 30
0.0
 11
195.785925
 21
188.846504
 31
0.0
  0
ARC
  5
683
330
ECA
100
AcDbEntity
  8
V0-OBRYS
 62
    90
100
AcDbCircle
 10
210.144701
 20
180.539719
 30
0.0
 40
16.588464
100
AcDbArc
 50
88.303119
 51
149.94992
  0
LINE
  5
684
330
ECA
100
AcDbEntity
  8
V0-OBRYS
 62
    90
100
AcDbLine
 10
265.753017
 20
200.5
 30
0.0
 11
265.753017
 21
0.0
 31
0.0
  0
LINE
  5
685
330
ECA
100
AcDbEntity
  8
V0-OBRYS
 62
    90
100
AcDbLine
 10
277.122971
 20
198.242112
 30
0.0
 11
324.265632
 21
161.492778
 31
0.0
  0
LINE
  5
686
330
ECA
100
AcDbEntity
  8
V0-OBRYS
 62
    90
100
AcDbLine
 10
213.612466
 20
200.5
 30
0.0
 11
270.794968
 21
200.499091
 31
0.0
  0
ARC
  5
687
330
ECA
100
AcDbEntity
  8
V0-OBRYS
 62
    90
100
AcDbCircle
 10
323.0
 20
159.944174
 30
0.0
 40
2.0
100
AcDbArc
 50
0.0
 51
50.741799
  0
ARC
  5
688
330
ECA
100
AcDbEntity
  8
V0-OBRYS
 62
    90
100
AcDbCircle
 10
183.0
 20
-163.31948
 30
0.0
 40
2.0
100
AcDbArc
 50
0.0
 51
90.0
  0
LINE
  5
689
330
ECA
100
AcDbEntity
  8
V0-OBRYS
 62
    90
100
AcDbLine
 10
180.0
 20
-157.5
 30
0.0
 11
180.0
 21
0.0
 31
0.0
  0
LINE
  5
68A
330
ECA
100
AcDbEntity
  8
V0-OBRYS
 62
    90
100
AcDbLine
 10
150.0
 20
0.0
 30
0.0
 11
150.0
 21
-157.5
 31
0.0
  0
LINE
  5
68B
330
ECA
100
AcDbEntity
  8
V0-OBRYS
 62
    90
100
AcDbLine
 10
150.0
 20
-157.5
 30
0.0
 11
180.0
 21
-157.5
 31
0.0
  0
LINE
  5
68C
330
ECA
100
AcDbEntity
  8
V0-OBRYS
 62
    90
100
AcDbLine
 10
180.0
 20
-157.5
 30
0.0
 11
180.0
 21
-161.31948
 31
0.0
  0
LINE
  5
68D
330
ECA
100
AcDbEntity
  8
V0-OBRYS
 62
    90
100
AcDbLine
 10
180.0
 20
-161.31948
 30
0.0
 11
183.0
 21
-161.31948
 31
0.0
  0
LINE
  5
68E
330
ECA
100
AcDbEntity
  8
V0-OBRYS
 62
    90
100
AcDbLine
 10
325.0
 20
0.0
 30
0.0
 11
325.0
 21
-159.944174
 31
0.0
  0
LINE
  5
68F
330
ECA
100
AcDbEntity
  8
V0-OBRYS
 62
    90
100
AcDbLine
 10
213.612466
 20
-200.5
 30
0.0
 11
213.612466
 21
0.0
 31
0.0
  0
LINE
  5
691
330
ECA
100
AcDbEntity
  8
V0-OBRYS
 62
    90
100
AcDbLine
 10
265.753017
 20
-200.5
 30
0.0
 11
265.753017
 21
0.0
 31
0.0
  0
LINE
  5
692
330
ECA
100
AcDbEntity
  8
V0-OBRYS
 62
    90
100
AcDbLine
 10
185.0
 20
0.0
 30
0.0
 11
185.0
 21
-163.31948
 31
0.0
  0
LINE
  5
693
330
ECA
100
AcDbEntity
  8
V0-OBRYS
 62
    90
100
AcDbLine
 10
355.0
 20
0.0
 30
0.0
 11
355.0
 21
-157.5
 31
0.0
  0
LINE
  5
694
330
ECA
100
AcDbEntity
  8
V0-OBRYS
 62
    90
100
AcDbLine
 10
277.122971
 20
-198.242112
 30
0.0
 11
324.265632
 21
-161.492778
 31
0.0
  0
ARC
  5
695
330
ECA
100
AcDbEntity
  8
V0-OBRYS
 62
    90
100
AcDbCircle
 10
210.144701
 20
-180.539719
 30
0.0
 40
16.588464
100
AcDbArc
 50
210.05008
 51
271.696881
  0
LINE
  5
696
330
ECA
100
AcDbEntity
  8
V0-OBRYS
 62
    90
100
AcDbLine
 10
185.0
 20
-163.31948
 30
0.0
 11
195.785925
 21
-188.846504
 31
0.0
  0
LINE
  5
697
330
ECA
100
AcDbEntity
  8
V0-OBRYS
 62
    90
100
AcDbLine
 10
213.612466
 20
-200.5
 30
0.0
 11
270.794968
 21
-200.499091
 31
0.0
  0
LINE
  5
698
330
ECA
100
AcDbEntity
  8
V0-OBRYS
 62
    90
100
AcDbLine
 10
213.612466
 20
-197.120908
 30
0.0
 11
210.635916
 21
-197.120908
 31
0.0
  0
LINE
  5
699
330
ECA
100
AcDbEntity
  8
V0-OBRYS
 62
    90
100
AcDbLine
 10
355.0
 20
-157.5
 30
0.0
 11
325.0
 21
-157.5
 31
0.0
  0
ARC
  5
69A
330
ECA
100
AcDbEntity
  8
V0-OBRYS
 62
    90
100
AcDbCircle
 10
323.0
 20
-159.944174
 30
0.0
 40
2.0
100
AcDbArc
 50
309.258201
 51
0.0
  0
ARC
  5
69E
330
ECA
100
AcDbEntity
  8
V0-OBRYS
 62
    90
100
AcDbCircle
 10
270.794809
 20
190.499091
 30
0.0
 40
10.0
100
AcDbArc
 50
50.741799
 51
89.999089
  0
ARC
  5
69F
330
ECA
100
AcDbEntity
  8
V0-OBRYS
 62
    90
100
AcDbCircle
 10
270.794809
 20
-190.499091
 30
0.0
 40
10.0
100
AcDbArc
 50
270.000911
 51
309.258201
  0
LINE
  5
6A0
330
ECA
100
AcDbEntity
  8
V0-OBRYS
 62
    90
100
AcDbLine
 10
274.319499
 20
194.323614
 30
0.0
 11
274.319499
 21
-193.776556
 31
0.0
  0
LINE
  5
6A1
330
ECA
100
AcDbEntity
  8
V0-OBRYS
 62
    90
100
AcDbLine
 10
208.457739
 20
187.874464
 30
0.0
 11
208.457739
 21
-188.939695
 31
0.0
  0
LINE
  5
6A2
330
ECA
100
AcDbEntity
  8
V0-OBRYS
 62
    90
100
AcDbLine
 10
220.0
 20
40.0
 30
0.0
 11
260.0
 21
40.0
 31
0.0
  0
LINE
  5
6A3
330
ECA
100
AcDbEntity
  8
V0-OBRYS
 62
    90
100
AcDbLine
 10
260.0
 20
40.0
 30
0.0
 11
260.0
 21
-40.0
 31
0.0
  0
LINE
  5
6A4
330
ECA
100
AcDbEntity
  8
V0-OBRYS
 62
    90
100
AcDbLine
 10
260.0
 20
-40.0
 30
0.0
 11
220.0
 21
-40.0
 31
0.0
  0
LINE
  5
6A5
330
ECA
100
AcDbEntity
  8
V0-OBRYS
 62
    90
100
AcDbLine
 10
220.0
 20
-40.0
 30
0.0
 11
220.0
 21
40.0
 31
0.0
  0
LINE
  5
6AA
330
ECA
100
AcDbEntity
  8
V0-VYPLNE
 62
    63
100
AcDbLine
 10
722.946245
 20
169.59559
 30
0.0
 11
722.946245
 21
-169.548
 31
0.0
  0
LINE
  5
6AB
330
ECA
100
AcDbEntity
  8
V0-VYPLNE
 62
    63
100
AcDbLine
 10
555.615364
 20
0.0
 30
0.0
 11
892.494245
 21
0.0
 31
0.0
  0
CIRCLE
  5
6AC
330
ECA
100
AcDbEntity
  8
V0-OBRYS
 62
    90
100
AcDbCircle
 10
722.946245
 20
0.0
 30
0.0
 40
157.816735
  0
CIRCLE
  5
6AF
330
ECA
100
AcDbEntity
  8
V0-OBRYS
 62
    90
100
AcDbCircle
 10
722.946245
 20
0.0
 30
0.0
 40
172.452584
  0
CIRCLE
  5
6B0
330
ECA
100
AcDbEntity
  8
V0-OBRYS
 62
    90
100
AcDbCircle
 10
722.946245
 20
0.0
 30
0.0
 40
121.404929
  0
LINE
  5
6B1
330
ECA
100
AcDbEntity
  8
V0-OBRYS
 62
    90
100
AcDbLine
 10
722.946245
 20
121.404929
 30
0.0
 11
722.946245
 21
159.54871
 31
0.0
  0
LINE
  5
6C5
330
ECA
100
AcDbEntity
  8
V0-OBRYS
 62
    90
100
AcDbLine
 10
662.24378
 20
105.139752
 30
0.0
 11
643.17189
 21
138.173236
 31
0.0
  0
LINE
  5
6C6
330
ECA
100
AcDbEntity
  8
V0-OBRYS
 62
    90
100
AcDbLine
 10
617.8064920000001
 20
60.702464
 30
0.0
 11
584.773009
 21
79.774355
 31
0.0
  0
LINE
  5
6C7
330
ECA
100
AcDbEntity
  8
V0-OBRYS
 62
    90
100
AcDbLine
 10
601.5413160000001
 20
0.0
 30
0.0
 11
563.397535
 21
0.0
 31
0.0
  0
LINE
  5
6C8
330
ECA
100
AcDbEntity
  8
V0-OBRYS
 62
    90
100
AcDbLine
 10
617.8064920000001
 20
-60.702464
 30
0.0
 11
584.773009
 21
-79.774355
 31
0.0
  0
LINE
  5
6C9
330
ECA
100
AcDbEntity
  8
V0-OBRYS
 62
    90
100
AcDbLine
 10
662.24378
 20
-105.139752
 30
0.0
 11
643.17189
 21
-138.173236
 31
0.0
  0
LINE
  5
6CA
330
ECA
100
AcDbEntity
  8
V0-OBRYS
 62
    90
100
AcDbLine
 10
722.946245
 20
-121.404929
 30
0.0
 11
722.946245
 21
-159.54871
 31
0.0
  0
LINE
  5
6CB
330
ECA
100
AcDbEntity
  8
V0-OBRYS
 62
    90
100
AcDbLine
 10
783.6487090000001
 20
-105.139752
 30
0.0
 11
802.720599
 21
-138.173236
 31
0.0
  0
LINE
  5
6CC
330
ECA
100
AcDbEntity
  8
V0-OBRYS
 62
    90
100
AcDbLine
 10
828.085997
 20
-60.702464
 30
0.0
 11
861.11948
 21
-79.774355
 31
0.0
  0
LINE
  5
6CD
330
ECA
100
AcDbEntity
  8
V0-OBRYS
 62
    90
100
AcDbLine
 10
844.351173
 20
0.0
 30
0.0
 11
882.494954
 21
0.0
 31
0.0
  0
LINE
  5
6CE
330
ECA
100
AcDbEntity
  8
V0-OBRYS
 62
    90
100
AcDbLine
 10
828.085997
 20
60.702464
 30
0.0
 11
861.11948
 21
79.774355
 31
0.0
  0
LINE
  5
6CF
330
ECA
100
AcDbEntity
  8
V0-OBRYS
 62
    90
100
AcDbLine
 10
783.6487090000001
 20
105.139752
 30
0.0
 11
802.720599
 21
138.173236
 31
0.0
  0
CIRCLE
  5
6D0
330
ECA
100
AcDbEntity
  8
V0-OBRYS
 62
    90
100
AcDbCircle
 10
722.946245
 20
0.0
 30
0.0
 40
32.179853
  0
LINE
  5
6D2
330
ECA
100
AcDbEntity
  8
V0-OBRYS
 62
    90
100
AcDbLine
 10
919.556191
 20
40.0
 30
0.0
 11
957.359391
 21
40.0
 31
0.0
  0
LINE
  5
6D3
330
ECA
100
AcDbEntity
  8
V0-OBRYS
 62
    90
100
AcDbLine
 10
957.359391
 20
40.0
 30
0.0
 11
957.359391
 21
-40.0
 31
0.0
  0
LINE
  5
6D4
330
ECA
100
AcDbEntity
  8
V0-OBRYS
 62
    90
100
AcDbLine
 10
957.359391
 20
-40.0
 30
0.0
 11
919.556191
 21
-40.0
 31
0.0
  0
LINE
  5
6D5
330
ECA
100
AcDbEntity
  8
V0-OBRYS
 62
    90
100
AcDbLine
 10
948.829309
 20
39.778651
 30
0.0
 11
948.829309
 21
-40.09942800000001
 31
0.0
  0
LINE
  5
6D6
330
ECA
100
AcDbEntity
  8
V0-OBRYS
 62
    90
100
AcDbLine
 10
220.0
 20
-794.710957
 30
0.0
 11
220.0
 21
-754.710957
 31
0.0
  0
LINE
  5
6D7
330
ECA
100
AcDbEntity
  8
V0-OBRYS
 62
    90
100
AcDbLine
 10
260.0
 20
-754.710957
 30
0.0
 11
260.0
 21
-794.710957
 31
0.0
  0
LINE
  5
6D8
330
ECA
100
AcDbEntity
  8
V0-OBRYS
 62
    90
100
AcDbLine
 10
208.457739
 20
-376.836493
 30
0.0
 11
208.457739
 21
-753.650652
 31
0.0
  0
LINE
  5
6D9
330
ECA
100
AcDbEntity
  8
V0-OBRYS
 62
    90
100
AcDbLine
 10
274.319499
 20
-370.387342
 30
0.0
 11
274.319499
 21
-758.487513
 31
0.0
  0
LINE
  5
6DA
330
ECA
100
AcDbEntity
  8
V0-OBRYS
 62
    90
100
AcDbLine
 10
213.612466
 20
-364.210957
 30
0.0
 11
213.612466
 21
-564.710957
 31
0.0
  0
LINE
  5
6DB
330
ECA
100
AcDbEntity
  8
V0-OBRYS
 62
    90
100
AcDbLine
 10
325.0
 20
-564.710957
 30
0.0
 11
325.0
 21
-404.766783
 31
0.0
  0
LINE
  5
6DC
330
ECA
100
AcDbEntity
  8
V0-OBRYS
 62
    90
100
AcDbLine
 10
265.753017
 20
-364.210957
 30
0.0
 11
265.753017
 21
-564.710957
 31
0.0
  0
LINE
  5
6DD
330
ECA
100
AcDbEntity
  8
V0-OBRYS
 62
    90
100
AcDbLine
 10
185.0
 20
-564.710957
 30
0.0
 11
185.0
 21
-401.391476
 31
0.0
  0
LINE
  5
6DE
330
ECA
100
AcDbEntity
  8
V0-OBRYS
 62
    90
100
AcDbLine
 10
355.0
 20
-564.710957
 30
0.0
 11
355.0
 21
-407.210957
 31
0.0
  0
LINE
  5
6DF
330
ECA
100
AcDbEntity
  8
V0-OBRYS
 62
    90
100
AcDbLine
 10
180.0
 20
-407.210957
 30
0.0
 11
180.0
 21
-564.710957
 31
0.0
  0
LINE
  5
6E0
330
ECA
100
AcDbEntity
  8
V0-OBRYS
 62
    90
100
AcDbLine
 10
150.0
 20
-564.710957
 30
0.0
 11
150.0
 21
-407.210957
 31
0.0
  0
LINE
  5
6E1
330
ECA
100
AcDbEntity
  8
V0-VYPLNE
 62
    63
100
AcDbLine
 10
150.0
 20
-564.710957
 30
0.0
 11
362.635079
 21
-564.710957
 31
0.0
  0
LINE
  5
6E2
330
ECA
100
AcDbEntity
  8
V0-OBRYS
 62
    90
100
AcDbLine
 10
185.0
 20
-715.530437
 30
0.0
 11
195.785925
 21
-753.557461
 31
0.0
  0
LINE
  5
6E3
330
ECA
100
AcDbEntity
  8
V0-OBRYS
 62
    90
100
AcDbLine
 10
185.0
 20
-564.710957
 30
0.0
 11
185.0
 21
-715.530437
 31
0.0
  0
LINE
  5
6E4
330
ECA
100
AcDbEntity
  8
V0-OBRYS
 62
    90
100
AcDbLine
 10
150.0
 20
-564.710957
 30
0.0
 11
150.0
 21
-722.210957
 31
0.0
  0
LINE
  5
6E5
330
ECA
100
AcDbEntity
  8
V0-OBRYS
 62
    90
100
AcDbLine
 10
180.0
 20
-722.210957
 30
0.0
 11
180.0
 21
-564.710957
 31
0.0
  0
LINE
  5
6E6
330
ECA
100
AcDbEntity
  8
V0-OBRYS
 62
    90
100
AcDbLine
 10
150.0
 20
-722.210957
 30
0.0
 11
180.0
 21
-722.210957
 31
0.0
  0
LINE
  5
6E7
330
ECA
100
AcDbEntity
  8
V0-OBRYS
 62
    90
100
AcDbLine
 10
180.0
 20
-726.030437
 30
0.0
 11
183.0
 21
-726.030437
 31
0.0
  0
LINE
  5
6E8
330
ECA
100
AcDbEntity
  8
V0-OBRYS
 62
    90
100
AcDbLine
 10
180.0
 20
-722.210957
 30
0.0
 11
180.0
 21
-726.030437
 31
0.0
  0
ARC
  5
6E9
330
ECA
100
AcDbEntity
  8
V0-OBRYS
 62
    90
100
AcDbCircle
 10
183.0
 20
-728.030437
 30
0.0
 40
2.0
100
AcDbArc
 50
0.0
 51
90.0
  0
LINE
  5
6EA
330
ECA
100
AcDbEntity
  8
V0-OBRYS
 62
    90
100
AcDbLine
 10
355.0
 20
-722.210957
 30
0.0
 11
325.0
 21
-722.210957
 31
0.0
  0
LINE
  5
6EB
330
ECA
100
AcDbEntity
  8
V0-OBRYS
 62
    90
100
AcDbLine
 10
213.612466
 20
-765.210957
 30
0.0
 11
220.0
 21
-765.210855
 31
0.0
  0
LINE
  5
6EC
330
ECA
100
AcDbEntity
  8
V0-OBRYS
 62
    90
100
AcDbLine
 10
213.612466
 20
-765.210957
 30
0.0
 11
213.612466
 21
-564.710957
 31
0.0
  0
ARC
  5
6ED
330
ECA
100
AcDbEntity
  8
V0-OBRYS
 62
    90
100
AcDbCircle
 10
210.144701
 20
-745.250675
 30
0.0
 40
16.588464
100
AcDbArc
 50
210.05008
 51
271.696881
  0
LINE
  5
6EE
330
ECA
100
AcDbEntity
  8
V0-OBRYS
 62
    90
100
AcDbLine
 10
213.612466
 20
-761.831865
 30
0.0
 11
210.635916
 21
-761.831865
 31
0.0
  0
LINE
  5
6EF
330
ECA
100
AcDbEntity
  8
V0-OBRYS
 62
    90
100
AcDbLine
 10
260.0
 20
-794.710957
 30
0.0
 11
220.0
 21
-794.710957
 31
0.0
  0
LINE
  5
6F0
330
ECA
100
AcDbEntity
  8
V0-OBRYS
 62
    90
100
AcDbLine
 10
265.753017
 20
-765.210957
 30
0.0
 11
265.753017
 21
-564.710957
 31
0.0
  0
LINE
  5
6F1
330
ECA
100
AcDbEntity
  8
V0-OBRYS
 62
    90
100
AcDbLine
 10
277.122971
 20
-762.953069
 30
0.0
 11
324.265632
 21
-726.2037350000001
 31
0.0
  0
ARC
  5
6F2
330
ECA
100
AcDbEntity
  8
V0-OBRYS
 62
    90
100
AcDbCircle
 10
270.794809
 20
-755.210048
 30
0.0
 40
10.0
100
AcDbArc
 50
270.000911
 51
309.258201
  0
LINE
  5
6F3
330
ECA
100
AcDbEntity
  8
V0-OBRYS
 62
    90
100
AcDbLine
 10
325.0
 20
-564.710957
 30
0.0
 11
325.0
 21
-724.655131
 31
0.0
  0
ARC
  5
6F4
330
ECA
100
AcDbEntity
  8
V0-OBRYS
 62
    90
100
AcDbCircle
 10
323.0
 20
-724.655131
 30
0.0
 40
2.0
100
AcDbArc
 50
309.258201
 51
0.0
  0
LINE
  5
6F5
330
ECA
100
AcDbEntity
  8
V0-OBRYS
 62
    90
100
AcDbLine
 10
355.0
 20
-564.710957
 30
0.0
 11
355.0
 21
-722.210957
 31
0.0
  0
LINE
  5
6F6
330
ECA
100
AcDbEntity
  8
V0-OBRYS
 62
    90
100
AcDbLine
 10
185.0
 20
-401.391476
 30
0.0
 11
195.785925
 21
-375.864452
 31
0.0
  0
LINE
  5
6F7
330
ECA
100
AcDbEntity
  8
V0-OBRYS
 62
    90
100
AcDbLine
 10
150.0
 20
-407.210957
 30
0.0
 11
180.0
 21
-407.210957
 31
0.0
  0
LINE
  5
6F8
330
ECA
100
AcDbEntity
  8
V0-OBRYS
 62
    90
100
AcDbLine
 10
180.0
 20
-407.210957
 30
0.0
 11
180.0
 21
-403.391476
 31
0.0
  0
LINE
  5
6F9
330
ECA
100
AcDbEntity
  8
V0-OBRYS
 62
    90
100
AcDbLine
 10
180.0
 20
-403.391476
 30
0.0
 11
183.0
 21
-403.391476
 31
0.0
  0
ARC
  5
6FA
330
ECA
100
AcDbEntity
  8
V0-OBRYS
 62
    90
100
AcDbCircle
 10
183.0
 20
-401.391476
 30
0.0
 40
2.0
100
AcDbArc
 50
270.0
 51
0.0
  0
LINE
  5
6FB
330
ECA
100
AcDbEntity
  8
V0-OBRYS
 62
    90
100
AcDbLine
 10
355.0
 20
-407.210957
 30
0.0
 11
325.0
 21
-407.210957
 31
0.0
  0
LINE
  5
6FC
330
ECA
100
AcDbEntity
  8
V0-OBRYS
 62
    90
100
AcDbLine
 10
213.612466
 20
-364.210957
 30
0.0
 11
270.794968
 21
-364.211866
 31
0.0
  0
ARC
  5
6FE
330
ECA
100
AcDbEntity
  8
V0-OBRYS
 62
    90
100
AcDbCircle
 10
210.144701
 20
-384.171238
 30
0.0
 40
16.588464
100
AcDbArc
 50
88.303119
 51
149.94992
  0
LINE
  5
6FF
330
ECA
100
AcDbEntity
  8
V0-OBRYS
 62
    90
100
AcDbLine
 10
213.612466
 20
-367.590049
 30
0.0
 11
210.635916
 21
-367.590049
 31
0.0
  0
LINE
  5
700
330
ECA
100
AcDbEntity
  8
V0-OBRYS
 62
    90
100
AcDbLine
 10
277.122971
 20
-366.468845
 30
0.0
 11
324.265632
 21
-403.218179
 31
0.0
  0
ARC
  5
701
330
ECA
100
AcDbEntity
  8
V0-OBRYS
 62
    90
100
AcDbCircle
 10
323.0
 20
-404.766783
 30
0.0
 40
2.0
100
AcDbArc
 50
0.0
 51
50.741799
  0
ARC
  5
702
330
ECA
100
AcDbEntity
  8
V0-OBRYS
 62
    90
100
AcDbCircle
 10
270.794809
 20
-374.211866
 30
0.0
 40
10.0
100
AcDbArc
 50
50.741799
 51
89.999089
  0
LINE
  5
703
330
ECA
100
AcDbEntity
  8
V0-OBRYS
 62
    90
100
AcDbLine
 10
220.0
 20
-754.710957
 30
0.0
 11
260.0
 21
-754.710957
 31
0.0
  0
LINE
  5
704
330
ECA
100
AcDbEntity
  8
V0-OBRYS
 62
    90
100
AcDbLine
 10
260.0
 20
-765.2102190000001
 30
0.0
 11
270.794968
 21
-765.210048
 31
0.0
  0
LINE
  5
705
330
ECA
100
AcDbEntity
  8
V0-OBRYS
 62
    90
100
AcDbLine
 10
220.603366
 20
-788.496003
 30
0.0
 11
259.874123
 21
-788.496003
 31
0.0
  0
DIMENSION
  5
715
330
ECA
100
AcDbEntity
  8
V0-VYPLNE
  6
CONTINUOUS
 62
    41
100
AcDbDimension
  2
*D4
 10
180.0
 20
-234.2649600000004
 30
0.0
 11
165.0
 21
-234.26496
 31
0.0
 70
   160
  3
ED10
100
AcDbAlignedDimension
 13
150.0
 23
-157.5
 33
0.0
 14
180.0
 24
-157.5
 34
0.0
100
AcDbRotatedDimension
1001
ACAD
1000
DSTYLE
1002
{
1070
    40
1040
1.0
1002
}
  0
DIMENSION
  5
724
330
ECA
100
AcDbEntity
  8
V0-VYPLNE
  6
CONTINUOUS
 62
    41
100
AcDbDimension
  2
*D5
 10
355.0
 20
-233.2649600000004
 30
0.0
 11
340.0
 21
-226.7649600000004
 31
0.0
 70
    32
  3
ED10
100
AcDbAlignedDimension
 13
325.0
 23
-157.5
 33
0.0
 14
355.0
 24
-157.5
 34
0.0
100
AcDbRotatedDimension
1001
ACAD
1000
DSTYLE
1002
{
1070
    40
1040
1.0
1002
}
  0
DIMENSION
  5
731
330
ECA
100
AcDbEntity
  8
V0-VYPLNE
  6
CONTINUOUS
 62
    41
100
AcDbDimension
  2
*D6
 10
355.0
 20
-259.767645999993
 30
0.0
 11
250.0
 21
-259.767646
 31
0.0
 70
   160
  3
ED10
100
AcDbAlignedDimension
 13
150.0
 23
-157.5
 33
0.0
 14
355.0
 24
-157.5
 34
0.0
100
AcDbRotatedDimension
1001
ACAD
1000
DSTYLE
1002
{
1070
    40
1040
1.0
1002
}
  0
DIMENSION
  5
74B
330
ECA
100
AcDbEntity
  8
V0-VYPLNE
  6
CONTINUOUS
 62
    41
100
AcDbDimension
  2
*D7
 10
116.5116610000005
 20
-157.5
 30
0.0
 11
110.0116610000005
 21
0.0
 31
0.0
 70
    32
  1
%%c<>
  3
ED10
100
AcDbAlignedDimension
 13
150.0
 23
157.5
 33
0.0
 14
150.0
 24
-157.5
 34
0.0
 50
90.0
100
AcDbRotatedDimension
1001
ACAD
1000
DSTYLE
1002
{
1070
    40
1040
1.0
1002
}
  0
DIMENSION
  5
758
330
ECA
100
AcDbEntity
  8
V0-VYPLNE
  6
CONTINUOUS
 62
    41
100
AcDbDimension
  2
*D8
 10
393.6266969999997
 20
-157.5
 30
0.0
 11
387.1266969999997
 21
0.0
 31
0.0
 70
    32
  1
%%c<>
  3
ED10
100
AcDbAlignedDimension
 13
355.0
 23
157.5
 33
0.0
 14
355.0
 24
-157.5
 34
0.0
 50
90.0
100
AcDbRotatedDimension
1001
ACAD
1000
DSTYLE
1002
{
1070
    40
1040
1.0
1002
}
  0
LINE
  5
798
330
ECA
100
AcDbEntity
  8
V0-VYPLNE
  6
CONTINUOUS
 62
    41
100
AcDbLine
 10
282.091181
 20
6.535906
 30
0.0
 11
320.918417
 21
6.535906
 31
0.0
  0
LINE
  5
799
330
ECA
100
AcDbEntity
  8
V0-VYPLNE
  6
CONTINUOUS
 62
    41
100
AcDbLine
 10
320.918417
 20
6.535906
 30
0.0
 11
314.185913
 21
11.727036
 31
0.0
  0
LINE
  5
79A
330
ECA
100
AcDbEntity
  8
V0-VYPLNE
  6
CONTINUOUS
 62
    41
100
AcDbLine
 10
320.918417
 20
6.535906
 30
0.0
 11
314.185913
 21
1.344776
 31
0.0
  0
LINE
  5
79B
330
ECA
100
AcDbEntity
  8
V0-VYPLNE
  6
CONTINUOUS
 62
    41
100
AcDbLine
 10
282.091181
 20
-552.925679
 30
0.0
 11
320.918417
 21
-552.925679
 31
0.0
  0
LINE
  5
79C
330
ECA
100
AcDbEntity
  8
V0-VYPLNE
  6
CONTINUOUS
 62
    41
100
AcDbLine
 10
320.918417
 20
-552.925679
 30
0.0
 11
314.185913
 21
-558.116809
 31
0.0
  0
LINE
  5
79D
330
ECA
100
AcDbEntity
  8
V0-VYPLNE
  6
CONTINUOUS
 62
    41
100
AcDbLine
 10
320.918417
 20
-552.925679
 30
0.0
 11
314.185913
 21
-547.734549
 31
0.0
  0
POINT
  5
79E
330
ECA
100
AcDbEntity
  8
V0-VYPLNE
  6
CONTINUOUS
 62
    41
100
AcDbPoint
 10
722.946245
 20
0.0
 30
0.0
  0
POINT
  5
79F
330
ECA
100
AcDbEntity
  8
V0-VYPLNE
  6
CONTINUOUS
 62
    41
100
AcDbPoint
 10
180.0
 20
0.0
 30
0.0
  0
POINT
  5
7A0
330
ECA
100
AcDbEntity
  8
V0-VYPLNE
  6
CONTINUOUS
 62
    41
100
AcDbPoint
 10
180.0
 20
-564.710957
 30
0.0
  0
POINT
  5
7A1
330
ECA
100
AcDbEntity
  8
V0-VYPLNE
  6
CONTINUOUS
 62
    41
100
AcDbPoint
 10
325.0
 20
-564.710957
 30
0.0
  0
POINT
  5
7A2
330
ECA
100
AcDbEntity
  8
V0-VYPLNE
  6
CONTINUOUS
 62
    41
100
AcDbPoint
 10
325.0
 20
0.0
 30
0.0
  0
DIMENSION
  5
98A
330
ECA
100
AcDbEntity
  8
V0-VYPLNE
  6
CONTINUOUS
 62
    41
100
AcDbDimension
  2
*D9
 10
51.28404600000067
 20
-200.5
 30
0.0
 11
44.78404600000067
 21
0.0
 31
0.0
 70
    32
  1
%%c<>
  3
ED10
100
AcDbAlignedDimension
 13
213.612466
 23
200.5
 33
0.0
 14
213.612466
 24
-200.5
 34
0.0
 50
90.0
100
AcDbRotatedDimension
1001
ACAD
1000
DSTYLE
1002
{
1070
    40
1040
1.0
1002
}
  0
CIRCLE
  5
D69
330
ECA
100
AcDbEntity
  8
V0-OBRYS
  6
CONTINUOUS
 62
    90
100
AcDbCircle
 10
722.946245
 20
0.0
 30
0.0
 40
200.0
  0
CIRCLE
  5
D6A
330
ECA
100
AcDbEntity
  8
V0-OBRYS
  6
CONTINUOUS
 62
    90
100
AcDbCircle
 10
722.946245
 20
0.0
 30
0.0
 40
194.611574
  0
TEXT
  5
EA3
330
ECA
100
AcDbEntity
  8
V0-NAZVY
100
AcDbText
 10
520.3413451428572
 20
-482.860363
 30
0.0
 40
56.25
  1
RM 315
  7
ED10
100
AcDbText
  0
VIEWPORT
  5
F48
330
EC6
100
AcDbEntity
 67
     1
  8
0
 60
     1
100
AcDbViewport
 10
261.517699
 20
148.5
 30
0.0
 40
297.0
 41
297.0
 68
     0
 69
     1
1001
VD_INVISIBLE_NOT_FOR_READ
1000
VD_INVISIBLE_NOT_FOR_READ
1001
ACAD
1000
MVIEW
1002
{
1070
    16
1010
0.0
1020
0.0
1030
0.0
1010
0.0
1020
0.0
1030
1.0
1040
6.2831853071796
1040
297.0
1040
261.517699
1040
148.5
1040
0.0
1040
0.0
1040
0.0
1070
     0
1070
   100
1070
     0
1070
     1
1070
     0
1070
     0
1070
     0
1070
     0
1040
0.0
1040
0.0
1040
0.0
1040
1.0
1040
1.0
1040
0.0
1040
0.0
1070
     0
1002
{
1002
}
1002
}
  0
VIEWPORT
  5
F49
330
EC6
100
AcDbEntity
 67
     1
  8
0
 60
     1
100
AcDbViewport
 10
261.517699
 20
148.5
 30
0.0
 40
297.0
 41
297.0
 68
     0
 69
     2
1001
VD_INVISIBLE_NOT_FOR_READ
1000
VD_INVISIBLE_NOT_FOR_READ
1001
ACAD
1000
MVIEW
1002
{
1070
    16
1010
0.0
1020
0.0
1030
0.0
1010
0.0
1020
0.0
1030
1.0
1040
6.2831853071796
1040
297.0
1040
261.517699
1040
148.5
1040
0.0
1040
0.0
1040
0.0
1070
     0
1070
   100
1070
     0
1070
     1
1070
     0
1070
     0
1070
     0
1070
     0
1040
0.0
1040
0.0
1040
0.0
1040
1.0
1040
1.0
1040
0.0
1040
0.0
1070
     0
1002
{
1002
}
1002
}
  0
ENDSEC
  0
SECTION
  2
OBJECTS
  0
DICTIONARY
  5
EB7
330
0
100
AcDbDictionary
  3
ACAD_GROUP
350
EB8
  3
ACAD_LAYOUT
350
EC5
  3
ACAD_MLINESTYLE
350
EC2
  3
ACAD_PLOTSETTINGS
350
EC4
  3
ACDBHEADERROUNDTRIPXREC
350
F4A
  3
VECTORDRAW_OBJECTS
350
EDA
  0
DICTIONARY
  5
F6A
330
ED4
100
AcDbDictionary
280
     1
  3
ACAD_XREC_ROUNDTRIP
360
F6B
  0
DICTIONARY
  5
EB8
102
{ACAD_REACTORS
330
EB7
102
}
330
EB7
100
AcDbDictionary
  0
DICTIONARY
  5
EC5
102
{ACAD_REACTORS
330
EB7
102
}
330
EB7
100
AcDbDictionary
  0
DICTIONARY
  5
EC2
102
{ACAD_REACTORS
330
EB7
102
}
330
EB7
100
AcDbDictionary
  3
STANDARD
350
EC3
  0
DICTIONARY
  5
EC4
102
{ACAD_REACTORS
330
EB7
102
}
330
EB7
100
AcDbDictionary
  0
DICTIONARY
  5
F4A
102
{ACAD_REACTORS
330
EB7
102
}
330
EB7
100
AcDbDictionary
  3
CEPSNTYPE
350
F53
  3
DIMSTYLEDATA
350
F69
  3
FINGERPRINTGUID
350
F54
  3
HYPERLINKBASE
350
F4D
  3
INSUNITS
350
F52
  3
LAYOUTDICT
350
F4F
  3
LWETCUNION
350
F51
  3
PLOTSETDICT
350
F50
  3
PSVPSCALE
350
F56
  3
PUCSBASE
350
F59
  3
PUCSORGBACK
350
F5F
  3
PUCSORGBOTTOM
350
F5B
  3
PUCSORGFRONT
350
F5E
  3
PUCSORGLEFT
350
F5C
  3
PUCSORGRIGHT
350
F5D
  3
PUCSORGTOP
350
F5A
  3
PUCSORTHOREF
350
F57
  3
PUCSORTHOVIEW
350
F58
  3
STYLESHEET
350
F4E
  3
TSTACKALIGN
350
F4B
  3
TSTACKSIZE
350
F4C
  3
UCSBASE
350
F62
  3
UCSORGBACK
350
F68
  3
UCSORGBOTTOM
350
F64
  3
UCSORGFRONT
350
F67
  3
UCSORGLEFT
350
F65
  3
UCSORGRIGHT
350
F66
  3
UCSORGTOP
350
F63
  3
UCSORTHOREF
350
F60
  3
UCSORTHOVIEW
350
F61
  3
VERSIONGUID
350
F55
  0
DICTIONARY
  5
EDA
102
{ACAD_REACTORS
330
EB7
102
}
330
EB7
100
AcDbDictionary
  3
SERIALNO
350
EDB
  0
XRECORD
  5
F6B
102
{ACAD_REACTORS
330
F6A
102
}
330
F6A
100
AcDbXrecord
102
UCS
 74
     0
 71
     1
 10
0.0
 20
0.0
 30
0.0
 10
1.0
 20
0.0
 30
0.0
 10
0.0
 20
1.0
 30
0.0
146
0.0
 79
     0
102
VIEW
281
     0
  0
MLINESTYLE
  5
EC3
102
{ACAD_REACTORS
330
EC2
102
}
330
EC2
100
AcDbMlineStyle
  2
Standard
 70
     0
  3

 62
   256
 51
90.0
 52
90.0
 71
     2
 49
0.5
 62
   256
  6
BYLAYER
 49
-0.5
 62
   256
  6
BYLAYER
  0
XRECORD
  5
F53
102
{ACAD_REACTORS
330
F4A
102
}
330
F4A
100
AcDbXrecord
 90
        0
  0
XRECORD
  5
F69
102
{ACAD_REACTORS
330
F4A
102
}
330
F4A
100
AcDbXrecord
1000
DSTYLE
1002
{
1070
    41
 40
15.0
1070
   342
340
90
1070
   271
 70
     0
1070
    44
 40
1.25
1070
    42
 40
1.0
1070
   147
 40
1.5
1070
    77
 70
     1
1070
    73
 70
     0
1070
   174
 70
     1
1070
   172
 70
     1
1070
    74
 70
     0
1070
   340
340
5D2
1070
   140
 40
10.0
1070
   288
 70
     1
1002
}
  0
XRECORD
  5
F54
102
{ACAD_REACTORS
330
F4A
102
}
330
F4A
100
AcDbXrecord
  1
{FAEB1C30-E019-11D5-929B-00C0DF256EC4}
  0
XRECORD
  5
F4D
102
{ACAD_REACTORS
330
F4A
102
}
330
F4A
100
AcDbXrecord
  1

  0
XRECORD
  5
F52
102
{ACAD_REACTORS
330
F4A
102
}
330
F4A
100
AcDbXrecord
 90
        1
  0
XRECORD
  5
F4F
102
{ACAD_REACTORS
330
F4A
102
}
330
F4A
100
AcDbXrecord
340
EC5
  0
XRECORD
  5
F51
102
{ACAD_REACTORS
330
F4A
102
}
330
F4A
100
AcDbXrecord
 90
     2560
  0
XRECORD
  5
F50
102
{ACAD_REACTORS
330
F4A
102
}
330
F4A
100
AcDbXrecord
340
EC4
  0
XRECORD
  5
F56
102
{ACAD_REACTORS
330
F4A
102
}
330
F4A
100
AcDbXrecord
 40
0.0
  0
XRECORD
  5
F59
102
{ACAD_REACTORS
330
F4A
102
}
330
F4A
100
AcDbXrecord
340
0
  0
XRECORD
  5
F5F
102
{ACAD_REACTORS
330
F4A
102
}
330
F4A
100
AcDbXrecord
 10
0.0
 20
0.0
 30
0.0
  0
XRECORD
  5
F5B
102
{ACAD_REACTORS
330
F4A
102
}
330
F4A
100
AcDbXrecord
 10
0.0
 20
0.0
 30
0.0
  0
XRECORD
  5
F5E
102
{ACAD_REACTORS
330
F4A
102
}
330
F4A
100
AcDbXrecord
 10
0.0
 20
0.0
 30
0.0
  0
XRECORD
  5
F5C
102
{ACAD_REACTORS
330
F4A
102
}
330
F4A
100
AcDbXrecord
 10
0.0
 20
0.0
 30
0.0
  0
XRECORD
  5
F5D
102
{ACAD_REACTORS
330
F4A
102
}
330
F4A
100
AcDbXrecord
 10
0.0
 20
0.0
 30
0.0
  0
XRECORD
  5
F5A
102
{ACAD_REACTORS
330
F4A
102
}
330
F4A
100
AcDbXrecord
 10
0.0
 20
0.0
 30
0.0
  0
XRECORD
  5
F57
102
{ACAD_REACTORS
330
F4A
102
}
330
F4A
100
AcDbXrecord
340
0
  0
XRECORD
  5
F58
102
{ACAD_REACTORS
330
F4A
102
}
330
F4A
100
AcDbXrecord
 70
     0
  0
XRECORD
  5
F4E
102
{ACAD_REACTORS
330
F4A
102
}
330
F4A
100
AcDbXrecord
  1

  0
XRECORD
  5
F4B
102
{ACAD_REACTORS
330
F4A
102
}
330
F4A
100
AcDbXrecord
 90
        1
  0
XRECORD
  5
F4C
102
{ACAD_REACTORS
330
F4A
102
}
330
F4A
100
AcDbXrecord
 90
       70
  0
XRECORD
  5
F62
102
{ACAD_REACTORS
330
F4A
102
}
330
F4A
100
AcDbXrecord
340
0
  0
XRECORD
  5
F68
102
{ACAD_REACTORS
330
F4A
102
}
330
F4A
100
AcDbXrecord
 10
0.0
 20
0.0
 30
0.0
  0
XRECORD
  5
F64
102
{ACAD_REACTORS
330
F4A
102
}
330
F4A
100
AcDbXrecord
 10
0.0
 20
0.0
 30
0.0
  0
XRECORD
  5
F67
102
{ACAD_REACTORS
330
F4A
102
}
330
F4A
100
AcDbXrecord
 10
0.0
 20
0.0
 30
0.0
  0
XRECORD
  5
F65
102
{ACAD_REACTORS
330
F4A
102
}
330
F4A
100
AcDbXrecord
 10
0.0
 20
0.0
 30
0.0
  0
XRECORD
  5
F66
102
{ACAD_REACTORS
330
F4A
102
}
330
F4A
100
AcDbXrecord
 10
0.0
 20
0.0
 30
0.0
  0
XRECORD
  5
F63
102
{ACAD_REACTORS
330
F4A
102
}
330
F4A
100
AcDbXrecord
 10
0.0
 20
0.0
 30
0.0
  0
XRECORD
  5
F60
102
{ACAD_REACTORS
330
F4A
102
}
330
F4A
100
AcDbXrecord
340
0
  0
XRECORD
  5
F61
102
{ACAD_REACTORS
330
F4A
102
}
330
F4A
100
AcDbXrecord
 70
     0
  0
XRECORD
  5
F55
102
{ACAD_REACTORS
330
F4A
102
}
330
F4A
100
AcDbXrecord
  1
{FAEB1C32-E019-11D5-929B-00C0DF256EC4}
  0
XRECORD
  5
EDB
102
{ACAD_REACTORS
330
EDA
102
}
330
EDA
100
AcDbXrecord
1000
rInJVR9YY4Q8hfPWdUq5j5319
1070
     4
1070
     6
  0
ENDSEC
  0
EOF
