  0
SECTION
  2
HEADER
  9
$ACADVER
  1
AC1014
  9
$ACADMAINTVER
 70
     9
  9
$DWGCODEPAGE
  3
ANSI_1250
  9
$INSBASE
 10
0.0
 20
0.0
 30
0.0
  9
$EXTMIN
 10
33.5994306153852
 20
-621.7272830000001
 30
0.0
  9
$EXTMAX
 10
820.332164
 20
169.59559
 30
0.0
  9
$LIMMIN
 10
0.0
 20
0.0
  9
$LIMMAX
 10
0.0
 20
0.0
  9
$ORTHOMODE
 70
     1
  9
$REGENMODE
 70
     1
  9
$FILLMODE
 70
     1
  9
$QTEXTMODE
 70
     0
  9
$MIRRTEXT
 70
     1
  9
$DRAGMODE
 70
     2
  9
$LTSCALE
 40
1.0
  9
$OSMODE
 70
    37
  9
$ATTMODE
 70
     1
  9
$TEXTSIZE
 40
0.2
  9
$TRACEWID
 40
0.05
  9
$TEXTSTYLE
  7
ED10
  9
$CLAYER
  8
V0-OBRYS
  9
$CELTYPE
  6
CONTINUOUS
  9
$CECOLOR
 62
    90
  9
$CELTSCALE
 40
1.0
  9
$DELOBJ
 70
     1
  9
$DISPSILH
 70
     0
  9
$DIMSCALE
 40
1.0
  9
$DIMASZ
 40
15.0
  9
$DIMEXO
 40
1.0
  9
$DIMDLI
 40
0.38
  9
$DIMRND
 40
0.0
  9
$DIMDLE
 40
0.0
  9
$DIMEXE
 40
1.25
  9
$DIMTP
 40
0.0
  9
$DIMTM
 40
0.0
  9
$DIMTXT
 40
10.0
  9
$DIMCEN
 40
0.09
  9
$DIMTSZ
 40
0.0
  9
$DIMTOL
 70
     0
  9
$DIMLIM
 70
     0
  9
$DIMTIH
 70
     0
  9
$DIMTOH
 70
     0
  9
$DIMSE1
 70
     0
  9
$DIMSE2
 70
     0
  9
$DIMTAD
 70
     1
  9
$DIMZIN
 70
     0
  9
$DIMBLK
  1
OPEN
  9
$DIMASO
 70
     1
  9
$DIMSHO
 70
     1
  9
$DIMPOST
  1

  9
$DIMAPOST
  1

  9
$DIMALT
 70
     0
  9
$DIMALTD
 70
     2
  9
$DIMALTF
 40
25.4
  9
$DIMLFAC
 40
1.0
  9
$DIMTOFL
 70
     1
  9
$DIMTVP
 40
0.0
  9
$DIMTIX
 70
     1
  9
$DIMSOXD
 70
     0
  9
$DIMSAH
 70
     0
  9
$DIMBLK1
  1

  9
$DIMBLK2
  1

  9
$DIMSTYLE
  2
ED10
  9
$DIMCLRD
 70
     0
  9
$DIMCLRE
 70
     0
  9
$DIMCLRT
 70
     0
  9
$DIMTFAC
 40
1.0
  9
$DIMGAP
 40
1.5
  9
$DIMJUST
 70
     0
  9
$DIMSD1
 70
     0
  9
$DIMSD2
 70
     0
  9
$DIMTOLJ
 70
     1
  9
$DIMTZIN
 70
     0
  9
$DIMALTZ
 70
     0
  9
$DIMALTTZ
 70
     0
  9
$DIMFIT
 70
     3
  9
$DIMUPT
 70
     1
  9
$DIMUNIT
 70
     2
  9
$DIMDEC
 70
     0
  9
$DIMTDEC
 70
     4
  9
$DIMALTU
 70
     2
  9
$DIMALTTD
 70
     2
  9
$DIMTXSTY
  7
ED20
  9
$DIMAUNIT
 70
     0
  9
$LUNITS
 70
     2
  9
$LUPREC
 70
     4
  9
$SKETCHINC
 40
0.1
  9
$FILLETRAD
 40
0.5
  9
$AUNITS
 70
     0
  9
$AUPREC
 70
     0
  9
$MENU
  1
.
  9
$ELEVATION
 40
0.0
  9
$PELEVATION
 40
0.0
  9
$THICKNESS
 40
0.0
  9
$LIMCHECK
 70
     0
  9
$BLIPMODE
 70
     0
  9
$CHAMFERA
 40
0.5
  9
$CHAMFERB
 40
0.5
  9
$CHAMFERC
 40
1.0
  9
$CHAMFERD
 40
0.0
  9
$SKPOLY
 70
     0
  9
$TDCREATE
 40
2455642.651145834
  9
$TDUPDATE
 40
2455642.651145845
  9
$TDINDWG
 40
0.0000000116
  9
$TDUSRTIMER
 40
0.0000000116
  9
$USRTIMER
 70
     1
  9
$ANGBASE
 50
0.0
  9
$ANGDIR
 70
     0
  9
$PDMODE
 70
     3
  9
$PDSIZE
 40
15.0
  9
$PLINEWID
 40
0.0
  9
$COORDS
 70
     1
  9
$SPLFRAME
 70
     0
  9
$SPLINETYPE
 70
     6
  9
$SPLINESEGS
 70
     8
  9
$ATTDIA
 70
     0
  9
$ATTREQ
 70
     1
  9
$HANDLING
 70
     1
  9
$HANDSEED
  5
DE9
  9
$SURFTAB1
 70
     6
  9
$SURFTAB2
 70
     6
  9
$SURFTYPE
 70
     6
  9
$SURFU
 70
     6
  9
$SURFV
 70
     6
  9
$UCSNAME
  2

  9
$UCSORG
 10
0.0
 20
0.0
 30
0.0
  9
$UCSXDIR
 10
1.0
 20
0.0
 30
0.0
  9
$UCSYDIR
 10
0.0
 20
1.0
 30
0.0
  9
$PUCSNAME
  2

  9
$PUCSORG
 10
0.0
 20
0.0
 30
0.0
  9
$PUCSXDIR
 10
1.0
 20
0.0
 30
0.0
  9
$PUCSYDIR
 10
0.0
 20
1.0
 30
0.0
  9
$USERI1
 70
     0
  9
$USERI2
 70
     0
  9
$USERI3
 70
     0
  9
$USERI4
 70
     0
  9
$USERI5
 70
     0
  9
$USERR1
 40
0.0
  9
$USERR2
 40
0.0
  9
$USERR3
 40
0.0
  9
$USERR4
 40
0.0
  9
$USERR5
 40
0.0
  9
$WORLDVIEW
 70
     1
  9
$SHADEDGE
 70
     3
  9
$SHADEDIF
 70
    70
  9
$TILEMODE
 70
     1
  9
$MAXACTVP
 70
    64
  9
$PINSBASE
 10
0.0
 20
0.0
 30
0.0
  9
$PLIMCHECK
 70
     0
  9
$PEXTMIN
 10
1.000000000000000E+20
 20
1.000000000000000E+20
 30
1.000000000000000E+20
  9
$PEXTMAX
 10
-1.000000000000000E+20
 20
-1.000000000000000E+20
 30
-1.000000000000000E+20
  9
$PLIMMIN
 10
0.0
 20
0.0
  9
$PLIMMAX
 10
0.0
 20
0.0
  9
$UNITMODE
 70
     0
  9
$VISRETAIN
 70
     1
  9
$PLINEGEN
 70
     0
  9
$PSLTSCALE
 70
     1
  9
$TREEDEPTH
 70
  3020
  9
$PICKSTYLE
 70
     1
  9
$CMLSTYLE
  2
STANDARD
  9
$CMLJUST
 70
     0
  9
$CMLSCALE
 40
1.0
  9
$PROXYGRAPHICS
 70
     1
  9
$MEASUREMENT
 70
     0
  0
ENDSEC
  0
SECTION
  2
CLASSES
  0
CLASS
  1
ACDBDICTIONARYWDFLT
  2
AcDbDictionaryWithDefault
  3
ObjectDBX Classes
 90
        0
280
     0
281
     0
  0
CLASS
  1
XRECORD
  2
AcDbXrecord
  3
AutoCAD 2000
 90
        0
280
     0
281
     0
  0
CLASS
  1
LWPOLYLINE
  2
AcDbPolyline
  3
AutoCAD 2000
 90
        0
280
     0
281
     1
  0
CLASS
  1
HATCH
  2
AcDbHatch
  3
AutoCAD 2000
 90
        0
280
     0
281
     1
  0
CLASS
  1
ACDBPLACEHOLDER
  2
AcDbPlaceHolder
  3
ObjectDBX Classes
 90
        0
280
     0
281
     0
  0
CLASS
  1
LAYOUT
  2
AcDbLayout
  3
ObjectDBX Classes
 90
        0
280
     0
281
     0
  0
ENDSEC
  0
SECTION
  2
TABLES
  0
TABLE
  2
VPORT
  5
D30
330
0
100
AcDbSymbolTable
 70
     2
  0
VPORT
  5
D51
102
{ACAD_XDICTIONARY
360
DE7
102
}
330
D30
100
AcDbSymbolTableRecord
100
AcDbViewportTableRecord
  2
*ACTIVE
 70
     0
 10
0.0
 20
0.0
 11
1.0
 21
1.0
 12
434.914657
 22
-151.444128
 13
0.0
 23
0.0
 14
10.0
 24
10.0
 15
10.0
 25
10.0
 16
0.0
 26
0.0
 36
1.0
 17
0.0
 27
0.0
 37
0.0
 40
985.141622
 41
0.0180245726696673
 42
50.0
 43
0.0
 44
0.0
 50
0.0
 51
0.0000000000007958
 71
     0
 72
   100
 73
     1
 74
     3
 75
     0
 76
     0
 77
     0
 78
     0
  0
ENDTAB
  0
TABLE
  2
LTYPE
  5
D2D
330
0
100
AcDbSymbolTable
 70
    25
  0
LTYPE
  5
D3C
330
D2D
100
AcDbSymbolTableRecord
100
AcDbLinetypeTableRecord
  2
BYBLOCK
 70
     0
  3

 72
    65
 73
     0
 40
0.0
  0
LTYPE
  5
D3D
330
D2D
100
AcDbSymbolTableRecord
100
AcDbLinetypeTableRecord
  2
BYLAYER
 70
     0
  3

 72
    65
 73
     0
 40
0.0
  0
LTYPE
  5
D3E
330
D2D
100
AcDbSymbolTableRecord
100
AcDbLinetypeTableRecord
  2
CONTINUOUS
 70
     0
  3
Solid line
 72
    65
 73
     0
 40
0.0
  0
LTYPE
  5
D59
330
D2D
100
AcDbSymbolTableRecord
100
AcDbLinetypeTableRecord
  2
CENTER
 70
     0
  3
Center ____ _ ____ _ ____ _ ____ _ ____ _ ____
 72
    65
 73
     4
 40
2.0
 49
1.25
 74
     0
 49
-0.25
 74
     0
 49
0.25
 74
     0
 49
-0.25
 74
     0
  0
LTYPE
  5
D5A
330
D2D
100
AcDbSymbolTableRecord
100
AcDbLinetypeTableRecord
  2
DASHDOT
 70
     0
  3
Dashdot __ . __ . __ . __ . __ . __ . __ . __
 72
    65
 73
     4
 40
1.0
 49
0.5
 74
     0
 49
-0.25
 74
     0
 49
0.0
 74
     0
 49
-0.25
 74
     0
  0
LTYPE
  5
D5B
330
D2D
100
AcDbSymbolTableRecord
100
AcDbLinetypeTableRecord
  2
DASHED
 70
     0
  3
Dashed __ __ __ __ __ __ __ __ __ __ __ __ __ _
 72
    65
 73
     2
 40
0.75
 49
0.5
 74
     0
 49
-0.25
 74
     0
  0
LTYPE
  5
D5C
330
D2D
100
AcDbSymbolTableRecord
100
AcDbLinetypeTableRecord
  2
HIDDEN
 70
     0
  3
Hidden __ __ __ __ __ __ __ __ __ __ __ __ __ __
 72
    65
 73
     2
 40
0.375
 49
0.25
 74
     0
 49
-0.125
 74
     0
  0
LTYPE
  5
D5D
330
D2D
100
AcDbSymbolTableRecord
100
AcDbLinetypeTableRecord
  2
HIDDEN2
 70
     0
  3
Hidden2 _ _ _ _ _ _ _ _ _ _ _ _ _ _ _ _ _ 
 72
    65
 73
     2
 40
0.1875
 49
0.125
 74
     0
 49
-0.0625
 74
     0
  0
LTYPE
  5
D5E
330
D2D
100
AcDbSymbolTableRecord
100
AcDbLinetypeTableRecord
  2
BORDER
 70
     0
  3
Border __ __ . __ __ . __ __ . __ __ . __ __ .
 72
    65
 73
     6
 40
1.75
 49
0.5
 74
     0
 49
-0.25
 74
     0
 49
0.5
 74
     0
 49
-0.25
 74
     0
 49
0.0
 74
     0
 49
-0.25
 74
     0
  0
LTYPE
  5
D5F
330
D2D
100
AcDbSymbolTableRecord
100
AcDbLinetypeTableRecord
  2
BORDER2
 70
     0
  3
Border2 __.__.__.__.__.__.__.__.__.__.__.
 72
    65
 73
     6
 40
0.875
 49
0.25
 74
     0
 49
-0.125
 74
     0
 49
0.25
 74
     0
 49
-0.125
 74
     0
 49
0.0
 74
     0
 49
-0.125
 74
     0
  0
LTYPE
  5
D60
330
D2D
100
AcDbSymbolTableRecord
100
AcDbLinetypeTableRecord
  2
BORDERX2
 70
     0
  3
Borderx2  ____  ____  .  ____  ____  .  ___
 72
    65
 73
     6
 40
3.5
 49
1.0
 74
     0
 49
-0.5
 74
     0
 49
1.0
 74
     0
 49
-0.5
 74
     0
 49
0.0
 74
     0
 49
-0.5
 74
     0
  0
LTYPE
  5
D61
330
D2D
100
AcDbSymbolTableRecord
100
AcDbLinetypeTableRecord
  2
CENTER2
 70
     0
  3
Center2  ___ _ ___ _ ___ _ ___ _ ___ _ ___
 72
    65
 73
     4
 40
1.125
 49
0.75
 74
     0
 49
-0.125
 74
     0
 49
0.125
 74
     0
 49
-0.125
 74
     0
  0
LTYPE
  5
D62
330
D2D
100
AcDbSymbolTableRecord
100
AcDbLinetypeTableRecord
  2
CENTERX2
 70
     0
  3
Centerx2  ________  __  ________  __  _____
 72
    65
 73
     4
 40
4.0
 49
2.5
 74
     0
 49
-0.5
 74
     0
 49
0.5
 74
     0
 49
-0.5
 74
     0
  0
LTYPE
  5
D63
330
D2D
100
AcDbSymbolTableRecord
100
AcDbLinetypeTableRecord
  2
DASHDOT2
 70
     0
  3
Dashdot2  _._._._._._._._._._._._._._._.
 72
    65
 73
     4
 40
0.5
 49
0.25
 74
     0
 49
-0.125
 74
     0
 49
0.0
 74
     0
 49
-0.125
 74
     0
  0
LTYPE
  5
D64
330
D2D
100
AcDbSymbolTableRecord
100
AcDbLinetypeTableRecord
  2
DASHDOTX2
 70
     0
  3
Dashdotx2 ____  .  ____  .  ____  .  ___
 72
    65
 73
     4
 40
2.0
 49
1.0
 74
     0
 49
-0.5
 74
     0
 49
0.0
 74
     0
 49
-0.5
 74
     0
  0
LTYPE
  5
D65
330
D2D
100
AcDbSymbolTableRecord
100
AcDbLinetypeTableRecord
  2
DASHED2
 70
     0
  3
Dashed2 _ _ _ _ _ _ _ _ _ _ _ _ _ _ _ _ _ 
 72
    65
 73
     2
 40
0.375
 49
0.25
 74
     0
 49
-0.125
 74
     0
  0
LTYPE
  5
D66
330
D2D
100
AcDbSymbolTableRecord
100
AcDbLinetypeTableRecord
  2
DASHEDX2
 70
     0
  3
Dashedx2 ____  ____  ____  ____  ____  ___
 72
    65
 73
     2
 40
1.5
 49
1.0
 74
     0
 49
-0.5
 74
     0
  0
LTYPE
  5
D67
330
D2D
100
AcDbSymbolTableRecord
100
AcDbLinetypeTableRecord
  2
DIVIDE
 70
     0
  3
Divide ____ . . ____ . . ____ . . ____ . . ____
 72
    65
 73
     6
 40
1.25
 49
0.5
 74
     0
 49
-0.25
 74
     0
 49
0.0
 74
     0
 49
-0.25
 74
     0
 49
0.0
 74
     0
 49
-0.25
 74
     0
  0
LTYPE
  5
D68
330
D2D
100
AcDbSymbolTableRecord
100
AcDbLinetypeTableRecord
  2
DIVIDE2
 70
     0
  3
Divide2 __..__..__..__..__..__..__..__.._
 72
    65
 73
     6
 40
0.625
 49
0.25
 74
     0
 49
-0.125
 74
     0
 49
0.0
 74
     0
 49
-0.125
 74
     0
 49
0.0
 74
     0
 49
-0.125
 74
     0
  0
LTYPE
  5
D69
330
D2D
100
AcDbSymbolTableRecord
100
AcDbLinetypeTableRecord
  2
DIVIDEX2
 70
     0
  3
Dividex2 ________  .  .  ________  .  .  _
 72
    65
 73
     6
 40
2.5
 49
1.0
 74
     0
 49
-0.5
 74
     0
 49
0.0
 74
     0
 49
-0.5
 74
     0
 49
0.0
 74
     0
 49
-0.5
 74
     0
  0
LTYPE
  5
D6A
330
D2D
100
AcDbSymbolTableRecord
100
AcDbLinetypeTableRecord
  2
DOT
 70
     0
  3
Dot . . . . . . . . . . . . . . . . . . . . . . . .
 72
    65
 73
     2
 40
0.25
 49
0.0
 74
     0
 49
-0.25
 74
     0
  0
LTYPE
  5
D6B
330
D2D
100
AcDbSymbolTableRecord
100
AcDbLinetypeTableRecord
  2
DOT2
 70
     0
  3
Dot2 ........................................
 72
    65
 73
     2
 40
0.125
 49
0.0
 74
     0
 49
-0.125
 74
     0
  0
LTYPE
  5
D6C
330
D2D
100
AcDbSymbolTableRecord
100
AcDbLinetypeTableRecord
  2
DOTX2
 70
     0
  3
Dotx2 .  .  .  .  .  .  .  .  .  .  .  .  .  .
 72
    65
 73
     2
 40
0.5
 49
0.0
 74
     0
 49
-0.5
 74
     0
  0
LTYPE
  5
D6D
330
D2D
100
AcDbSymbolTableRecord
100
AcDbLinetypeTableRecord
  2
HIDDENX2
 70
     0
  3
Hiddenx2 ____ ____ ____ ____ ____ ____ ____ 
 72
    65
 73
     2
 40
0.75
 49
0.5
 74
     0
 49
-0.25
 74
     0
  0
LTYPE
  5
D6E
330
D2D
100
AcDbSymbolTableRecord
100
AcDbLinetypeTableRecord
  2
PHANTOM
 70
     0
  3
Phantom ______  __  __  ______  __  __  ______ 
 72
    65
 73
     6
 40
2.5
 49
1.25
 74
     0
 49
-0.25
 74
     0
 49
0.25
 74
     0
 49
-0.25
 74
     0
 49
0.25
 74
     0
 49
-0.25
 74
     0
  0
LTYPE
  5
D6F
330
D2D
100
AcDbSymbolTableRecord
100
AcDbLinetypeTableRecord
  2
PHANTOM2
 70
     0
  3
Phantom2 ___ _ _ ___ _ _ ___ _ _ ___ _ _
 72
    65
 73
     6
 40
1.25
 49
0.625
 74
     0
 49
-0.125
 74
     0
 49
0.125
 74
     0
 49
-0.125
 74
     0
 49
0.125
 74
     0
 49
-0.125
 74
     0
  0
LTYPE
  5
D70
330
D2D
100
AcDbSymbolTableRecord
100
AcDbLinetypeTableRecord
  2
PHANTOMX2
 70
     0
  3
Phantomx2 ____________    ____    ____   _
 72
    65
 73
     6
 40
5.0
 49
2.5
 74
     0
 49
-0.5
 74
     0
 49
0.5
 74
     0
 49
-0.5
 74
     0
 49
0.5
 74
     0
 49
-0.5
 74
     0
  0
ENDTAB
  0
TABLE
  2
LAYER
  5
D2A
330
0
100
AcDbSymbolTable
 70
     6
  0
LAYER
  5
D38
330
D2A
100
AcDbSymbolTableRecord
100
AcDbLayerTableRecord
  2
0
 70
     0
 62
     7
  6
CONTINUOUS
  0
LAYER
  5
9E
330
D2A
100
AcDbSymbolTableRecord
100
AcDbLayerTableRecord
  2
DEFPOINTS
 70
     0
 62
     7
  6
CONTINUOUS
  0
LAYER
  5
377
330
D2A
100
AcDbSymbolTableRecord
100
AcDbLayerTableRecord
  2
V0-OBRYS
 70
     0
 62
    90
  6
CONTINUOUS
  0
LAYER
  5
378
330
D2A
100
AcDbSymbolTableRecord
100
AcDbLayerTableRecord
  2
V0-VYPLNE
 70
     0
 62
    63
  6
DASHDOT
  0
LAYER
  5
37A
330
D2A
100
AcDbSymbolTableRecord
100
AcDbLayerTableRecord
  2
V0-NAZVY
 70
     0
 62
   210
  6
CONTINUOUS
  0
LAYER
  5
559
330
D2A
100
AcDbSymbolTableRecord
100
AcDbLayerTableRecord
  2
V0-ZBYTEK
 70
     0
 62
    51
  6
CONTINUOUS
  0
ENDTAB
  0
TABLE
  2
STYLE
  5
D2B
330
0
100
AcDbSymbolTable
 70
     5
  0
STYLE
  5
D39
330
D2B
100
AcDbSymbolTableRecord
100
AcDbTextStyleTableRecord
  2
STANDARD
 70
     0
 40
7.0
 41
1.0
 50
0.0
 71
     0
 42
0.2
  3
ISOCP.shx
  4

1001
ACAD
1000
ISOCP.shx
1071
        0
  0
STYLE
  5
331
330
D2B
100
AcDbSymbolTableRecord
100
AcDbTextStyleTableRecord
  2
ED30
 70
     0
 40
30.0
 41
1.0
 50
0.0
 71
     0
 42
0.2
  3
ISOCP.shx
  4

1001
ACAD
1000
ISOCP.shx
1071
        0
  0
STYLE
  5
5D2
330
D2B
100
AcDbSymbolTableRecord
100
AcDbTextStyleTableRecord
  2
ED20
 70
     0
 40
20.0
 41
1.0
 50
0.0
 71
     0
 42
0.2
  3
isocp.shx
  4

1001
ACAD
1000
isocp.shx
1071
        0
  0
STYLE
  5
64F
330
D2B
100
AcDbSymbolTableRecord
100
AcDbTextStyleTableRecord
  2
ED40
 70
     0
 40
40.0
 41
1.0
 50
0.0
 71
     0
 42
0.2
  3
isocp.shx
  4

1001
ACAD
1000
isocp.shx
1071
        0
  0
STYLE
  5
650
330
D2B
100
AcDbSymbolTableRecord
100
AcDbTextStyleTableRecord
  2
ED10
 70
     0
 40
10.0
 41
1.0
 50
0.0
 71
     0
 42
0.2
  3
isocp.shx
  4

1001
ACAD
1000
isocp.shx
1071
        0
  0
ENDTAB
  0
TABLE
  2
VIEW
  5
D2E
330
0
100
AcDbSymbolTable
 70
     0
  0
ENDTAB
  0
TABLE
  2
UCS
  5
D2F
330
0
100
AcDbSymbolTable
 70
     0
  0
ENDTAB
  0
TABLE
  2
APPID
  5
D31
330
0
100
AcDbSymbolTable
 70
     6
  0
APPID
  5
D3A
330
D31
100
AcDbSymbolTableRecord
100
AcDbRegAppTableRecord
  2
ACAD
 70
     0
  0
APPID
  5
D52
330
D31
100
AcDbSymbolTableRecord
100
AcDbRegAppTableRecord
  2
VD_INVISIBLE_NOT_FOR_READ
 70
     0
  0
APPID
  5
D53
330
D31
100
AcDbSymbolTableRecord
100
AcDbRegAppTableRecord
  2
VD_TEMPHATCH
 70
     0
  0
APPID
  5
D54
330
D31
100
AcDbSymbolTableRecord
100
AcDbRegAppTableRecord
  2
VDEXTRAPARAM
 70
     0
  0
APPID
  5
D55
330
D31
100
AcDbSymbolTableRecord
100
AcDbRegAppTableRecord
  2
PE_URL
 70
     0
  0
APPID
  5
D56
330
D31
100
AcDbSymbolTableRecord
100
AcDbRegAppTableRecord
  2
VD_UNKNOWN
 70
     0
  0
ENDTAB
  0
TABLE
  2
DIMSTYLE
  5
D32
330
0
100
AcDbSymbolTable
 70
     5
  0
DIMSTYLE
105
D4F
330
D32
100
AcDbSymbolTableRecord
100
AcDbDimStyleTableRecord
  2
STANDARD
 70
     0
  3

  4

  5
OPEN
  6

  7

 40
1.0
 41
15.0
 42
0.625
 43
0.38
 44
1.25
 45
0.0
 46
0.0
 47
0.0
 48
0.0
140
15.0
141
0.09
142
0.0
143
25.4
144
1.0
145
0.0
146
1.0
147
3.0
 71
     0
 72
     0
 73
     0
 74
     0
 75
     0
 76
     0
 77
     1
 78
     0
170
     0
171
     2
172
     1
173
     0
174
     1
175
     0
176
     0
177
     0
178
     0
270
     2
271
     0
272
     4
273
     2
274
     2
340
331
275
     0
280
     0
281
     0
282
     0
283
     1
284
     0
285
     0
286
     0
287
     3
288
     1
  0
DIMSTYLE
105
397
330
D32
100
AcDbSymbolTableRecord
100
AcDbDimStyleTableRecord
  2
ED40
 70
     0
  3

  4

  5
OPEN
  6

  7

 40
1.0
 41
35.0
 42
1.0
 43
0.38
 44
1.25
 45
0.0
 46
0.0
 47
0.0
 48
0.0
140
40.0
141
0.09
142
0.0
143
25.4
144
1.0
145
0.0
146
1.0
147
3.0
 71
     0
 72
     0
 73
     0
 74
     0
 75
     0
 76
     0
 77
     1
 78
     0
170
     0
171
     2
172
     1
173
     0
174
     1
175
     0
176
     0
177
     0
178
     0
270
     2
271
     0
272
     4
273
     2
274
     2
340
64F
275
     0
280
     0
281
     0
282
     0
283
     1
284
     0
285
     0
286
     0
287
     3
288
     1
  0
DIMSTYLE
105
656
330
D32
100
AcDbSymbolTableRecord
100
AcDbDimStyleTableRecord
  2
ED30
 70
     0
  3

  4

  5
OPEN
  6

  7

 40
1.0
 41
25.0
 42
1.0
 43
0.38
 44
1.25
 45
0.0
 46
0.0
 47
0.0
 48
0.0
140
30.0
141
0.09
142
0.0
143
25.4
144
1.0
145
0.0
146
1.0
147
2.0
 71
     0
 72
     0
 73
     0
 74
     0
 75
     0
 76
     0
 77
     1
 78
     0
170
     0
171
     2
172
     1
173
     0
174
     1
175
     0
176
     0
177
     0
178
     0
270
     2
271
     0
272
     4
273
     2
274
     2
340
331
275
     0
280
     0
281
     0
282
     0
283
     1
284
     0
285
     0
286
     0
287
     3
288
     1
  0
DIMSTYLE
105
657
330
D32
100
AcDbSymbolTableRecord
100
AcDbDimStyleTableRecord
  2
ED20
 70
     0
  3

  4

  5
OPEN
  6

  7

 40
1.0
 41
20.0
 42
1.0
 43
0.38
 44
1.25
 45
0.0
 46
0.0
 47
0.0
 48
0.0
140
20.0
141
0.09
142
0.0
143
25.4
144
1.0
145
0.0
146
1.0
147
1.5
 71
     0
 72
     0
 73
     0
 74
     0
 75
     0
 76
     0
 77
     1
 78
     0
170
     0
171
     2
172
     1
173
     0
174
     1
175
     0
176
     0
177
     0
178
     0
270
     2
271
     0
272
     4
273
     2
274
     2
340
5D2
275
     0
280
     0
281
     0
282
     0
283
     1
284
     0
285
     0
286
     0
287
     3
288
     1
  0
DIMSTYLE
105
658
102
{ACAD_REACTORS
330
715
330
724
330
731
330
74B
330
758
330
98A
102
}
330
D32
100
AcDbSymbolTableRecord
100
AcDbDimStyleTableRecord
  2
ED10
 70
     0
  3

  4

  5
OPEN
  6

  7

 40
1.0
 41
15.0
 42
1.0
 43
0.38
 44
1.25
 45
0.0
 46
0.0
 47
0.0
 48
0.0
140
10.0
141
0.09
142
0.0
143
25.4
144
1.0
145
0.0
146
1.0
147
1.5
 71
     0
 72
     0
 73
     0
 74
     0
 75
     0
 76
     0
 77
     1
 78
     0
170
     0
171
     2
172
     1
173
     0
174
     1
175
     0
176
     0
177
     0
178
     0
270
     2
271
     0
272
     4
273
     2
274
     2
340
5D2
275
     0
280
     0
281
     0
282
     0
283
     1
284
     0
285
     0
286
     0
287
     3
288
     1
  0
ENDTAB
  0
TABLE
  2
BLOCK_RECORD
  5
D29
330
0
100
AcDbSymbolTable
 70
    10
  0
BLOCK_RECORD
  5
D47
330
D29
100
AcDbSymbolTableRecord
100
AcDbBlockTableRecord
  2
*MODEL_SPACE
  0
BLOCK_RECORD
  5
D43
330
D29
100
AcDbSymbolTableRecord
100
AcDbBlockTableRecord
  2
*PAPER_SPACE
  0
BLOCK_RECORD
  5
90
330
D29
100
AcDbSymbolTableRecord
100
AcDbBlockTableRecord
  2
_OPEN
  0
BLOCK_RECORD
  5
D25
330
D29
100
AcDbSymbolTableRecord
100
AcDbBlockTableRecord
  2
VDDIM_DEFAULT
  0
BLOCK_RECORD
  5
D27
330
D29
100
AcDbSymbolTableRecord
100
AcDbBlockTableRecord
  2
VDDIM_NONE
  0
BLOCK_RECORD
  5
D78
330
D29
100
AcDbSymbolTableRecord
100
AcDbBlockTableRecord
  2
*D4
  0
BLOCK_RECORD
  5
D86
330
D29
100
AcDbSymbolTableRecord
100
AcDbBlockTableRecord
  2
*D5
  0
BLOCK_RECORD
  5
D94
330
D29
100
AcDbSymbolTableRecord
100
AcDbBlockTableRecord
  2
*D6
  0
BLOCK_RECORD
  5
DA1
330
D29
100
AcDbSymbolTableRecord
100
AcDbBlockTableRecord
  2
*D7
  0
BLOCK_RECORD
  5
DAD
330
D29
100
AcDbSymbolTableRecord
100
AcDbBlockTableRecord
  2
*D8
  0
BLOCK_RECORD
  5
DB9
330
D29
100
AcDbSymbolTableRecord
100
AcDbBlockTableRecord
  2
*D9
  0
ENDTAB
  0
ENDSEC
  0
SECTION
  2
BLOCKS
  0
BLOCK
  5
D48
330
D47
100
AcDbEntity
  8
0
100
AcDbBlockBegin
  2
*MODEL_SPACE
 70
     0
 71
     0
 10
0.0
 20
0.0
 30
0.0
  3
*MODEL_SPACE
  1

  0
ENDBLK
  5
D49
330
D47
100
AcDbEntity
  8
0
100
AcDbBlockEnd
  0
BLOCK
  5
D44
330
D43
100
AcDbEntity
 67
     1
  8
0
100
AcDbBlockBegin
  2
*PAPER_SPACE
 70
     0
 71
     0
 10
0.0
 20
0.0
 30
0.0
  3
*PAPER_SPACE
  1

  0
ENDBLK
  5
D45
330
D43
100
AcDbEntity
 67
     1
  8
0
100
AcDbBlockEnd
  0
BLOCK
  5
D71
330
90
100
AcDbEntity
  8
0
100
AcDbBlockBegin
  2
_OPEN
 70
     0
 71
     0
 10
0.0
 20
0.0
 30
0.0
  3
_OPEN
  1

  0
LINE
  5
92
330
90
100
AcDbEntity
  8
0
  6
BYBLOCK
 62
     0
100
AcDbLine
 10
-1.0
 20
0.166667
 30
0.0
 11
0.0
 21
0.0
 31
0.0
  0
LINE
  5
93
330
90
100
AcDbEntity
  8
0
  6
BYBLOCK
 62
     0
100
AcDbLine
 10
0.0
 20
0.0
 30
0.0
 11
-1.0
 21
-0.166667
 31
0.0
  0
LINE
  5
94
330
90
100
AcDbEntity
  8
0
  6
BYBLOCK
 62
     0
100
AcDbLine
 10
0.0
 20
0.0
 30
0.0
 11
-1.0
 21
0.0
 31
0.0
  0
ENDBLK
  5
D72
330
90
100
AcDbEntity
  8
0
100
AcDbBlockEnd
  0
BLOCK
  5
D73
330
D25
100
AcDbEntity
  8
0
100
AcDbBlockBegin
  2
VDDIM_DEFAULT
 70
     0
 71
     0
 10
0.0
 20
0.0
 30
0.0
  3
VDDIM_DEFAULT
  1

  0
LWPOLYLINE
  5
D26
330
D25
100
AcDbEntity
  8
0
  6
CONTINUOUS
 62
     0
100
AcDbPolyline
 90
        4
 70
     0
 43
0.0
 10
0.0
 20
0.0
 10
-1.0
 20
-0.1665
 10
-1.0
 20
0.1665
 10
0.0
 20
0.0
1001
VDEXTRAPARAM
1071
        1
1071
        0
1071
        0
1040
1.0
1000

1000

1040
0.0
1040
0.0
  0
HATCH
  5
D77
330
D25
100
AcDbEntity
  8
0
  6
CONTINUOUS
 62
     0
100
AcDbHatch
 10
0.0
 20
0.0
 30
0.0
210
0.0
220
0.0
230
1.0
  2
SOLID
 70
     1
 71
     0
 91
        1
 92
        2
 72
     0
 73
     1
 93
        3
 10
0.0
 20
0.0
 10
-1.0
 20
-0.1665
 10
-1.0
 20
0.1665
 97
        0
 75
     0
 76
     1
 98
        1
 10
0.0
 20
0.0
1001
VDEXTRAPARAM
1071
        1
1071
        0
1071
        0
1040
1.0
1000

1000

1040
0.0
1040
0.0
1001
VD_TEMPHATCH
1000
VD_TEMPHATCH
  0
ENDBLK
  5
D74
330
D25
100
AcDbEntity
  8
0
100
AcDbBlockEnd
  0
BLOCK
  5
D75
330
D27
100
AcDbEntity
  8
0
100
AcDbBlockBegin
  2
VDDIM_NONE
 70
     0
 71
     0
 10
0.0
 20
0.0
 30
0.0
  3
VDDIM_NONE
  1

  0
ENDBLK
  5
D76
330
D27
100
AcDbEntity
  8
0
100
AcDbBlockEnd
  0
BLOCK
  5
D84
330
D78
100
AcDbEntity
  8
0
100
AcDbBlockBegin
  2
*D4
 70
     1
 71
     0
 10
0.0
 20
0.0
 30
0.0
  3
*D4
  1

  0
LINE
  5
D79
330
D78
100
AcDbEntity
  8
V0-VYPLNE
 62
     0
100
AcDbLine
 10
130.0
 20
-101.0
 30
0.0
 11
130.0
 21
-202.0149600000004
 31
0.0
  0
LINE
  5
D7A
330
D78
100
AcDbEntity
  8
V0-VYPLNE
 62
     0
100
AcDbLine
 10
160.0
 20
-101.0
 30
0.0
 11
160.0
 21
-202.0149600000004
 31
0.0
  0
LINE
  5
D7B
330
D78
100
AcDbEntity
  8
V0-VYPLNE
 62
     0
100
AcDbLine
 10
115.0
 20
-200.7649600000004
 30
0.0
 11
100.0
 21
-200.7649600000004
 31
0.0
  0
LINE
  5
D7C
330
D78
100
AcDbEntity
  8
V0-VYPLNE
 62
     0
100
AcDbLine
 10
175.0
 20
-200.7649600000004
 30
0.0
 11
190.0
 21
-200.7649600000004
 31
0.0
  0
LINE
  5
D7D
330
D78
100
AcDbEntity
  8
V0-VYPLNE
 62
     0
100
AcDbLine
 10
130.0
 20
-200.7649600000004
 30
0.0
 11
160.0
 21
-200.7649600000004
 31
0.0
  0
INSERT
  5
D7E
330
D78
100
AcDbEntity
  8
V0-VYPLNE
 62
     0
100
AcDbBlockReference
  2
_OPEN
 10
130.0
 20
-200.7649600000004
 30
0.0
 41
15.0
 42
15.0
 43
15.0
  0
INSERT
  5
D7F
330
D78
100
AcDbEntity
  8
V0-VYPLNE
 62
     0
100
AcDbBlockReference
  2
_OPEN
 10
160.0
 20
-200.7649600000004
 30
0.0
 41
15.0
 42
15.0
 43
15.0
 50
180.0
  0
MTEXT
  5
D80
330
D78
100
AcDbEntity
  8
V0-VYPLNE
 62
     0
100
AcDbMText
 10
145.0
 20
-200.76496
 30
0.0
 40
10.0
 41
0.0
 71
     5
 72
     1
  1
\A1;30
  7
ED20
  0
POINT
  5
D81
330
D78
100
AcDbEntity
  8
DEFPOINTS
 62
     0
100
AcDbPoint
 10
130.0
 20
-100.0
 30
0.0
  0
POINT
  5
D82
330
D78
100
AcDbEntity
  8
DEFPOINTS
 62
     0
100
AcDbPoint
 10
160.0
 20
-100.0
 30
0.0
  0
POINT
  5
D83
330
D78
100
AcDbEntity
  8
DEFPOINTS
 62
     0
100
AcDbPoint
 10
160.0
 20
-200.7649600000004
 30
0.0
  0
ENDBLK
  5
D85
330
D78
100
AcDbEntity
  8
0
100
AcDbBlockEnd
  0
BLOCK
  5
D92
330
D86
100
AcDbEntity
  8
0
100
AcDbBlockBegin
  2
*D5
 70
     1
 71
     0
 10
0.0
 20
0.0
 30
0.0
  3
*D5
  1

  0
LINE
  5
D87
330
D86
100
AcDbEntity
  8
V0-VYPLNE
 62
     0
100
AcDbLine
 10
340.0
 20
-101.0
 30
0.0
 11
340.0
 21
-201.0149600000004
 31
0.0
  0
LINE
  5
D88
330
D86
100
AcDbEntity
  8
V0-VYPLNE
 62
     0
100
AcDbLine
 10
360.0
 20
-101.0
 30
0.0
 11
360.0
 21
-201.0149600000004
 31
0.0
  0
LINE
  5
D89
330
D86
100
AcDbEntity
  8
V0-VYPLNE
 62
     0
100
AcDbLine
 10
325.0
 20
-199.7649600000004
 30
0.0
 11
310.0
 21
-199.7649600000004
 31
0.0
  0
LINE
  5
D8A
330
D86
100
AcDbEntity
  8
V0-VYPLNE
 62
     0
100
AcDbLine
 10
375.0
 20
-199.7649600000004
 30
0.0
 11
409.1904761904762
 21
-199.7649600000004
 31
0.0
  0
LINE
  5
D8B
330
D86
100
AcDbEntity
  8
V0-VYPLNE
 62
     0
100
AcDbLine
 10
340.0
 20
-199.7649600000004
 30
0.0
 11
360.0
 21
-199.7649600000004
 31
0.0
  0
INSERT
  5
D8C
330
D86
100
AcDbEntity
  8
V0-VYPLNE
 62
     0
100
AcDbBlockReference
  2
_OPEN
 10
340.0
 20
-199.7649600000004
 30
0.0
 41
15.0
 42
15.0
 43
15.0
  0
INSERT
  5
D8D
330
D86
100
AcDbEntity
  8
V0-VYPLNE
 62
     0
100
AcDbBlockReference
  2
_OPEN
 10
360.0
 20
-199.7649600000004
 30
0.0
 41
15.0
 42
15.0
 43
15.0
 50
180.0
  0
MTEXT
  5
D8E
330
D86
100
AcDbEntity
  8
V0-VYPLNE
 62
     0
100
AcDbMText
 10
399.5952380952381
 20
-193.2649600000004
 30
0.0
 40
10.0
 41
0.0
 71
     5
 72
     1
  1
\A1;20
  7
ED20
  0
POINT
  5
D8F
330
D86
100
AcDbEntity
  8
DEFPOINTS
 62
     0
100
AcDbPoint
 10
340.0
 20
-100.0
 30
0.0
  0
POINT
  5
D90
330
D86
100
AcDbEntity
  8
DEFPOINTS
 62
     0
100
AcDbPoint
 10
360.0
 20
-100.0
 30
0.0
  0
POINT
  5
D91
330
D86
100
AcDbEntity
  8
DEFPOINTS
 62
     0
100
AcDbPoint
 10
360.0
 20
-199.7649600000004
 30
0.0
  0
ENDBLK
  5
D93
330
D86
100
AcDbEntity
  8
0
100
AcDbBlockEnd
  0
BLOCK
  5
D9F
330
D94
100
AcDbEntity
  8
0
100
AcDbBlockBegin
  2
*D6
 70
     1
 71
     0
 10
0.0
 20
0.0
 30
0.0
  3
*D6
  1

  0
LINE
  5
D95
330
D94
100
AcDbEntity
  8
V0-VYPLNE
 62
     0
100
AcDbLine
 10
130.0
 20
-101.0
 30
0.0
 11
130.0
 21
-227.5176460000075
 31
0.0
  0
LINE
  5
D96
330
D94
100
AcDbEntity
  8
V0-VYPLNE
 62
     0
100
AcDbLine
 10
360.0
 20
-101.0
 30
0.0
 11
360.0
 21
-227.5176460000075
 31
0.0
  0
LINE
  5
D97
330
D94
100
AcDbEntity
  8
V0-VYPLNE
 62
     0
100
AcDbLine
 10
145.0
 20
-226.2676460000075
 30
0.0
 11
235.6428571428572
 21
-226.2676460000075
 31
0.0
  0
LINE
  5
D98
330
D94
100
AcDbEntity
  8
V0-VYPLNE
 62
     0
100
AcDbLine
 10
345.0
 20
-226.2676460000075
 30
0.0
 11
264.3571428571428
 21
-226.2676460000075
 31
0.0
  0
INSERT
  5
D99
330
D94
100
AcDbEntity
  8
V0-VYPLNE
 62
     0
100
AcDbBlockReference
  2
_OPEN
 10
130.0
 20
-226.2676460000075
 30
0.0
 41
15.0
 42
15.0
 43
15.0
 50
180.0
  0
INSERT
  5
D9A
330
D94
100
AcDbEntity
  8
V0-VYPLNE
 62
     0
100
AcDbBlockReference
  2
_OPEN
 10
360.0
 20
-226.2676460000075
 30
0.0
 41
15.0
 42
15.0
 43
15.0
  0
MTEXT
  5
D9B
330
D94
100
AcDbEntity
  8
V0-VYPLNE
 62
     0
100
AcDbMText
 10
250.0
 20
-226.267646
 30
0.0
 40
10.0
 41
0.0
 71
     5
 72
     1
  1
\A1;230
  7
ED20
  0
POINT
  5
D9C
330
D94
100
AcDbEntity
  8
DEFPOINTS
 62
     0
100
AcDbPoint
 10
130.0
 20
-100.0
 30
0.0
  0
POINT
  5
D9D
330
D94
100
AcDbEntity
  8
DEFPOINTS
 62
     0
100
AcDbPoint
 10
360.0
 20
-100.0
 30
0.0
  0
POINT
  5
D9E
330
D94
100
AcDbEntity
  8
DEFPOINTS
 62
     0
100
AcDbPoint
 10
360.0
 20
-226.2676460000075
 30
0.0
  0
ENDBLK
  5
DA0
330
D94
100
AcDbEntity
  8
0
100
AcDbBlockEnd
  0
BLOCK
  5
DAB
330
DA1
100
AcDbEntity
  8
0
100
AcDbBlockBegin
  2
*D7
 70
     1
 71
     0
 10
0.0
 20
0.0
 30
0.0
  3
*D7
  1

  0
LINE
  5
DA2
330
DA1
100
AcDbEntity
  8
V0-VYPLNE
 62
     0
100
AcDbLine
 10
129.0
 20
100.0
 30
0.0
 11
95.26166100000047
 21
100.0
 31
0.0
  0
LINE
  5
DA3
330
DA1
100
AcDbEntity
  8
V0-VYPLNE
 62
     0
100
AcDbLine
 10
129.0
 20
-100.0
 30
0.0
 11
95.26166100000046
 21
-100.0
 31
0.0
  0
LINE
  5
DA4
330
DA1
100
AcDbEntity
  8
V0-VYPLNE
 62
     0
100
AcDbLine
 10
96.51166100000049
 20
85.0
 30
0.0
 11
96.51166100000046
 21
-85.0
 31
0.0
  0
INSERT
  5
DA5
330
DA1
100
AcDbEntity
  8
V0-VYPLNE
 62
     0
100
AcDbBlockReference
  2
_OPEN
 10
96.51166100000049
 20
100.0
 30
0.0
 41
15.0
 42
15.0
 43
15.0
 50
90.0
  0
INSERT
  5
DA6
330
DA1
100
AcDbEntity
  8
V0-VYPLNE
 62
     0
100
AcDbBlockReference
  2
_OPEN
 10
96.51166100000046
 20
-100.0
 30
0.0
 41
15.0
 42
15.0
 43
15.0
 50
270.0
  0
MTEXT
  5
DA7
330
DA1
100
AcDbEntity
  8
V0-VYPLNE
 62
     0
100
AcDbMText
 10
90.01166100000046
 20
0.0
 30
0.0
 40
10.0
 41
0.0
 71
     5
 72
     1
  1
%%c\A1;200
  7
ED20
 11
7.105427357601002E-17
 21
1.0
 31
0.0
  0
POINT
  5
DA8
330
DA1
100
AcDbEntity
  8
DEFPOINTS
 62
     0
100
AcDbPoint
 10
130.0
 20
100.0
 30
0.0
  0
POINT
  5
DA9
330
DA1
100
AcDbEntity
  8
DEFPOINTS
 62
     0
100
AcDbPoint
 10
130.0
 20
-100.0
 30
0.0
  0
POINT
  5
DAA
330
DA1
100
AcDbEntity
  8
DEFPOINTS
 62
     0
100
AcDbPoint
 10
96.51166100000046
 20
-100.0
 30
0.0
  0
ENDBLK
  5
DAC
330
DA1
100
AcDbEntity
  8
0
100
AcDbBlockEnd
  0
BLOCK
  5
DB7
330
DAD
100
AcDbEntity
  8
0
100
AcDbBlockBegin
  2
*D8
 70
     1
 71
     0
 10
0.0
 20
0.0
 30
0.0
  3
*D8
  1

  0
LINE
  5
DAE
330
DAD
100
AcDbEntity
  8
V0-VYPLNE
 62
     0
100
AcDbLine
 10
361.0
 20
100.0
 30
0.0
 11
399.8766969999997
 21
99.99999999999997
 31
0.0
  0
LINE
  5
DAF
330
DAD
100
AcDbEntity
  8
V0-VYPLNE
 62
     0
100
AcDbLine
 10
361.0
 20
-100.0
 30
0.0
 11
399.8766969999997
 21
-100.0
 31
0.0
  0
LINE
  5
DB0
330
DAD
100
AcDbEntity
  8
V0-VYPLNE
 62
     0
100
AcDbLine
 10
398.6266969999998
 20
85.0
 30
0.0
 11
398.6266969999997
 21
-85.0
 31
0.0
  0
INSERT
  5
DB1
330
DAD
100
AcDbEntity
  8
V0-VYPLNE
 62
     0
100
AcDbBlockReference
  2
_OPEN
 10
398.6266969999998
 20
100.0
 30
0.0
 41
15.0
 42
15.0
 43
15.0
 50
89.99999999999999
  0
INSERT
  5
DB2
330
DAD
100
AcDbEntity
  8
V0-VYPLNE
 62
     0
100
AcDbBlockReference
  2
_OPEN
 10
398.6266969999997
 20
-100.0
 30
0.0
 41
15.0
 42
15.0
 43
15.0
 50
270.0
  0
MTEXT
  5
DB3
330
DAD
100
AcDbEntity
  8
V0-VYPLNE
 62
     0
100
AcDbMText
 10
392.1266969999997
 20
-0.0000000000000142
 30
0.0
 40
10.0
 41
0.0
 71
     5
 72
     1
  1
%%c\A1;200
  7
ED20
 11
0.0
 21
1.0
 31
0.0
  0
POINT
  5
DB4
330
DAD
100
AcDbEntity
  8
DEFPOINTS
 62
     0
100
AcDbPoint
 10
360.0
 20
100.0
 30
0.0
  0
POINT
  5
DB5
330
DAD
100
AcDbEntity
  8
DEFPOINTS
 62
     0
100
AcDbPoint
 10
360.0
 20
-100.0
 30
0.0
  0
POINT
  5
DB6
330
DAD
100
AcDbEntity
  8
DEFPOINTS
 62
     0
100
AcDbPoint
 10
398.6266969999997
 20
-100.0
 30
0.0
  0
ENDBLK
  5
DB8
330
DAD
100
AcDbEntity
  8
0
100
AcDbBlockEnd
  0
BLOCK
  5
DC3
330
DB9
100
AcDbEntity
  8
0
100
AcDbBlockBegin
  2
*D9
 70
     1
 71
     0
 10
0.0
 20
0.0
 30
0.0
  3
*D9
  1

  0
LINE
  5
DBA
330
DB9
100
AcDbEntity
  8
V0-VYPLNE
 62
     0
100
AcDbLine
 10
212.612466
 20
167.0
 30
0.0
 11
60.0340460000007
 21
166.9999999999999
 31
0.0
  0
LINE
  5
DBB
330
DB9
100
AcDbEntity
  8
V0-VYPLNE
 62
     0
100
AcDbLine
 10
212.612466
 20
-167.0
 30
0.0
 11
60.03404600000067
 21
-167.0
 31
0.0
  0
LINE
  5
DBC
330
DB9
100
AcDbEntity
  8
V0-VYPLNE
 62
     0
100
AcDbLine
 10
61.2840460000007
 20
151.9999999999999
 30
0.0
 11
61.28404600000067
 21
-152.0
 31
0.0
  0
INSERT
  5
DBD
330
DB9
100
AcDbEntity
  8
V0-VYPLNE
 62
     0
100
AcDbBlockReference
  2
_OPEN
 10
61.2840460000007
 20
166.9999999999999
 30
0.0
 41
15.0
 42
15.0
 43
15.0
 50
90.0
  0
INSERT
  5
DBE
330
DB9
100
AcDbEntity
  8
V0-VYPLNE
 62
     0
100
AcDbBlockReference
  2
_OPEN
 10
61.28404600000067
 20
-167.0
 30
0.0
 41
15.0
 42
15.0
 43
15.0
 50
270.0
  0
MTEXT
  5
DBF
330
DB9
100
AcDbEntity
  8
V0-VYPLNE
 62
     0
100
AcDbMText
 10
54.78404600000067
 20
-0.0000000000000284
 30
0.0
 40
10.0
 41
0.0
 71
     5
 72
     1
  1
%%c\A1;334
  7
ED20
 11
6.382120381078745E-17
 21
1.0
 31
0.0
  0
POINT
  5
DC0
330
DB9
100
AcDbEntity
  8
DEFPOINTS
 62
     0
100
AcDbPoint
 10
213.612466
 20
167.0
 30
0.0
  0
POINT
  5
DC1
330
DB9
100
AcDbEntity
  8
DEFPOINTS
 62
     0
100
AcDbPoint
 10
213.612466
 20
-167.0
 30
0.0
  0
POINT
  5
DC2
330
DB9
100
AcDbEntity
  8
DEFPOINTS
 62
     0
100
AcDbPoint
 10
61.28404600000067
 20
-167.0
 30
0.0
  0
ENDBLK
  5
DC4
330
DB9
100
AcDbEntity
  8
0
100
AcDbBlockEnd
  0
ENDSEC
  0
SECTION
  2
ENTITIES
  0
LINE
  5
66F
330
D47
100
AcDbEntity
  8
V0-VYPLNE
 62
    63
100
AcDbLine
 10
130.0
 20
0.0
 30
0.0
 11
367.635079
 21
0.0
 31
0.0
  0
LINE
  5
670
330
D47
100
AcDbEntity
  8
V0-OBRYS
 62
    90
100
AcDbLine
 10
130.0
 20
0.0
 30
0.0
 11
130.0
 21
100.0
 31
0.0
  0
LINE
  5
671
330
D47
100
AcDbEntity
  8
V0-OBRYS
 62
    90
100
AcDbLine
 10
130.0
 20
100.0
 30
0.0
 11
160.0
 21
100.0
 31
0.0
  0
LINE
  5
672
330
D47
100
AcDbEntity
  8
V0-OBRYS
 62
    90
100
AcDbLine
 10
160.0
 20
100.0
 30
0.0
 11
160.0
 21
0.0
 31
0.0
  0
LINE
  5
673
330
D47
100
AcDbEntity
  8
V0-OBRYS
 62
    90
100
AcDbLine
 10
340.0
 20
0.0
 30
0.0
 11
340.0
 21
102.444174
 31
0.0
  0
LINE
  5
675
330
D47
100
AcDbEntity
  8
V0-OBRYS
 62
    90
100
AcDbLine
 10
360.0
 20
0.0
 30
0.0
 11
360.0
 21
100.0
 31
0.0
  0
LINE
  5
676
330
D47
100
AcDbEntity
  8
V0-OBRYS
 62
    90
100
AcDbLine
 10
360.0
 20
100.0
 30
0.0
 11
340.0
 21
100.0
 31
0.0
  0
LINE
  5
679
330
D47
100
AcDbEntity
  8
V0-OBRYS
 62
    90
100
AcDbLine
 10
213.612466
 20
167.0
 30
0.0
 11
213.612466
 21
0.0
 31
0.0
  0
LINE
  5
67A
330
D47
100
AcDbEntity
  8
V0-OBRYS
 62
    90
100
AcDbLine
 10
160.0
 20
100.0
 30
0.0
 11
160.0
 21
103.81948
 31
0.0
  0
LINE
  5
67B
330
D47
100
AcDbEntity
  8
V0-OBRYS
 62
    90
100
AcDbLine
 10
213.612466
 20
163.620908
 30
0.0
 11
210.635916
 21
163.620908
 31
0.0
  0
LINE
  5
67D
330
D47
100
AcDbEntity
  8
V0-OBRYS
 62
    90
100
AcDbLine
 10
165.0
 20
0.0
 30
0.0
 11
165.0
 21
105.81948
 31
0.0
  0
LINE
  5
67E
330
D47
100
AcDbEntity
  8
V0-OBRYS
 62
    90
100
AcDbLine
 10
160.0
 20
103.81948
 30
0.0
 11
163.0
 21
103.81948
 31
0.0
  0
ARC
  5
67F
330
D47
100
AcDbEntity
  8
V0-OBRYS
 62
    90
100
AcDbCircle
 10
163.0
 20
105.81948
 30
0.0
 40
2.0
100
AcDbArc
 50
270.0
 51
0.0
  0
LINE
  5
681
330
D47
100
AcDbEntity
  8
V0-OBRYS
 62
    90
100
AcDbLine
 10
165.0
 20
105.81948
 30
0.0
 11
195.785925
 21
155.346504
 31
0.0
  0
ARC
  5
683
330
D47
100
AcDbEntity
  8
V0-OBRYS
 62
    90
100
AcDbCircle
 10
210.144701
 20
147.039719
 30
0.0
 40
16.588464
100
AcDbArc
 50
88.303119
 51
149.94992
  0
LINE
  5
684
330
D47
100
AcDbEntity
  8
V0-OBRYS
 62
    90
100
AcDbLine
 10
265.753017
 20
167.0
 30
0.0
 11
265.753017
 21
0.0
 31
0.0
  0
LINE
  5
685
330
D47
100
AcDbEntity
  8
V0-OBRYS
 62
    90
100
AcDbLine
 10
277.122971
 20
164.742112
 30
0.0
 11
339.265632
 21
103.992778
 31
0.0
  0
LINE
  5
686
330
D47
100
AcDbEntity
  8
V0-OBRYS
 62
    90
100
AcDbLine
 10
213.612466
 20
167.0
 30
0.0
 11
270.794968
 21
166.999091
 31
0.0
  0
ARC
  5
687
330
D47
100
AcDbEntity
  8
V0-OBRYS
 62
    90
100
AcDbCircle
 10
338.0
 20
102.444174
 30
0.0
 40
2.0
100
AcDbArc
 50
0.0
 51
50.741799
  0
ARC
  5
688
330
D47
100
AcDbEntity
  8
V0-OBRYS
 62
    90
100
AcDbCircle
 10
163.0
 20
-105.81948
 30
0.0
 40
2.0
100
AcDbArc
 50
0.0
 51
90.0
  0
LINE
  5
689
330
D47
100
AcDbEntity
  8
V0-OBRYS
 62
    90
100
AcDbLine
 10
160.0
 20
-100.0
 30
0.0
 11
160.0
 21
0.0
 31
0.0
  0
LINE
  5
68A
330
D47
100
AcDbEntity
  8
V0-OBRYS
 62
    90
100
AcDbLine
 10
130.0
 20
0.0
 30
0.0
 11
130.0
 21
-100.0
 31
0.0
  0
LINE
  5
68B
330
D47
100
AcDbEntity
  8
V0-OBRYS
 62
    90
100
AcDbLine
 10
130.0
 20
-100.0
 30
0.0
 11
160.0
 21
-100.0
 31
0.0
  0
LINE
  5
68C
330
D47
100
AcDbEntity
  8
V0-OBRYS
 62
    90
100
AcDbLine
 10
160.0
 20
-100.0
 30
0.0
 11
160.0
 21
-103.81948
 31
0.0
  0
LINE
  5
68D
330
D47
100
AcDbEntity
  8
V0-OBRYS
 62
    90
100
AcDbLine
 10
160.0
 20
-103.81948
 30
0.0
 11
163.0
 21
-103.81948
 31
0.0
  0
LINE
  5
68E
330
D47
100
AcDbEntity
  8
V0-OBRYS
 62
    90
100
AcDbLine
 10
340.0
 20
0.0
 30
0.0
 11
340.0
 21
-102.444174
 31
0.0
  0
LINE
  5
68F
330
D47
100
AcDbEntity
  8
V0-OBRYS
 62
    90
100
AcDbLine
 10
213.612466
 20
-167.0
 30
0.0
 11
213.612466
 21
0.0
 31
0.0
  0
LINE
  5
691
330
D47
100
AcDbEntity
  8
V0-OBRYS
 62
    90
100
AcDbLine
 10
265.753017
 20
-167.0
 30
0.0
 11
265.753017
 21
0.0
 31
0.0
  0
LINE
  5
692
330
D47
100
AcDbEntity
  8
V0-OBRYS
 62
    90
100
AcDbLine
 10
165.0
 20
0.0
 30
0.0
 11
165.0
 21
-105.81948
 31
0.0
  0
LINE
  5
693
330
D47
100
AcDbEntity
  8
V0-OBRYS
 62
    90
100
AcDbLine
 10
360.0
 20
0.0
 30
0.0
 11
360.0
 21
-100.0
 31
0.0
  0
LINE
  5
694
330
D47
100
AcDbEntity
  8
V0-OBRYS
 62
    90
100
AcDbLine
 10
277.122971
 20
-164.742112
 30
0.0
 11
339.265632
 21
-103.992778
 31
0.0
  0
ARC
  5
695
330
D47
100
AcDbEntity
  8
V0-OBRYS
 62
    90
100
AcDbCircle
 10
210.144701
 20
-147.039719
 30
0.0
 40
16.588464
100
AcDbArc
 50
210.05008
 51
271.696881
  0
LINE
  5
696
330
D47
100
AcDbEntity
  8
V0-OBRYS
 62
    90
100
AcDbLine
 10
165.0
 20
-105.81948
 30
0.0
 11
195.785925
 21
-155.346504
 31
0.0
  0
LINE
  5
697
330
D47
100
AcDbEntity
  8
V0-OBRYS
 62
    90
100
AcDbLine
 10
213.612466
 20
-167.0
 30
0.0
 11
270.794968
 21
-166.999091
 31
0.0
  0
LINE
  5
698
330
D47
100
AcDbEntity
  8
V0-OBRYS
 62
    90
100
AcDbLine
 10
213.612466
 20
-163.620908
 30
0.0
 11
210.635916
 21
-163.620908
 31
0.0
  0
LINE
  5
699
330
D47
100
AcDbEntity
  8
V0-OBRYS
 62
    90
100
AcDbLine
 10
360.0
 20
-100.0
 30
0.0
 11
340.0
 21
-100.0
 31
0.0
  0
ARC
  5
69A
330
D47
100
AcDbEntity
  8
V0-OBRYS
 62
    90
100
AcDbCircle
 10
338.0
 20
-102.444174
 30
0.0
 40
2.0
100
AcDbArc
 50
309.258201
 51
0.0
  0
ARC
  5
69E
330
D47
100
AcDbEntity
  8
V0-OBRYS
 62
    90
100
AcDbCircle
 10
270.794809
 20
156.999091
 30
0.0
 40
10.0
100
AcDbArc
 50
50.741799
 51
89.999089
  0
ARC
  5
69F
330
D47
100
AcDbEntity
  8
V0-OBRYS
 62
    90
100
AcDbCircle
 10
270.794809
 20
-156.999091
 30
0.0
 40
10.0
100
AcDbArc
 50
270.000911
 51
309.258201
  0
LINE
  5
6A0
330
D47
100
AcDbEntity
  8
V0-OBRYS
 62
    90
100
AcDbLine
 10
274.319499
 20
160.823614
 30
0.0
 11
274.319499
 21
-160.276556
 31
0.0
  0
LINE
  5
6A1
330
D47
100
AcDbEntity
  8
V0-OBRYS
 62
    90
100
AcDbLine
 10
208.457739
 20
154.374464
 30
0.0
 11
208.457739
 21
-155.439695
 31
0.0
  0
LINE
  5
6A2
330
D47
100
AcDbEntity
  8
V0-OBRYS
 62
    90
100
AcDbLine
 10
220.0
 20
40.0
 30
0.0
 11
260.0
 21
40.0
 31
0.0
  0
LINE
  5
6A3
330
D47
100
AcDbEntity
  8
V0-OBRYS
 62
    90
100
AcDbLine
 10
260.0
 20
40.0
 30
0.0
 11
260.0
 21
-40.0
 31
0.0
  0
LINE
  5
6A4
330
D47
100
AcDbEntity
  8
V0-OBRYS
 62
    90
100
AcDbLine
 10
260.0
 20
-40.0
 30
0.0
 11
220.0
 21
-40.0
 31
0.0
  0
LINE
  5
6A5
330
D47
100
AcDbEntity
  8
V0-OBRYS
 62
    90
100
AcDbLine
 10
220.0
 20
-40.0
 30
0.0
 11
220.0
 21
40.0
 31
0.0
  0
LINE
  5
6AA
330
D47
100
AcDbEntity
  8
V0-VYPLNE
 62
    63
100
AcDbLine
 10
620.31174
 20
169.59559
 30
0.0
 11
620.31174
 21
-169.548
 31
0.0
  0
LINE
  5
6AB
330
D47
100
AcDbEntity
  8
V0-VYPLNE
 62
    63
100
AcDbLine
 10
452.98086
 20
0.0
 30
0.0
 11
789.85974
 21
0.0
 31
0.0
  0
CIRCLE
  5
6AC
330
D47
100
AcDbEntity
  8
V0-OBRYS
 62
    90
100
AcDbCircle
 10
620.31174
 20
0.0
 30
0.0
 40
100.201102
  0
CIRCLE
  5
6AF
330
D47
100
AcDbEntity
  8
V0-OBRYS
 62
    90
100
AcDbCircle
 10
620.31174
 20
0.0
 30
0.0
 40
109.493704
  0
CIRCLE
  5
6B0
330
D47
100
AcDbEntity
  8
V0-OBRYS
 62
    90
100
AcDbCircle
 10
620.31174
 20
0.0
 30
0.0
 40
77.082494
  0
LINE
  5
6B1
330
D47
100
AcDbEntity
  8
V0-OBRYS
 62
    90
100
AcDbLine
 10
620.31174
 20
77.082494
 30
0.0
 11
620.31174
 21
101.300768
 31
0.0
  0
LINE
  5
6C5
330
D47
100
AcDbEntity
  8
V0-OBRYS
 62
    90
100
AcDbLine
 10
581.770493
 20
66.755398
 30
0.0
 11
569.661356
 21
87.729038
 31
0.0
  0
LINE
  5
6C6
330
D47
100
AcDbEntity
  8
V0-OBRYS
 62
    90
100
AcDbLine
 10
553.556342
 20
38.541247
 30
0.0
 11
532.582702
 21
50.650384
 31
0.0
  0
LINE
  5
6C7
330
D47
100
AcDbEntity
  8
V0-OBRYS
 62
    90
100
AcDbLine
 10
543.229246
 20
0.0
 30
0.0
 11
519.010972
 21
0.0
 31
0.0
  0
LINE
  5
6C8
330
D47
100
AcDbEntity
  8
V0-OBRYS
 62
    90
100
AcDbLine
 10
553.556342
 20
-38.541247
 30
0.0
 11
532.582702
 21
-50.650384
 31
0.0
  0
LINE
  5
6C9
330
D47
100
AcDbEntity
  8
V0-OBRYS
 62
    90
100
AcDbLine
 10
581.770493
 20
-66.755398
 30
0.0
 11
569.661356
 21
-87.729038
 31
0.0
  0
LINE
  5
6CA
330
D47
100
AcDbEntity
  8
V0-OBRYS
 62
    90
100
AcDbLine
 10
620.31174
 20
-77.082494
 30
0.0
 11
620.31174
 21
-101.300768
 31
0.0
  0
LINE
  5
6CB
330
D47
100
AcDbEntity
  8
V0-OBRYS
 62
    90
100
AcDbLine
 10
658.852987
 20
-66.755398
 30
0.0
 11
670.962124
 21
-87.729038
 31
0.0
  0
LINE
  5
6CC
330
D47
100
AcDbEntity
  8
V0-OBRYS
 62
    90
100
AcDbLine
 10
687.067139
 20
-38.541247
 30
0.0
 11
708.040779
 21
-50.650384
 31
0.0
  0
LINE
  5
6CD
330
D47
100
AcDbEntity
  8
V0-OBRYS
 62
    90
100
AcDbLine
 10
697.394235
 20
0.0
 30
0.0
 11
721.6125080000001
 21
0.0
 31
0.0
  0
LINE
  5
6CE
330
D47
100
AcDbEntity
  8
V0-OBRYS
 62
    90
100
AcDbLine
 10
687.067139
 20
38.541247
 30
0.0
 11
708.040779
 21
50.650384
 31
0.0
  0
LINE
  5
6CF
330
D47
100
AcDbEntity
  8
V0-OBRYS
 62
    90
100
AcDbLine
 10
658.852987
 20
66.755398
 30
0.0
 11
670.962124
 21
87.729038
 31
0.0
  0
CIRCLE
  5
6D0
330
D47
100
AcDbEntity
  8
V0-OBRYS
 62
    90
100
AcDbCircle
 10
620.31174
 20
0.0
 30
0.0
 40
20.431653
  0
LINE
  5
6D2
330
D47
100
AcDbEntity
  8
V0-OBRYS
 62
    90
100
AcDbLine
 10
782.528965
 20
40.0
 30
0.0
 11
820.332164
 21
40.0
 31
0.0
  0
LINE
  5
6D3
330
D47
100
AcDbEntity
  8
V0-OBRYS
 62
    90
100
AcDbLine
 10
820.332164
 20
40.0
 30
0.0
 11
820.332164
 21
-40.0
 31
0.0
  0
LINE
  5
6D4
330
D47
100
AcDbEntity
  8
V0-OBRYS
 62
    90
100
AcDbLine
 10
820.332164
 20
-40.0
 30
0.0
 11
782.528965
 21
-40.0
 31
0.0
  0
LINE
  5
6D5
330
D47
100
AcDbEntity
  8
V0-OBRYS
 62
    90
100
AcDbLine
 10
811.802082
 20
39.778651
 30
0.0
 11
811.802082
 21
-40.09942800000001
 31
0.0
  0
LINE
  5
6D6
330
D47
100
AcDbEntity
  8
V0-OBRYS
 62
    90
100
AcDbLine
 10
220.0
 20
-621.7272830000001
 30
0.0
 11
220.0
 21
-581.7272830000001
 31
0.0
  0
LINE
  5
6D7
330
D47
100
AcDbEntity
  8
V0-OBRYS
 62
    90
100
AcDbLine
 10
260.0
 20
-581.7272830000001
 30
0.0
 11
260.0
 21
-621.7272830000001
 31
0.0
  0
LINE
  5
6D8
330
D47
100
AcDbEntity
  8
V0-OBRYS
 62
    90
100
AcDbLine
 10
208.457739
 20
-270.852819
 30
0.0
 11
208.457739
 21
-580.666979
 31
0.0
  0
LINE
  5
6D9
330
D47
100
AcDbEntity
  8
V0-OBRYS
 62
    90
100
AcDbLine
 10
274.319499
 20
-264.403669
 30
0.0
 11
274.319499
 21
-585.503839
 31
0.0
  0
LINE
  5
6DA
330
D47
100
AcDbEntity
  8
V0-OBRYS
 62
    90
100
AcDbLine
 10
213.612466
 20
-258.227283
 30
0.0
 11
213.612466
 21
-425.227283
 31
0.0
  0
LINE
  5
6DB
330
D47
100
AcDbEntity
  8
V0-OBRYS
 62
    90
100
AcDbLine
 10
340.0
 20
-425.227283
 30
0.0
 11
340.0
 21
-322.783109
 31
0.0
  0
LINE
  5
6DC
330
D47
100
AcDbEntity
  8
V0-OBRYS
 62
    90
100
AcDbLine
 10
265.753017
 20
-258.227283
 30
0.0
 11
265.753017
 21
-425.227283
 31
0.0
  0
LINE
  5
6DD
330
D47
100
AcDbEntity
  8
V0-OBRYS
 62
    90
100
AcDbLine
 10
165.0
 20
-425.227283
 30
0.0
 11
165.0
 21
-319.407803
 31
0.0
  0
LINE
  5
6DE
330
D47
100
AcDbEntity
  8
V0-OBRYS
 62
    90
100
AcDbLine
 10
360.0
 20
-425.227283
 30
0.0
 11
360.0
 21
-325.227283
 31
0.0
  0
LINE
  5
6DF
330
D47
100
AcDbEntity
  8
V0-OBRYS
 62
    90
100
AcDbLine
 10
160.0
 20
-325.227283
 30
0.0
 11
160.0
 21
-425.227283
 31
0.0
  0
LINE
  5
6E0
330
D47
100
AcDbEntity
  8
V0-OBRYS
 62
    90
100
AcDbLine
 10
130.0
 20
-425.227283
 30
0.0
 11
130.0
 21
-325.227283
 31
0.0
  0
LINE
  5
6E1
330
D47
100
AcDbEntity
  8
V0-VYPLNE
 62
    63
100
AcDbLine
 10
130.0
 20
-425.227283
 30
0.0
 11
367.635079
 21
-425.227283
 31
0.0
  0
LINE
  5
6E2
330
D47
100
AcDbEntity
  8
V0-OBRYS
 62
    90
100
AcDbLine
 10
165.0
 20
-518.5467640000001
 30
0.0
 11
195.785925
 21
-580.573788
 31
0.0
  0
LINE
  5
6E3
330
D47
100
AcDbEntity
  8
V0-OBRYS
 62
    90
100
AcDbLine
 10
165.0
 20
-425.227283
 30
0.0
 11
165.0
 21
-518.5467640000001
 31
0.0
  0
LINE
  5
6E4
330
D47
100
AcDbEntity
  8
V0-OBRYS
 62
    90
100
AcDbLine
 10
130.0
 20
-425.227283
 30
0.0
 11
130.0
 21
-525.2272830000001
 31
0.0
  0
LINE
  5
6E5
330
D47
100
AcDbEntity
  8
V0-OBRYS
 62
    90
100
AcDbLine
 10
160.0
 20
-525.2272830000001
 30
0.0
 11
160.0
 21
-425.227283
 31
0.0
  0
LINE
  5
6E6
330
D47
100
AcDbEntity
  8
V0-OBRYS
 62
    90
100
AcDbLine
 10
130.0
 20
-525.2272830000001
 30
0.0
 11
160.0
 21
-525.2272830000001
 31
0.0
  0
LINE
  5
6E7
330
D47
100
AcDbEntity
  8
V0-OBRYS
 62
    90
100
AcDbLine
 10
160.0
 20
-529.0467640000001
 30
0.0
 11
163.0
 21
-529.0467640000001
 31
0.0
  0
LINE
  5
6E8
330
D47
100
AcDbEntity
  8
V0-OBRYS
 62
    90
100
AcDbLine
 10
160.0
 20
-525.2272830000001
 30
0.0
 11
160.0
 21
-529.0467640000001
 31
0.0
  0
ARC
  5
6E9
330
D47
100
AcDbEntity
  8
V0-OBRYS
 62
    90
100
AcDbCircle
 10
163.0
 20
-531.0467640000001
 30
0.0
 40
2.0
100
AcDbArc
 50
0.0
 51
90.0
  0
LINE
  5
6EA
330
D47
100
AcDbEntity
  8
V0-OBRYS
 62
    90
100
AcDbLine
 10
360.0
 20
-525.2272830000001
 30
0.0
 11
340.0
 21
-525.2272830000001
 31
0.0
  0
LINE
  5
6EB
330
D47
100
AcDbEntity
  8
V0-OBRYS
 62
    90
100
AcDbLine
 10
213.612466
 20
-592.2272830000001
 30
0.0
 11
220.0
 21
-592.227182
 31
0.0
  0
LINE
  5
6EC
330
D47
100
AcDbEntity
  8
V0-OBRYS
 62
    90
100
AcDbLine
 10
213.612466
 20
-592.2272830000001
 30
0.0
 11
213.612466
 21
-425.227283
 31
0.0
  0
ARC
  5
6ED
330
D47
100
AcDbEntity
  8
V0-OBRYS
 62
    90
100
AcDbCircle
 10
210.144701
 20
-572.2670020000001
 30
0.0
 40
16.588464
100
AcDbArc
 50
210.05008
 51
271.696881
  0
LINE
  5
6EE
330
D47
100
AcDbEntity
  8
V0-OBRYS
 62
    90
100
AcDbLine
 10
213.612466
 20
-588.848192
 30
0.0
 11
210.635916
 21
-588.848192
 31
0.0
  0
LINE
  5
6EF
330
D47
100
AcDbEntity
  8
V0-OBRYS
 62
    90
100
AcDbLine
 10
260.0
 20
-621.7272830000001
 30
0.0
 11
220.0
 21
-621.7272830000001
 31
0.0
  0
LINE
  5
6F0
330
D47
100
AcDbEntity
  8
V0-OBRYS
 62
    90
100
AcDbLine
 10
265.753017
 20
-592.2272830000001
 30
0.0
 11
265.753017
 21
-425.227283
 31
0.0
  0
LINE
  5
6F1
330
D47
100
AcDbEntity
  8
V0-OBRYS
 62
    90
100
AcDbLine
 10
277.122971
 20
-589.969395
 30
0.0
 11
339.265632
 21
-529.220062
 31
0.0
  0
ARC
  5
6F2
330
D47
100
AcDbEntity
  8
V0-OBRYS
 62
    90
100
AcDbCircle
 10
270.794809
 20
-582.226374
 30
0.0
 40
10.0
100
AcDbArc
 50
270.000911
 51
309.258201
  0
LINE
  5
6F3
330
D47
100
AcDbEntity
  8
V0-OBRYS
 62
    90
100
AcDbLine
 10
340.0
 20
-425.227283
 30
0.0
 11
340.0
 21
-527.671457
 31
0.0
  0
ARC
  5
6F4
330
D47
100
AcDbEntity
  8
V0-OBRYS
 62
    90
100
AcDbCircle
 10
338.0
 20
-527.671457
 30
0.0
 40
2.0
100
AcDbArc
 50
309.258201
 51
0.0
  0
LINE
  5
6F5
330
D47
100
AcDbEntity
  8
V0-OBRYS
 62
    90
100
AcDbLine
 10
360.0
 20
-425.227283
 30
0.0
 11
360.0
 21
-525.2272830000001
 31
0.0
  0
LINE
  5
6F6
330
D47
100
AcDbEntity
  8
V0-OBRYS
 62
    90
100
AcDbLine
 10
165.0
 20
-319.407803
 30
0.0
 11
195.785925
 21
-269.880779
 31
0.0
  0
LINE
  5
6F7
330
D47
100
AcDbEntity
  8
V0-OBRYS
 62
    90
100
AcDbLine
 10
130.0
 20
-325.227283
 30
0.0
 11
160.0
 21
-325.227283
 31
0.0
  0
LINE
  5
6F8
330
D47
100
AcDbEntity
  8
V0-OBRYS
 62
    90
100
AcDbLine
 10
160.0
 20
-325.227283
 30
0.0
 11
160.0
 21
-321.407803
 31
0.0
  0
LINE
  5
6F9
330
D47
100
AcDbEntity
  8
V0-OBRYS
 62
    90
100
AcDbLine
 10
160.0
 20
-321.407803
 30
0.0
 11
163.0
 21
-321.407803
 31
0.0
  0
ARC
  5
6FA
330
D47
100
AcDbEntity
  8
V0-OBRYS
 62
    90
100
AcDbCircle
 10
163.0
 20
-319.407803
 30
0.0
 40
2.0
100
AcDbArc
 50
270.0
 51
0.0
  0
LINE
  5
6FB
330
D47
100
AcDbEntity
  8
V0-OBRYS
 62
    90
100
AcDbLine
 10
360.0
 20
-325.227283
 30
0.0
 11
340.0
 21
-325.227283
 31
0.0
  0
LINE
  5
6FC
330
D47
100
AcDbEntity
  8
V0-OBRYS
 62
    90
100
AcDbLine
 10
213.612466
 20
-258.227283
 30
0.0
 11
270.794968
 21
-258.228193
 31
0.0
  0
ARC
  5
6FE
330
D47
100
AcDbEntity
  8
V0-OBRYS
 62
    90
100
AcDbCircle
 10
210.144701
 20
-278.187565
 30
0.0
 40
16.588464
100
AcDbArc
 50
88.303119
 51
149.94992
  0
LINE
  5
6FF
330
D47
100
AcDbEntity
  8
V0-OBRYS
 62
    90
100
AcDbLine
 10
213.612466
 20
-261.606375
 30
0.0
 11
210.635916
 21
-261.606375
 31
0.0
  0
LINE
  5
700
330
D47
100
AcDbEntity
  8
V0-OBRYS
 62
    90
100
AcDbLine
 10
277.122971
 20
-260.485172
 30
0.0
 11
339.265632
 21
-321.234505
 31
0.0
  0
ARC
  5
701
330
D47
100
AcDbEntity
  8
V0-OBRYS
 62
    90
100
AcDbCircle
 10
338.0
 20
-322.783109
 30
0.0
 40
2.0
100
AcDbArc
 50
0.0
 51
50.741799
  0
ARC
  5
702
330
D47
100
AcDbEntity
  8
V0-OBRYS
 62
    90
100
AcDbCircle
 10
270.794809
 20
-268.228193
 30
0.0
 40
10.0
100
AcDbArc
 50
50.741799
 51
89.999089
  0
LINE
  5
703
330
D47
100
AcDbEntity
  8
V0-OBRYS
 62
    90
100
AcDbLine
 10
220.0
 20
-581.7272830000001
 30
0.0
 11
260.0
 21
-581.7272830000001
 31
0.0
  0
LINE
  5
704
330
D47
100
AcDbEntity
  8
V0-OBRYS
 62
    90
100
AcDbLine
 10
260.0
 20
-592.226546
 30
0.0
 11
270.794968
 21
-592.226374
 31
0.0
  0
LINE
  5
705
330
D47
100
AcDbEntity
  8
V0-OBRYS
 62
    90
100
AcDbLine
 10
220.603366
 20
-615.512329
 30
0.0
 11
259.874123
 21
-615.512329
 31
0.0
  0
DIMENSION
  5
715
330
D47
100
AcDbEntity
  8
V0-VYPLNE
  6
CONTINUOUS
 62
    41
100
AcDbDimension
  2
*D4
 10
160.0
 20
-200.7649600000004
 30
0.0
 11
145.0
 21
-200.76496
 31
0.0
 70
   160
  3
ED10
100
AcDbAlignedDimension
 13
130.0
 23
-100.0
 33
0.0
 14
160.0
 24
-100.0
 34
0.0
100
AcDbRotatedDimension
1001
ACAD
1000
DSTYLE
1002
{
1070
    40
1040
1.0
1002
}
  0
DIMENSION
  5
724
330
D47
100
AcDbEntity
  8
V0-VYPLNE
  6
CONTINUOUS
 62
    41
100
AcDbDimension
  2
*D5
 10
360.0
 20
-199.7649600000004
 30
0.0
 11
399.5952380952381
 21
-193.2649600000004
 31
0.0
 70
    32
  3
ED10
100
AcDbAlignedDimension
 13
340.0
 23
-100.0
 33
0.0
 14
360.0
 24
-100.0
 34
0.0
100
AcDbRotatedDimension
1001
ACAD
1000
DSTYLE
1002
{
1070
    40
1040
1.0
1002
}
  0
DIMENSION
  5
731
330
D47
100
AcDbEntity
  8
V0-VYPLNE
  6
CONTINUOUS
 62
    41
100
AcDbDimension
  2
*D6
 10
360.0
 20
-226.2676460000075
 30
0.0
 11
250.0
 21
-226.267646
 31
0.0
 70
   160
  3
ED10
100
AcDbAlignedDimension
 13
130.0
 23
-100.0
 33
0.0
 14
360.0
 24
-100.0
 34
0.0
100
AcDbRotatedDimension
1001
ACAD
1000
DSTYLE
1002
{
1070
    40
1040
1.0
1002
}
  0
DIMENSION
  5
74B
330
D47
100
AcDbEntity
  8
V0-VYPLNE
  6
CONTINUOUS
 62
    41
100
AcDbDimension
  2
*D7
 10
96.51166100000046
 20
-100.0
 30
0.0
 11
90.01166100000046
 21
0.0
 31
0.0
 70
    32
  1
%%c<>
  3
ED10
100
AcDbAlignedDimension
 13
130.0
 23
100.0
 33
0.0
 14
130.0
 24
-100.0
 34
0.0
 50
90.0
100
AcDbRotatedDimension
1001
ACAD
1000
DSTYLE
1002
{
1070
    40
1040
1.0
1002
}
  0
DIMENSION
  5
758
330
D47
100
AcDbEntity
  8
V0-VYPLNE
  6
CONTINUOUS
 62
    41
100
AcDbDimension
  2
*D8
 10
398.6266969999997
 20
-100.0
 30
0.0
 11
392.1266969999997
 21
-0.0000000000000142
 31
0.0
 70
    32
  1
%%c<>
  3
ED10
100
AcDbAlignedDimension
 13
360.0
 23
100.0
 33
0.0
 14
360.0
 24
-100.0
 34
0.0
 50
90.0
100
AcDbRotatedDimension
1001
ACAD
1000
DSTYLE
1002
{
1070
    40
1040
1.0
1002
}
  0
LINE
  5
798
330
D47
100
AcDbEntity
  8
V0-VYPLNE
  6
CONTINUOUS
 62
    41
100
AcDbLine
 10
282.091181
 20
6.535906
 30
0.0
 11
335.918417
 21
6.535906
 31
0.0
  0
LINE
  5
799
330
D47
100
AcDbEntity
  8
V0-VYPLNE
  6
CONTINUOUS
 62
    41
100
AcDbLine
 10
335.918417
 20
6.535906
 30
0.0
 11
319.185913
 21
11.727036
 31
0.0
  0
LINE
  5
79A
330
D47
100
AcDbEntity
  8
V0-VYPLNE
  6
CONTINUOUS
 62
    41
100
AcDbLine
 10
335.918417
 20
6.535906
 30
0.0
 11
319.185913
 21
1.344776
 31
0.0
  0
LINE
  5
79B
330
D47
100
AcDbEntity
  8
V0-VYPLNE
  6
CONTINUOUS
 62
    41
100
AcDbLine
 10
282.091181
 20
-413.442005
 30
0.0
 11
335.918417
 21
-413.442005
 31
0.0
  0
LINE
  5
79C
330
D47
100
AcDbEntity
  8
V0-VYPLNE
  6
CONTINUOUS
 62
    41
100
AcDbLine
 10
335.918417
 20
-413.442005
 30
0.0
 11
319.185913
 21
-418.633135
 31
0.0
  0
LINE
  5
79D
330
D47
100
AcDbEntity
  8
V0-VYPLNE
  6
CONTINUOUS
 62
    41
100
AcDbLine
 10
335.918417
 20
-413.442005
 30
0.0
 11
319.185913
 21
-408.250875
 31
0.0
  0
POINT
  5
79E
330
D47
100
AcDbEntity
  8
V0-VYPLNE
  6
CONTINUOUS
 62
    41
100
AcDbPoint
 10
620.31174
 20
0.0
 30
0.0
  0
POINT
  5
79F
330
D47
100
AcDbEntity
  8
V0-VYPLNE
  6
CONTINUOUS
 62
    41
100
AcDbPoint
 10
160.0
 20
0.0
 30
0.0
  0
POINT
  5
7A0
330
D47
100
AcDbEntity
  8
V0-VYPLNE
  6
CONTINUOUS
 62
    41
100
AcDbPoint
 10
160.0
 20
-425.227283
 30
0.0
  0
POINT
  5
7A1
330
D47
100
AcDbEntity
  8
V0-VYPLNE
  6
CONTINUOUS
 62
    41
100
AcDbPoint
 10
340.0
 20
-425.227283
 30
0.0
  0
POINT
  5
7A2
330
D47
100
AcDbEntity
  8
V0-VYPLNE
  6
CONTINUOUS
 62
    41
100
AcDbPoint
 10
340.0
 20
0.0
 30
0.0
  0
DIMENSION
  5
98A
330
D47
100
AcDbEntity
  8
V0-VYPLNE
  6
CONTINUOUS
 62
    41
100
AcDbDimension
  2
*D9
 10
61.28404600000067
 20
-167.0
 30
0.0
 11
54.78404600000067
 21
-0.0000000000000284
 31
0.0
 70
    32
  1
%%c<>
  3
ED10
100
AcDbAlignedDimension
 13
213.612466
 23
167.0
 33
0.0
 14
213.612466
 24
-167.0
 34
0.0
 50
90.0
100
AcDbRotatedDimension
1001
ACAD
1000
DSTYLE
1002
{
1070
    40
1040
1.0
1002
}
  0
CIRCLE
  5
BA6
330
D47
100
AcDbEntity
  8
V0-OBRYS
  6
CONTINUOUS
 62
    90
100
AcDbCircle
 10
620.31174
 20
0.0
 30
0.0
 40
167.0
  0
CIRCLE
  5
BA7
330
D47
100
AcDbEntity
  8
V0-OBRYS
  6
CONTINUOUS
 62
    90
100
AcDbCircle
 10
620.31174
 20
0.023795
 30
0.0
 40
160.476526
  0
TEXT
  5
D20
330
D47
100
AcDbEntity
  8
V0-NAZVY
100
AcDbText
 10
484.7214874285714
 20
-362.676492
 30
0.0
 40
37.5
  1
RM 200
  7
ED10
100
AcDbText
  0
VIEWPORT
  5
DC5
330
D43
100
AcDbEntity
 67
     1
  8
0
 60
     1
100
AcDbViewport
 10
261.517699
 20
148.5
 30
0.0
 40
297.0
 41
297.0
 68
     0
 69
     1
1001
VD_INVISIBLE_NOT_FOR_READ
1000
VD_INVISIBLE_NOT_FOR_READ
1001
ACAD
1000
MVIEW
1002
{
1070
    16
1010
0.0
1020
0.0
1030
0.0
1010
0.0
1020
0.0
1030
1.0
1040
6.2831853071796
1040
297.0
1040
261.517699
1040
148.5
1040
0.0
1040
0.0
1040
0.0
1070
     0
1070
   100
1070
     0
1070
     1
1070
     0
1070
     0
1070
     0
1070
     0
1040
0.0
1040
0.0
1040
0.0
1040
1.0
1040
1.0
1040
0.0
1040
0.0
1070
     0
1002
{
1002
}
1002
}
  0
VIEWPORT
  5
DC6
330
D43
100
AcDbEntity
 67
     1
  8
0
 60
     1
100
AcDbViewport
 10
261.517699
 20
148.5
 30
0.0
 40
297.0
 41
297.0
 68
     0
 69
     2
1001
VD_INVISIBLE_NOT_FOR_READ
1000
VD_INVISIBLE_NOT_FOR_READ
1001
ACAD
1000
MVIEW
1002
{
1070
    16
1010
0.0
1020
0.0
1030
0.0
1010
0.0
1020
0.0
1030
1.0
1040
6.2831853071796
1040
297.0
1040
261.517699
1040
148.5
1040
0.0
1040
0.0
1040
0.0
1070
     0
1070
   100
1070
     0
1070
     1
1070
     0
1070
     0
1070
     0
1070
     0
1040
0.0
1040
0.0
1040
0.0
1040
1.0
1040
1.0
1040
0.0
1040
0.0
1070
     0
1002
{
1002
}
1002
}
  0
ENDSEC
  0
SECTION
  2
OBJECTS
  0
DICTIONARY
  5
D34
330
0
100
AcDbDictionary
  3
ACAD_GROUP
350
D35
  3
ACAD_LAYOUT
350
D42
  3
ACAD_MLINESTYLE
350
D3F
  3
ACAD_PLOTSETTINGS
350
D41
  3
ACDBHEADERROUNDTRIPXREC
350
DC7
  3
VECTORDRAW_OBJECTS
350
D57
  0
DICTIONARY
  5
DE7
330
D51
100
AcDbDictionary
280
     1
  3
ACAD_XREC_ROUNDTRIP
360
DE8
  0
DICTIONARY
  5
D35
102
{ACAD_REACTORS
330
D34
102
}
330
D34
100
AcDbDictionary
  0
DICTIONARY
  5
D42
102
{ACAD_REACTORS
330
D34
102
}
330
D34
100
AcDbDictionary
  0
DICTIONARY
  5
D3F
102
{ACAD_REACTORS
330
D34
102
}
330
D34
100
AcDbDictionary
  3
STANDARD
350
D40
  0
DICTIONARY
  5
D41
102
{ACAD_REACTORS
330
D34
102
}
330
D34
100
AcDbDictionary
  0
DICTIONARY
  5
DC7
102
{ACAD_REACTORS
330
D34
102
}
330
D34
100
AcDbDictionary
  3
CEPSNTYPE
350
DD0
  3
DIMSTYLEDATA
350
DE6
  3
FINGERPRINTGUID
350
DD1
  3
HYPERLINKBASE
350
DCA
  3
INSUNITS
350
DCF
  3
LAYOUTDICT
350
DCC
  3
LWETCUNION
350
DCE
  3
PLOTSETDICT
350
DCD
  3
PSVPSCALE
350
DD3
  3
PUCSBASE
350
DD6
  3
PUCSORGBACK
350
DDC
  3
PUCSORGBOTTOM
350
DD8
  3
PUCSORGFRONT
350
DDB
  3
PUCSORGLEFT
350
DD9
  3
PUCSORGRIGHT
350
DDA
  3
PUCSORGTOP
350
DD7
  3
PUCSORTHOREF
350
DD4
  3
PUCSORTHOVIEW
350
DD5
  3
STYLESHEET
350
DCB
  3
TSTACKALIGN
350
DC8
  3
TSTACKSIZE
350
DC9
  3
UCSBASE
350
DDF
  3
UCSORGBACK
350
DE5
  3
UCSORGBOTTOM
350
DE1
  3
UCSORGFRONT
350
DE4
  3
UCSORGLEFT
350
DE2
  3
UCSORGRIGHT
350
DE3
  3
UCSORGTOP
350
DE0
  3
UCSORTHOREF
350
DDD
  3
UCSORTHOVIEW
350
DDE
  3
VERSIONGUID
350
DD2
  0
DICTIONARY
  5
D57
102
{ACAD_REACTORS
330
D34
102
}
330
D34
100
AcDbDictionary
  3
SERIALNO
350
D58
  0
XRECORD
  5
DE8
102
{ACAD_REACTORS
330
DE7
102
}
330
DE7
100
AcDbXrecord
102
UCS
 74
     0
 71
     1
 10
0.0
 20
0.0
 30
0.0
 10
1.0
 20
0.0
 30
0.0
 10
0.0
 20
1.0
 30
0.0
146
0.0
 79
     0
102
VIEW
281
     0
  0
MLINESTYLE
  5
D40
102
{ACAD_REACTORS
330
D3F
102
}
330
D3F
100
AcDbMlineStyle
  2
Standard
 70
     0
  3

 62
   256
 51
90.0
 52
90.0
 71
     2
 49
0.5
 62
   256
  6
BYLAYER
 49
-0.5
 62
   256
  6
BYLAYER
  0
XRECORD
  5
DD0
102
{ACAD_REACTORS
330
DC7
102
}
330
DC7
100
AcDbXrecord
 90
        0
  0
XRECORD
  5
DE6
102
{ACAD_REACTORS
330
DC7
102
}
330
DC7
100
AcDbXrecord
1000
DSTYLE
1002
{
1070
    41
 40
15.0
1070
   342
340
90
1070
   271
 70
     0
1070
    44
 40
1.25
1070
    42
 40
1.0
1070
   147
 40
1.5
1070
    77
 70
     1
1070
    73
 70
     0
1070
   174
 70
     1
1070
   172
 70
     1
1070
    74
 70
     0
1070
   340
340
5D2
1070
   140
 40
10.0
1070
   288
 70
     1
1002
}
  0
XRECORD
  5
DD1
102
{ACAD_REACTORS
330
DC7
102
}
330
DC7
100
AcDbXrecord
  1
{FAEB1C30-E019-11D5-929B-00C0DF256EC4}
  0
XRECORD
  5
DCA
102
{ACAD_REACTORS
330
DC7
102
}
330
DC7
100
AcDbXrecord
  1

  0
XRECORD
  5
DCF
102
{ACAD_REACTORS
330
DC7
102
}
330
DC7
100
AcDbXrecord
 90
        1
  0
XRECORD
  5
DCC
102
{ACAD_REACTORS
330
DC7
102
}
330
DC7
100
AcDbXrecord
340
D42
  0
XRECORD
  5
DCE
102
{ACAD_REACTORS
330
DC7
102
}
330
DC7
100
AcDbXrecord
 90
     2560
  0
XRECORD
  5
DCD
102
{ACAD_REACTORS
330
DC7
102
}
330
DC7
100
AcDbXrecord
340
D41
  0
XRECORD
  5
DD3
102
{ACAD_REACTORS
330
DC7
102
}
330
DC7
100
AcDbXrecord
 40
0.0
  0
XRECORD
  5
DD6
102
{ACAD_REACTORS
330
DC7
102
}
330
DC7
100
AcDbXrecord
340
0
  0
XRECORD
  5
DDC
102
{ACAD_REACTORS
330
DC7
102
}
330
DC7
100
AcDbXrecord
 10
0.0
 20
0.0
 30
0.0
  0
XRECORD
  5
DD8
102
{ACAD_REACTORS
330
DC7
102
}
330
DC7
100
AcDbXrecord
 10
0.0
 20
0.0
 30
0.0
  0
XRECORD
  5
DDB
102
{ACAD_REACTORS
330
DC7
102
}
330
DC7
100
AcDbXrecord
 10
0.0
 20
0.0
 30
0.0
  0
XRECORD
  5
DD9
102
{ACAD_REACTORS
330
DC7
102
}
330
DC7
100
AcDbXrecord
 10
0.0
 20
0.0
 30
0.0
  0
XRECORD
  5
DDA
102
{ACAD_REACTORS
330
DC7
102
}
330
DC7
100
AcDbXrecord
 10
0.0
 20
0.0
 30
0.0
  0
XRECORD
  5
DD7
102
{ACAD_REACTORS
330
DC7
102
}
330
DC7
100
AcDbXrecord
 10
0.0
 20
0.0
 30
0.0
  0
XRECORD
  5
DD4
102
{ACAD_REACTORS
330
DC7
102
}
330
DC7
100
AcDbXrecord
340
0
  0
XRECORD
  5
DD5
102
{ACAD_REACTORS
330
DC7
102
}
330
DC7
100
AcDbXrecord
 70
     0
  0
XRECORD
  5
DCB
102
{ACAD_REACTORS
330
DC7
102
}
330
DC7
100
AcDbXrecord
  1

  0
XRECORD
  5
DC8
102
{ACAD_REACTORS
330
DC7
102
}
330
DC7
100
AcDbXrecord
 90
        1
  0
XRECORD
  5
DC9
102
{ACAD_REACTORS
330
DC7
102
}
330
DC7
100
AcDbXrecord
 90
       70
  0
XRECORD
  5
DDF
102
{ACAD_REACTORS
330
DC7
102
}
330
DC7
100
AcDbXrecord
340
0
  0
XRECORD
  5
DE5
102
{ACAD_REACTORS
330
DC7
102
}
330
DC7
100
AcDbXrecord
 10
0.0
 20
0.0
 30
0.0
  0
XRECORD
  5
DE1
102
{ACAD_REACTORS
330
DC7
102
}
330
DC7
100
AcDbXrecord
 10
0.0
 20
0.0
 30
0.0
  0
XRECORD
  5
DE4
102
{ACAD_REACTORS
330
DC7
102
}
330
DC7
100
AcDbXrecord
 10
0.0
 20
0.0
 30
0.0
  0
XRECORD
  5
DE2
102
{ACAD_REACTORS
330
DC7
102
}
330
DC7
100
AcDbXrecord
 10
0.0
 20
0.0
 30
0.0
  0
XRECORD
  5
DE3
102
{ACAD_REACTORS
330
DC7
102
}
330
DC7
100
AcDbXrecord
 10
0.0
 20
0.0
 30
0.0
  0
XRECORD
  5
DE0
102
{ACAD_REACTORS
330
DC7
102
}
330
DC7
100
AcDbXrecord
 10
0.0
 20
0.0
 30
0.0
  0
XRECORD
  5
DDD
102
{ACAD_REACTORS
330
DC7
102
}
330
DC7
100
AcDbXrecord
340
0
  0
XRECORD
  5
DDE
102
{ACAD_REACTORS
330
DC7
102
}
330
DC7
100
AcDbXrecord
 70
     0
  0
XRECORD
  5
DD2
102
{ACAD_REACTORS
330
DC7
102
}
330
DC7
100
AcDbXrecord
  1
{FAEB1C32-E019-11D5-929B-00C0DF256EC4}
  0
XRECORD
  5
D58
102
{ACAD_REACTORS
330
D57
102
}
330
D57
100
AcDbXrecord
1000
rInJVR9YY4Q8hfPWdUq5j5319
1070
     4
1070
     6
  0
ENDSEC
  0
EOF
