  0
SECTION
  2
HEADER
  9
$ACADVER
  1
AC1014
  9
$ACADMAINTVER
 70
     9
  9
$DWGCODEPAGE
  3
ANSI_1250
  9
$INSBASE
 10
0.0
 20
0.0
 30
0.0
  9
$EXTMIN
 10
48.71011961538438
 20
-621.265082
 30
0.0
  9
$EXTMAX
 10
820.136613
 20
199.440226
 30
0.0
  9
$LIMMIN
 10
0.0
 20
0.0
  9
$LIMMAX
 10
0.0
 20
0.0
  9
$ORTHOMODE
 70
     1
  9
$REGENMODE
 70
     1
  9
$FILLMODE
 70
     1
  9
$QTEXTMODE
 70
     0
  9
$MIRRTEXT
 70
     1
  9
$DRAGMODE
 70
     2
  9
$LTSCALE
 40
1.0
  9
$OSMODE
 70
    37
  9
$ATTMODE
 70
     1
  9
$TEXTSIZE
 40
0.2
  9
$TRACEWID
 40
0.05
  9
$TEXTSTYLE
  7
ED20
  9
$CLAYER
  8
V0-VYPLNE
  9
$CELTYPE
  6
CONTINUOUS
  9
$CECOLOR
 62
    41
  9
$CELTSCALE
 40
1.0
  9
$DELOBJ
 70
     1
  9
$DISPSILH
 70
     0
  9
$DIMSCALE
 40
1.0
  9
$DIMASZ
 40
20.0
  9
$DIMEXO
 40
1.0
  9
$DIMDLI
 40
0.38
  9
$DIMRND
 40
0.0
  9
$DIMDLE
 40
0.0
  9
$DIMEXE
 40
1.25
  9
$DIMTP
 40
0.0
  9
$DIMTM
 40
0.0
  9
$DIMTXT
 40
20.0
  9
$DIMCEN
 40
0.09
  9
$DIMTSZ
 40
0.0
  9
$DIMTOL
 70
     0
  9
$DIMLIM
 70
     0
  9
$DIMTIH
 70
     0
  9
$DIMTOH
 70
     0
  9
$DIMSE1
 70
     0
  9
$DIMSE2
 70
     0
  9
$DIMTAD
 70
     1
  9
$DIMZIN
 70
     0
  9
$DIMBLK
  1
OPEN
  9
$DIMASO
 70
     1
  9
$DIMSHO
 70
     1
  9
$DIMPOST
  1

  9
$DIMAPOST
  1

  9
$DIMALT
 70
     0
  9
$DIMALTD
 70
     2
  9
$DIMALTF
 40
25.4
  9
$DIMLFAC
 40
1.0
  9
$DIMTOFL
 70
     1
  9
$DIMTVP
 40
0.0
  9
$DIMTIX
 70
     1
  9
$DIMSOXD
 70
     0
  9
$DIMSAH
 70
     0
  9
$DIMBLK1
  1

  9
$DIMBLK2
  1

  9
$DIMSTYLE
  2
ED20
  9
$DIMCLRD
 70
     0
  9
$DIMCLRE
 70
     0
  9
$DIMCLRT
 70
     0
  9
$DIMTFAC
 40
1.0
  9
$DIMGAP
 40
1.5
  9
$DIMJUST
 70
     0
  9
$DIMSD1
 70
     0
  9
$DIMSD2
 70
     0
  9
$DIMTOLJ
 70
     1
  9
$DIMTZIN
 70
     0
  9
$DIMALTZ
 70
     0
  9
$DIMALTTZ
 70
     0
  9
$DIMFIT
 70
     3
  9
$DIMUPT
 70
     1
  9
$DIMUNIT
 70
     2
  9
$DIMDEC
 70
     0
  9
$DIMTDEC
 70
     4
  9
$DIMALTU
 70
     2
  9
$DIMALTTD
 70
     2
  9
$DIMTXSTY
  7
ED20
  9
$DIMAUNIT
 70
     0
  9
$LUNITS
 70
     2
  9
$LUPREC
 70
     4
  9
$SKETCHINC
 40
0.1
  9
$FILLETRAD
 40
0.5
  9
$AUNITS
 70
     0
  9
$AUPREC
 70
     0
  9
$MENU
  1
.
  9
$ELEVATION
 40
0.0
  9
$PELEVATION
 40
0.0
  9
$THICKNESS
 40
0.0
  9
$LIMCHECK
 70
     0
  9
$BLIPMODE
 70
     0
  9
$CHAMFERA
 40
0.5
  9
$CHAMFERB
 40
0.5
  9
$CHAMFERC
 40
1.0
  9
$CHAMFERD
 40
0.0
  9
$SKPOLY
 70
     0
  9
$TDCREATE
 40
2455642.649744456
  9
$TDUPDATE
 40
2455642.649744468
  9
$TDINDWG
 40
0.0000000116
  9
$TDUSRTIMER
 40
0.0000000116
  9
$USRTIMER
 70
     1
  9
$ANGBASE
 50
0.0
  9
$ANGDIR
 70
     0
  9
$PDMODE
 70
     3
  9
$PDSIZE
 40
15.0
  9
$PLINEWID
 40
0.0
  9
$COORDS
 70
     1
  9
$SPLFRAME
 70
     0
  9
$SPLINETYPE
 70
     6
  9
$SPLINESEGS
 70
     8
  9
$ATTDIA
 70
     0
  9
$ATTREQ
 70
     1
  9
$HANDLING
 70
     1
  9
$HANDSEED
  5
CD9
  9
$SURFTAB1
 70
     6
  9
$SURFTAB2
 70
     6
  9
$SURFTYPE
 70
     6
  9
$SURFU
 70
     6
  9
$SURFV
 70
     6
  9
$UCSNAME
  2

  9
$UCSORG
 10
0.0
 20
0.0
 30
0.0
  9
$UCSXDIR
 10
1.0
 20
0.0
 30
0.0
  9
$UCSYDIR
 10
0.0
 20
1.0
 30
0.0
  9
$PUCSNAME
  2

  9
$PUCSORG
 10
0.0
 20
0.0
 30
0.0
  9
$PUCSXDIR
 10
1.0
 20
0.0
 30
0.0
  9
$PUCSYDIR
 10
0.0
 20
1.0
 30
0.0
  9
$USERI1
 70
     0
  9
$USERI2
 70
     0
  9
$USERI3
 70
     0
  9
$USERI4
 70
     0
  9
$USERI5
 70
     0
  9
$USERR1
 40
0.0
  9
$USERR2
 40
0.0
  9
$USERR3
 40
0.0
  9
$USERR4
 40
0.0
  9
$USERR5
 40
0.0
  9
$WORLDVIEW
 70
     1
  9
$SHADEDGE
 70
     3
  9
$SHADEDIF
 70
    70
  9
$TILEMODE
 70
     1
  9
$MAXACTVP
 70
    64
  9
$PINSBASE
 10
0.0
 20
0.0
 30
0.0
  9
$PLIMCHECK
 70
     0
  9
$PEXTMIN
 10
1.000000000000000E+20
 20
1.000000000000000E+20
 30
1.000000000000000E+20
  9
$PEXTMAX
 10
-1.000000000000000E+20
 20
-1.000000000000000E+20
 30
-1.000000000000000E+20
  9
$PLIMMIN
 10
0.0
 20
0.0
  9
$PLIMMAX
 10
0.0
 20
0.0
  9
$UNITMODE
 70
     0
  9
$VISRETAIN
 70
     1
  9
$PLINEGEN
 70
     0
  9
$PSLTSCALE
 70
     1
  9
$TREEDEPTH
 70
  3020
  9
$PICKSTYLE
 70
     1
  9
$CMLSTYLE
  2
STANDARD
  9
$CMLJUST
 70
     0
  9
$CMLSCALE
 40
1.0
  9
$PROXYGRAPHICS
 70
     1
  9
$MEASUREMENT
 70
     0
  0
ENDSEC
  0
SECTION
  2
CLASSES
  0
CLASS
  1
ACDBDICTIONARYWDFLT
  2
AcDbDictionaryWithDefault
  3
ObjectDBX Classes
 90
        0
280
     0
281
     0
  0
CLASS
  1
XRECORD
  2
AcDbXrecord
  3
AutoCAD 2000
 90
        0
280
     0
281
     0
  0
CLASS
  1
LWPOLYLINE
  2
AcDbPolyline
  3
AutoCAD 2000
 90
        0
280
     0
281
     1
  0
CLASS
  1
HATCH
  2
AcDbHatch
  3
AutoCAD 2000
 90
        0
280
     0
281
     1
  0
CLASS
  1
ACDBPLACEHOLDER
  2
AcDbPlaceHolder
  3
ObjectDBX Classes
 90
        0
280
     0
281
     0
  0
CLASS
  1
LAYOUT
  2
AcDbLayout
  3
ObjectDBX Classes
 90
        0
280
     0
281
     0
  0
ENDSEC
  0
SECTION
  2
TABLES
  0
TABLE
  2
VPORT
  5
C20
330
0
100
AcDbSymbolTable
 70
     2
  0
VPORT
  5
C41
102
{ACAD_XDICTIONARY
360
CD7
102
}
330
C20
100
AcDbSymbolTableRecord
100
AcDbViewportTableRecord
  2
*ACTIVE
 70
     0
 10
0.0
 20
0.0
 11
1.0
 21
1.0
 12
445.148378
 22
-164.616457
 13
0.0
 23
0.0
 14
10.0
 24
10.0
 15
10.0
 25
10.0
 16
0.0
 26
0.0
 36
1.0
 17
0.0
 27
0.0
 37
0.0
 40
944.049114
 41
0.0188091450882427
 42
50.0
 43
0.0
 44
0.0
 50
0.0
 51
0.0000000000007958
 71
     0
 72
   100
 73
     1
 74
     3
 75
     0
 76
     0
 77
     0
 78
     0
  0
ENDTAB
  0
TABLE
  2
LTYPE
  5
C1D
330
0
100
AcDbSymbolTable
 70
    25
  0
LTYPE
  5
C2C
330
C1D
100
AcDbSymbolTableRecord
100
AcDbLinetypeTableRecord
  2
BYBLOCK
 70
     0
  3

 72
    65
 73
     0
 40
0.0
  0
LTYPE
  5
C2D
330
C1D
100
AcDbSymbolTableRecord
100
AcDbLinetypeTableRecord
  2
BYLAYER
 70
     0
  3

 72
    65
 73
     0
 40
0.0
  0
LTYPE
  5
C2E
330
C1D
100
AcDbSymbolTableRecord
100
AcDbLinetypeTableRecord
  2
CONTINUOUS
 70
     0
  3
Solid line
 72
    65
 73
     0
 40
0.0
  0
LTYPE
  5
C49
330
C1D
100
AcDbSymbolTableRecord
100
AcDbLinetypeTableRecord
  2
CENTER
 70
     0
  3
Center ____ _ ____ _ ____ _ ____ _ ____ _ ____
 72
    65
 73
     4
 40
2.0
 49
1.25
 74
     0
 49
-0.25
 74
     0
 49
0.25
 74
     0
 49
-0.25
 74
     0
  0
LTYPE
  5
C4A
330
C1D
100
AcDbSymbolTableRecord
100
AcDbLinetypeTableRecord
  2
DASHDOT
 70
     0
  3
Dashdot __ . __ . __ . __ . __ . __ . __ . __
 72
    65
 73
     4
 40
1.0
 49
0.5
 74
     0
 49
-0.25
 74
     0
 49
0.0
 74
     0
 49
-0.25
 74
     0
  0
LTYPE
  5
C4B
330
C1D
100
AcDbSymbolTableRecord
100
AcDbLinetypeTableRecord
  2
DASHED
 70
     0
  3
Dashed __ __ __ __ __ __ __ __ __ __ __ __ __ _
 72
    65
 73
     2
 40
0.75
 49
0.5
 74
     0
 49
-0.25
 74
     0
  0
LTYPE
  5
C4C
330
C1D
100
AcDbSymbolTableRecord
100
AcDbLinetypeTableRecord
  2
HIDDEN
 70
     0
  3
Hidden __ __ __ __ __ __ __ __ __ __ __ __ __ __
 72
    65
 73
     2
 40
0.375
 49
0.25
 74
     0
 49
-0.125
 74
     0
  0
LTYPE
  5
C4D
330
C1D
100
AcDbSymbolTableRecord
100
AcDbLinetypeTableRecord
  2
HIDDEN2
 70
     0
  3
Hidden2 _ _ _ _ _ _ _ _ _ _ _ _ _ _ _ _ _ 
 72
    65
 73
     2
 40
0.1875
 49
0.125
 74
     0
 49
-0.0625
 74
     0
  0
LTYPE
  5
C4E
330
C1D
100
AcDbSymbolTableRecord
100
AcDbLinetypeTableRecord
  2
BORDER
 70
     0
  3
Border __ __ . __ __ . __ __ . __ __ . __ __ .
 72
    65
 73
     6
 40
1.75
 49
0.5
 74
     0
 49
-0.25
 74
     0
 49
0.5
 74
     0
 49
-0.25
 74
     0
 49
0.0
 74
     0
 49
-0.25
 74
     0
  0
LTYPE
  5
C4F
330
C1D
100
AcDbSymbolTableRecord
100
AcDbLinetypeTableRecord
  2
BORDER2
 70
     0
  3
Border2 __.__.__.__.__.__.__.__.__.__.__.
 72
    65
 73
     6
 40
0.875
 49
0.25
 74
     0
 49
-0.125
 74
     0
 49
0.25
 74
     0
 49
-0.125
 74
     0
 49
0.0
 74
     0
 49
-0.125
 74
     0
  0
LTYPE
  5
C50
330
C1D
100
AcDbSymbolTableRecord
100
AcDbLinetypeTableRecord
  2
BORDERX2
 70
     0
  3
Borderx2  ____  ____  .  ____  ____  .  ___
 72
    65
 73
     6
 40
3.5
 49
1.0
 74
     0
 49
-0.5
 74
     0
 49
1.0
 74
     0
 49
-0.5
 74
     0
 49
0.0
 74
     0
 49
-0.5
 74
     0
  0
LTYPE
  5
C51
330
C1D
100
AcDbSymbolTableRecord
100
AcDbLinetypeTableRecord
  2
CENTER2
 70
     0
  3
Center2  ___ _ ___ _ ___ _ ___ _ ___ _ ___
 72
    65
 73
     4
 40
1.125
 49
0.75
 74
     0
 49
-0.125
 74
     0
 49
0.125
 74
     0
 49
-0.125
 74
     0
  0
LTYPE
  5
C52
330
C1D
100
AcDbSymbolTableRecord
100
AcDbLinetypeTableRecord
  2
CENTERX2
 70
     0
  3
Centerx2  ________  __  ________  __  _____
 72
    65
 73
     4
 40
4.0
 49
2.5
 74
     0
 49
-0.5
 74
     0
 49
0.5
 74
     0
 49
-0.5
 74
     0
  0
LTYPE
  5
C53
330
C1D
100
AcDbSymbolTableRecord
100
AcDbLinetypeTableRecord
  2
DASHDOT2
 70
     0
  3
Dashdot2  _._._._._._._._._._._._._._._.
 72
    65
 73
     4
 40
0.5
 49
0.25
 74
     0
 49
-0.125
 74
     0
 49
0.0
 74
     0
 49
-0.125
 74
     0
  0
LTYPE
  5
C54
330
C1D
100
AcDbSymbolTableRecord
100
AcDbLinetypeTableRecord
  2
DASHDOTX2
 70
     0
  3
Dashdotx2 ____  .  ____  .  ____  .  ___
 72
    65
 73
     4
 40
2.0
 49
1.0
 74
     0
 49
-0.5
 74
     0
 49
0.0
 74
     0
 49
-0.5
 74
     0
  0
LTYPE
  5
C55
330
C1D
100
AcDbSymbolTableRecord
100
AcDbLinetypeTableRecord
  2
DASHED2
 70
     0
  3
Dashed2 _ _ _ _ _ _ _ _ _ _ _ _ _ _ _ _ _ 
 72
    65
 73
     2
 40
0.375
 49
0.25
 74
     0
 49
-0.125
 74
     0
  0
LTYPE
  5
C56
330
C1D
100
AcDbSymbolTableRecord
100
AcDbLinetypeTableRecord
  2
DASHEDX2
 70
     0
  3
Dashedx2 ____  ____  ____  ____  ____  ___
 72
    65
 73
     2
 40
1.5
 49
1.0
 74
     0
 49
-0.5
 74
     0
  0
LTYPE
  5
C57
330
C1D
100
AcDbSymbolTableRecord
100
AcDbLinetypeTableRecord
  2
DIVIDE
 70
     0
  3
Divide ____ . . ____ . . ____ . . ____ . . ____
 72
    65
 73
     6
 40
1.25
 49
0.5
 74
     0
 49
-0.25
 74
     0
 49
0.0
 74
     0
 49
-0.25
 74
     0
 49
0.0
 74
     0
 49
-0.25
 74
     0
  0
LTYPE
  5
C58
330
C1D
100
AcDbSymbolTableRecord
100
AcDbLinetypeTableRecord
  2
DIVIDE2
 70
     0
  3
Divide2 __..__..__..__..__..__..__..__.._
 72
    65
 73
     6
 40
0.625
 49
0.25
 74
     0
 49
-0.125
 74
     0
 49
0.0
 74
     0
 49
-0.125
 74
     0
 49
0.0
 74
     0
 49
-0.125
 74
     0
  0
LTYPE
  5
C59
330
C1D
100
AcDbSymbolTableRecord
100
AcDbLinetypeTableRecord
  2
DIVIDEX2
 70
     0
  3
Dividex2 ________  .  .  ________  .  .  _
 72
    65
 73
     6
 40
2.5
 49
1.0
 74
     0
 49
-0.5
 74
     0
 49
0.0
 74
     0
 49
-0.5
 74
     0
 49
0.0
 74
     0
 49
-0.5
 74
     0
  0
LTYPE
  5
C5A
330
C1D
100
AcDbSymbolTableRecord
100
AcDbLinetypeTableRecord
  2
DOT
 70
     0
  3
Dot . . . . . . . . . . . . . . . . . . . . . . . .
 72
    65
 73
     2
 40
0.25
 49
0.0
 74
     0
 49
-0.25
 74
     0
  0
LTYPE
  5
C5B
330
C1D
100
AcDbSymbolTableRecord
100
AcDbLinetypeTableRecord
  2
DOT2
 70
     0
  3
Dot2 ........................................
 72
    65
 73
     2
 40
0.125
 49
0.0
 74
     0
 49
-0.125
 74
     0
  0
LTYPE
  5
C5C
330
C1D
100
AcDbSymbolTableRecord
100
AcDbLinetypeTableRecord
  2
DOTX2
 70
     0
  3
Dotx2 .  .  .  .  .  .  .  .  .  .  .  .  .  .
 72
    65
 73
     2
 40
0.5
 49
0.0
 74
     0
 49
-0.5
 74
     0
  0
LTYPE
  5
C5D
330
C1D
100
AcDbSymbolTableRecord
100
AcDbLinetypeTableRecord
  2
HIDDENX2
 70
     0
  3
Hiddenx2 ____ ____ ____ ____ ____ ____ ____ 
 72
    65
 73
     2
 40
0.75
 49
0.5
 74
     0
 49
-0.25
 74
     0
  0
LTYPE
  5
C5E
330
C1D
100
AcDbSymbolTableRecord
100
AcDbLinetypeTableRecord
  2
PHANTOM
 70
     0
  3
Phantom ______  __  __  ______  __  __  ______ 
 72
    65
 73
     6
 40
2.5
 49
1.25
 74
     0
 49
-0.25
 74
     0
 49
0.25
 74
     0
 49
-0.25
 74
     0
 49
0.25
 74
     0
 49
-0.25
 74
     0
  0
LTYPE
  5
C5F
330
C1D
100
AcDbSymbolTableRecord
100
AcDbLinetypeTableRecord
  2
PHANTOM2
 70
     0
  3
Phantom2 ___ _ _ ___ _ _ ___ _ _ ___ _ _
 72
    65
 73
     6
 40
1.25
 49
0.625
 74
     0
 49
-0.125
 74
     0
 49
0.125
 74
     0
 49
-0.125
 74
     0
 49
0.125
 74
     0
 49
-0.125
 74
     0
  0
LTYPE
  5
C60
330
C1D
100
AcDbSymbolTableRecord
100
AcDbLinetypeTableRecord
  2
PHANTOMX2
 70
     0
  3
Phantomx2 ____________    ____    ____   _
 72
    65
 73
     6
 40
5.0
 49
2.5
 74
     0
 49
-0.5
 74
     0
 49
0.5
 74
     0
 49
-0.5
 74
     0
 49
0.5
 74
     0
 49
-0.5
 74
     0
  0
ENDTAB
  0
TABLE
  2
LAYER
  5
C1A
330
0
100
AcDbSymbolTable
 70
     6
  0
LAYER
  5
C28
330
C1A
100
AcDbSymbolTableRecord
100
AcDbLayerTableRecord
  2
0
 70
     0
 62
     7
  6
CONTINUOUS
  0
LAYER
  5
9E
330
C1A
100
AcDbSymbolTableRecord
100
AcDbLayerTableRecord
  2
DEFPOINTS
 70
     0
 62
     7
  6
CONTINUOUS
  0
LAYER
  5
377
330
C1A
100
AcDbSymbolTableRecord
100
AcDbLayerTableRecord
  2
V0-OBRYS
 70
     0
 62
    90
  6
CONTINUOUS
  0
LAYER
  5
378
330
C1A
100
AcDbSymbolTableRecord
100
AcDbLayerTableRecord
  2
V0-VYPLNE
 70
     0
 62
    63
  6
DASHDOT
  0
LAYER
  5
37A
330
C1A
100
AcDbSymbolTableRecord
100
AcDbLayerTableRecord
  2
V0-NAZVY
 70
     0
 62
   210
  6
CONTINUOUS
  0
LAYER
  5
559
330
C1A
100
AcDbSymbolTableRecord
100
AcDbLayerTableRecord
  2
V0-ZBYTEK
 70
     0
 62
    51
  6
CONTINUOUS
  0
ENDTAB
  0
TABLE
  2
STYLE
  5
C1B
330
0
100
AcDbSymbolTable
 70
     5
  0
STYLE
  5
C29
330
C1B
100
AcDbSymbolTableRecord
100
AcDbTextStyleTableRecord
  2
STANDARD
 70
     0
 40
7.0
 41
1.0
 50
0.0
 71
     0
 42
0.2
  3
ISOCP.shx
  4

1001
ACAD
1000
ISOCP.shx
1071
        0
  0
STYLE
  5
331
330
C1B
100
AcDbSymbolTableRecord
100
AcDbTextStyleTableRecord
  2
ED30
 70
     0
 40
30.0
 41
1.0
 50
0.0
 71
     0
 42
0.2
  3
ISOCP.shx
  4

1001
ACAD
1000
ISOCP.shx
1071
        0
  0
STYLE
  5
5D2
330
C1B
100
AcDbSymbolTableRecord
100
AcDbTextStyleTableRecord
  2
ED20
 70
     0
 40
20.0
 41
1.0
 50
0.0
 71
     0
 42
0.2
  3
isocp.shx
  4

1001
ACAD
1000
isocp.shx
1071
        0
  0
STYLE
  5
64F
330
C1B
100
AcDbSymbolTableRecord
100
AcDbTextStyleTableRecord
  2
ED40
 70
     0
 40
40.0
 41
1.0
 50
0.0
 71
     0
 42
0.2
  3
isocp.shx
  4

1001
ACAD
1000
isocp.shx
1071
        0
  0
STYLE
  5
650
330
C1B
100
AcDbSymbolTableRecord
100
AcDbTextStyleTableRecord
  2
ED10
 70
     0
 40
10.0
 41
1.0
 50
0.0
 71
     0
 42
0.2
  3
isocp.shx
  4

1001
ACAD
1000
isocp.shx
1071
        0
  0
ENDTAB
  0
TABLE
  2
VIEW
  5
C1E
330
0
100
AcDbSymbolTable
 70
     0
  0
ENDTAB
  0
TABLE
  2
UCS
  5
C1F
330
0
100
AcDbSymbolTable
 70
     0
  0
ENDTAB
  0
TABLE
  2
APPID
  5
C21
330
0
100
AcDbSymbolTable
 70
     6
  0
APPID
  5
C2A
330
C21
100
AcDbSymbolTableRecord
100
AcDbRegAppTableRecord
  2
ACAD
 70
     0
  0
APPID
  5
C42
330
C21
100
AcDbSymbolTableRecord
100
AcDbRegAppTableRecord
  2
VD_INVISIBLE_NOT_FOR_READ
 70
     0
  0
APPID
  5
C43
330
C21
100
AcDbSymbolTableRecord
100
AcDbRegAppTableRecord
  2
VD_TEMPHATCH
 70
     0
  0
APPID
  5
C44
330
C21
100
AcDbSymbolTableRecord
100
AcDbRegAppTableRecord
  2
VDEXTRAPARAM
 70
     0
  0
APPID
  5
C45
330
C21
100
AcDbSymbolTableRecord
100
AcDbRegAppTableRecord
  2
PE_URL
 70
     0
  0
APPID
  5
C46
330
C21
100
AcDbSymbolTableRecord
100
AcDbRegAppTableRecord
  2
VD_UNKNOWN
 70
     0
  0
ENDTAB
  0
TABLE
  2
DIMSTYLE
  5
C22
330
0
100
AcDbSymbolTable
 70
     5
  0
DIMSTYLE
105
C3F
330
C22
100
AcDbSymbolTableRecord
100
AcDbDimStyleTableRecord
  2
STANDARD
 70
     0
  3

  4

  5
OPEN
  6

  7

 40
1.0
 41
15.0
 42
0.625
 43
0.38
 44
1.25
 45
0.0
 46
0.0
 47
0.0
 48
0.0
140
15.0
141
0.09
142
0.0
143
25.4
144
1.0
145
0.0
146
1.0
147
3.0
 71
     0
 72
     0
 73
     0
 74
     0
 75
     0
 76
     0
 77
     1
 78
     0
170
     0
171
     2
172
     1
173
     0
174
     1
175
     0
176
     0
177
     0
178
     0
270
     2
271
     0
272
     4
273
     2
274
     2
340
331
275
     0
280
     0
281
     0
282
     0
283
     1
284
     0
285
     0
286
     0
287
     3
288
     1
  0
DIMSTYLE
105
397
330
C22
100
AcDbSymbolTableRecord
100
AcDbDimStyleTableRecord
  2
ED40
 70
     0
  3

  4

  5
OPEN
  6

  7

 40
1.0
 41
35.0
 42
1.0
 43
0.38
 44
1.25
 45
0.0
 46
0.0
 47
0.0
 48
0.0
140
40.0
141
0.09
142
0.0
143
25.4
144
1.0
145
0.0
146
1.0
147
3.0
 71
     0
 72
     0
 73
     0
 74
     0
 75
     0
 76
     0
 77
     1
 78
     0
170
     0
171
     2
172
     1
173
     0
174
     1
175
     0
176
     0
177
     0
178
     0
270
     2
271
     0
272
     4
273
     2
274
     2
340
64F
275
     0
280
     0
281
     0
282
     0
283
     1
284
     0
285
     0
286
     0
287
     3
288
     1
  0
DIMSTYLE
105
656
330
C22
100
AcDbSymbolTableRecord
100
AcDbDimStyleTableRecord
  2
ED30
 70
     0
  3

  4

  5
OPEN
  6

  7

 40
1.0
 41
25.0
 42
1.0
 43
0.38
 44
1.25
 45
0.0
 46
0.0
 47
0.0
 48
0.0
140
30.0
141
0.09
142
0.0
143
25.4
144
1.0
145
0.0
146
1.0
147
2.0
 71
     0
 72
     0
 73
     0
 74
     0
 75
     0
 76
     0
 77
     1
 78
     0
170
     0
171
     2
172
     1
173
     0
174
     1
175
     0
176
     0
177
     0
178
     0
270
     2
271
     0
272
     4
273
     2
274
     2
340
331
275
     0
280
     0
281
     0
282
     0
283
     1
284
     0
285
     0
286
     0
287
     3
288
     1
  0
DIMSTYLE
105
657
102
{ACAD_REACTORS
330
715
330
724
330
731
330
74B
330
758
330
9B6
102
}
330
C22
100
AcDbSymbolTableRecord
100
AcDbDimStyleTableRecord
  2
ED20
 70
     0
  3

  4

  5
OPEN
  6

  7

 40
1.0
 41
20.0
 42
1.0
 43
0.38
 44
1.25
 45
0.0
 46
0.0
 47
0.0
 48
0.0
140
20.0
141
0.09
142
0.0
143
25.4
144
1.0
145
0.0
146
1.0
147
1.5
 71
     0
 72
     0
 73
     0
 74
     0
 75
     0
 76
     0
 77
     1
 78
     0
170
     0
171
     2
172
     1
173
     0
174
     1
175
     0
176
     0
177
     0
178
     0
270
     2
271
     0
272
     4
273
     2
274
     2
340
5D2
275
     0
280
     0
281
     0
282
     0
283
     1
284
     0
285
     0
286
     0
287
     3
288
     1
  0
DIMSTYLE
105
658
330
C22
100
AcDbSymbolTableRecord
100
AcDbDimStyleTableRecord
  2
ED10
 70
     0
  3

  4

  5
OPEN
  6

  7

 40
1.0
 41
15.0
 42
1.0
 43
0.38
 44
1.25
 45
0.0
 46
0.0
 47
0.0
 48
0.0
140
10.0
141
0.09
142
0.0
143
25.4
144
1.0
145
0.0
146
1.0
147
1.5
 71
     0
 72
     0
 73
     0
 74
     0
 75
     0
 76
     0
 77
     1
 78
     0
170
     0
171
     2
172
     1
173
     0
174
     1
175
     0
176
     0
177
     0
178
     0
270
     2
271
     0
272
     4
273
     2
274
     2
340
5D2
275
     0
280
     0
281
     0
282
     0
283
     1
284
     0
285
     0
286
     0
287
     3
288
     1
  0
ENDTAB
  0
TABLE
  2
BLOCK_RECORD
  5
C19
330
0
100
AcDbSymbolTable
 70
    10
  0
BLOCK_RECORD
  5
C37
330
C19
100
AcDbSymbolTableRecord
100
AcDbBlockTableRecord
  2
*MODEL_SPACE
  0
BLOCK_RECORD
  5
C33
330
C19
100
AcDbSymbolTableRecord
100
AcDbBlockTableRecord
  2
*PAPER_SPACE
  0
BLOCK_RECORD
  5
90
330
C19
100
AcDbSymbolTableRecord
100
AcDbBlockTableRecord
  2
_OPEN
  0
BLOCK_RECORD
  5
C15
330
C19
100
AcDbSymbolTableRecord
100
AcDbBlockTableRecord
  2
VDDIM_DEFAULT
  0
BLOCK_RECORD
  5
C17
330
C19
100
AcDbSymbolTableRecord
100
AcDbBlockTableRecord
  2
VDDIM_NONE
  0
BLOCK_RECORD
  5
C68
330
C19
100
AcDbSymbolTableRecord
100
AcDbBlockTableRecord
  2
*D4
  0
BLOCK_RECORD
  5
C76
330
C19
100
AcDbSymbolTableRecord
100
AcDbBlockTableRecord
  2
*D5
  0
BLOCK_RECORD
  5
C84
330
C19
100
AcDbSymbolTableRecord
100
AcDbBlockTableRecord
  2
*D6
  0
BLOCK_RECORD
  5
C91
330
C19
100
AcDbSymbolTableRecord
100
AcDbBlockTableRecord
  2
*D7
  0
BLOCK_RECORD
  5
C9D
330
C19
100
AcDbSymbolTableRecord
100
AcDbBlockTableRecord
  2
*D8
  0
BLOCK_RECORD
  5
CA9
330
C19
100
AcDbSymbolTableRecord
100
AcDbBlockTableRecord
  2
*D9
  0
ENDTAB
  0
ENDSEC
  0
SECTION
  2
BLOCKS
  0
BLOCK
  5
C38
330
C37
100
AcDbEntity
  8
0
100
AcDbBlockBegin
  2
*MODEL_SPACE
 70
     0
 71
     0
 10
0.0
 20
0.0
 30
0.0
  3
*MODEL_SPACE
  1

  0
ENDBLK
  5
C39
330
C37
100
AcDbEntity
  8
0
100
AcDbBlockEnd
  0
BLOCK
  5
C34
330
C33
100
AcDbEntity
 67
     1
  8
0
100
AcDbBlockBegin
  2
*PAPER_SPACE
 70
     0
 71
     0
 10
0.0
 20
0.0
 30
0.0
  3
*PAPER_SPACE
  1

  0
ENDBLK
  5
C35
330
C33
100
AcDbEntity
 67
     1
  8
0
100
AcDbBlockEnd
  0
BLOCK
  5
C61
330
90
100
AcDbEntity
  8
0
100
AcDbBlockBegin
  2
_OPEN
 70
     0
 71
     0
 10
0.0
 20
0.0
 30
0.0
  3
_OPEN
  1

  0
LINE
  5
92
330
90
100
AcDbEntity
  8
0
  6
BYBLOCK
 62
     0
100
AcDbLine
 10
-1.0
 20
0.166667
 30
0.0
 11
0.0
 21
0.0
 31
0.0
  0
LINE
  5
93
330
90
100
AcDbEntity
  8
0
  6
BYBLOCK
 62
     0
100
AcDbLine
 10
0.0
 20
0.0
 30
0.0
 11
-1.0
 21
-0.166667
 31
0.0
  0
LINE
  5
94
330
90
100
AcDbEntity
  8
0
  6
BYBLOCK
 62
     0
100
AcDbLine
 10
0.0
 20
0.0
 30
0.0
 11
-1.0
 21
0.0
 31
0.0
  0
ENDBLK
  5
C62
330
90
100
AcDbEntity
  8
0
100
AcDbBlockEnd
  0
BLOCK
  5
C63
330
C15
100
AcDbEntity
  8
0
100
AcDbBlockBegin
  2
VDDIM_DEFAULT
 70
     0
 71
     0
 10
0.0
 20
0.0
 30
0.0
  3
VDDIM_DEFAULT
  1

  0
LWPOLYLINE
  5
C16
330
C15
100
AcDbEntity
  8
0
  6
CONTINUOUS
 62
     0
100
AcDbPolyline
 90
        4
 70
     0
 43
0.0
 10
0.0
 20
0.0
 10
-1.0
 20
-0.1665
 10
-1.0
 20
0.1665
 10
0.0
 20
0.0
1001
VDEXTRAPARAM
1071
        1
1071
        0
1071
        0
1040
1.0
1000

1000

1040
0.0
1040
0.0
  0
HATCH
  5
C67
330
C15
100
AcDbEntity
  8
0
  6
CONTINUOUS
 62
     0
100
AcDbHatch
 10
0.0
 20
0.0
 30
0.0
210
0.0
220
0.0
230
1.0
  2
SOLID
 70
     1
 71
     0
 91
        1
 92
        2
 72
     0
 73
     1
 93
        3
 10
0.0
 20
0.0
 10
-1.0
 20
-0.1665
 10
-1.0
 20
0.1665
 97
        0
 75
     0
 76
     1
 98
        1
 10
0.0
 20
0.0
1001
VDEXTRAPARAM
1071
        1
1071
        0
1071
        0
1040
1.0
1000

1000

1040
0.0
1040
0.0
1001
VD_TEMPHATCH
1000
VD_TEMPHATCH
  0
ENDBLK
  5
C64
330
C15
100
AcDbEntity
  8
0
100
AcDbBlockEnd
  0
BLOCK
  5
C65
330
C17
100
AcDbEntity
  8
0
100
AcDbBlockBegin
  2
VDDIM_NONE
 70
     0
 71
     0
 10
0.0
 20
0.0
 30
0.0
  3
VDDIM_NONE
  1

  0
ENDBLK
  5
C66
330
C17
100
AcDbEntity
  8
0
100
AcDbBlockEnd
  0
BLOCK
  5
C74
330
C68
100
AcDbEntity
  8
0
100
AcDbBlockBegin
  2
*D4
 70
     1
 71
     0
 10
0.0
 20
0.0
 30
0.0
  3
*D4
  1

  0
LINE
  5
C69
330
C68
100
AcDbEntity
  8
V0-VYPLNE
 62
     0
100
AcDbLine
 10
150.0
 20
-81.0
 30
0.0
 11
150.0
 21
-202.0149600000004
 31
0.0
  0
LINE
  5
C6A
330
C68
100
AcDbEntity
  8
V0-VYPLNE
 62
     0
100
AcDbLine
 10
180.0
 20
-81.0
 30
0.0
 11
180.0
 21
-202.0149600000004
 31
0.0
  0
LINE
  5
C6B
330
C68
100
AcDbEntity
  8
V0-VYPLNE
 62
     0
100
AcDbLine
 10
130.0
 20
-200.7649600000004
 30
0.0
 11
110.0
 21
-200.7649600000004
 31
0.0
  0
LINE
  5
C6C
330
C68
100
AcDbEntity
  8
V0-VYPLNE
 62
     0
100
AcDbLine
 10
200.0
 20
-200.7649600000004
 30
0.0
 11
220.0
 21
-200.7649600000004
 31
0.0
  0
LINE
  5
C6D
330
C68
100
AcDbEntity
  8
V0-VYPLNE
 62
     0
100
AcDbLine
 10
150.0
 20
-200.7649600000004
 30
0.0
 11
180.0
 21
-200.7649600000004
 31
0.0
  0
INSERT
  5
C6E
330
C68
100
AcDbEntity
  8
V0-VYPLNE
 62
     0
100
AcDbBlockReference
  2
_OPEN
 10
150.0
 20
-200.7649600000004
 30
0.0
 41
20.0
 42
20.0
 43
20.0
  0
INSERT
  5
C6F
330
C68
100
AcDbEntity
  8
V0-VYPLNE
 62
     0
100
AcDbBlockReference
  2
_OPEN
 10
180.0
 20
-200.7649600000004
 30
0.0
 41
20.0
 42
20.0
 43
20.0
 50
180.0
  0
MTEXT
  5
C70
330
C68
100
AcDbEntity
  8
V0-VYPLNE
 62
     0
100
AcDbMText
 10
165.0
 20
-200.76496
 30
0.0
 40
20.0
 41
0.0
 71
     5
 72
     1
  1
\A1;30
  7
ED20
  0
POINT
  5
C71
330
C68
100
AcDbEntity
  8
DEFPOINTS
 62
     0
100
AcDbPoint
 10
150.0
 20
-80.0
 30
0.0
  0
POINT
  5
C72
330
C68
100
AcDbEntity
  8
DEFPOINTS
 62
     0
100
AcDbPoint
 10
180.0
 20
-80.0
 30
0.0
  0
POINT
  5
C73
330
C68
100
AcDbEntity
  8
DEFPOINTS
 62
     0
100
AcDbPoint
 10
180.0
 20
-200.7649600000004
 30
0.0
  0
ENDBLK
  5
C75
330
C68
100
AcDbEntity
  8
0
100
AcDbBlockEnd
  0
BLOCK
  5
C82
330
C76
100
AcDbEntity
  8
0
100
AcDbBlockBegin
  2
*D5
 70
     1
 71
     0
 10
0.0
 20
0.0
 30
0.0
  3
*D5
  1

  0
LINE
  5
C77
330
C76
100
AcDbEntity
  8
V0-VYPLNE
 62
     0
100
AcDbLine
 10
345.0
 20
-81.0
 30
0.0
 11
345.0
 21
-201.0149600000004
 31
0.0
  0
LINE
  5
C78
330
C76
100
AcDbEntity
  8
V0-VYPLNE
 62
     0
100
AcDbLine
 10
365.0
 20
-81.0
 30
0.0
 11
365.0
 21
-201.0149600000004
 31
0.0
  0
LINE
  5
C79
330
C76
100
AcDbEntity
  8
V0-VYPLNE
 62
     0
100
AcDbLine
 10
325.0
 20
-199.7649600000004
 30
0.0
 11
305.0
 21
-199.7649600000004
 31
0.0
  0
LINE
  5
C7A
330
C76
100
AcDbEntity
  8
V0-VYPLNE
 62
     0
100
AcDbLine
 10
385.0
 20
-199.7649600000004
 30
0.0
 11
440.3809523809524
 21
-199.7649600000004
 31
0.0
  0
LINE
  5
C7B
330
C76
100
AcDbEntity
  8
V0-VYPLNE
 62
     0
100
AcDbLine
 10
345.0
 20
-199.7649600000004
 30
0.0
 11
365.0
 21
-199.7649600000004
 31
0.0
  0
INSERT
  5
C7C
330
C76
100
AcDbEntity
  8
V0-VYPLNE
 62
     0
100
AcDbBlockReference
  2
_OPEN
 10
345.0
 20
-199.7649600000004
 30
0.0
 41
20.0
 42
20.0
 43
20.0
  0
INSERT
  5
C7D
330
C76
100
AcDbEntity
  8
V0-VYPLNE
 62
     0
100
AcDbBlockReference
  2
_OPEN
 10
365.0
 20
-199.7649600000004
 30
0.0
 41
20.0
 42
20.0
 43
20.0
 50
180.0
  0
MTEXT
  5
C7E
330
C76
100
AcDbEntity
  8
V0-VYPLNE
 62
     0
100
AcDbMText
 10
422.6904761904762
 20
-188.2649600000004
 30
0.0
 40
20.0
 41
0.0
 71
     5
 72
     1
  1
\A1;20
  7
ED20
  0
POINT
  5
C7F
330
C76
100
AcDbEntity
  8
DEFPOINTS
 62
     0
100
AcDbPoint
 10
345.0
 20
-80.0
 30
0.0
  0
POINT
  5
C80
330
C76
100
AcDbEntity
  8
DEFPOINTS
 62
     0
100
AcDbPoint
 10
365.0
 20
-80.0
 30
0.0
  0
POINT
  5
C81
330
C76
100
AcDbEntity
  8
DEFPOINTS
 62
     0
100
AcDbPoint
 10
365.0
 20
-199.7649600000004
 30
0.0
  0
ENDBLK
  5
C83
330
C76
100
AcDbEntity
  8
0
100
AcDbBlockEnd
  0
BLOCK
  5
C8F
330
C84
100
AcDbEntity
  8
0
100
AcDbBlockBegin
  2
*D6
 70
     1
 71
     0
 10
0.0
 20
0.0
 30
0.0
  3
*D6
  1

  0
LINE
  5
C85
330
C84
100
AcDbEntity
  8
V0-VYPLNE
 62
     0
100
AcDbLine
 10
150.0
 20
-81.0
 30
0.0
 11
150.0
 21
-227.517645999993
 31
0.0
  0
LINE
  5
C86
330
C84
100
AcDbEntity
  8
V0-VYPLNE
 62
     0
100
AcDbLine
 10
365.0
 20
-81.0
 30
0.0
 11
365.0
 21
-227.517645999993
 31
0.0
  0
LINE
  5
C87
330
C84
100
AcDbEntity
  8
V0-VYPLNE
 62
     0
100
AcDbLine
 10
170.0
 20
-226.267645999993
 30
0.0
 11
222.7857142857143
 21
-226.267645999993
 31
0.0
  0
LINE
  5
C88
330
C84
100
AcDbEntity
  8
V0-VYPLNE
 62
     0
100
AcDbLine
 10
345.0
 20
-226.267645999993
 30
0.0
 11
277.2142857142857
 21
-226.267645999993
 31
0.0
  0
INSERT
  5
C89
330
C84
100
AcDbEntity
  8
V0-VYPLNE
 62
     0
100
AcDbBlockReference
  2
_OPEN
 10
150.0
 20
-226.267645999993
 30
0.0
 41
20.0
 42
20.0
 43
20.0
 50
180.0
  0
INSERT
  5
C8A
330
C84
100
AcDbEntity
  8
V0-VYPLNE
 62
     0
100
AcDbBlockReference
  2
_OPEN
 10
365.0
 20
-226.267645999993
 30
0.0
 41
20.0
 42
20.0
 43
20.0
  0
MTEXT
  5
C8B
330
C84
100
AcDbEntity
  8
V0-VYPLNE
 62
     0
100
AcDbMText
 10
250.0
 20
-226.267646
 30
0.0
 40
20.0
 41
0.0
 71
     5
 72
     1
  1
\A1;215
  7
ED20
  0
POINT
  5
C8C
330
C84
100
AcDbEntity
  8
DEFPOINTS
 62
     0
100
AcDbPoint
 10
150.0
 20
-80.0
 30
0.0
  0
POINT
  5
C8D
330
C84
100
AcDbEntity
  8
DEFPOINTS
 62
     0
100
AcDbPoint
 10
365.0
 20
-80.0
 30
0.0
  0
POINT
  5
C8E
330
C84
100
AcDbEntity
  8
DEFPOINTS
 62
     0
100
AcDbPoint
 10
365.0
 20
-226.267645999993
 30
0.0
  0
ENDBLK
  5
C90
330
C84
100
AcDbEntity
  8
0
100
AcDbBlockEnd
  0
BLOCK
  5
C9B
330
C91
100
AcDbEntity
  8
0
100
AcDbBlockBegin
  2
*D7
 70
     1
 71
     0
 10
0.0
 20
0.0
 30
0.0
  3
*D7
  1

  0
LINE
  5
C92
330
C91
100
AcDbEntity
  8
V0-VYPLNE
 62
     0
100
AcDbLine
 10
149.0
 20
80.0
 30
0.0
 11
115.2616610000005
 21
80.0
 31
0.0
  0
LINE
  5
C93
330
C91
100
AcDbEntity
  8
V0-VYPLNE
 62
     0
100
AcDbLine
 10
149.0
 20
-80.0
 30
0.0
 11
115.2616610000005
 21
-80.0
 31
0.0
  0
LINE
  5
C94
330
C91
100
AcDbEntity
  8
V0-VYPLNE
 62
     0
100
AcDbLine
 10
116.5116610000005
 20
60.0
 30
0.0
 11
116.5116610000005
 21
-59.99999999999999
 31
0.0
  0
INSERT
  5
C95
330
C91
100
AcDbEntity
  8
V0-VYPLNE
 62
     0
100
AcDbBlockReference
  2
_OPEN
 10
116.5116610000005
 20
80.0
 30
0.0
 41
20.0
 42
20.0
 43
20.0
 50
89.99999999999999
  0
INSERT
  5
C96
330
C91
100
AcDbEntity
  8
V0-VYPLNE
 62
     0
100
AcDbBlockReference
  2
_OPEN
 10
116.5116610000005
 20
-79.99999999999999
 30
0.0
 41
20.0
 42
20.0
 43
20.0
 50
270.0
  0
MTEXT
  5
C97
330
C91
100
AcDbEntity
  8
V0-VYPLNE
 62
     0
100
AcDbMText
 10
105.0116610000005
 20
0.0
 30
0.0
 40
20.0
 41
0.0
 71
     5
 72
     1
  1
%%c\A1;160
  7
ED20
 11
8.881784197001253E-17
 21
1.0
 31
0.0
  0
POINT
  5
C98
330
C91
100
AcDbEntity
  8
DEFPOINTS
 62
     0
100
AcDbPoint
 10
150.0
 20
80.0
 30
0.0
  0
POINT
  5
C99
330
C91
100
AcDbEntity
  8
DEFPOINTS
 62
     0
100
AcDbPoint
 10
150.0
 20
-80.0
 30
0.0
  0
POINT
  5
C9A
330
C91
100
AcDbEntity
  8
DEFPOINTS
 62
     0
100
AcDbPoint
 10
116.5116610000005
 20
-80.0
 30
0.0
  0
ENDBLK
  5
C9C
330
C91
100
AcDbEntity
  8
0
100
AcDbBlockEnd
  0
BLOCK
  5
CA7
330
C9D
100
AcDbEntity
  8
0
100
AcDbBlockBegin
  2
*D8
 70
     1
 71
     0
 10
0.0
 20
0.0
 30
0.0
  3
*D8
  1

  0
LINE
  5
C9E
330
C9D
100
AcDbEntity
  8
V0-VYPLNE
 62
     0
100
AcDbLine
 10
366.0
 20
80.0
 30
0.0
 11
404.8766969999997
 21
80.0
 31
0.0
  0
LINE
  5
C9F
330
C9D
100
AcDbEntity
  8
V0-VYPLNE
 62
     0
100
AcDbLine
 10
366.0
 20
-80.0
 30
0.0
 11
404.8766969999997
 21
-80.0
 31
0.0
  0
LINE
  5
CA0
330
C9D
100
AcDbEntity
  8
V0-VYPLNE
 62
     0
100
AcDbLine
 10
403.6266969999997
 20
60.0
 30
0.0
 11
403.6266969999997
 21
-60.0
 31
0.0
  0
INSERT
  5
CA1
330
C9D
100
AcDbEntity
  8
V0-VYPLNE
 62
     0
100
AcDbBlockReference
  2
_OPEN
 10
403.6266969999997
 20
80.0
 30
0.0
 41
20.0
 42
20.0
 43
20.0
 50
90.0
  0
INSERT
  5
CA2
330
C9D
100
AcDbEntity
  8
V0-VYPLNE
 62
     0
100
AcDbBlockReference
  2
_OPEN
 10
403.6266969999997
 20
-80.0
 30
0.0
 41
20.0
 42
20.0
 43
20.0
 50
270.0
  0
MTEXT
  5
CA3
330
C9D
100
AcDbEntity
  8
V0-VYPLNE
 62
     0
100
AcDbMText
 10
392.1266969999997
 20
0.0
 30
0.0
 40
20.0
 41
0.0
 71
     5
 72
     1
  1
%%c\A1;160
  7
ED20
 11
0.0
 21
1.0
 31
0.0
  0
POINT
  5
CA4
330
C9D
100
AcDbEntity
  8
DEFPOINTS
 62
     0
100
AcDbPoint
 10
365.0
 20
80.0
 30
0.0
  0
POINT
  5
CA5
330
C9D
100
AcDbEntity
  8
DEFPOINTS
 62
     0
100
AcDbPoint
 10
365.0
 20
-80.0
 30
0.0
  0
POINT
  5
CA6
330
C9D
100
AcDbEntity
  8
DEFPOINTS
 62
     0
100
AcDbPoint
 10
403.6266969999997
 20
-80.0
 30
0.0
  0
ENDBLK
  5
CA8
330
C9D
100
AcDbEntity
  8
0
100
AcDbBlockEnd
  0
BLOCK
  5
CB3
330
CA9
100
AcDbEntity
  8
0
100
AcDbBlockBegin
  2
*D9
 70
     1
 71
     0
 10
0.0
 20
0.0
 30
0.0
  3
*D9
  1

  0
LINE
  5
CAA
330
CA9
100
AcDbEntity
  8
V0-VYPLNE
 62
     0
100
AcDbLine
 10
212.612466
 20
167.0
 30
0.0
 11
75.14473499999988
 21
167.0000000000001
 31
0.0
  0
LINE
  5
CAB
330
CA9
100
AcDbEntity
  8
V0-VYPLNE
 62
     0
100
AcDbLine
 10
212.612466
 20
-167.0
 30
0.0
 11
75.14473499999986
 21
-167.0
 31
0.0
  0
LINE
  5
CAC
330
CA9
100
AcDbEntity
  8
V0-VYPLNE
 62
     0
100
AcDbLine
 10
76.39473499999987
 20
147.0000000000001
 30
0.0
 11
76.39473499999986
 21
-147.0
 31
0.0
  0
INSERT
  5
CAD
330
CA9
100
AcDbEntity
  8
V0-VYPLNE
 62
     0
100
AcDbBlockReference
  2
_OPEN
 10
76.39473499999987
 20
167.0000000000001
 30
0.0
 41
20.0
 42
20.0
 43
20.0
 50
90.0
  0
INSERT
  5
CAE
330
CA9
100
AcDbEntity
  8
V0-VYPLNE
 62
     0
100
AcDbBlockReference
  2
_OPEN
 10
76.39473499999986
 20
-167.0
 30
0.0
 41
20.0
 42
20.0
 43
20.0
 50
270.0
  0
MTEXT
  5
CAF
330
CA9
100
AcDbEntity
  8
V0-VYPLNE
 62
     0
100
AcDbMText
 10
64.89473499999986
 20
0.0
 30
0.0
 40
20.0
 41
0.0
 71
     5
 72
     1
  1
%%c\A1;334
  7
ED20
 11
4.254746920719162E-17
 21
1.0
 31
0.0
  0
POINT
  5
CB0
330
CA9
100
AcDbEntity
  8
DEFPOINTS
 62
     0
100
AcDbPoint
 10
213.612466
 20
167.0
 30
0.0
  0
POINT
  5
CB1
330
CA9
100
AcDbEntity
  8
DEFPOINTS
 62
     0
100
AcDbPoint
 10
213.612466
 20
-167.0
 30
0.0
  0
POINT
  5
CB2
330
CA9
100
AcDbEntity
  8
DEFPOINTS
 62
     0
100
AcDbPoint
 10
76.39473499999986
 20
-167.0
 30
0.0
  0
ENDBLK
  5
CB4
330
CA9
100
AcDbEntity
  8
0
100
AcDbBlockEnd
  0
ENDSEC
  0
SECTION
  2
ENTITIES
  0
LINE
  5
66F
330
C37
100
AcDbEntity
  8
V0-VYPLNE
 62
    63
100
AcDbLine
 10
150.0
 20
0.0
 30
0.0
 11
372.635079
 21
0.0
 31
0.0
  0
LINE
  5
670
330
C37
100
AcDbEntity
  8
V0-OBRYS
 62
    90
100
AcDbLine
 10
150.0
 20
0.0
 30
0.0
 11
150.0
 21
80.0
 31
0.0
  0
LINE
  5
671
330
C37
100
AcDbEntity
  8
V0-OBRYS
 62
    90
100
AcDbLine
 10
150.0
 20
80.0
 30
0.0
 11
180.0
 21
80.0
 31
0.0
  0
LINE
  5
672
330
C37
100
AcDbEntity
  8
V0-OBRYS
 62
    90
100
AcDbLine
 10
180.0
 20
80.0
 30
0.0
 11
180.0
 21
0.0
 31
0.0
  0
LINE
  5
673
330
C37
100
AcDbEntity
  8
V0-OBRYS
 62
    90
100
AcDbLine
 10
345.0
 20
0.0
 30
0.0
 11
345.0
 21
82.444174
 31
0.0
  0
LINE
  5
675
330
C37
100
AcDbEntity
  8
V0-OBRYS
 62
    90
100
AcDbLine
 10
365.0
 20
0.0
 30
0.0
 11
365.0
 21
80.0
 31
0.0
  0
LINE
  5
676
330
C37
100
AcDbEntity
  8
V0-OBRYS
 62
    90
100
AcDbLine
 10
365.0
 20
80.0
 30
0.0
 11
345.0
 21
80.0
 31
0.0
  0
LINE
  5
679
330
C37
100
AcDbEntity
  8
V0-OBRYS
 62
    90
100
AcDbLine
 10
213.612466
 20
167.0
 30
0.0
 11
213.612466
 21
0.0
 31
0.0
  0
LINE
  5
67A
330
C37
100
AcDbEntity
  8
V0-OBRYS
 62
    90
100
AcDbLine
 10
180.0
 20
80.0
 30
0.0
 11
180.0
 21
83.81948
 31
0.0
  0
LINE
  5
67B
330
C37
100
AcDbEntity
  8
V0-OBRYS
 62
    90
100
AcDbLine
 10
213.612466
 20
163.620908
 30
0.0
 11
210.635916
 21
163.620908
 31
0.0
  0
LINE
  5
67D
330
C37
100
AcDbEntity
  8
V0-OBRYS
 62
    90
100
AcDbLine
 10
185.0
 20
0.0
 30
0.0
 11
185.0
 21
85.81948
 31
0.0
  0
LINE
  5
67E
330
C37
100
AcDbEntity
  8
V0-OBRYS
 62
    90
100
AcDbLine
 10
180.0
 20
83.81948
 30
0.0
 11
183.0
 21
83.81948
 31
0.0
  0
ARC
  5
67F
330
C37
100
AcDbEntity
  8
V0-OBRYS
 62
    90
100
AcDbCircle
 10
183.0
 20
85.81948
 30
0.0
 40
2.0
100
AcDbArc
 50
270.0
 51
0.0
  0
LINE
  5
681
330
C37
100
AcDbEntity
  8
V0-OBRYS
 62
    90
100
AcDbLine
 10
185.0
 20
85.81948
 30
0.0
 11
195.785925
 21
155.346504
 31
0.0
  0
ARC
  5
683
330
C37
100
AcDbEntity
  8
V0-OBRYS
 62
    90
100
AcDbCircle
 10
210.144701
 20
147.039719
 30
0.0
 40
16.588464
100
AcDbArc
 50
88.303119
 51
149.94992
  0
LINE
  5
684
330
C37
100
AcDbEntity
  8
V0-OBRYS
 62
    90
100
AcDbLine
 10
265.753017
 20
167.0
 30
0.0
 11
265.753017
 21
0.0
 31
0.0
  0
LINE
  5
685
330
C37
100
AcDbEntity
  8
V0-OBRYS
 62
    90
100
AcDbLine
 10
277.122971
 20
164.742112
 30
0.0
 11
344.265632
 21
83.992778
 31
0.0
  0
LINE
  5
686
330
C37
100
AcDbEntity
  8
V0-OBRYS
 62
    90
100
AcDbLine
 10
213.612466
 20
167.0
 30
0.0
 11
270.794968
 21
166.999091
 31
0.0
  0
ARC
  5
687
330
C37
100
AcDbEntity
  8
V0-OBRYS
 62
    90
100
AcDbCircle
 10
343.0
 20
82.444174
 30
0.0
 40
2.0
100
AcDbArc
 50
0.0
 51
50.741799
  0
ARC
  5
688
330
C37
100
AcDbEntity
  8
V0-OBRYS
 62
    90
100
AcDbCircle
 10
183.0
 20
-85.81948
 30
0.0
 40
2.0
100
AcDbArc
 50
0.0
 51
90.0
  0
LINE
  5
689
330
C37
100
AcDbEntity
  8
V0-OBRYS
 62
    90
100
AcDbLine
 10
180.0
 20
-80.0
 30
0.0
 11
180.0
 21
0.0
 31
0.0
  0
LINE
  5
68A
330
C37
100
AcDbEntity
  8
V0-OBRYS
 62
    90
100
AcDbLine
 10
150.0
 20
0.0
 30
0.0
 11
150.0
 21
-80.0
 31
0.0
  0
LINE
  5
68B
330
C37
100
AcDbEntity
  8
V0-OBRYS
 62
    90
100
AcDbLine
 10
150.0
 20
-80.0
 30
0.0
 11
180.0
 21
-80.0
 31
0.0
  0
LINE
  5
68C
330
C37
100
AcDbEntity
  8
V0-OBRYS
 62
    90
100
AcDbLine
 10
180.0
 20
-80.0
 30
0.0
 11
180.0
 21
-83.81948
 31
0.0
  0
LINE
  5
68D
330
C37
100
AcDbEntity
  8
V0-OBRYS
 62
    90
100
AcDbLine
 10
180.0
 20
-83.81948
 30
0.0
 11
183.0
 21
-83.81948
 31
0.0
  0
LINE
  5
68E
330
C37
100
AcDbEntity
  8
V0-OBRYS
 62
    90
100
AcDbLine
 10
345.0
 20
0.0
 30
0.0
 11
345.0
 21
-82.444174
 31
0.0
  0
LINE
  5
68F
330
C37
100
AcDbEntity
  8
V0-OBRYS
 62
    90
100
AcDbLine
 10
213.612466
 20
-167.0
 30
0.0
 11
213.612466
 21
0.0
 31
0.0
  0
LINE
  5
691
330
C37
100
AcDbEntity
  8
V0-OBRYS
 62
    90
100
AcDbLine
 10
265.753017
 20
-167.0
 30
0.0
 11
265.753017
 21
0.0
 31
0.0
  0
LINE
  5
692
330
C37
100
AcDbEntity
  8
V0-OBRYS
 62
    90
100
AcDbLine
 10
185.0
 20
0.0
 30
0.0
 11
185.0
 21
-85.81948
 31
0.0
  0
LINE
  5
693
330
C37
100
AcDbEntity
  8
V0-OBRYS
 62
    90
100
AcDbLine
 10
365.0
 20
0.0
 30
0.0
 11
365.0
 21
-80.0
 31
0.0
  0
LINE
  5
694
330
C37
100
AcDbEntity
  8
V0-OBRYS
 62
    90
100
AcDbLine
 10
277.122971
 20
-164.742112
 30
0.0
 11
344.265632
 21
-83.992778
 31
0.0
  0
ARC
  5
695
330
C37
100
AcDbEntity
  8
V0-OBRYS
 62
    90
100
AcDbCircle
 10
210.144701
 20
-147.039719
 30
0.0
 40
16.588464
100
AcDbArc
 50
210.05008
 51
271.696881
  0
LINE
  5
696
330
C37
100
AcDbEntity
  8
V0-OBRYS
 62
    90
100
AcDbLine
 10
185.0
 20
-85.81948
 30
0.0
 11
195.785925
 21
-155.346504
 31
0.0
  0
LINE
  5
697
330
C37
100
AcDbEntity
  8
V0-OBRYS
 62
    90
100
AcDbLine
 10
213.612466
 20
-167.0
 30
0.0
 11
270.794968
 21
-166.999091
 31
0.0
  0
LINE
  5
698
330
C37
100
AcDbEntity
  8
V0-OBRYS
 62
    90
100
AcDbLine
 10
213.612466
 20
-163.620908
 30
0.0
 11
210.635916
 21
-163.620908
 31
0.0
  0
LINE
  5
699
330
C37
100
AcDbEntity
  8
V0-OBRYS
 62
    90
100
AcDbLine
 10
365.0
 20
-80.0
 30
0.0
 11
345.0
 21
-80.0
 31
0.0
  0
ARC
  5
69A
330
C37
100
AcDbEntity
  8
V0-OBRYS
 62
    90
100
AcDbCircle
 10
343.0
 20
-82.444174
 30
0.0
 40
2.0
100
AcDbArc
 50
309.258201
 51
0.0
  0
ARC
  5
69E
330
C37
100
AcDbEntity
  8
V0-OBRYS
 62
    90
100
AcDbCircle
 10
270.794809
 20
156.999091
 30
0.0
 40
10.0
100
AcDbArc
 50
50.741799
 51
89.999089
  0
ARC
  5
69F
330
C37
100
AcDbEntity
  8
V0-OBRYS
 62
    90
100
AcDbCircle
 10
270.794809
 20
-156.999091
 30
0.0
 40
10.0
100
AcDbArc
 50
270.000911
 51
309.258201
  0
LINE
  5
6A0
330
C37
100
AcDbEntity
  8
V0-OBRYS
 62
    90
100
AcDbLine
 10
274.319499
 20
160.823614
 30
0.0
 11
274.319499
 21
-160.276556
 31
0.0
  0
LINE
  5
6A1
330
C37
100
AcDbEntity
  8
V0-OBRYS
 62
    90
100
AcDbLine
 10
208.457739
 20
154.374464
 30
0.0
 11
208.457739
 21
-155.439695
 31
0.0
  0
LINE
  5
6A2
330
C37
100
AcDbEntity
  8
V0-OBRYS
 62
    90
100
AcDbLine
 10
220.0
 20
40.0
 30
0.0
 11
260.0
 21
40.0
 31
0.0
  0
LINE
  5
6A3
330
C37
100
AcDbEntity
  8
V0-OBRYS
 62
    90
100
AcDbLine
 10
260.0
 20
40.0
 30
0.0
 11
260.0
 21
-40.0
 31
0.0
  0
LINE
  5
6A4
330
C37
100
AcDbEntity
  8
V0-OBRYS
 62
    90
100
AcDbLine
 10
260.0
 20
-40.0
 30
0.0
 11
220.0
 21
-40.0
 31
0.0
  0
LINE
  5
6A5
330
C37
100
AcDbEntity
  8
V0-OBRYS
 62
    90
100
AcDbLine
 10
220.0
 20
-40.0
 30
0.0
 11
220.0
 21
40.0
 31
0.0
  0
LINE
  5
6AA
330
C37
100
AcDbEntity
  8
V0-VYPLNE
 62
    63
100
AcDbLine
 10
620.31174
 20
199.440226
 30
0.0
 11
620.31174
 21
-199.392636
 31
0.0
  0
LINE
  5
6AB
330
C37
100
AcDbEntity
  8
V0-VYPLNE
 62
    63
100
AcDbLine
 10
452.98086
 20
0.0
 30
0.0
 11
789.85974
 21
0.0
 31
0.0
  0
CIRCLE
  5
6AC
330
C37
100
AcDbEntity
  8
V0-OBRYS
 62
    90
100
AcDbCircle
 10
620.31174
 20
0.0
 30
0.0
 40
80.160882
  0
CIRCLE
  5
6AD
330
C37
100
AcDbEntity
  8
V0-OBRYS
 62
    90
100
AcDbCircle
 10
620.31174
 20
-0.004188
 30
0.0
 40
166.987825
  0
CIRCLE
  5
6AE
330
C37
100
AcDbEntity
  8
V0-OBRYS
 62
    90
100
AcDbCircle
 10
620.31174
 20
-0.004188
 30
0.0
 40
159.457896
  0
CIRCLE
  5
6AF
330
C37
100
AcDbEntity
  8
V0-OBRYS
 62
    90
100
AcDbCircle
 10
620.367168
 20
0.0
 30
0.0
 40
83.215215
  0
CIRCLE
  5
6B0
330
C37
100
AcDbEntity
  8
V0-OBRYS
 62
    90
100
AcDbCircle
 10
620.31174
 20
0.0
 30
0.0
 40
61.665995
  0
LINE
  5
6B1
330
C37
100
AcDbEntity
  8
V0-OBRYS
 62
    90
100
AcDbLine
 10
620.31174
 20
61.665995
 30
0.0
 11
620.31174
 21
81.04061400000001
 31
0.0
  0
LINE
  5
6C5
330
C37
100
AcDbEntity
  8
V0-OBRYS
 62
    90
100
AcDbLine
 10
589.478743
 20
53.404319
 30
0.0
 11
579.791433
 21
70.18323100000001
 31
0.0
  0
LINE
  5
6C6
330
C37
100
AcDbEntity
  8
V0-OBRYS
 62
    90
100
AcDbLine
 10
566.907422
 20
30.832998
 30
0.0
 11
550.128509
 21
40.520307
 31
0.0
  0
LINE
  5
6C7
330
C37
100
AcDbEntity
  8
V0-OBRYS
 62
    90
100
AcDbLine
 10
558.645745
 20
0.0
 30
0.0
 11
539.271126
 21
0.0
 31
0.0
  0
LINE
  5
6C8
330
C37
100
AcDbEntity
  8
V0-OBRYS
 62
    90
100
AcDbLine
 10
566.907422
 20
-30.832998
 30
0.0
 11
550.128509
 21
-40.520307
 31
0.0
  0
LINE
  5
6C9
330
C37
100
AcDbEntity
  8
V0-OBRYS
 62
    90
100
AcDbLine
 10
589.478743
 20
-53.404319
 30
0.0
 11
579.791433
 21
-70.18323100000001
 31
0.0
  0
LINE
  5
6CA
330
C37
100
AcDbEntity
  8
V0-OBRYS
 62
    90
100
AcDbLine
 10
620.31174
 20
-61.665995
 30
0.0
 11
620.31174
 21
-81.04061400000001
 31
0.0
  0
LINE
  5
6CB
330
C37
100
AcDbEntity
  8
V0-OBRYS
 62
    90
100
AcDbLine
 10
651.144738
 20
-53.404319
 30
0.0
 11
660.832047
 21
-70.18323100000001
 31
0.0
  0
LINE
  5
6CC
330
C37
100
AcDbEntity
  8
V0-OBRYS
 62
    90
100
AcDbLine
 10
673.716059
 20
-30.832998
 30
0.0
 11
690.494971
 21
-40.520307
 31
0.0
  0
LINE
  5
6CD
330
C37
100
AcDbEntity
  8
V0-OBRYS
 62
    90
100
AcDbLine
 10
681.9777360000001
 20
0.0
 30
0.0
 11
701.352355
 21
0.0
 31
0.0
  0
LINE
  5
6CE
330
C37
100
AcDbEntity
  8
V0-OBRYS
 62
    90
100
AcDbLine
 10
673.716059
 20
30.832998
 30
0.0
 11
690.494971
 21
40.520307
 31
0.0
  0
LINE
  5
6CF
330
C37
100
AcDbEntity
  8
V0-OBRYS
 62
    90
100
AcDbLine
 10
651.144738
 20
53.404319
 30
0.0
 11
660.832047
 21
70.18323100000001
 31
0.0
  0
CIRCLE
  5
6D0
330
C37
100
AcDbEntity
  8
V0-OBRYS
 62
    90
100
AcDbCircle
 10
620.31174
 20
0.0
 30
0.0
 40
16.345322
  0
LINE
  5
6D2
330
C37
100
AcDbEntity
  8
V0-OBRYS
 62
    90
100
AcDbLine
 10
782.333413
 20
40.41748
 30
0.0
 11
820.136613
 21
40.41748
 31
0.0
  0
LINE
  5
6D3
330
C37
100
AcDbEntity
  8
V0-OBRYS
 62
    90
100
AcDbLine
 10
820.136613
 20
40.41748
 30
0.0
 11
820.136613
 21
-39.58252
 31
0.0
  0
LINE
  5
6D4
330
C37
100
AcDbEntity
  8
V0-OBRYS
 62
    90
100
AcDbLine
 10
820.136613
 20
-39.58252
 30
0.0
 11
782.333413
 21
-39.58252
 31
0.0
  0
LINE
  5
6D5
330
C37
100
AcDbEntity
  8
V0-OBRYS
 62
    90
100
AcDbLine
 10
811.606531
 20
40.19613
 30
0.0
 11
811.606531
 21
-39.68194799999999
 31
0.0
  0
LINE
  5
6D6
330
C37
100
AcDbEntity
  8
V0-OBRYS
 62
    90
100
AcDbLine
 10
220.0
 20
-621.265082
 30
0.0
 11
220.0
 21
-581.265082
 31
0.0
  0
LINE
  5
6D7
330
C37
100
AcDbEntity
  8
V0-OBRYS
 62
    90
100
AcDbLine
 10
260.0
 20
-581.265082
 30
0.0
 11
260.0
 21
-621.265082
 31
0.0
  0
LINE
  5
6D8
330
C37
100
AcDbEntity
  8
V0-OBRYS
 62
    90
100
AcDbLine
 10
208.457739
 20
-270.390618
 30
0.0
 11
208.457739
 21
-580.204778
 31
0.0
  0
LINE
  5
6D9
330
C37
100
AcDbEntity
  8
V0-OBRYS
 62
    90
100
AcDbLine
 10
274.319499
 20
-263.941468
 30
0.0
 11
274.319499
 21
-585.041638
 31
0.0
  0
LINE
  5
6DA
330
C37
100
AcDbEntity
  8
V0-OBRYS
 62
    90
100
AcDbLine
 10
213.612466
 20
-257.765082
 30
0.0
 11
213.612466
 21
-424.765082
 31
0.0
  0
LINE
  5
6DB
330
C37
100
AcDbEntity
  8
V0-OBRYS
 62
    90
100
AcDbLine
 10
345.0
 20
-424.765082
 30
0.0
 11
345.0
 21
-342.320908
 31
0.0
  0
LINE
  5
6DC
330
C37
100
AcDbEntity
  8
V0-OBRYS
 62
    90
100
AcDbLine
 10
265.753017
 20
-257.765082
 30
0.0
 11
265.753017
 21
-424.765082
 31
0.0
  0
LINE
  5
6DD
330
C37
100
AcDbEntity
  8
V0-OBRYS
 62
    90
100
AcDbLine
 10
185.0
 20
-424.765082
 30
0.0
 11
185.0
 21
-338.945602
 31
0.0
  0
LINE
  5
6DE
330
C37
100
AcDbEntity
  8
V0-OBRYS
 62
    90
100
AcDbLine
 10
365.0
 20
-424.765082
 30
0.0
 11
365.0
 21
-344.765082
 31
0.0
  0
LINE
  5
6DF
330
C37
100
AcDbEntity
  8
V0-OBRYS
 62
    90
100
AcDbLine
 10
180.0
 20
-344.765082
 30
0.0
 11
180.0
 21
-424.765082
 31
0.0
  0
LINE
  5
6E0
330
C37
100
AcDbEntity
  8
V0-OBRYS
 62
    90
100
AcDbLine
 10
150.0
 20
-424.765082
 30
0.0
 11
150.0
 21
-344.765082
 31
0.0
  0
LINE
  5
6E1
330
C37
100
AcDbEntity
  8
V0-VYPLNE
 62
    63
100
AcDbLine
 10
150.0
 20
-424.765082
 30
0.0
 11
372.635079
 21
-424.765082
 31
0.0
  0
LINE
  5
6E2
330
C37
100
AcDbEntity
  8
V0-OBRYS
 62
    90
100
AcDbLine
 10
185.0
 20
-498.084563
 30
0.0
 11
195.785925
 21
-580.111587
 31
0.0
  0
LINE
  5
6E3
330
C37
100
AcDbEntity
  8
V0-OBRYS
 62
    90
100
AcDbLine
 10
185.0
 20
-424.765082
 30
0.0
 11
185.0
 21
-498.084563
 31
0.0
  0
LINE
  5
6E4
330
C37
100
AcDbEntity
  8
V0-OBRYS
 62
    90
100
AcDbLine
 10
150.0
 20
-424.765082
 30
0.0
 11
150.0
 21
-504.765082
 31
0.0
  0
LINE
  5
6E5
330
C37
100
AcDbEntity
  8
V0-OBRYS
 62
    90
100
AcDbLine
 10
180.0
 20
-504.765082
 30
0.0
 11
180.0
 21
-424.765082
 31
0.0
  0
LINE
  5
6E6
330
C37
100
AcDbEntity
  8
V0-OBRYS
 62
    90
100
AcDbLine
 10
150.0
 20
-504.765082
 30
0.0
 11
180.0
 21
-504.765082
 31
0.0
  0
LINE
  5
6E7
330
C37
100
AcDbEntity
  8
V0-OBRYS
 62
    90
100
AcDbLine
 10
180.0
 20
-508.584563
 30
0.0
 11
183.0
 21
-508.584563
 31
0.0
  0
LINE
  5
6E8
330
C37
100
AcDbEntity
  8
V0-OBRYS
 62
    90
100
AcDbLine
 10
180.0
 20
-504.765082
 30
0.0
 11
180.0
 21
-508.584563
 31
0.0
  0
ARC
  5
6E9
330
C37
100
AcDbEntity
  8
V0-OBRYS
 62
    90
100
AcDbCircle
 10
183.0
 20
-510.584563
 30
0.0
 40
2.0
100
AcDbArc
 50
0.0
 51
90.0
  0
LINE
  5
6EA
330
C37
100
AcDbEntity
  8
V0-OBRYS
 62
    90
100
AcDbLine
 10
365.0
 20
-504.765082
 30
0.0
 11
345.0
 21
-504.765082
 31
0.0
  0
LINE
  5
6EB
330
C37
100
AcDbEntity
  8
V0-OBRYS
 62
    90
100
AcDbLine
 10
213.612466
 20
-591.765082
 30
0.0
 11
220.0
 21
-591.764981
 31
0.0
  0
LINE
  5
6EC
330
C37
100
AcDbEntity
  8
V0-OBRYS
 62
    90
100
AcDbLine
 10
213.612466
 20
-591.765082
 30
0.0
 11
213.612466
 21
-424.765082
 31
0.0
  0
ARC
  5
6ED
330
C37
100
AcDbEntity
  8
V0-OBRYS
 62
    90
100
AcDbCircle
 10
210.144701
 20
-571.804801
 30
0.0
 40
16.588464
100
AcDbArc
 50
210.05008
 51
271.696881
  0
LINE
  5
6EE
330
C37
100
AcDbEntity
  8
V0-OBRYS
 62
    90
100
AcDbLine
 10
213.612466
 20
-588.385991
 30
0.0
 11
210.635916
 21
-588.385991
 31
0.0
  0
LINE
  5
6EF
330
C37
100
AcDbEntity
  8
V0-OBRYS
 62
    90
100
AcDbLine
 10
260.0
 20
-621.265082
 30
0.0
 11
220.0
 21
-621.265082
 31
0.0
  0
LINE
  5
6F0
330
C37
100
AcDbEntity
  8
V0-OBRYS
 62
    90
100
AcDbLine
 10
265.753017
 20
-591.765082
 30
0.0
 11
265.753017
 21
-424.765082
 31
0.0
  0
LINE
  5
6F1
330
C37
100
AcDbEntity
  8
V0-OBRYS
 62
    90
100
AcDbLine
 10
277.122971
 20
-589.507194
 30
0.0
 11
344.265632
 21
-508.757861
 31
0.0
  0
ARC
  5
6F2
330
C37
100
AcDbEntity
  8
V0-OBRYS
 62
    90
100
AcDbCircle
 10
270.794809
 20
-581.764173
 30
0.0
 40
10.0
100
AcDbArc
 50
270.000911
 51
309.258201
  0
LINE
  5
6F3
330
C37
100
AcDbEntity
  8
V0-OBRYS
 62
    90
100
AcDbLine
 10
345.0
 20
-424.765082
 30
0.0
 11
345.0
 21
-507.209256
 31
0.0
  0
ARC
  5
6F4
330
C37
100
AcDbEntity
  8
V0-OBRYS
 62
    90
100
AcDbCircle
 10
343.0
 20
-507.209256
 30
0.0
 40
2.0
100
AcDbArc
 50
309.258201
 51
0.0
  0
LINE
  5
6F5
330
C37
100
AcDbEntity
  8
V0-OBRYS
 62
    90
100
AcDbLine
 10
365.0
 20
-424.765082
 30
0.0
 11
365.0
 21
-504.765082
 31
0.0
  0
LINE
  5
6F6
330
C37
100
AcDbEntity
  8
V0-OBRYS
 62
    90
100
AcDbLine
 10
185.0
 20
-338.945602
 30
0.0
 11
195.785925
 21
-269.418578
 31
0.0
  0
LINE
  5
6F7
330
C37
100
AcDbEntity
  8
V0-OBRYS
 62
    90
100
AcDbLine
 10
150.0
 20
-344.765082
 30
0.0
 11
180.0
 21
-344.765082
 31
0.0
  0
LINE
  5
6F8
330
C37
100
AcDbEntity
  8
V0-OBRYS
 62
    90
100
AcDbLine
 10
180.0
 20
-344.765082
 30
0.0
 11
180.0
 21
-340.945602
 31
0.0
  0
LINE
  5
6F9
330
C37
100
AcDbEntity
  8
V0-OBRYS
 62
    90
100
AcDbLine
 10
180.0
 20
-340.945602
 30
0.0
 11
183.0
 21
-340.945602
 31
0.0
  0
ARC
  5
6FA
330
C37
100
AcDbEntity
  8
V0-OBRYS
 62
    90
100
AcDbCircle
 10
183.0
 20
-338.945602
 30
0.0
 40
2.0
100
AcDbArc
 50
270.0
 51
0.0
  0
LINE
  5
6FB
330
C37
100
AcDbEntity
  8
V0-OBRYS
 62
    90
100
AcDbLine
 10
365.0
 20
-344.765082
 30
0.0
 11
345.0
 21
-344.765082
 31
0.0
  0
LINE
  5
6FC
330
C37
100
AcDbEntity
  8
V0-OBRYS
 62
    90
100
AcDbLine
 10
213.612466
 20
-257.765082
 30
0.0
 11
270.794968
 21
-257.765992
 31
0.0
  0
ARC
  5
6FE
330
C37
100
AcDbEntity
  8
V0-OBRYS
 62
    90
100
AcDbCircle
 10
210.144701
 20
-277.725364
 30
0.0
 40
16.588464
100
AcDbArc
 50
88.303119
 51
149.94992
  0
LINE
  5
6FF
330
C37
100
AcDbEntity
  8
V0-OBRYS
 62
    90
100
AcDbLine
 10
213.612466
 20
-261.144174
 30
0.0
 11
210.635916
 21
-261.144174
 31
0.0
  0
LINE
  5
700
330
C37
100
AcDbEntity
  8
V0-OBRYS
 62
    90
100
AcDbLine
 10
277.122971
 20
-260.022971
 30
0.0
 11
344.265632
 21
-340.772304
 31
0.0
  0
ARC
  5
701
330
C37
100
AcDbEntity
  8
V0-OBRYS
 62
    90
100
AcDbCircle
 10
343.0
 20
-342.320908
 30
0.0
 40
2.0
100
AcDbArc
 50
0.0
 51
50.741799
  0
ARC
  5
702
330
C37
100
AcDbEntity
  8
V0-OBRYS
 62
    90
100
AcDbCircle
 10
270.794809
 20
-267.765992
 30
0.0
 40
10.0
100
AcDbArc
 50
50.741799
 51
89.999089
  0
LINE
  5
703
330
C37
100
AcDbEntity
  8
V0-OBRYS
 62
    90
100
AcDbLine
 10
220.0
 20
-581.265082
 30
0.0
 11
260.0
 21
-581.265082
 31
0.0
  0
LINE
  5
704
330
C37
100
AcDbEntity
  8
V0-OBRYS
 62
    90
100
AcDbLine
 10
260.0
 20
-591.7643450000001
 30
0.0
 11
270.794968
 21
-591.764173
 31
0.0
  0
LINE
  5
705
330
C37
100
AcDbEntity
  8
V0-OBRYS
 62
    90
100
AcDbLine
 10
220.603366
 20
-615.050128
 30
0.0
 11
259.874123
 21
-615.050128
 31
0.0
  0
DIMENSION
  5
715
330
C37
100
AcDbEntity
  8
V0-VYPLNE
  6
CONTINUOUS
 62
    41
100
AcDbDimension
  2
*D4
 10
180.0
 20
-200.7649600000004
 30
0.0
 11
165.0
 21
-200.76496
 31
0.0
 70
   160
  3
ED20
100
AcDbAlignedDimension
 13
150.0
 23
-80.0
 33
0.0
 14
180.0
 24
-80.0
 34
0.0
100
AcDbRotatedDimension
1001
ACAD
1000
DSTYLE
1002
{
1070
    40
1040
1.0
1002
}
  0
DIMENSION
  5
724
330
C37
100
AcDbEntity
  8
V0-VYPLNE
  6
CONTINUOUS
 62
    41
100
AcDbDimension
  2
*D5
 10
365.0
 20
-199.7649600000004
 30
0.0
 11
422.6904761904762
 21
-188.2649600000004
 31
0.0
 70
    32
  3
ED20
100
AcDbAlignedDimension
 13
345.0
 23
-80.0
 33
0.0
 14
365.0
 24
-80.0
 34
0.0
100
AcDbRotatedDimension
1001
ACAD
1000
DSTYLE
1002
{
1070
    40
1040
1.0
1002
}
  0
DIMENSION
  5
731
330
C37
100
AcDbEntity
  8
V0-VYPLNE
  6
CONTINUOUS
 62
    41
100
AcDbDimension
  2
*D6
 10
365.0
 20
-226.267645999993
 30
0.0
 11
250.0
 21
-226.267646
 31
0.0
 70
   160
  3
ED20
100
AcDbAlignedDimension
 13
150.0
 23
-80.0
 33
0.0
 14
365.0
 24
-80.0
 34
0.0
100
AcDbRotatedDimension
1001
ACAD
1000
DSTYLE
1002
{
1070
    40
1040
1.0
1002
}
  0
DIMENSION
  5
74B
330
C37
100
AcDbEntity
  8
V0-VYPLNE
  6
CONTINUOUS
 62
    41
100
AcDbDimension
  2
*D7
 10
116.5116610000005
 20
-80.0
 30
0.0
 11
105.0116610000005
 21
0.0
 31
0.0
 70
    32
  1
%%c<>
  3
ED20
100
AcDbAlignedDimension
 13
150.0
 23
80.0
 33
0.0
 14
150.0
 24
-80.0
 34
0.0
 50
90.0
100
AcDbRotatedDimension
1001
ACAD
1000
DSTYLE
1002
{
1070
    40
1040
1.0
1002
}
  0
DIMENSION
  5
758
330
C37
100
AcDbEntity
  8
V0-VYPLNE
  6
CONTINUOUS
 62
    41
100
AcDbDimension
  2
*D8
 10
403.6266969999997
 20
-80.0
 30
0.0
 11
392.1266969999997
 21
0.0
 31
0.0
 70
    32
  1
%%c<>
  3
ED20
100
AcDbAlignedDimension
 13
365.0
 23
80.0
 33
0.0
 14
365.0
 24
-80.0
 34
0.0
 50
90.0
100
AcDbRotatedDimension
1001
ACAD
1000
DSTYLE
1002
{
1070
    40
1040
1.0
1002
}
  0
LINE
  5
798
330
C37
100
AcDbEntity
  8
V0-VYPLNE
  6
CONTINUOUS
 62
    41
100
AcDbLine
 10
282.091181
 20
6.535906
 30
0.0
 11
340.918417
 21
6.535906
 31
0.0
  0
LINE
  5
799
330
C37
100
AcDbEntity
  8
V0-VYPLNE
  6
CONTINUOUS
 62
    41
100
AcDbLine
 10
340.918417
 20
6.535906
 30
0.0
 11
309.185913
 21
11.727036
 31
0.0
  0
LINE
  5
79A
330
C37
100
AcDbEntity
  8
V0-VYPLNE
  6
CONTINUOUS
 62
    41
100
AcDbLine
 10
340.918417
 20
6.535906
 30
0.0
 11
309.185913
 21
1.344776
 31
0.0
  0
LINE
  5
79B
330
C37
100
AcDbEntity
  8
V0-VYPLNE
  6
CONTINUOUS
 62
    41
100
AcDbLine
 10
282.091181
 20
-412.979804
 30
0.0
 11
340.918417
 21
-412.979804
 31
0.0
  0
LINE
  5
79C
330
C37
100
AcDbEntity
  8
V0-VYPLNE
  6
CONTINUOUS
 62
    41
100
AcDbLine
 10
340.918417
 20
-412.979804
 30
0.0
 11
309.185913
 21
-418.170934
 31
0.0
  0
LINE
  5
79D
330
C37
100
AcDbEntity
  8
V0-VYPLNE
  6
CONTINUOUS
 62
    41
100
AcDbLine
 10
340.918417
 20
-412.979804
 30
0.0
 11
309.185913
 21
-407.788674
 31
0.0
  0
POINT
  5
79E
330
C37
100
AcDbEntity
  8
V0-VYPLNE
  6
CONTINUOUS
 62
    41
100
AcDbPoint
 10
620.31174
 20
0.0
 30
0.0
  0
POINT
  5
79F
330
C37
100
AcDbEntity
  8
V0-VYPLNE
  6
CONTINUOUS
 62
    41
100
AcDbPoint
 10
180.0
 20
0.0
 30
0.0
  0
POINT
  5
7A0
330
C37
100
AcDbEntity
  8
V0-VYPLNE
  6
CONTINUOUS
 62
    41
100
AcDbPoint
 10
180.0
 20
-424.765082
 30
0.0
  0
POINT
  5
7A1
330
C37
100
AcDbEntity
  8
V0-VYPLNE
  6
CONTINUOUS
 62
    41
100
AcDbPoint
 10
345.0
 20
-424.765082
 30
0.0
  0
POINT
  5
7A2
330
C37
100
AcDbEntity
  8
V0-VYPLNE
  6
CONTINUOUS
 62
    41
100
AcDbPoint
 10
345.0
 20
0.0
 30
0.0
  0
DIMENSION
  5
9B6
330
C37
100
AcDbEntity
  8
V0-VYPLNE
  6
CONTINUOUS
 62
    41
100
AcDbDimension
  2
*D9
 10
76.39473499999986
 20
-167.0
 30
0.0
 11
64.89473499999986
 21
0.0
 31
0.0
 70
    32
  1
%%c<>
  3
ED20
100
AcDbAlignedDimension
 13
213.612466
 23
167.0
 33
0.0
 14
213.612466
 24
-167.0
 34
0.0
 50
90.0
100
AcDbRotatedDimension
1001
ACAD
1000
DSTYLE
1002
{
1070
    40
1040
1.0
1002
}
  0
TEXT
  5
C10
330
C37
100
AcDbEntity
  8
V0-NAZVY
100
AcDbText
 10
461.5072017142857
 20
-354.278813
 30
0.0
 40
37.5
  1
RM 160
  7
ED10
100
AcDbText
  0
VIEWPORT
  5
CB5
330
C33
100
AcDbEntity
 67
     1
  8
0
 60
     1
100
AcDbViewport
 10
261.517699
 20
148.5
 30
0.0
 40
297.0
 41
297.0
 68
     0
 69
     1
1001
VD_INVISIBLE_NOT_FOR_READ
1000
VD_INVISIBLE_NOT_FOR_READ
1001
ACAD
1000
MVIEW
1002
{
1070
    16
1010
0.0
1020
0.0
1030
0.0
1010
0.0
1020
0.0
1030
1.0
1040
6.2831853071796
1040
297.0
1040
261.517699
1040
148.5
1040
0.0
1040
0.0
1040
0.0
1070
     0
1070
   100
1070
     0
1070
     1
1070
     0
1070
     0
1070
     0
1070
     0
1040
0.0
1040
0.0
1040
0.0
1040
1.0
1040
1.0
1040
0.0
1040
0.0
1070
     0
1002
{
1002
}
1002
}
  0
VIEWPORT
  5
CB6
330
C33
100
AcDbEntity
 67
     1
  8
0
 60
     1
100
AcDbViewport
 10
261.517699
 20
148.5
 30
0.0
 40
297.0
 41
297.0
 68
     0
 69
     2
1001
VD_INVISIBLE_NOT_FOR_READ
1000
VD_INVISIBLE_NOT_FOR_READ
1001
ACAD
1000
MVIEW
1002
{
1070
    16
1010
0.0
1020
0.0
1030
0.0
1010
0.0
1020
0.0
1030
1.0
1040
6.2831853071796
1040
297.0
1040
261.517699
1040
148.5
1040
0.0
1040
0.0
1040
0.0
1070
     0
1070
   100
1070
     0
1070
     1
1070
     0
1070
     0
1070
     0
1070
     0
1040
0.0
1040
0.0
1040
0.0
1040
1.0
1040
1.0
1040
0.0
1040
0.0
1070
     0
1002
{
1002
}
1002
}
  0
ENDSEC
  0
SECTION
  2
OBJECTS
  0
DICTIONARY
  5
C24
330
0
100
AcDbDictionary
  3
ACAD_GROUP
350
C25
  3
ACAD_LAYOUT
350
C32
  3
ACAD_MLINESTYLE
350
C2F
  3
ACAD_PLOTSETTINGS
350
C31
  3
ACDBHEADERROUNDTRIPXREC
350
CB7
  3
VECTORDRAW_OBJECTS
350
C47
  0
DICTIONARY
  5
CD7
330
C41
100
AcDbDictionary
280
     1
  3
ACAD_XREC_ROUNDTRIP
360
CD8
  0
DICTIONARY
  5
C25
102
{ACAD_REACTORS
330
C24
102
}
330
C24
100
AcDbDictionary
  0
DICTIONARY
  5
C32
102
{ACAD_REACTORS
330
C24
102
}
330
C24
100
AcDbDictionary
  0
DICTIONARY
  5
C2F
102
{ACAD_REACTORS
330
C24
102
}
330
C24
100
AcDbDictionary
  3
STANDARD
350
C30
  0
DICTIONARY
  5
C31
102
{ACAD_REACTORS
330
C24
102
}
330
C24
100
AcDbDictionary
  0
DICTIONARY
  5
CB7
102
{ACAD_REACTORS
330
C24
102
}
330
C24
100
AcDbDictionary
  3
CEPSNTYPE
350
CC0
  3
DIMSTYLEDATA
350
CD6
  3
FINGERPRINTGUID
350
CC1
  3
HYPERLINKBASE
350
CBA
  3
INSUNITS
350
CBF
  3
LAYOUTDICT
350
CBC
  3
LWETCUNION
350
CBE
  3
PLOTSETDICT
350
CBD
  3
PSVPSCALE
350
CC3
  3
PUCSBASE
350
CC6
  3
PUCSORGBACK
350
CCC
  3
PUCSORGBOTTOM
350
CC8
  3
PUCSORGFRONT
350
CCB
  3
PUCSORGLEFT
350
CC9
  3
PUCSORGRIGHT
350
CCA
  3
PUCSORGTOP
350
CC7
  3
PUCSORTHOREF
350
CC4
  3
PUCSORTHOVIEW
350
CC5
  3
STYLESHEET
350
CBB
  3
TSTACKALIGN
350
CB8
  3
TSTACKSIZE
350
CB9
  3
UCSBASE
350
CCF
  3
UCSORGBACK
350
CD5
  3
UCSORGBOTTOM
350
CD1
  3
UCSORGFRONT
350
CD4
  3
UCSORGLEFT
350
CD2
  3
UCSORGRIGHT
350
CD3
  3
UCSORGTOP
350
CD0
  3
UCSORTHOREF
350
CCD
  3
UCSORTHOVIEW
350
CCE
  3
VERSIONGUID
350
CC2
  0
DICTIONARY
  5
C47
102
{ACAD_REACTORS
330
C24
102
}
330
C24
100
AcDbDictionary
  3
SERIALNO
350
C48
  0
XRECORD
  5
CD8
102
{ACAD_REACTORS
330
CD7
102
}
330
CD7
100
AcDbXrecord
102
UCS
 74
     0
 71
     1
 10
0.0
 20
0.0
 30
0.0
 10
1.0
 20
0.0
 30
0.0
 10
0.0
 20
1.0
 30
0.0
146
0.0
 79
     0
102
VIEW
281
     0
  0
MLINESTYLE
  5
C30
102
{ACAD_REACTORS
330
C2F
102
}
330
C2F
100
AcDbMlineStyle
  2
Standard
 70
     0
  3

 62
   256
 51
90.0
 52
90.0
 71
     2
 49
0.5
 62
   256
  6
BYLAYER
 49
-0.5
 62
   256
  6
BYLAYER
  0
XRECORD
  5
CC0
102
{ACAD_REACTORS
330
CB7
102
}
330
CB7
100
AcDbXrecord
 90
        0
  0
XRECORD
  5
CD6
102
{ACAD_REACTORS
330
CB7
102
}
330
CB7
100
AcDbXrecord
1000
DSTYLE
1002
{
1070
    41
 40
20.0
1070
   342
340
90
1070
   271
 70
     0
1070
    44
 40
1.25
1070
    42
 40
1.0
1070
   147
 40
1.5
1070
    77
 70
     1
1070
    73
 70
     0
1070
   174
 70
     1
1070
   172
 70
     1
1070
    74
 70
     0
1070
   340
340
5D2
1070
   140
 40
20.0
1070
   288
 70
     1
1002
}
  0
XRECORD
  5
CC1
102
{ACAD_REACTORS
330
CB7
102
}
330
CB7
100
AcDbXrecord
  1
{FAEB1C30-E019-11D5-929B-00C0DF256EC4}
  0
XRECORD
  5
CBA
102
{ACAD_REACTORS
330
CB7
102
}
330
CB7
100
AcDbXrecord
  1

  0
XRECORD
  5
CBF
102
{ACAD_REACTORS
330
CB7
102
}
330
CB7
100
AcDbXrecord
 90
        1
  0
XRECORD
  5
CBC
102
{ACAD_REACTORS
330
CB7
102
}
330
CB7
100
AcDbXrecord
340
C32
  0
XRECORD
  5
CBE
102
{ACAD_REACTORS
330
CB7
102
}
330
CB7
100
AcDbXrecord
 90
     2560
  0
XRECORD
  5
CBD
102
{ACAD_REACTORS
330
CB7
102
}
330
CB7
100
AcDbXrecord
340
C31
  0
XRECORD
  5
CC3
102
{ACAD_REACTORS
330
CB7
102
}
330
CB7
100
AcDbXrecord
 40
0.0
  0
XRECORD
  5
CC6
102
{ACAD_REACTORS
330
CB7
102
}
330
CB7
100
AcDbXrecord
340
0
  0
XRECORD
  5
CCC
102
{ACAD_REACTORS
330
CB7
102
}
330
CB7
100
AcDbXrecord
 10
0.0
 20
0.0
 30
0.0
  0
XRECORD
  5
CC8
102
{ACAD_REACTORS
330
CB7
102
}
330
CB7
100
AcDbXrecord
 10
0.0
 20
0.0
 30
0.0
  0
XRECORD
  5
CCB
102
{ACAD_REACTORS
330
CB7
102
}
330
CB7
100
AcDbXrecord
 10
0.0
 20
0.0
 30
0.0
  0
XRECORD
  5
CC9
102
{ACAD_REACTORS
330
CB7
102
}
330
CB7
100
AcDbXrecord
 10
0.0
 20
0.0
 30
0.0
  0
XRECORD
  5
CCA
102
{ACAD_REACTORS
330
CB7
102
}
330
CB7
100
AcDbXrecord
 10
0.0
 20
0.0
 30
0.0
  0
XRECORD
  5
CC7
102
{ACAD_REACTORS
330
CB7
102
}
330
CB7
100
AcDbXrecord
 10
0.0
 20
0.0
 30
0.0
  0
XRECORD
  5
CC4
102
{ACAD_REACTORS
330
CB7
102
}
330
CB7
100
AcDbXrecord
340
0
  0
XRECORD
  5
CC5
102
{ACAD_REACTORS
330
CB7
102
}
330
CB7
100
AcDbXrecord
 70
     0
  0
XRECORD
  5
CBB
102
{ACAD_REACTORS
330
CB7
102
}
330
CB7
100
AcDbXrecord
  1

  0
XRECORD
  5
CB8
102
{ACAD_REACTORS
330
CB7
102
}
330
CB7
100
AcDbXrecord
 90
        1
  0
XRECORD
  5
CB9
102
{ACAD_REACTORS
330
CB7
102
}
330
CB7
100
AcDbXrecord
 90
       70
  0
XRECORD
  5
CCF
102
{ACAD_REACTORS
330
CB7
102
}
330
CB7
100
AcDbXrecord
340
0
  0
XRECORD
  5
CD5
102
{ACAD_REACTORS
330
CB7
102
}
330
CB7
100
AcDbXrecord
 10
0.0
 20
0.0
 30
0.0
  0
XRECORD
  5
CD1
102
{ACAD_REACTORS
330
CB7
102
}
330
CB7
100
AcDbXrecord
 10
0.0
 20
0.0
 30
0.0
  0
XRECORD
  5
CD4
102
{ACAD_REACTORS
330
CB7
102
}
330
CB7
100
AcDbXrecord
 10
0.0
 20
0.0
 30
0.0
  0
XRECORD
  5
CD2
102
{ACAD_REACTORS
330
CB7
102
}
330
CB7
100
AcDbXrecord
 10
0.0
 20
0.0
 30
0.0
  0
XRECORD
  5
CD3
102
{ACAD_REACTORS
330
CB7
102
}
330
CB7
100
AcDbXrecord
 10
0.0
 20
0.0
 30
0.0
  0
XRECORD
  5
CD0
102
{ACAD_REACTORS
330
CB7
102
}
330
CB7
100
AcDbXrecord
 10
0.0
 20
0.0
 30
0.0
  0
XRECORD
  5
CCD
102
{ACAD_REACTORS
330
CB7
102
}
330
CB7
100
AcDbXrecord
340
0
  0
XRECORD
  5
CCE
102
{ACAD_REACTORS
330
CB7
102
}
330
CB7
100
AcDbXrecord
 70
     0
  0
XRECORD
  5
CC2
102
{ACAD_REACTORS
330
CB7
102
}
330
CB7
100
AcDbXrecord
  1
{FAEB1C32-E019-11D5-929B-00C0DF256EC4}
  0
XRECORD
  5
C48
102
{ACAD_REACTORS
330
C47
102
}
330
C47
100
AcDbXrecord
1000
rInJVR9YY4Q8hfPWdUq5j5319
1070
     4
1070
     6
  0
ENDSEC
  0
EOF
