  0
SECTION
  2
HEADER
  9
$ACADVER
  1
AC1014
  9
$ACADMAINTVER
 70
     9
  9
$DWGCODEPAGE
  3
ANSI_1250
  9
$INSBASE
 10
0.0
 20
0.0
 30
0.0
  9
$EXTMIN
 10
57.75519861538391
 20
-477.643898
 30
0.0
  9
$EXTMAX
 10
703.108802
 20
122.0
 30
0.0
  9
$LIMMIN
 10
0.0
 20
0.0
  9
$LIMMAX
 10
0.0
 20
0.0
  9
$ORTHOMODE
 70
     1
  9
$REGENMODE
 70
     1
  9
$FILLMODE
 70
     1
  9
$QTEXTMODE
 70
     0
  9
$MIRRTEXT
 70
     1
  9
$DRAGMODE
 70
     2
  9
$LTSCALE
 40
1.0
  9
$OSMODE
 70
    37
  9
$ATTMODE
 70
     1
  9
$TEXTSIZE
 40
0.2
  9
$TRACEWID
 40
0.05
  9
$TEXTSTYLE
  7
ED10
  9
$CLAYER
  8
V0-VYPLNE
  9
$CELTYPE
  6
CONTINUOUS
  9
$CECOLOR
 62
    41
  9
$CELTSCALE
 40
1.0
  9
$DELOBJ
 70
     1
  9
$DISPSILH
 70
     0
  9
$DIMSCALE
 40
1.0
  9
$DIMASZ
 40
15.0
  9
$DIMEXO
 40
1.0
  9
$DIMDLI
 40
0.38
  9
$DIMRND
 40
0.0
  9
$DIMDLE
 40
0.0
  9
$DIMEXE
 40
1.25
  9
$DIMTP
 40
0.0
  9
$DIMTM
 40
0.0
  9
$DIMTXT
 40
10.0
  9
$DIMCEN
 40
0.09
  9
$DIMTSZ
 40
0.0
  9
$DIMTOL
 70
     0
  9
$DIMLIM
 70
     0
  9
$DIMTIH
 70
     0
  9
$DIMTOH
 70
     0
  9
$DIMSE1
 70
     0
  9
$DIMSE2
 70
     0
  9
$DIMTAD
 70
     1
  9
$DIMZIN
 70
     0
  9
$DIMBLK
  1
OPEN
  9
$DIMASO
 70
     1
  9
$DIMSHO
 70
     1
  9
$DIMPOST
  1

  9
$DIMAPOST
  1

  9
$DIMALT
 70
     0
  9
$DIMALTD
 70
     2
  9
$DIMALTF
 40
25.4
  9
$DIMLFAC
 40
1.0
  9
$DIMTOFL
 70
     1
  9
$DIMTVP
 40
0.0
  9
$DIMTIX
 70
     1
  9
$DIMSOXD
 70
     0
  9
$DIMSAH
 70
     0
  9
$DIMBLK1
  1

  9
$DIMBLK2
  1

  9
$DIMSTYLE
  2
ED10
  9
$DIMCLRD
 70
     0
  9
$DIMCLRE
 70
     0
  9
$DIMCLRT
 70
     0
  9
$DIMTFAC
 40
1.0
  9
$DIMGAP
 40
1.5
  9
$DIMJUST
 70
     0
  9
$DIMSD1
 70
     0
  9
$DIMSD2
 70
     0
  9
$DIMTOLJ
 70
     1
  9
$DIMTZIN
 70
     0
  9
$DIMALTZ
 70
     0
  9
$DIMALTTZ
 70
     0
  9
$DIMFIT
 70
     3
  9
$DIMUPT
 70
     1
  9
$DIMUNIT
 70
     2
  9
$DIMDEC
 70
     0
  9
$DIMTDEC
 70
     4
  9
$DIMALTU
 70
     2
  9
$DIMALTTD
 70
     2
  9
$DIMTXSTY
  7
ED20
  9
$DIMAUNIT
 70
     0
  9
$LUNITS
 70
     2
  9
$LUPREC
 70
     4
  9
$SKETCHINC
 40
0.1
  9
$FILLETRAD
 40
0.5
  9
$AUNITS
 70
     0
  9
$AUPREC
 70
     0
  9
$MENU
  1
.
  9
$ELEVATION
 40
0.0
  9
$PELEVATION
 40
0.0
  9
$THICKNESS
 40
0.0
  9
$LIMCHECK
 70
     0
  9
$BLIPMODE
 70
     0
  9
$CHAMFERA
 40
0.5
  9
$CHAMFERB
 40
0.5
  9
$CHAMFERC
 40
1.0
  9
$CHAMFERD
 40
0.0
  9
$SKPOLY
 70
     0
  9
$TDCREATE
 40
2455642.647130706
  9
$TDUPDATE
 40
2455642.647130718
  9
$TDINDWG
 40
0.0000000116
  9
$TDUSRTIMER
 40
0.0000000116
  9
$USRTIMER
 70
     1
  9
$ANGBASE
 50
0.0
  9
$ANGDIR
 70
     0
  9
$PDMODE
 70
     3
  9
$PDSIZE
 40
20.0
  9
$PLINEWID
 40
0.0
  9
$COORDS
 70
     1
  9
$SPLFRAME
 70
     0
  9
$SPLINETYPE
 70
     6
  9
$SPLINESEGS
 70
     8
  9
$ATTDIA
 70
     0
  9
$ATTREQ
 70
     1
  9
$HANDLING
 70
     1
  9
$HANDSEED
  5
B95
  9
$SURFTAB1
 70
     6
  9
$SURFTAB2
 70
     6
  9
$SURFTYPE
 70
     6
  9
$SURFU
 70
     6
  9
$SURFV
 70
     6
  9
$UCSNAME
  2

  9
$UCSORG
 10
0.0
 20
0.0
 30
0.0
  9
$UCSXDIR
 10
1.0
 20
0.0
 30
0.0
  9
$UCSYDIR
 10
0.0
 20
1.0
 30
0.0
  9
$PUCSNAME
  2

  9
$PUCSORG
 10
0.0
 20
0.0
 30
0.0
  9
$PUCSXDIR
 10
1.0
 20
0.0
 30
0.0
  9
$PUCSYDIR
 10
0.0
 20
1.0
 30
0.0
  9
$USERI1
 70
     0
  9
$USERI2
 70
     0
  9
$USERI3
 70
     0
  9
$USERI4
 70
     0
  9
$USERI5
 70
     0
  9
$USERR1
 40
0.0
  9
$USERR2
 40
0.0
  9
$USERR3
 40
0.0
  9
$USERR4
 40
0.0
  9
$USERR5
 40
0.0
  9
$WORLDVIEW
 70
     1
  9
$SHADEDGE
 70
     3
  9
$SHADEDIF
 70
    70
  9
$TILEMODE
 70
     1
  9
$MAXACTVP
 70
    64
  9
$PINSBASE
 10
0.0
 20
0.0
 30
0.0
  9
$PLIMCHECK
 70
     0
  9
$PEXTMIN
 10
1.000000000000000E+20
 20
1.000000000000000E+20
 30
1.000000000000000E+20
  9
$PEXTMAX
 10
-1.000000000000000E+20
 20
-1.000000000000000E+20
 30
-1.000000000000000E+20
  9
$PLIMMIN
 10
0.0
 20
0.0
  9
$PLIMMAX
 10
0.0
 20
0.0
  9
$UNITMODE
 70
     0
  9
$VISRETAIN
 70
     1
  9
$PLINEGEN
 70
     0
  9
$PSLTSCALE
 70
     1
  9
$TREEDEPTH
 70
  3020
  9
$PICKSTYLE
 70
     1
  9
$CMLSTYLE
  2
STANDARD
  9
$CMLJUST
 70
     0
  9
$CMLSCALE
 40
1.0
  9
$PROXYGRAPHICS
 70
     1
  9
$MEASUREMENT
 70
     0
  0
ENDSEC
  0
SECTION
  2
CLASSES
  0
CLASS
  1
ACDBDICTIONARYWDFLT
  2
AcDbDictionaryWithDefault
  3
ObjectDBX Classes
 90
        0
280
     0
281
     0
  0
CLASS
  1
XRECORD
  2
AcDbXrecord
  3
AutoCAD 2000
 90
        0
280
     0
281
     0
  0
CLASS
  1
LWPOLYLINE
  2
AcDbPolyline
  3
AutoCAD 2000
 90
        0
280
     0
281
     1
  0
CLASS
  1
HATCH
  2
AcDbHatch
  3
AutoCAD 2000
 90
        0
280
     0
281
     1
  0
CLASS
  1
ACDBPLACEHOLDER
  2
AcDbPlaceHolder
  3
ObjectDBX Classes
 90
        0
280
     0
281
     0
  0
CLASS
  1
LAYOUT
  2
AcDbLayout
  3
ObjectDBX Classes
 90
        0
280
     0
281
     0
  0
ENDSEC
  0
SECTION
  2
TABLES
  0
TABLE
  2
VPORT
  5
ADB
330
0
100
AcDbSymbolTable
 70
     2
  0
VPORT
  5
AFC
102
{ACAD_XDICTIONARY
360
B93
102
}
330
ADB
100
AcDbSymbolTableRecord
100
AcDbViewportTableRecord
  2
*ACTIVE
 70
     0
 10
0.0
 20
0.0
 11
1.0
 21
1.0
 12
394.941418
 22
-131.795989
 13
0.0
 23
0.0
 14
10.0
 24
10.0
 15
10.0
 25
10.0
 16
0.0
 26
0.0
 36
1.0
 17
0.0
 27
0.0
 37
0.0
 40
722.2176490000001
 41
0.0245864342698346
 42
50.0
 43
0.0
 44
0.0
 50
0.0
 51
0.0000000000007958
 71
     0
 72
   100
 73
     1
 74
     3
 75
     0
 76
     0
 77
     0
 78
     0
  0
ENDTAB
  0
TABLE
  2
LTYPE
  5
AD8
330
0
100
AcDbSymbolTable
 70
    25
  0
LTYPE
  5
AE7
330
AD8
100
AcDbSymbolTableRecord
100
AcDbLinetypeTableRecord
  2
BYBLOCK
 70
     0
  3

 72
    65
 73
     0
 40
0.0
  0
LTYPE
  5
AE8
330
AD8
100
AcDbSymbolTableRecord
100
AcDbLinetypeTableRecord
  2
BYLAYER
 70
     0
  3

 72
    65
 73
     0
 40
0.0
  0
LTYPE
  5
AE9
330
AD8
100
AcDbSymbolTableRecord
100
AcDbLinetypeTableRecord
  2
CONTINUOUS
 70
     0
  3
Solid line
 72
    65
 73
     0
 40
0.0
  0
LTYPE
  5
B04
330
AD8
100
AcDbSymbolTableRecord
100
AcDbLinetypeTableRecord
  2
CENTER
 70
     0
  3
Center ____ _ ____ _ ____ _ ____ _ ____ _ ____
 72
    65
 73
     4
 40
2.0
 49
1.25
 74
     0
 49
-0.25
 74
     0
 49
0.25
 74
     0
 49
-0.25
 74
     0
  0
LTYPE
  5
B05
330
AD8
100
AcDbSymbolTableRecord
100
AcDbLinetypeTableRecord
  2
DASHDOT
 70
     0
  3
Dashdot __ . __ . __ . __ . __ . __ . __ . __
 72
    65
 73
     4
 40
1.0
 49
0.5
 74
     0
 49
-0.25
 74
     0
 49
0.0
 74
     0
 49
-0.25
 74
     0
  0
LTYPE
  5
B06
330
AD8
100
AcDbSymbolTableRecord
100
AcDbLinetypeTableRecord
  2
DASHED
 70
     0
  3
Dashed __ __ __ __ __ __ __ __ __ __ __ __ __ _
 72
    65
 73
     2
 40
0.75
 49
0.5
 74
     0
 49
-0.25
 74
     0
  0
LTYPE
  5
B07
330
AD8
100
AcDbSymbolTableRecord
100
AcDbLinetypeTableRecord
  2
HIDDEN
 70
     0
  3
Hidden __ __ __ __ __ __ __ __ __ __ __ __ __ __
 72
    65
 73
     2
 40
0.375
 49
0.25
 74
     0
 49
-0.125
 74
     0
  0
LTYPE
  5
B08
330
AD8
100
AcDbSymbolTableRecord
100
AcDbLinetypeTableRecord
  2
HIDDEN2
 70
     0
  3
Hidden2 _ _ _ _ _ _ _ _ _ _ _ _ _ _ _ _ _ 
 72
    65
 73
     2
 40
0.1875
 49
0.125
 74
     0
 49
-0.0625
 74
     0
  0
LTYPE
  5
B09
330
AD8
100
AcDbSymbolTableRecord
100
AcDbLinetypeTableRecord
  2
BORDER
 70
     0
  3
Border __ __ . __ __ . __ __ . __ __ . __ __ .
 72
    65
 73
     6
 40
1.75
 49
0.5
 74
     0
 49
-0.25
 74
     0
 49
0.5
 74
     0
 49
-0.25
 74
     0
 49
0.0
 74
     0
 49
-0.25
 74
     0
  0
LTYPE
  5
B0A
330
AD8
100
AcDbSymbolTableRecord
100
AcDbLinetypeTableRecord
  2
BORDER2
 70
     0
  3
Border2 __.__.__.__.__.__.__.__.__.__.__.
 72
    65
 73
     6
 40
0.875
 49
0.25
 74
     0
 49
-0.125
 74
     0
 49
0.25
 74
     0
 49
-0.125
 74
     0
 49
0.0
 74
     0
 49
-0.125
 74
     0
  0
LTYPE
  5
B0B
330
AD8
100
AcDbSymbolTableRecord
100
AcDbLinetypeTableRecord
  2
BORDERX2
 70
     0
  3
Borderx2  ____  ____  .  ____  ____  .  ___
 72
    65
 73
     6
 40
3.5
 49
1.0
 74
     0
 49
-0.5
 74
     0
 49
1.0
 74
     0
 49
-0.5
 74
     0
 49
0.0
 74
     0
 49
-0.5
 74
     0
  0
LTYPE
  5
B0C
330
AD8
100
AcDbSymbolTableRecord
100
AcDbLinetypeTableRecord
  2
CENTER2
 70
     0
  3
Center2  ___ _ ___ _ ___ _ ___ _ ___ _ ___
 72
    65
 73
     4
 40
1.125
 49
0.75
 74
     0
 49
-0.125
 74
     0
 49
0.125
 74
     0
 49
-0.125
 74
     0
  0
LTYPE
  5
B0D
330
AD8
100
AcDbSymbolTableRecord
100
AcDbLinetypeTableRecord
  2
CENTERX2
 70
     0
  3
Centerx2  ________  __  ________  __  _____
 72
    65
 73
     4
 40
4.0
 49
2.5
 74
     0
 49
-0.5
 74
     0
 49
0.5
 74
     0
 49
-0.5
 74
     0
  0
LTYPE
  5
B0E
330
AD8
100
AcDbSymbolTableRecord
100
AcDbLinetypeTableRecord
  2
DASHDOT2
 70
     0
  3
Dashdot2  _._._._._._._._._._._._._._._.
 72
    65
 73
     4
 40
0.5
 49
0.25
 74
     0
 49
-0.125
 74
     0
 49
0.0
 74
     0
 49
-0.125
 74
     0
  0
LTYPE
  5
B0F
330
AD8
100
AcDbSymbolTableRecord
100
AcDbLinetypeTableRecord
  2
DASHDOTX2
 70
     0
  3
Dashdotx2 ____  .  ____  .  ____  .  ___
 72
    65
 73
     4
 40
2.0
 49
1.0
 74
     0
 49
-0.5
 74
     0
 49
0.0
 74
     0
 49
-0.5
 74
     0
  0
LTYPE
  5
B10
330
AD8
100
AcDbSymbolTableRecord
100
AcDbLinetypeTableRecord
  2
DASHED2
 70
     0
  3
Dashed2 _ _ _ _ _ _ _ _ _ _ _ _ _ _ _ _ _ 
 72
    65
 73
     2
 40
0.375
 49
0.25
 74
     0
 49
-0.125
 74
     0
  0
LTYPE
  5
B11
330
AD8
100
AcDbSymbolTableRecord
100
AcDbLinetypeTableRecord
  2
DASHEDX2
 70
     0
  3
Dashedx2 ____  ____  ____  ____  ____  ___
 72
    65
 73
     2
 40
1.5
 49
1.0
 74
     0
 49
-0.5
 74
     0
  0
LTYPE
  5
B12
330
AD8
100
AcDbSymbolTableRecord
100
AcDbLinetypeTableRecord
  2
DIVIDE
 70
     0
  3
Divide ____ . . ____ . . ____ . . ____ . . ____
 72
    65
 73
     6
 40
1.25
 49
0.5
 74
     0
 49
-0.25
 74
     0
 49
0.0
 74
     0
 49
-0.25
 74
     0
 49
0.0
 74
     0
 49
-0.25
 74
     0
  0
LTYPE
  5
B13
330
AD8
100
AcDbSymbolTableRecord
100
AcDbLinetypeTableRecord
  2
DIVIDE2
 70
     0
  3
Divide2 __..__..__..__..__..__..__..__.._
 72
    65
 73
     6
 40
0.625
 49
0.25
 74
     0
 49
-0.125
 74
     0
 49
0.0
 74
     0
 49
-0.125
 74
     0
 49
0.0
 74
     0
 49
-0.125
 74
     0
  0
LTYPE
  5
B14
330
AD8
100
AcDbSymbolTableRecord
100
AcDbLinetypeTableRecord
  2
DIVIDEX2
 70
     0
  3
Dividex2 ________  .  .  ________  .  .  _
 72
    65
 73
     6
 40
2.5
 49
1.0
 74
     0
 49
-0.5
 74
     0
 49
0.0
 74
     0
 49
-0.5
 74
     0
 49
0.0
 74
     0
 49
-0.5
 74
     0
  0
LTYPE
  5
B15
330
AD8
100
AcDbSymbolTableRecord
100
AcDbLinetypeTableRecord
  2
DOT
 70
     0
  3
Dot . . . . . . . . . . . . . . . . . . . . . . . .
 72
    65
 73
     2
 40
0.25
 49
0.0
 74
     0
 49
-0.25
 74
     0
  0
LTYPE
  5
B16
330
AD8
100
AcDbSymbolTableRecord
100
AcDbLinetypeTableRecord
  2
DOT2
 70
     0
  3
Dot2 ........................................
 72
    65
 73
     2
 40
0.125
 49
0.0
 74
     0
 49
-0.125
 74
     0
  0
LTYPE
  5
B17
330
AD8
100
AcDbSymbolTableRecord
100
AcDbLinetypeTableRecord
  2
DOTX2
 70
     0
  3
Dotx2 .  .  .  .  .  .  .  .  .  .  .  .  .  .
 72
    65
 73
     2
 40
0.5
 49
0.0
 74
     0
 49
-0.5
 74
     0
  0
LTYPE
  5
B18
330
AD8
100
AcDbSymbolTableRecord
100
AcDbLinetypeTableRecord
  2
HIDDENX2
 70
     0
  3
Hiddenx2 ____ ____ ____ ____ ____ ____ ____ 
 72
    65
 73
     2
 40
0.75
 49
0.5
 74
     0
 49
-0.25
 74
     0
  0
LTYPE
  5
B19
330
AD8
100
AcDbSymbolTableRecord
100
AcDbLinetypeTableRecord
  2
PHANTOM
 70
     0
  3
Phantom ______  __  __  ______  __  __  ______ 
 72
    65
 73
     6
 40
2.5
 49
1.25
 74
     0
 49
-0.25
 74
     0
 49
0.25
 74
     0
 49
-0.25
 74
     0
 49
0.25
 74
     0
 49
-0.25
 74
     0
  0
LTYPE
  5
B1A
330
AD8
100
AcDbSymbolTableRecord
100
AcDbLinetypeTableRecord
  2
PHANTOM2
 70
     0
  3
Phantom2 ___ _ _ ___ _ _ ___ _ _ ___ _ _
 72
    65
 73
     6
 40
1.25
 49
0.625
 74
     0
 49
-0.125
 74
     0
 49
0.125
 74
     0
 49
-0.125
 74
     0
 49
0.125
 74
     0
 49
-0.125
 74
     0
  0
LTYPE
  5
B1B
330
AD8
100
AcDbSymbolTableRecord
100
AcDbLinetypeTableRecord
  2
PHANTOMX2
 70
     0
  3
Phantomx2 ____________    ____    ____   _
 72
    65
 73
     6
 40
5.0
 49
2.5
 74
     0
 49
-0.5
 74
     0
 49
0.5
 74
     0
 49
-0.5
 74
     0
 49
0.5
 74
     0
 49
-0.5
 74
     0
  0
ENDTAB
  0
TABLE
  2
LAYER
  5
AD5
330
0
100
AcDbSymbolTable
 70
     6
  0
LAYER
  5
AE3
330
AD5
100
AcDbSymbolTableRecord
100
AcDbLayerTableRecord
  2
0
 70
     0
 62
     7
  6
CONTINUOUS
  0
LAYER
  5
9E
330
AD5
100
AcDbSymbolTableRecord
100
AcDbLayerTableRecord
  2
DEFPOINTS
 70
     0
 62
     7
  6
CONTINUOUS
  0
LAYER
  5
377
330
AD5
100
AcDbSymbolTableRecord
100
AcDbLayerTableRecord
  2
V0-OBRYS
 70
     0
 62
    90
  6
CONTINUOUS
  0
LAYER
  5
378
330
AD5
100
AcDbSymbolTableRecord
100
AcDbLayerTableRecord
  2
V0-VYPLNE
 70
     0
 62
    63
  6
DASHDOT
  0
LAYER
  5
37A
330
AD5
100
AcDbSymbolTableRecord
100
AcDbLayerTableRecord
  2
V0-NAZVY
 70
     0
 62
   210
  6
CONTINUOUS
  0
LAYER
  5
559
330
AD5
100
AcDbSymbolTableRecord
100
AcDbLayerTableRecord
  2
V0-ZBYTEK
 70
     0
 62
    51
  6
CONTINUOUS
  0
ENDTAB
  0
TABLE
  2
STYLE
  5
AD6
330
0
100
AcDbSymbolTable
 70
     5
  0
STYLE
  5
AE4
330
AD6
100
AcDbSymbolTableRecord
100
AcDbTextStyleTableRecord
  2
STANDARD
 70
     0
 40
7.0
 41
1.0
 50
0.0
 71
     0
 42
0.2
  3
ISOCP.shx
  4

1001
ACAD
1000
ISOCP.shx
1071
        0
  0
STYLE
  5
331
330
AD6
100
AcDbSymbolTableRecord
100
AcDbTextStyleTableRecord
  2
ED30
 70
     0
 40
30.0
 41
1.0
 50
0.0
 71
     0
 42
0.2
  3
ISOCP.shx
  4

1001
ACAD
1000
ISOCP.shx
1071
        0
  0
STYLE
  5
5D2
330
AD6
100
AcDbSymbolTableRecord
100
AcDbTextStyleTableRecord
  2
ED20
 70
     0
 40
20.0
 41
1.0
 50
0.0
 71
     0
 42
0.2
  3
isocp.shx
  4

1001
ACAD
1000
isocp.shx
1071
        0
  0
STYLE
  5
64F
330
AD6
100
AcDbSymbolTableRecord
100
AcDbTextStyleTableRecord
  2
ED40
 70
     0
 40
40.0
 41
1.0
 50
0.0
 71
     0
 42
0.2
  3
isocp.shx
  4

1001
ACAD
1000
isocp.shx
1071
        0
  0
STYLE
  5
650
330
AD6
100
AcDbSymbolTableRecord
100
AcDbTextStyleTableRecord
  2
ED10
 70
     0
 40
10.0
 41
1.0
 50
0.0
 71
     0
 42
0.2
  3
isocp.shx
  4

1001
ACAD
1000
isocp.shx
1071
        0
  0
ENDTAB
  0
TABLE
  2
VIEW
  5
AD9
330
0
100
AcDbSymbolTable
 70
     0
  0
ENDTAB
  0
TABLE
  2
UCS
  5
ADA
330
0
100
AcDbSymbolTable
 70
     0
  0
ENDTAB
  0
TABLE
  2
APPID
  5
ADC
330
0
100
AcDbSymbolTable
 70
     6
  0
APPID
  5
AE5
330
ADC
100
AcDbSymbolTableRecord
100
AcDbRegAppTableRecord
  2
ACAD
 70
     0
  0
APPID
  5
AFD
330
ADC
100
AcDbSymbolTableRecord
100
AcDbRegAppTableRecord
  2
VD_INVISIBLE_NOT_FOR_READ
 70
     0
  0
APPID
  5
AFE
330
ADC
100
AcDbSymbolTableRecord
100
AcDbRegAppTableRecord
  2
VD_TEMPHATCH
 70
     0
  0
APPID
  5
AFF
330
ADC
100
AcDbSymbolTableRecord
100
AcDbRegAppTableRecord
  2
VDEXTRAPARAM
 70
     0
  0
APPID
  5
B00
330
ADC
100
AcDbSymbolTableRecord
100
AcDbRegAppTableRecord
  2
PE_URL
 70
     0
  0
APPID
  5
B01
330
ADC
100
AcDbSymbolTableRecord
100
AcDbRegAppTableRecord
  2
VD_UNKNOWN
 70
     0
  0
ENDTAB
  0
TABLE
  2
DIMSTYLE
  5
ADD
330
0
100
AcDbSymbolTable
 70
     5
  0
DIMSTYLE
105
AFA
330
ADD
100
AcDbSymbolTableRecord
100
AcDbDimStyleTableRecord
  2
STANDARD
 70
     0
  3

  4

  5
OPEN
  6

  7

 40
1.0
 41
15.0
 42
0.625
 43
0.38
 44
1.25
 45
0.0
 46
0.0
 47
0.0
 48
0.0
140
15.0
141
0.09
142
0.0
143
25.4
144
1.0
145
0.0
146
1.0
147
3.0
 71
     0
 72
     0
 73
     0
 74
     0
 75
     0
 76
     0
 77
     1
 78
     0
170
     0
171
     2
172
     1
173
     0
174
     1
175
     0
176
     0
177
     0
178
     0
270
     2
271
     0
272
     4
273
     2
274
     2
340
331
275
     0
280
     0
281
     0
282
     0
283
     1
284
     0
285
     0
286
     0
287
     3
288
     1
  0
DIMSTYLE
105
397
330
ADD
100
AcDbSymbolTableRecord
100
AcDbDimStyleTableRecord
  2
ED40
 70
     0
  3

  4

  5
OPEN
  6

  7

 40
1.0
 41
35.0
 42
1.0
 43
0.38
 44
1.25
 45
0.0
 46
0.0
 47
0.0
 48
0.0
140
40.0
141
0.09
142
0.0
143
25.4
144
1.0
145
0.0
146
1.0
147
3.0
 71
     0
 72
     0
 73
     0
 74
     0
 75
     0
 76
     0
 77
     1
 78
     0
170
     0
171
     2
172
     1
173
     0
174
     1
175
     0
176
     0
177
     0
178
     0
270
     2
271
     0
272
     4
273
     2
274
     2
340
64F
275
     0
280
     0
281
     0
282
     0
283
     1
284
     0
285
     0
286
     0
287
     3
288
     1
  0
DIMSTYLE
105
656
330
ADD
100
AcDbSymbolTableRecord
100
AcDbDimStyleTableRecord
  2
ED30
 70
     0
  3

  4

  5
OPEN
  6

  7

 40
1.0
 41
25.0
 42
1.0
 43
0.38
 44
1.25
 45
0.0
 46
0.0
 47
0.0
 48
0.0
140
30.0
141
0.09
142
0.0
143
25.4
144
1.0
145
0.0
146
1.0
147
2.0
 71
     0
 72
     0
 73
     0
 74
     0
 75
     0
 76
     0
 77
     1
 78
     0
170
     0
171
     2
172
     1
173
     0
174
     1
175
     0
176
     0
177
     0
178
     0
270
     2
271
     0
272
     4
273
     2
274
     2
340
331
275
     0
280
     0
281
     0
282
     0
283
     1
284
     0
285
     0
286
     0
287
     3
288
     1
  0
DIMSTYLE
105
657
330
ADD
100
AcDbSymbolTableRecord
100
AcDbDimStyleTableRecord
  2
ED20
 70
     0
  3

  4

  5
OPEN
  6

  7

 40
1.0
 41
20.0
 42
1.0
 43
0.38
 44
1.25
 45
0.0
 46
0.0
 47
0.0
 48
0.0
140
20.0
141
0.09
142
0.0
143
25.4
144
1.0
145
0.0
146
1.0
147
1.5
 71
     0
 72
     0
 73
     0
 74
     0
 75
     0
 76
     0
 77
     1
 78
     0
170
     0
171
     2
172
     1
173
     0
174
     1
175
     0
176
     0
177
     0
178
     0
270
     2
271
     0
272
     4
273
     2
274
     2
340
5D2
275
     0
280
     0
281
     0
282
     0
283
     1
284
     0
285
     0
286
     0
287
     3
288
     1
  0
DIMSTYLE
105
658
102
{ACAD_REACTORS
330
715
330
724
330
731
330
74B
330
758
330
7D2
102
}
330
ADD
100
AcDbSymbolTableRecord
100
AcDbDimStyleTableRecord
  2
ED10
 70
     0
  3

  4

  5
OPEN
  6

  7

 40
1.0
 41
15.0
 42
1.0
 43
0.38
 44
1.25
 45
0.0
 46
0.0
 47
0.0
 48
0.0
140
10.0
141
0.09
142
0.0
143
25.4
144
1.0
145
0.0
146
1.0
147
1.5
 71
     0
 72
     0
 73
     0
 74
     0
 75
     0
 76
     0
 77
     1
 78
     0
170
     0
171
     2
172
     1
173
     0
174
     1
175
     0
176
     0
177
     0
178
     0
270
     2
271
     0
272
     4
273
     2
274
     2
340
5D2
275
     0
280
     0
281
     0
282
     0
283
     1
284
     0
285
     0
286
     0
287
     3
288
     1
  0
ENDTAB
  0
TABLE
  2
BLOCK_RECORD
  5
AD4
330
0
100
AcDbSymbolTable
 70
    11
  0
BLOCK_RECORD
  5
AF2
330
AD4
100
AcDbSymbolTableRecord
100
AcDbBlockTableRecord
  2
*MODEL_SPACE
  0
BLOCK_RECORD
  5
AEE
330
AD4
100
AcDbSymbolTableRecord
100
AcDbBlockTableRecord
  2
*PAPER_SPACE
  0
BLOCK_RECORD
  5
90
330
AD4
100
AcDbSymbolTableRecord
100
AcDbBlockTableRecord
  2
_OPEN
  0
BLOCK_RECORD
  5
798
330
AD4
100
AcDbSymbolTableRecord
100
AcDbBlockTableRecord
  2
ASIPKA
  0
BLOCK_RECORD
  5
AD0
330
AD4
100
AcDbSymbolTableRecord
100
AcDbBlockTableRecord
  2
VDDIM_DEFAULT
  0
BLOCK_RECORD
  5
AD2
330
AD4
100
AcDbSymbolTableRecord
100
AcDbBlockTableRecord
  2
VDDIM_NONE
  0
BLOCK_RECORD
  5
B25
330
AD4
100
AcDbSymbolTableRecord
100
AcDbBlockTableRecord
  2
*D5
  0
BLOCK_RECORD
  5
B33
330
AD4
100
AcDbSymbolTableRecord
100
AcDbBlockTableRecord
  2
*D6
  0
BLOCK_RECORD
  5
B41
330
AD4
100
AcDbSymbolTableRecord
100
AcDbBlockTableRecord
  2
*D7
  0
BLOCK_RECORD
  5
B4D
330
AD4
100
AcDbSymbolTableRecord
100
AcDbBlockTableRecord
  2
*D8
  0
BLOCK_RECORD
  5
B59
330
AD4
100
AcDbSymbolTableRecord
100
AcDbBlockTableRecord
  2
*D9
  0
BLOCK_RECORD
  5
B65
330
AD4
100
AcDbSymbolTableRecord
100
AcDbBlockTableRecord
  2
*D10
  0
ENDTAB
  0
ENDSEC
  0
SECTION
  2
BLOCKS
  0
BLOCK
  5
AF3
330
AF2
100
AcDbEntity
  8
0
100
AcDbBlockBegin
  2
*MODEL_SPACE
 70
     0
 71
     0
 10
0.0
 20
0.0
 30
0.0
  3
*MODEL_SPACE
  1

  0
ENDBLK
  5
AF4
330
AF2
100
AcDbEntity
  8
0
100
AcDbBlockEnd
  0
BLOCK
  5
AEF
330
AEE
100
AcDbEntity
 67
     1
  8
0
100
AcDbBlockBegin
  2
*PAPER_SPACE
 70
     0
 71
     0
 10
0.0
 20
0.0
 30
0.0
  3
*PAPER_SPACE
  1

  0
ENDBLK
  5
AF0
330
AEE
100
AcDbEntity
 67
     1
  8
0
100
AcDbBlockEnd
  0
BLOCK
  5
B1C
330
90
100
AcDbEntity
  8
0
100
AcDbBlockBegin
  2
_OPEN
 70
     0
 71
     0
 10
0.0
 20
0.0
 30
0.0
  3
_OPEN
  1

  0
LINE
  5
92
330
90
100
AcDbEntity
  8
0
  6
BYBLOCK
 62
     0
100
AcDbLine
 10
-1.0
 20
0.166667
 30
0.0
 11
0.0
 21
0.0
 31
0.0
  0
LINE
  5
93
330
90
100
AcDbEntity
  8
0
  6
BYBLOCK
 62
     0
100
AcDbLine
 10
0.0
 20
0.0
 30
0.0
 11
-1.0
 21
-0.166667
 31
0.0
  0
LINE
  5
94
330
90
100
AcDbEntity
  8
0
  6
BYBLOCK
 62
     0
100
AcDbLine
 10
0.0
 20
0.0
 30
0.0
 11
-1.0
 21
0.0
 31
0.0
  0
ENDBLK
  5
B1D
330
90
100
AcDbEntity
  8
0
100
AcDbBlockEnd
  0
BLOCK
  5
B1E
330
798
100
AcDbEntity
  8
0
100
AcDbBlockBegin
  2
ASIPKA
 70
     0
 71
     0
 10
0.0
 20
0.0
 30
0.0
  3
ASIPKA
  1

  0
LINE
  5
799
330
798
100
AcDbEntity
  8
V0-VYPLNE
  6
CONTINUOUS
 62
    41
100
AcDbLine
 10
-56.887995
 20
-0.000006
 30
0.0
 11
0.0000300000000024
 21
-0.000006
 31
0.0
  0
LINE
  5
79A
330
798
100
AcDbEntity
  8
V0-VYPLNE
  6
CONTINUOUS
 62
    41
100
AcDbLine
 10
0.00003
 20
-0.000006
 30
0.0
 11
-32.15407
 21
-9.882585000000001
 31
0.0
  0
LINE
  5
79B
330
798
100
AcDbEntity
  8
V0-VYPLNE
  6
CONTINUOUS
 62
    41
100
AcDbLine
 10
0.00003
 20
-0.000006
 30
0.0
 11
-32.15407
 21
9.882573000000001
 31
0.0
  0
ENDBLK
  5
B1F
330
798
100
AcDbEntity
  8
0
100
AcDbBlockEnd
  0
BLOCK
  5
B20
330
AD0
100
AcDbEntity
  8
0
100
AcDbBlockBegin
  2
VDDIM_DEFAULT
 70
     0
 71
     0
 10
0.0
 20
0.0
 30
0.0
  3
VDDIM_DEFAULT
  1

  0
LWPOLYLINE
  5
AD1
330
AD0
100
AcDbEntity
  8
0
  6
CONTINUOUS
 62
     0
100
AcDbPolyline
 90
        4
 70
     0
 43
0.0
 10
0.0
 20
0.0
 10
-1.0
 20
-0.1665
 10
-1.0
 20
0.1665
 10
0.0
 20
0.0
1001
VDEXTRAPARAM
1071
        1
1071
        0
1071
        0
1040
1.0
1000

1000

1040
0.0
1040
0.0
  0
HATCH
  5
B24
330
AD0
100
AcDbEntity
  8
0
  6
CONTINUOUS
 62
     0
100
AcDbHatch
 10
0.0
 20
0.0
 30
0.0
210
0.0
220
0.0
230
1.0
  2
SOLID
 70
     1
 71
     0
 91
        1
 92
        2
 72
     0
 73
     1
 93
        3
 10
0.0
 20
0.0
 10
-1.0
 20
-0.1665
 10
-1.0
 20
0.1665
 97
        0
 75
     0
 76
     1
 98
        1
 10
0.0
 20
0.0
1001
VDEXTRAPARAM
1071
        1
1071
        0
1071
        0
1040
1.0
1000

1000

1040
0.0
1040
0.0
1001
VD_TEMPHATCH
1000
VD_TEMPHATCH
  0
ENDBLK
  5
B21
330
AD0
100
AcDbEntity
  8
0
100
AcDbBlockEnd
  0
BLOCK
  5
B22
330
AD2
100
AcDbEntity
  8
0
100
AcDbBlockBegin
  2
VDDIM_NONE
 70
     0
 71
     0
 10
0.0
 20
0.0
 30
0.0
  3
VDDIM_NONE
  1

  0
ENDBLK
  5
B23
330
AD2
100
AcDbEntity
  8
0
100
AcDbBlockEnd
  0
BLOCK
  5
B31
330
B25
100
AcDbEntity
  8
0
100
AcDbBlockBegin
  2
*D5
 70
     1
 71
     0
 10
0.0
 20
0.0
 30
0.0
  3
*D5
  1

  0
LINE
  5
B26
330
B25
100
AcDbEntity
  8
V0-VYPLNE
 62
     0
100
AcDbLine
 10
155.0
 20
-63.5
 30
0.0
 11
155.0
 21
-156.0149600000004
 31
0.0
  0
LINE
  5
B27
330
B25
100
AcDbEntity
  8
V0-VYPLNE
 62
     0
100
AcDbLine
 10
175.0
 20
-63.5
 30
0.0
 11
175.0
 21
-156.0149600000004
 31
0.0
  0
LINE
  5
B28
330
B25
100
AcDbEntity
  8
V0-VYPLNE
 62
     0
100
AcDbLine
 10
140.0
 20
-154.7649600000004
 30
0.0
 11
125.0
 21
-154.7649600000004
 31
0.0
  0
LINE
  5
B29
330
B25
100
AcDbEntity
  8
V0-VYPLNE
 62
     0
100
AcDbLine
 10
190.0
 20
-154.7649600000004
 30
0.0
 11
224.1904761904762
 21
-154.7649600000004
 31
0.0
  0
LINE
  5
B2A
330
B25
100
AcDbEntity
  8
V0-VYPLNE
 62
     0
100
AcDbLine
 10
155.0
 20
-154.7649600000004
 30
0.0
 11
175.0
 21
-154.7649600000004
 31
0.0
  0
INSERT
  5
B2B
330
B25
100
AcDbEntity
  8
V0-VYPLNE
 62
     0
100
AcDbBlockReference
  2
_OPEN
 10
155.0
 20
-154.7649600000004
 30
0.0
 41
15.0
 42
15.0
 43
15.0
  0
INSERT
  5
B2C
330
B25
100
AcDbEntity
  8
V0-VYPLNE
 62
     0
100
AcDbBlockReference
  2
_OPEN
 10
175.0
 20
-154.7649600000004
 30
0.0
 41
15.0
 42
15.0
 43
15.0
 50
180.0
  0
MTEXT
  5
B2D
330
B25
100
AcDbEntity
  8
V0-VYPLNE
 62
     0
100
AcDbMText
 10
214.5952380952381
 20
-148.2649600000004
 30
0.0
 40
10.0
 41
0.0
 71
     5
 72
     1
  1
\A1;20
  7
ED20
  0
POINT
  5
B2E
330
B25
100
AcDbEntity
  8
DEFPOINTS
 62
     0
100
AcDbPoint
 10
155.0
 20
-62.5
 30
0.0
  0
POINT
  5
B2F
330
B25
100
AcDbEntity
  8
DEFPOINTS
 62
     0
100
AcDbPoint
 10
175.0
 20
-62.5
 30
0.0
  0
POINT
  5
B30
330
B25
100
AcDbEntity
  8
DEFPOINTS
 62
     0
100
AcDbPoint
 10
175.0
 20
-154.7649600000004
 30
0.0
  0
ENDBLK
  5
B32
330
B25
100
AcDbEntity
  8
0
100
AcDbBlockEnd
  0
BLOCK
  5
B3F
330
B33
100
AcDbEntity
  8
0
100
AcDbBlockBegin
  2
*D6
 70
     1
 71
     0
 10
0.0
 20
0.0
 30
0.0
  3
*D6
  1

  0
LINE
  5
B34
330
B33
100
AcDbEntity
  8
V0-VYPLNE
 62
     0
100
AcDbLine
 10
305.0
 20
-63.5
 30
0.0
 11
305.0
 21
-156.0149600000004
 31
0.0
  0
LINE
  5
B35
330
B33
100
AcDbEntity
  8
V0-VYPLNE
 62
     0
100
AcDbLine
 10
330.0
 20
-63.5
 30
0.0
 11
330.0
 21
-156.0149600000004
 31
0.0
  0
LINE
  5
B36
330
B33
100
AcDbEntity
  8
V0-VYPLNE
 62
     0
100
AcDbLine
 10
290.0
 20
-154.7649600000004
 30
0.0
 11
275.0
 21
-154.7649600000004
 31
0.0
  0
LINE
  5
B37
330
B33
100
AcDbEntity
  8
V0-VYPLNE
 62
     0
100
AcDbLine
 10
345.0
 20
-154.7649600000004
 30
0.0
 11
360.0
 21
-154.7649600000004
 31
0.0
  0
LINE
  5
B38
330
B33
100
AcDbEntity
  8
V0-VYPLNE
 62
     0
100
AcDbLine
 10
305.0
 20
-154.7649600000004
 30
0.0
 11
330.0
 21
-154.7649600000004
 31
0.0
  0
INSERT
  5
B39
330
B33
100
AcDbEntity
  8
V0-VYPLNE
 62
     0
100
AcDbBlockReference
  2
_OPEN
 10
305.0
 20
-154.7649600000004
 30
0.0
 41
15.0
 42
15.0
 43
15.0
  0
INSERT
  5
B3A
330
B33
100
AcDbEntity
  8
V0-VYPLNE
 62
     0
100
AcDbBlockReference
  2
_OPEN
 10
330.0
 20
-154.7649600000004
 30
0.0
 41
15.0
 42
15.0
 43
15.0
 50
180.0
  0
MTEXT
  5
B3B
330
B33
100
AcDbEntity
  8
V0-VYPLNE
 62
     0
100
AcDbMText
 10
317.5
 20
-148.2649600000004
 30
0.0
 40
10.0
 41
0.0
 71
     5
 72
     1
  1
\A1;25
  7
ED20
  0
POINT
  5
B3C
330
B33
100
AcDbEntity
  8
DEFPOINTS
 62
     0
100
AcDbPoint
 10
305.0
 20
-62.5
 30
0.0
  0
POINT
  5
B3D
330
B33
100
AcDbEntity
  8
DEFPOINTS
 62
     0
100
AcDbPoint
 10
330.0
 20
-62.5
 30
0.0
  0
POINT
  5
B3E
330
B33
100
AcDbEntity
  8
DEFPOINTS
 62
     0
100
AcDbPoint
 10
330.0
 20
-154.7649600000004
 30
0.0
  0
ENDBLK
  5
B40
330
B33
100
AcDbEntity
  8
0
100
AcDbBlockEnd
  0
BLOCK
  5
B4B
330
B41
100
AcDbEntity
  8
0
100
AcDbBlockBegin
  2
*D7
 70
     1
 71
     0
 10
0.0
 20
0.0
 30
0.0
  3
*D7
  1

  0
LINE
  5
B42
330
B41
100
AcDbEntity
  8
V0-VYPLNE
 62
     0
100
AcDbLine
 10
155.0
 20
-63.5
 30
0.0
 11
155.0
 21
-182.9599589999998
 31
0.0
  0
LINE
  5
B43
330
B41
100
AcDbEntity
  8
V0-VYPLNE
 62
     0
100
AcDbLine
 10
330.0
 20
-63.5
 30
0.0
 11
330.0
 21
-182.9599589999998
 31
0.0
  0
LINE
  5
B44
330
B41
100
AcDbEntity
  8
V0-VYPLNE
 62
     0
100
AcDbLine
 10
170.0
 20
-181.7099589999998
 30
0.0
 11
315.0
 21
-181.7099589999998
 31
0.0
  0
INSERT
  5
B45
330
B41
100
AcDbEntity
  8
V0-VYPLNE
 62
     0
100
AcDbBlockReference
  2
_OPEN
 10
155.0
 20
-181.7099589999998
 30
0.0
 41
15.0
 42
15.0
 43
15.0
 50
180.0
  0
INSERT
  5
B46
330
B41
100
AcDbEntity
  8
V0-VYPLNE
 62
     0
100
AcDbBlockReference
  2
_OPEN
 10
330.0
 20
-181.7099589999998
 30
0.0
 41
15.0
 42
15.0
 43
15.0
  0
MTEXT
  5
B47
330
B41
100
AcDbEntity
  8
V0-VYPLNE
 62
     0
100
AcDbMText
 10
242.5
 20
-175.2099589999998
 30
0.0
 40
10.0
 41
0.0
 71
     5
 72
     1
  1
\A1;175
  7
ED20
  0
POINT
  5
B48
330
B41
100
AcDbEntity
  8
DEFPOINTS
 62
     0
100
AcDbPoint
 10
155.0
 20
-62.5
 30
0.0
  0
POINT
  5
B49
330
B41
100
AcDbEntity
  8
DEFPOINTS
 62
     0
100
AcDbPoint
 10
330.0
 20
-62.5
 30
0.0
  0
POINT
  5
B4A
330
B41
100
AcDbEntity
  8
DEFPOINTS
 62
     0
100
AcDbPoint
 10
330.0
 20
-181.7099589999998
 30
0.0
  0
ENDBLK
  5
B4C
330
B41
100
AcDbEntity
  8
0
100
AcDbBlockEnd
  0
BLOCK
  5
B57
330
B4D
100
AcDbEntity
  8
0
100
AcDbBlockBegin
  2
*D8
 70
     1
 71
     0
 10
0.0
 20
0.0
 30
0.0
  3
*D8
  1

  0
LINE
  5
B4E
330
B4D
100
AcDbEntity
  8
V0-VYPLNE
 62
     0
100
AcDbLine
 10
154.0
 20
62.5
 30
0.0
 11
120.2616610000005
 21
62.5
 31
0.0
  0
LINE
  5
B4F
330
B4D
100
AcDbEntity
  8
V0-VYPLNE
 62
     0
100
AcDbLine
 10
154.0
 20
-62.5
 30
0.0
 11
120.2616610000005
 21
-62.5
 31
0.0
  0
LINE
  5
B50
330
B4D
100
AcDbEntity
  8
V0-VYPLNE
 62
     0
100
AcDbLine
 10
121.5116610000005
 20
47.5
 30
0.0
 11
121.5116610000005
 21
-47.5
 31
0.0
  0
INSERT
  5
B51
330
B4D
100
AcDbEntity
  8
V0-VYPLNE
 62
     0
100
AcDbBlockReference
  2
_OPEN
 10
121.5116610000005
 20
62.5
 30
0.0
 41
15.0
 42
15.0
 43
15.0
 50
89.99999999999999
  0
INSERT
  5
B52
330
B4D
100
AcDbEntity
  8
V0-VYPLNE
 62
     0
100
AcDbBlockReference
  2
_OPEN
 10
121.5116610000005
 20
-62.49999999999999
 30
0.0
 41
15.0
 42
15.0
 43
15.0
 50
270.0
  0
MTEXT
  5
B53
330
B4D
100
AcDbEntity
  8
V0-VYPLNE
 62
     0
100
AcDbMText
 10
115.0116610000005
 20
0.0000000000000071
 30
0.0
 40
10.0
 41
0.0
 71
     5
 72
     1
  1
%%c\A1;125
  7
ED20
 11
1.136868377216160E-16
 21
1.0
 31
0.0
  0
POINT
  5
B54
330
B4D
100
AcDbEntity
  8
DEFPOINTS
 62
     0
100
AcDbPoint
 10
155.0
 20
62.5
 30
0.0
  0
POINT
  5
B55
330
B4D
100
AcDbEntity
  8
DEFPOINTS
 62
     0
100
AcDbPoint
 10
155.0
 20
-62.5
 30
0.0
  0
POINT
  5
B56
330
B4D
100
AcDbEntity
  8
DEFPOINTS
 62
     0
100
AcDbPoint
 10
121.5116610000005
 20
-62.5
 30
0.0
  0
ENDBLK
  5
B58
330
B4D
100
AcDbEntity
  8
0
100
AcDbBlockEnd
  0
BLOCK
  5
B63
330
B59
100
AcDbEntity
  8
0
100
AcDbBlockBegin
  2
*D9
 70
     1
 71
     0
 10
0.0
 20
0.0
 30
0.0
  3
*D9
  1

  0
LINE
  5
B5A
330
B59
100
AcDbEntity
  8
V0-VYPLNE
 62
     0
100
AcDbLine
 10
331.0
 20
62.5
 30
0.0
 11
369.8766969999997
 21
62.5
 31
0.0
  0
LINE
  5
B5B
330
B59
100
AcDbEntity
  8
V0-VYPLNE
 62
     0
100
AcDbLine
 10
331.0
 20
-62.5
 30
0.0
 11
369.8766969999997
 21
-62.5
 31
0.0
  0
LINE
  5
B5C
330
B59
100
AcDbEntity
  8
V0-VYPLNE
 62
     0
100
AcDbLine
 10
368.6266969999997
 20
47.5
 30
0.0
 11
368.6266969999997
 21
-47.5
 31
0.0
  0
INSERT
  5
B5D
330
B59
100
AcDbEntity
  8
V0-VYPLNE
 62
     0
100
AcDbBlockReference
  2
_OPEN
 10
368.6266969999997
 20
62.5
 30
0.0
 41
15.0
 42
15.0
 43
15.0
 50
90.0
  0
INSERT
  5
B5E
330
B59
100
AcDbEntity
  8
V0-VYPLNE
 62
     0
100
AcDbBlockReference
  2
_OPEN
 10
368.6266969999997
 20
-62.5
 30
0.0
 41
15.0
 42
15.0
 43
15.0
 50
270.0
  0
MTEXT
  5
B5F
330
B59
100
AcDbEntity
  8
V0-VYPLNE
 62
     0
100
AcDbMText
 10
362.1266969999997
 20
-0.0000000000000071
 30
0.0
 40
10.0
 41
0.0
 71
     5
 72
     1
  1
%%c\A1;125
  7
ED20
 11
0.0
 21
1.0
 31
0.0
  0
POINT
  5
B60
330
B59
100
AcDbEntity
  8
DEFPOINTS
 62
     0
100
AcDbPoint
 10
330.0
 20
62.5
 30
0.0
  0
POINT
  5
B61
330
B59
100
AcDbEntity
  8
DEFPOINTS
 62
     0
100
AcDbPoint
 10
330.0
 20
-62.5
 30
0.0
  0
POINT
  5
B62
330
B59
100
AcDbEntity
  8
DEFPOINTS
 62
     0
100
AcDbPoint
 10
368.6266969999997
 20
-62.5
 30
0.0
  0
ENDBLK
  5
B64
330
B59
100
AcDbEntity
  8
0
100
AcDbBlockEnd
  0
BLOCK
  5
B6F
330
B65
100
AcDbEntity
  8
0
100
AcDbBlockBegin
  2
*D10
 70
     1
 71
     0
 10
0.0
 20
0.0
 30
0.0
  3
*D10
  1

  0
LINE
  5
B66
330
B65
100
AcDbEntity
  8
V0-VYPLNE
 62
     0
100
AcDbLine
 10
202.612466
 20
122.0
 30
0.0
 11
84.18981399999943
 21
122.0
 31
0.0
  0
LINE
  5
B67
330
B65
100
AcDbEntity
  8
V0-VYPLNE
 62
     0
100
AcDbLine
 10
202.612466
 20
-122.0
 30
0.0
 11
84.18981399999939
 21
-122.0
 31
0.0
  0
LINE
  5
B68
330
B65
100
AcDbEntity
  8
V0-VYPLNE
 62
     0
100
AcDbLine
 10
85.43981399999943
 20
107.0
 30
0.0
 11
85.43981399999937
 21
-107.0
 31
0.0
  0
INSERT
  5
B69
330
B65
100
AcDbEntity
  8
V0-VYPLNE
 62
     0
100
AcDbBlockReference
  2
_OPEN
 10
85.43981399999943
 20
122.0
 30
0.0
 41
15.0
 42
15.0
 43
15.0
 50
89.99999999999999
  0
INSERT
  5
B6A
330
B65
100
AcDbEntity
  8
V0-VYPLNE
 62
     0
100
AcDbBlockReference
  2
_OPEN
 10
85.43981399999937
 20
-122.0
 30
0.0
 41
15.0
 42
15.0
 43
15.0
 50
270.0
  0
MTEXT
  5
B6B
330
B65
100
AcDbEntity
  8
V0-VYPLNE
 62
     0
100
AcDbMText
 10
78.9398139999994
 20
0.000000000000015
 30
0.0
 40
10.0
 41
0.0
 71
     5
 72
     1
  1
%%c\A1;244
  7
ED20
 11
1.747236235475656E-16
 21
1.0
 31
0.0
  0
POINT
  5
B6C
330
B65
100
AcDbEntity
  8
DEFPOINTS
 62
     0
100
AcDbPoint
 10
203.612466
 20
122.0
 30
0.0
  0
POINT
  5
B6D
330
B65
100
AcDbEntity
  8
DEFPOINTS
 62
     0
100
AcDbPoint
 10
203.612466
 20
-122.0
 30
0.0
  0
POINT
  5
B6E
330
B65
100
AcDbEntity
  8
DEFPOINTS
 62
     0
100
AcDbPoint
 10
85.43981399999939
 20
-122.0
 30
0.0
  0
ENDBLK
  5
B70
330
B65
100
AcDbEntity
  8
0
100
AcDbBlockEnd
  0
ENDSEC
  0
SECTION
  2
ENTITIES
  0
LINE
  5
66F
330
AF2
100
AcDbEntity
  8
V0-VYPLNE
 62
    63
100
AcDbLine
 10
155.0
 20
0.0
 30
0.0
 11
337.635079
 21
0.0
 31
0.0
  0
LINE
  5
670
330
AF2
100
AcDbEntity
  8
V0-OBRYS
 62
    90
100
AcDbLine
 10
155.0
 20
0.0
 30
0.0
 11
155.0
 21
62.5
 31
0.0
  0
LINE
  5
671
330
AF2
100
AcDbEntity
  8
V0-OBRYS
 62
    90
100
AcDbLine
 10
155.0
 20
62.5
 30
0.0
 11
175.0
 21
62.5
 31
0.0
  0
LINE
  5
672
330
AF2
100
AcDbEntity
  8
V0-OBRYS
 62
    90
100
AcDbLine
 10
175.0
 20
62.5
 30
0.0
 11
175.0
 21
0.0
 31
0.0
  0
LINE
  5
673
330
AF2
100
AcDbEntity
  8
V0-OBRYS
 62
    90
100
AcDbLine
 10
305.0
 20
0.0
 30
0.0
 11
305.0
 21
64.944174
 31
0.0
  0
LINE
  5
675
330
AF2
100
AcDbEntity
  8
V0-OBRYS
 62
    90
100
AcDbLine
 10
330.0
 20
0.0
 30
0.0
 11
330.0
 21
62.5
 31
0.0
  0
LINE
  5
676
330
AF2
100
AcDbEntity
  8
V0-OBRYS
 62
    90
100
AcDbLine
 10
330.0
 20
62.5
 30
0.0
 11
305.0
 21
62.5
 31
0.0
  0
LINE
  5
679
330
AF2
100
AcDbEntity
  8
V0-OBRYS
 62
    90
100
AcDbLine
 10
203.612466
 20
122.0
 30
0.0
 11
203.612466
 21
0.0
 31
0.0
  0
LINE
  5
67A
330
AF2
100
AcDbEntity
  8
V0-OBRYS
 62
    90
100
AcDbLine
 10
175.0
 20
62.5
 30
0.0
 11
175.0
 21
66.31948
 31
0.0
  0
LINE
  5
67B
330
AF2
100
AcDbEntity
  8
V0-OBRYS
 62
    90
100
AcDbLine
 10
203.612466
 20
118.620908
 30
0.0
 11
195.635916
 21
118.620908
 31
0.0
  0
LINE
  5
67D
330
AF2
100
AcDbEntity
  8
V0-OBRYS
 62
    90
100
AcDbLine
 10
180.0
 20
0.0
 30
0.0
 11
180.0
 21
68.31948
 31
0.0
  0
LINE
  5
67E
330
AF2
100
AcDbEntity
  8
V0-OBRYS
 62
    90
100
AcDbLine
 10
175.0
 20
66.31948
 30
0.0
 11
178.0
 21
66.31948
 31
0.0
  0
ARC
  5
67F
330
AF2
100
AcDbEntity
  8
V0-OBRYS
 62
    90
100
AcDbCircle
 10
178.0
 20
68.31948
 30
0.0
 40
2.0
100
AcDbArc
 50
270.0
 51
0.0
  0
LINE
  5
681
330
AF2
100
AcDbEntity
  8
V0-OBRYS
 62
    90
100
AcDbLine
 10
180.0
 20
68.31948
 30
0.0
 11
185.785925
 21
110.346504
 31
0.0
  0
ARC
  5
683
330
AF2
100
AcDbEntity
  8
V0-OBRYS
 62
    90
100
AcDbCircle
 10
195.635916
 20
108.620908
 30
0.0
 40
10.0
100
AcDbArc
 50
90.0
 51
170.063326
  0
LINE
  5
684
330
AF2
100
AcDbEntity
  8
V0-OBRYS
 62
    90
100
AcDbLine
 10
255.753017
 20
122.0
 30
0.0
 11
255.753017
 21
0.0
 31
0.0
  0
LINE
  5
685
330
AF2
100
AcDbEntity
  8
V0-OBRYS
 62
    90
100
AcDbLine
 10
267.122971
 20
119.742112
 30
0.0
 11
304.265632
 21
66.492778
 31
0.0
  0
LINE
  5
686
330
AF2
100
AcDbEntity
  8
V0-OBRYS
 62
    90
100
AcDbLine
 10
203.612466
 20
122.0
 30
0.0
 11
260.794968
 21
121.999091
 31
0.0
  0
ARC
  5
687
330
AF2
100
AcDbEntity
  8
V0-OBRYS
 62
    90
100
AcDbCircle
 10
303.0
 20
64.944174
 30
0.0
 40
2.0
100
AcDbArc
 50
0.0
 51
50.741799
  0
ARC
  5
688
330
AF2
100
AcDbEntity
  8
V0-OBRYS
 62
    90
100
AcDbCircle
 10
178.0
 20
-68.31948
 30
0.0
 40
2.0
100
AcDbArc
 50
0.0
 51
90.0
  0
LINE
  5
689
330
AF2
100
AcDbEntity
  8
V0-OBRYS
 62
    90
100
AcDbLine
 10
175.0
 20
-62.5
 30
0.0
 11
175.0
 21
0.0
 31
0.0
  0
LINE
  5
68A
330
AF2
100
AcDbEntity
  8
V0-OBRYS
 62
    90
100
AcDbLine
 10
155.0
 20
0.0
 30
0.0
 11
155.0
 21
-62.5
 31
0.0
  0
LINE
  5
68B
330
AF2
100
AcDbEntity
  8
V0-OBRYS
 62
    90
100
AcDbLine
 10
155.0
 20
-62.5
 30
0.0
 11
175.0
 21
-62.5
 31
0.0
  0
LINE
  5
68C
330
AF2
100
AcDbEntity
  8
V0-OBRYS
 62
    90
100
AcDbLine
 10
175.0
 20
-62.5
 30
0.0
 11
175.0
 21
-66.31948
 31
0.0
  0
LINE
  5
68D
330
AF2
100
AcDbEntity
  8
V0-OBRYS
 62
    90
100
AcDbLine
 10
175.0
 20
-66.31948
 30
0.0
 11
178.0
 21
-66.31948
 31
0.0
  0
LINE
  5
68E
330
AF2
100
AcDbEntity
  8
V0-OBRYS
 62
    90
100
AcDbLine
 10
305.0
 20
0.0
 30
0.0
 11
305.0
 21
-64.944174
 31
0.0
  0
LINE
  5
68F
330
AF2
100
AcDbEntity
  8
V0-OBRYS
 62
    90
100
AcDbLine
 10
203.612466
 20
-122.0
 30
0.0
 11
203.612466
 21
0.0
 31
0.0
  0
LINE
  5
691
330
AF2
100
AcDbEntity
  8
V0-OBRYS
 62
    90
100
AcDbLine
 10
255.753017
 20
-122.0
 30
0.0
 11
255.753017
 21
0.0
 31
0.0
  0
LINE
  5
692
330
AF2
100
AcDbEntity
  8
V0-OBRYS
 62
    90
100
AcDbLine
 10
180.0
 20
0.0
 30
0.0
 11
180.0
 21
-68.31948
 31
0.0
  0
LINE
  5
693
330
AF2
100
AcDbEntity
  8
V0-OBRYS
 62
    90
100
AcDbLine
 10
330.0
 20
0.0
 30
0.0
 11
330.0
 21
-62.5
 31
0.0
  0
LINE
  5
694
330
AF2
100
AcDbEntity
  8
V0-OBRYS
 62
    90
100
AcDbLine
 10
267.122971
 20
-119.742112
 30
0.0
 11
304.265632
 21
-66.492778
 31
0.0
  0
ARC
  5
695
330
AF2
100
AcDbEntity
  8
V0-OBRYS
 62
    90
100
AcDbCircle
 10
195.635916
 20
-108.620908
 30
0.0
 40
10.0
100
AcDbArc
 50
189.936674
 51
270.0
  0
LINE
  5
696
330
AF2
100
AcDbEntity
  8
V0-OBRYS
 62
    90
100
AcDbLine
 10
180.0
 20
-68.31948
 30
0.0
 11
185.785925
 21
-110.346504
 31
0.0
  0
LINE
  5
697
330
AF2
100
AcDbEntity
  8
V0-OBRYS
 62
    90
100
AcDbLine
 10
203.612466
 20
-122.0
 30
0.0
 11
260.794968
 21
-121.999091
 31
0.0
  0
LINE
  5
698
330
AF2
100
AcDbEntity
  8
V0-OBRYS
 62
    90
100
AcDbLine
 10
203.612466
 20
-118.620908
 30
0.0
 11
195.635916
 21
-118.620908
 31
0.0
  0
LINE
  5
699
330
AF2
100
AcDbEntity
  8
V0-OBRYS
 62
    90
100
AcDbLine
 10
330.0
 20
-62.5
 30
0.0
 11
305.0
 21
-62.5
 31
0.0
  0
ARC
  5
69A
330
AF2
100
AcDbEntity
  8
V0-OBRYS
 62
    90
100
AcDbCircle
 10
303.0
 20
-64.944174
 30
0.0
 40
2.0
100
AcDbArc
 50
309.258201
 51
0.0
  0
ARC
  5
69E
330
AF2
100
AcDbEntity
  8
V0-OBRYS
 62
    90
100
AcDbCircle
 10
260.794809
 20
111.999091
 30
0.0
 40
10.0
100
AcDbArc
 50
50.741799
 51
89.999089
  0
ARC
  5
69F
330
AF2
100
AcDbEntity
  8
V0-OBRYS
 62
    90
100
AcDbCircle
 10
260.794809
 20
-111.999091
 30
0.0
 40
10.0
100
AcDbArc
 50
270.000911
 51
309.258201
  0
LINE
  5
6A0
330
AF2
100
AcDbEntity
  8
V0-OBRYS
 62
    90
100
AcDbLine
 10
264.319499
 20
115.823614
 30
0.0
 11
264.319499
 21
-115.276556
 31
0.0
  0
LINE
  5
6A1
330
AF2
100
AcDbEntity
  8
V0-OBRYS
 62
    90
100
AcDbLine
 10
193.457739
 20
109.374464
 30
0.0
 11
193.457739
 21
-110.439695
 31
0.0
  0
LINE
  5
6A2
330
AF2
100
AcDbEntity
  8
V0-OBRYS
 62
    90
100
AcDbLine
 10
210.0
 20
40.0
 30
0.0
 11
250.0
 21
40.0
 31
0.0
  0
LINE
  5
6A3
330
AF2
100
AcDbEntity
  8
V0-OBRYS
 62
    90
100
AcDbLine
 10
250.0
 20
40.0
 30
0.0
 11
250.0
 21
-40.0
 31
0.0
  0
LINE
  5
6A4
330
AF2
100
AcDbEntity
  8
V0-OBRYS
 62
    90
100
AcDbLine
 10
250.0
 20
-40.0
 30
0.0
 11
210.0
 21
-40.0
 31
0.0
  0
LINE
  5
6A5
330
AF2
100
AcDbEntity
  8
V0-OBRYS
 62
    90
100
AcDbLine
 10
210.0
 20
-40.0
 30
0.0
 11
210.0
 21
40.0
 31
0.0
  0
LINE
  5
6AA
330
AF2
100
AcDbEntity
  8
V0-VYPLNE
 62
    63
100
AcDbLine
 10
550.0
 20
120.033682
 30
0.0
 11
550.0
 21
-120.0
 31
0.0
  0
LINE
  5
6AB
330
AF2
100
AcDbEntity
  8
V0-VYPLNE
 62
    63
100
AcDbLine
 10
431.569198
 20
0.0
 30
0.0
 11
670.0
 21
0.0
 31
0.0
  0
CIRCLE
  5
6AC
330
AF2
100
AcDbEntity
  8
V0-OBRYS
 62
    90
100
AcDbCircle
 10
550.0
 20
0.0
 30
0.0
 40
62.5
  0
CIRCLE
  5
6AD
330
AF2
100
AcDbEntity
  8
V0-OBRYS
 62
    90
100
AcDbCircle
 10
550.0
 20
0.0
 30
0.0
 40
121.99695
  0
CIRCLE
  5
6AE
330
AF2
100
AcDbEntity
  8
V0-OBRYS
 62
    90
100
AcDbCircle
 10
550.0
 20
0.0
 30
0.0
 40
116.49578
  0
CIRCLE
  5
6AF
330
AF2
100
AcDbEntity
  8
V0-OBRYS
 62
    90
100
AcDbCircle
 10
550.0
 20
0.0
 30
0.0
 40
64.88140900000001
  0
CIRCLE
  5
6B0
330
AF2
100
AcDbEntity
  8
V0-OBRYS
 62
    90
100
AcDbCircle
 10
550.0
 20
0.0
 30
0.0
 40
48.079869
  0
LINE
  5
6B1
330
AF2
100
AcDbEntity
  8
V0-OBRYS
 62
    90
100
AcDbLine
 10
550.0
 20
48.079869
 30
0.0
 11
550.0
 21
63.185912
 31
0.0
  0
LINE
  5
6C5
330
AF2
100
AcDbEntity
  8
V0-OBRYS
 62
    90
100
AcDbLine
 10
525.960065
 20
41.638388
 30
0.0
 11
518.407044
 21
54.720605
 31
0.0
  0
LINE
  5
6C6
330
AF2
100
AcDbEntity
  8
V0-OBRYS
 62
    90
100
AcDbLine
 10
508.361612
 20
24.039935
 30
0.0
 11
495.279395
 21
31.592956
 31
0.0
  0
LINE
  5
6C7
330
AF2
100
AcDbEntity
  8
V0-OBRYS
 62
    90
100
AcDbLine
 10
501.920131
 20
0.0
 30
0.0
 11
486.814088
 21
0.0
 31
0.0
  0
LINE
  5
6C8
330
AF2
100
AcDbEntity
  8
V0-OBRYS
 62
    90
100
AcDbLine
 10
508.361612
 20
-24.039935
 30
0.0
 11
495.279395
 21
-31.592956
 31
0.0
  0
LINE
  5
6C9
330
AF2
100
AcDbEntity
  8
V0-OBRYS
 62
    90
100
AcDbLine
 10
525.960065
 20
-41.638388
 30
0.0
 11
518.407044
 21
-54.720605
 31
0.0
  0
LINE
  5
6CA
330
AF2
100
AcDbEntity
  8
V0-OBRYS
 62
    90
100
AcDbLine
 10
550.0
 20
-48.079869
 30
0.0
 11
550.0
 21
-63.185912
 31
0.0
  0
LINE
  5
6CB
330
AF2
100
AcDbEntity
  8
V0-OBRYS
 62
    90
100
AcDbLine
 10
574.039935
 20
-41.638388
 30
0.0
 11
581.592956
 21
-54.720605
 31
0.0
  0
LINE
  5
6CC
330
AF2
100
AcDbEntity
  8
V0-OBRYS
 62
    90
100
AcDbLine
 10
591.638388
 20
-24.039935
 30
0.0
 11
604.720605
 21
-31.592956
 31
0.0
  0
LINE
  5
6CD
330
AF2
100
AcDbEntity
  8
V0-OBRYS
 62
    90
100
AcDbLine
 10
598.079869
 20
0.0
 30
0.0
 11
613.185912
 21
0.0
 31
0.0
  0
LINE
  5
6CE
330
AF2
100
AcDbEntity
  8
V0-OBRYS
 62
    90
100
AcDbLine
 10
591.638388
 20
24.039935
 30
0.0
 11
604.720605
 21
31.592956
 31
0.0
  0
LINE
  5
6CF
330
AF2
100
AcDbEntity
  8
V0-OBRYS
 62
    90
100
AcDbLine
 10
574.039935
 20
41.638388
 30
0.0
 11
581.592956
 21
54.720605
 31
0.0
  0
CIRCLE
  5
6D0
330
AF2
100
AcDbEntity
  8
V0-OBRYS
 62
    90
100
AcDbCircle
 10
550.0
 20
0.0
 30
0.0
 40
12.744154
  0
LINE
  5
6D2
330
AF2
100
AcDbEntity
  8
V0-OBRYS
 62
    90
100
AcDbLine
 10
665.305603
 20
39.848134
 30
0.0
 11
703.108802
 21
39.848134
 31
0.0
  0
LINE
  5
6D3
330
AF2
100
AcDbEntity
  8
V0-OBRYS
 62
    90
100
AcDbLine
 10
703.108802
 20
39.848134
 30
0.0
 11
703.108802
 21
-40.151866
 31
0.0
  0
LINE
  5
6D4
330
AF2
100
AcDbEntity
  8
V0-OBRYS
 62
    90
100
AcDbLine
 10
703.108802
 20
-40.151866
 30
0.0
 11
665.305603
 21
-40.151866
 31
0.0
  0
LINE
  5
6D5
330
AF2
100
AcDbEntity
  8
V0-OBRYS
 62
    90
100
AcDbLine
 10
694.57872
 20
39.626785
 30
0.0
 11
694.57872
 21
-40.251294
 31
0.0
  0
LINE
  5
6D6
330
AF2
100
AcDbEntity
  8
V0-OBRYS
 62
    90
100
AcDbLine
 10
210.0
 20
-477.643898
 30
0.0
 11
210.0
 21
-437.643898
 31
0.0
  0
LINE
  5
6D7
330
AF2
100
AcDbEntity
  8
V0-OBRYS
 62
    90
100
AcDbLine
 10
250.0
 20
-437.643898
 30
0.0
 11
250.0
 21
-477.643898
 31
0.0
  0
LINE
  5
6EF
330
AF2
100
AcDbEntity
  8
V0-OBRYS
 62
    90
100
AcDbLine
 10
250.0
 20
-477.643898
 30
0.0
 11
210.0
 21
-477.643898
 31
0.0
  0
LINE
  5
705
330
AF2
100
AcDbEntity
  8
V0-OBRYS
 62
    90
100
AcDbLine
 10
210.603366
 20
-471.428944
 30
0.0
 11
249.874123
 21
-471.428944
 31
0.0
  0
DIMENSION
  5
715
330
AF2
100
AcDbEntity
  8
V0-VYPLNE
  6
CONTINUOUS
 62
    41
100
AcDbDimension
  2
*D5
 10
175.0
 20
-154.7649600000004
 30
0.0
 11
214.5952380952381
 21
-148.2649600000004
 31
0.0
 70
    32
  3
ED10
100
AcDbAlignedDimension
 13
155.0
 23
-62.5
 33
0.0
 14
175.0
 24
-62.5
 34
0.0
100
AcDbRotatedDimension
1001
ACAD
1000
DSTYLE
1002
{
1070
    40
1040
1.0
1002
}
  0
DIMENSION
  5
724
330
AF2
100
AcDbEntity
  8
V0-VYPLNE
  6
CONTINUOUS
 62
    41
100
AcDbDimension
  2
*D6
 10
330.0
 20
-154.7649600000004
 30
0.0
 11
317.5
 21
-148.2649600000004
 31
0.0
 70
    32
  3
ED10
100
AcDbAlignedDimension
 13
305.0
 23
-62.5
 33
0.0
 14
330.0
 24
-62.5
 34
0.0
100
AcDbRotatedDimension
1001
ACAD
1000
DSTYLE
1002
{
1070
    40
1040
1.0
1002
}
  0
DIMENSION
  5
731
330
AF2
100
AcDbEntity
  8
V0-VYPLNE
  6
CONTINUOUS
 62
    41
100
AcDbDimension
  2
*D7
 10
330.0
 20
-181.7099589999998
 30
0.0
 11
242.5
 21
-175.2099589999998
 31
0.0
 70
    32
  3
ED10
100
AcDbAlignedDimension
 13
155.0
 23
-62.5
 33
0.0
 14
330.0
 24
-62.5
 34
0.0
100
AcDbRotatedDimension
1001
ACAD
1000
DSTYLE
1002
{
1070
    40
1040
1.0
1002
}
  0
DIMENSION
  5
74B
330
AF2
100
AcDbEntity
  8
V0-VYPLNE
  6
CONTINUOUS
 62
    41
100
AcDbDimension
  2
*D8
 10
121.5116610000005
 20
-62.5
 30
0.0
 11
115.0116610000005
 21
0.0000000000000071
 31
0.0
 70
    32
  1
%%c<>
  3
ED10
100
AcDbAlignedDimension
 13
155.0
 23
62.5
 33
0.0
 14
155.0
 24
-62.5
 34
0.0
 50
90.0
100
AcDbRotatedDimension
1001
ACAD
1000
DSTYLE
1002
{
1070
    40
1040
1.0
1002
}
  0
DIMENSION
  5
758
330
AF2
100
AcDbEntity
  8
V0-VYPLNE
  6
CONTINUOUS
 62
    41
100
AcDbDimension
  2
*D9
 10
368.6266969999997
 20
-62.5
 30
0.0
 11
362.1266969999997
 21
-0.0000000000000071
 31
0.0
 70
    32
  1
%%c<>
  3
ED10
100
AcDbAlignedDimension
 13
330.0
 23
62.5
 33
0.0
 14
330.0
 24
-62.5
 34
0.0
 50
90.0
100
AcDbRotatedDimension
1001
ACAD
1000
DSTYLE
1002
{
1070
    40
1040
1.0
1002
}
  0
INSERT
  5
79E
330
AF2
100
AcDbEntity
  8
V0-VYPLNE
  6
CONTINUOUS
 62
    41
100
AcDbBlockReference
  2
ASIPKA
 10
296.346808
 20
10.706853
 30
0.0
  0
DIMENSION
  5
7D2
330
AF2
100
AcDbEntity
  8
V0-VYPLNE
  6
CONTINUOUS
 62
    41
100
AcDbDimension
  2
*D10
 10
85.43981399999939
 20
-122.0
 30
0.0
 11
78.9398139999994
 21
0.000000000000015
 31
0.0
 70
    32
  1
%%c<>
  3
ED10
100
AcDbAlignedDimension
 13
203.612466
 23
122.0
 33
0.0
 14
203.612466
 24
-122.0
 34
0.0
 50
90.0
100
AcDbRotatedDimension
1001
ACAD
1000
DSTYLE
1002
{
1070
    40
1040
1.0
1002
}
  0
LINE
  5
907
330
AF2
100
AcDbEntity
  8
V0-OBRYS
 62
    90
100
AcDbLine
 10
330.0
 20
-329.494589
 30
0.0
 11
330.0
 21
-391.994589
 31
0.0
  0
LINE
  5
908
330
AF2
100
AcDbEntity
  8
V0-OBRYS
 62
    90
100
AcDbLine
 10
305.0
 20
-329.494589
 30
0.0
 11
305.0
 21
-394.438763
 31
0.0
  0
LINE
  5
909
330
AF2
100
AcDbEntity
  8
V0-OBRYS
 62
    90
100
AcDbLine
 10
180.0
 20
-329.494589
 30
0.0
 11
180.0
 21
-397.814069
 31
0.0
  0
LINE
  5
90A
330
AF2
100
AcDbEntity
  8
V0-OBRYS
 62
    90
100
AcDbLine
 10
155.0
 20
-329.494589
 30
0.0
 11
155.0
 21
-391.994589
 31
0.0
  0
LINE
  5
90B
330
AF2
100
AcDbEntity
  8
V0-OBRYS
 62
    90
100
AcDbLine
 10
175.0
 20
-391.994589
 30
0.0
 11
175.0
 21
-329.494589
 31
0.0
  0
LINE
  5
90C
330
AF2
100
AcDbEntity
  8
V0-OBRYS
 62
    90
100
AcDbLine
 10
193.457739
 20
-220.120124
 30
0.0
 11
193.457739
 21
-439.934284
 31
0.0
  0
LINE
  5
90D
330
AF2
100
AcDbEntity
  8
V0-OBRYS
 62
    90
100
AcDbLine
 10
203.612466
 20
-451.494589
 30
0.0
 11
203.612466
 21
-329.494589
 31
0.0
  0
LINE
  5
90E
330
AF2
100
AcDbEntity
  8
V0-OBRYS
 62
    90
100
AcDbLine
 10
255.753017
 20
-451.494589
 30
0.0
 11
255.753017
 21
-329.494589
 31
0.0
  0
LINE
  5
90F
330
AF2
100
AcDbEntity
  8
V0-OBRYS
 62
    90
100
AcDbLine
 10
264.319499
 20
-213.670974
 30
0.0
 11
264.319499
 21
-444.771144
 31
0.0
  0
LINE
  5
913
330
AF2
100
AcDbEntity
  8
V0-OBRYS
 62
    90
100
AcDbLine
 10
203.612466
 20
-451.494589
 30
0.0
 11
210.0
 21
-451.494487
 31
0.0
  0
LINE
  5
915
330
AF2
100
AcDbEntity
  8
V0-OBRYS
 62
    90
100
AcDbLine
 10
180.0
 20
-397.814069
 30
0.0
 11
185.785925
 21
-439.841093
 31
0.0
  0
LINE
  5
916
330
AF2
100
AcDbEntity
  8
V0-OBRYS
 62
    90
100
AcDbLine
 10
155.0
 20
-391.994589
 30
0.0
 11
175.0
 21
-391.994589
 31
0.0
  0
ARC
  5
917
330
AF2
100
AcDbEntity
  8
V0-OBRYS
 62
    90
100
AcDbCircle
 10
178.0
 20
-397.814069
 30
0.0
 40
2.0
100
AcDbArc
 50
0.0
 51
90.0
  0
LINE
  5
918
330
AF2
100
AcDbEntity
  8
V0-OBRYS
 62
    90
100
AcDbLine
 10
175.0
 20
-395.814069
 30
0.0
 11
178.0
 21
-395.814069
 31
0.0
  0
LINE
  5
919
330
AF2
100
AcDbEntity
  8
V0-OBRYS
 62
    90
100
AcDbLine
 10
175.0
 20
-391.994589
 30
0.0
 11
175.0
 21
-395.814069
 31
0.0
  0
ARC
  5
91A
330
AF2
100
AcDbEntity
  8
V0-OBRYS
 62
    90
100
AcDbCircle
 10
195.635916
 20
-438.115497
 30
0.0
 40
10.0
100
AcDbArc
 50
189.936674
 51
270.0
  0
LINE
  5
91B
330
AF2
100
AcDbEntity
  8
V0-OBRYS
 62
    90
100
AcDbLine
 10
203.612466
 20
-448.115497
 30
0.0
 11
195.635916
 21
-448.115497
 31
0.0
  0
LINE
  5
91C
330
AF2
100
AcDbEntity
  8
V0-OBRYS
 62
    90
100
AcDbLine
 10
267.122971
 20
-449.2367
 30
0.0
 11
304.265632
 21
-395.987367
 31
0.0
  0
ARC
  5
91D
330
AF2
100
AcDbEntity
  8
V0-OBRYS
 62
    90
100
AcDbCircle
 10
260.794809
 20
-441.49368
 30
0.0
 40
10.0
100
AcDbArc
 50
270.000911
 51
309.258201
  0
LINE
  5
91E
330
AF2
100
AcDbEntity
  8
V0-OBRYS
 62
    90
100
AcDbLine
 10
330.0
 20
-391.994589
 30
0.0
 11
305.0
 21
-391.994589
 31
0.0
  0
ARC
  5
91F
330
AF2
100
AcDbEntity
  8
V0-OBRYS
 62
    90
100
AcDbCircle
 10
303.0
 20
-394.438763
 30
0.0
 40
2.0
100
AcDbArc
 50
309.258201
 51
0.0
  0
LINE
  5
920
330
AF2
100
AcDbEntity
  8
V0-VYPLNE
 62
    63
100
AcDbLine
 10
155.0
 20
-329.494589
 30
0.0
 11
337.635079
 21
-329.494589
 31
0.0
  0
LINE
  5
921
330
AF2
100
AcDbEntity
  8
V0-OBRYS
 62
    90
100
AcDbLine
 10
203.612466
 20
-207.494589
 30
0.0
 11
260.794968
 21
-207.495498
 31
0.0
  0
LINE
  5
923
330
AF2
100
AcDbEntity
  8
V0-OBRYS
 62
    90
100
AcDbLine
 10
180.0
 20
-261.175108
 30
0.0
 11
185.785925
 21
-219.148084
 31
0.0
  0
LINE
  5
924
330
AF2
100
AcDbEntity
  8
V0-OBRYS
 62
    90
100
AcDbLine
 10
203.612466
 20
-207.494589
 30
0.0
 11
203.612466
 21
-329.494589
 31
0.0
  0
LINE
  5
925
330
AF2
100
AcDbEntity
  8
V0-OBRYS
 62
    90
100
AcDbLine
 10
180.0
 20
-329.494589
 30
0.0
 11
180.0
 21
-261.175108
 31
0.0
  0
LINE
  5
926
330
AF2
100
AcDbEntity
  8
V0-OBRYS
 62
    90
100
AcDbLine
 10
175.0
 20
-266.994589
 30
0.0
 11
175.0
 21
-329.494589
 31
0.0
  0
LINE
  5
927
330
AF2
100
AcDbEntity
  8
V0-OBRYS
 62
    90
100
AcDbLine
 10
155.0
 20
-329.494589
 30
0.0
 11
155.0
 21
-266.994589
 31
0.0
  0
ARC
  5
928
330
AF2
100
AcDbEntity
  8
V0-OBRYS
 62
    90
100
AcDbCircle
 10
178.0
 20
-261.175108
 30
0.0
 40
2.0
100
AcDbArc
 50
270.0
 51
0.0
  0
LINE
  5
929
330
AF2
100
AcDbEntity
  8
V0-OBRYS
 62
    90
100
AcDbLine
 10
155.0
 20
-266.994589
 30
0.0
 11
175.0
 21
-266.994589
 31
0.0
  0
LINE
  5
92A
330
AF2
100
AcDbEntity
  8
V0-OBRYS
 62
    90
100
AcDbLine
 10
175.0
 20
-263.175108
 30
0.0
 11
178.0
 21
-263.175108
 31
0.0
  0
LINE
  5
92B
330
AF2
100
AcDbEntity
  8
V0-OBRYS
 62
    90
100
AcDbLine
 10
175.0
 20
-266.994589
 30
0.0
 11
175.0
 21
-263.175108
 31
0.0
  0
ARC
  5
92C
330
AF2
100
AcDbEntity
  8
V0-OBRYS
 62
    90
100
AcDbCircle
 10
195.635916
 20
-220.873681
 30
0.0
 40
10.0
100
AcDbArc
 50
90.0
 51
170.063326
  0
LINE
  5
92D
330
AF2
100
AcDbEntity
  8
V0-OBRYS
 62
    90
100
AcDbLine
 10
203.612466
 20
-210.873681
 30
0.0
 11
195.635916
 21
-210.873681
 31
0.0
  0
LINE
  5
92E
330
AF2
100
AcDbEntity
  8
V0-OBRYS
 62
    90
100
AcDbLine
 10
267.122971
 20
-209.752477
 30
0.0
 11
304.265632
 21
-263.00181
 31
0.0
  0
LINE
  5
92F
330
AF2
100
AcDbEntity
  8
V0-OBRYS
 62
    90
100
AcDbLine
 10
255.753017
 20
-207.494589
 30
0.0
 11
255.753017
 21
-329.494589
 31
0.0
  0
INSERT
  5
930
330
AF2
100
AcDbEntity
  8
V0-VYPLNE
  6
CONTINUOUS
 62
    41
100
AcDbBlockReference
  2
ASIPKA
 10
296.346808
 20
-318.787736
 30
0.0
  0
LINE
  5
931
330
AF2
100
AcDbEntity
  8
V0-OBRYS
 62
    90
100
AcDbLine
 10
330.0
 20
-329.494589
 30
0.0
 11
330.0
 21
-266.994589
 31
0.0
  0
LINE
  5
932
330
AF2
100
AcDbEntity
  8
V0-OBRYS
 62
    90
100
AcDbLine
 10
305.0
 20
-329.494589
 30
0.0
 11
305.0
 21
-264.550415
 31
0.0
  0
LINE
  5
933
330
AF2
100
AcDbEntity
  8
V0-OBRYS
 62
    90
100
AcDbLine
 10
330.0
 20
-266.994589
 30
0.0
 11
305.0
 21
-266.994589
 31
0.0
  0
ARC
  5
934
330
AF2
100
AcDbEntity
  8
V0-OBRYS
 62
    90
100
AcDbCircle
 10
303.0
 20
-264.550415
 30
0.0
 40
2.0
100
AcDbArc
 50
0.0
 51
50.741799
  0
ARC
  5
935
330
AF2
100
AcDbEntity
  8
V0-OBRYS
 62
    90
100
AcDbCircle
 10
260.794809
 20
-217.495498
 30
0.0
 40
10.0
100
AcDbArc
 50
50.741799
 51
89.999089
  0
LINE
  5
936
330
AF2
100
AcDbEntity
  8
V0-OBRYS
 62
    90
100
AcDbLine
 10
210.0
 20
-437.821931
 30
0.0
 11
250.0
 21
-437.821295
 31
0.0
  0
LINE
  5
937
330
AF2
100
AcDbEntity
  8
V0-OBRYS
 62
    90
100
AcDbLine
 10
250.0
 20
-451.493851
 30
0.0
 11
260.794968
 21
-451.49368
 31
0.0
  0
POINT
  5
972
330
AF2
100
AcDbEntity
  8
V0-VYPLNE
  6
CONTINUOUS
 62
    41
100
AcDbPoint
 10
175.0
 20
0.0
 30
0.0
  0
POINT
  5
973
330
AF2
100
AcDbEntity
  8
V0-VYPLNE
  6
CONTINUOUS
 62
    41
100
AcDbPoint
 10
305.0
 20
0.0
 30
0.0
  0
POINT
  5
974
330
AF2
100
AcDbEntity
  8
V0-VYPLNE
  6
CONTINUOUS
 62
    41
100
AcDbPoint
 10
175.0
 20
-329.494589
 30
0.0
  0
POINT
  5
975
330
AF2
100
AcDbEntity
  8
V0-VYPLNE
  6
CONTINUOUS
 62
    41
100
AcDbPoint
 10
305.0
 20
-329.494589
 30
0.0
  0
POINT
  5
976
330
AF2
100
AcDbEntity
  8
V0-VYPLNE
  6
CONTINUOUS
 62
    41
100
AcDbPoint
 10
550.784599
 20
0.0
 30
0.0
  0
TEXT
  5
ACB
330
AF2
100
AcDbEntity
  8
V0-NAZVY
100
AcDbText
 10
438.9732001428571
 20
-307.939738
 30
0.0
 40
25.0
  1
RM 125
  7
ED10
100
AcDbText
  0
VIEWPORT
  5
B71
330
AEE
100
AcDbEntity
 67
     1
  8
0
 60
     1
100
AcDbViewport
 10
261.517699
 20
148.5
 30
0.0
 40
297.0
 41
297.0
 68
     0
 69
     1
1001
VD_INVISIBLE_NOT_FOR_READ
1000
VD_INVISIBLE_NOT_FOR_READ
1001
ACAD
1000
MVIEW
1002
{
1070
    16
1010
0.0
1020
0.0
1030
0.0
1010
0.0
1020
0.0
1030
1.0
1040
6.2831853071796
1040
297.0
1040
261.517699
1040
148.5
1040
0.0
1040
0.0
1040
0.0
1070
     0
1070
   100
1070
     0
1070
     1
1070
     0
1070
     0
1070
     0
1070
     0
1040
0.0
1040
0.0
1040
0.0
1040
1.0
1040
1.0
1040
0.0
1040
0.0
1070
     0
1002
{
1002
}
1002
}
  0
VIEWPORT
  5
B72
330
AEE
100
AcDbEntity
 67
     1
  8
0
 60
     1
100
AcDbViewport
 10
261.517699
 20
148.5
 30
0.0
 40
297.0
 41
297.0
 68
     0
 69
     2
1001
VD_INVISIBLE_NOT_FOR_READ
1000
VD_INVISIBLE_NOT_FOR_READ
1001
ACAD
1000
MVIEW
1002
{
1070
    16
1010
0.0
1020
0.0
1030
0.0
1010
0.0
1020
0.0
1030
1.0
1040
6.2831853071796
1040
297.0
1040
261.517699
1040
148.5
1040
0.0
1040
0.0
1040
0.0
1070
     0
1070
   100
1070
     0
1070
     1
1070
     0
1070
     0
1070
     0
1070
     0
1040
0.0
1040
0.0
1040
0.0
1040
1.0
1040
1.0
1040
0.0
1040
0.0
1070
     0
1002
{
1002
}
1002
}
  0
ENDSEC
  0
SECTION
  2
OBJECTS
  0
DICTIONARY
  5
ADF
330
0
100
AcDbDictionary
  3
ACAD_GROUP
350
AE0
  3
ACAD_LAYOUT
350
AED
  3
ACAD_MLINESTYLE
350
AEA
  3
ACAD_PLOTSETTINGS
350
AEC
  3
ACDBHEADERROUNDTRIPXREC
350
B73
  3
VECTORDRAW_OBJECTS
350
B02
  0
DICTIONARY
  5
B93
330
AFC
100
AcDbDictionary
280
     1
  3
ACAD_XREC_ROUNDTRIP
360
B94
  0
DICTIONARY
  5
AE0
102
{ACAD_REACTORS
330
ADF
102
}
330
ADF
100
AcDbDictionary
  0
DICTIONARY
  5
AED
102
{ACAD_REACTORS
330
ADF
102
}
330
ADF
100
AcDbDictionary
  0
DICTIONARY
  5
AEA
102
{ACAD_REACTORS
330
ADF
102
}
330
ADF
100
AcDbDictionary
  3
STANDARD
350
AEB
  0
DICTIONARY
  5
AEC
102
{ACAD_REACTORS
330
ADF
102
}
330
ADF
100
AcDbDictionary
  0
DICTIONARY
  5
B73
102
{ACAD_REACTORS
330
ADF
102
}
330
ADF
100
AcDbDictionary
  3
CEPSNTYPE
350
B7C
  3
DIMSTYLEDATA
350
B92
  3
FINGERPRINTGUID
350
B7D
  3
HYPERLINKBASE
350
B76
  3
INSUNITS
350
B7B
  3
LAYOUTDICT
350
B78
  3
LWETCUNION
350
B7A
  3
PLOTSETDICT
350
B79
  3
PSVPSCALE
350
B7F
  3
PUCSBASE
350
B82
  3
PUCSORGBACK
350
B88
  3
PUCSORGBOTTOM
350
B84
  3
PUCSORGFRONT
350
B87
  3
PUCSORGLEFT
350
B85
  3
PUCSORGRIGHT
350
B86
  3
PUCSORGTOP
350
B83
  3
PUCSORTHOREF
350
B80
  3
PUCSORTHOVIEW
350
B81
  3
STYLESHEET
350
B77
  3
TSTACKALIGN
350
B74
  3
TSTACKSIZE
350
B75
  3
UCSBASE
350
B8B
  3
UCSORGBACK
350
B91
  3
UCSORGBOTTOM
350
B8D
  3
UCSORGFRONT
350
B90
  3
UCSORGLEFT
350
B8E
  3
UCSORGRIGHT
350
B8F
  3
UCSORGTOP
350
B8C
  3
UCSORTHOREF
350
B89
  3
UCSORTHOVIEW
350
B8A
  3
VERSIONGUID
350
B7E
  0
DICTIONARY
  5
B02
102
{ACAD_REACTORS
330
ADF
102
}
330
ADF
100
AcDbDictionary
  3
SERIALNO
350
B03
  0
XRECORD
  5
B94
102
{ACAD_REACTORS
330
B93
102
}
330
B93
100
AcDbXrecord
102
UCS
 74
     0
 71
     1
 10
0.0
 20
0.0
 30
0.0
 10
1.0
 20
0.0
 30
0.0
 10
0.0
 20
1.0
 30
0.0
146
0.0
 79
     0
102
VIEW
281
     0
  0
MLINESTYLE
  5
AEB
102
{ACAD_REACTORS
330
AEA
102
}
330
AEA
100
AcDbMlineStyle
  2
Standard
 70
     0
  3

 62
   256
 51
90.0
 52
90.0
 71
     2
 49
0.5
 62
   256
  6
BYLAYER
 49
-0.5
 62
   256
  6
BYLAYER
  0
XRECORD
  5
B7C
102
{ACAD_REACTORS
330
B73
102
}
330
B73
100
AcDbXrecord
 90
        0
  0
XRECORD
  5
B92
102
{ACAD_REACTORS
330
B73
102
}
330
B73
100
AcDbXrecord
1000
DSTYLE
1002
{
1070
    41
 40
15.0
1070
   342
340
90
1070
   271
 70
     0
1070
    44
 40
1.25
1070
    42
 40
1.0
1070
   147
 40
1.5
1070
    77
 70
     1
1070
    73
 70
     0
1070
   174
 70
     1
1070
   172
 70
     1
1070
    74
 70
     0
1070
   340
340
5D2
1070
   140
 40
10.0
1070
   288
 70
     1
1002
}
  0
XRECORD
  5
B7D
102
{ACAD_REACTORS
330
B73
102
}
330
B73
100
AcDbXrecord
  1
{FAEB1C30-E019-11D5-929B-00C0DF256EC4}
  0
XRECORD
  5
B76
102
{ACAD_REACTORS
330
B73
102
}
330
B73
100
AcDbXrecord
  1

  0
XRECORD
  5
B7B
102
{ACAD_REACTORS
330
B73
102
}
330
B73
100
AcDbXrecord
 90
        1
  0
XRECORD
  5
B78
102
{ACAD_REACTORS
330
B73
102
}
330
B73
100
AcDbXrecord
340
AED
  0
XRECORD
  5
B7A
102
{ACAD_REACTORS
330
B73
102
}
330
B73
100
AcDbXrecord
 90
     2560
  0
XRECORD
  5
B79
102
{ACAD_REACTORS
330
B73
102
}
330
B73
100
AcDbXrecord
340
AEC
  0
XRECORD
  5
B7F
102
{ACAD_REACTORS
330
B73
102
}
330
B73
100
AcDbXrecord
 40
0.0
  0
XRECORD
  5
B82
102
{ACAD_REACTORS
330
B73
102
}
330
B73
100
AcDbXrecord
340
0
  0
XRECORD
  5
B88
102
{ACAD_REACTORS
330
B73
102
}
330
B73
100
AcDbXrecord
 10
0.0
 20
0.0
 30
0.0
  0
XRECORD
  5
B84
102
{ACAD_REACTORS
330
B73
102
}
330
B73
100
AcDbXrecord
 10
0.0
 20
0.0
 30
0.0
  0
XRECORD
  5
B87
102
{ACAD_REACTORS
330
B73
102
}
330
B73
100
AcDbXrecord
 10
0.0
 20
0.0
 30
0.0
  0
XRECORD
  5
B85
102
{ACAD_REACTORS
330
B73
102
}
330
B73
100
AcDbXrecord
 10
0.0
 20
0.0
 30
0.0
  0
XRECORD
  5
B86
102
{ACAD_REACTORS
330
B73
102
}
330
B73
100
AcDbXrecord
 10
0.0
 20
0.0
 30
0.0
  0
XRECORD
  5
B83
102
{ACAD_REACTORS
330
B73
102
}
330
B73
100
AcDbXrecord
 10
0.0
 20
0.0
 30
0.0
  0
XRECORD
  5
B80
102
{ACAD_REACTORS
330
B73
102
}
330
B73
100
AcDbXrecord
340
0
  0
XRECORD
  5
B81
102
{ACAD_REACTORS
330
B73
102
}
330
B73
100
AcDbXrecord
 70
     0
  0
XRECORD
  5
B77
102
{ACAD_REACTORS
330
B73
102
}
330
B73
100
AcDbXrecord
  1

  0
XRECORD
  5
B74
102
{ACAD_REACTORS
330
B73
102
}
330
B73
100
AcDbXrecord
 90
        1
  0
XRECORD
  5
B75
102
{ACAD_REACTORS
330
B73
102
}
330
B73
100
AcDbXrecord
 90
       70
  0
XRECORD
  5
B8B
102
{ACAD_REACTORS
330
B73
102
}
330
B73
100
AcDbXrecord
340
0
  0
XRECORD
  5
B91
102
{ACAD_REACTORS
330
B73
102
}
330
B73
100
AcDbXrecord
 10
0.0
 20
0.0
 30
0.0
  0
XRECORD
  5
B8D
102
{ACAD_REACTORS
330
B73
102
}
330
B73
100
AcDbXrecord
 10
0.0
 20
0.0
 30
0.0
  0
XRECORD
  5
B90
102
{ACAD_REACTORS
330
B73
102
}
330
B73
100
AcDbXrecord
 10
0.0
 20
0.0
 30
0.0
  0
XRECORD
  5
B8E
102
{ACAD_REACTORS
330
B73
102
}
330
B73
100
AcDbXrecord
 10
0.0
 20
0.0
 30
0.0
  0
XRECORD
  5
B8F
102
{ACAD_REACTORS
330
B73
102
}
330
B73
100
AcDbXrecord
 10
0.0
 20
0.0
 30
0.0
  0
XRECORD
  5
B8C
102
{ACAD_REACTORS
330
B73
102
}
330
B73
100
AcDbXrecord
 10
0.0
 20
0.0
 30
0.0
  0
XRECORD
  5
B89
102
{ACAD_REACTORS
330
B73
102
}
330
B73
100
AcDbXrecord
340
0
  0
XRECORD
  5
B8A
102
{ACAD_REACTORS
330
B73
102
}
330
B73
100
AcDbXrecord
 70
     0
  0
XRECORD
  5
B7E
102
{ACAD_REACTORS
330
B73
102
}
330
B73
100
AcDbXrecord
  1
{FAEB1C32-E019-11D5-929B-00C0DF256EC4}
  0
XRECORD
  5
B03
102
{ACAD_REACTORS
330
B02
102
}
330
B02
100
AcDbXrecord
1000
rInJVR9YY4Q8hfPWdUq5j5319
1070
     4
1070
     6
  0
ENDSEC
  0
EOF
