  0
SECTION
  2
HEADER
  9
$ACADVER
  1
AC1014
  9
$ACADMAINTVER
 70
     0
  9
$DWGCODEPAGE
  3
ANSI_1250
  9
$INSBASE
 10
0.0
 20
0.0
 30
0.0
  9
$EXTMIN
 10
46.023533
 20
-470.212959
 30
0.0
  9
$EXTMAX
 10
672.5
 20
125.606982
 30
0.0
  9
$LIMMIN
 10
0.0
 20
0.0
  9
$LIMMAX
 10
420.0
 20
297.0
  9
$ORTHOMODE
 70
     1
  9
$REGENMODE
 70
     1
  9
$FILLMODE
 70
     1
  9
$QTEXTMODE
 70
     0
  9
$MIRRTEXT
 70
     1
  9
$DRAGMODE
 70
     2
  9
$LTSCALE
 40
1.0
  9
$OSMODE
 70
    15
  9
$ATTMODE
 70
     1
  9
$TEXTSIZE
 40
20.0
  9
$TRACEWID
 40
1.0
  9
$TEXTSTYLE
  7
ED10
  9
$CLAYER
  8
V0-OBRYS
  9
$CELTYPE
  6
CONTINUOUS
  9
$CECOLOR
 62
    90
  9
$CELTSCALE
 40
1.0
  9
$DELOBJ
 70
     1
  9
$DISPSILH
 70
     0
  9
$DIMSCALE
 40
0.0
  9
$DIMASZ
 40
15.0
  9
$DIMEXO
 40
1.0
  9
$DIMDLI
 40
3.75
  9
$DIMRND
 40
0.0
  9
$DIMDLE
 40
0.0
  9
$DIMEXE
 40
1.25
  9
$DIMTP
 40
0.0
  9
$DIMTM
 40
0.0
  9
$DIMTXT
 40
10.0
  9
$DIMCEN
 40
3.0
  9
$DIMTSZ
 40
0.0
  9
$DIMTOL
 70
     0
  9
$DIMLIM
 70
     0
  9
$DIMTIH
 70
     0
  9
$DIMTOH
 70
     0
  9
$DIMSE1
 70
     0
  9
$DIMSE2
 70
     0
  9
$DIMTAD
 70
     1
  9
$DIMZIN
 70
     8
  9
$DIMBLK
  1

  9
$DIMASO
 70
     1
  9
$DIMSHO
 70
     1
  9
$DIMPOST
  1

  9
$DIMAPOST
  1

  9
$DIMALT
 70
     0
  9
$DIMALTD
 70
     4
  9
$DIMALTF
 40
0.0394
  9
$DIMLFAC
 40
1.0
  9
$DIMTOFL
 70
     1
  9
$DIMTVP
 40
0.0
  9
$DIMTIX
 70
     0
  9
$DIMSOXD
 70
     0
  9
$DIMSAH
 70
     1
  9
$DIMBLK1
  1
_OPEN
  9
$DIMBLK2
  1
_OPEN
  9
$DIMSTYLE
  2
ED10
  9
$DIMCLRD
 70
     0
  9
$DIMCLRE
 70
     0
  9
$DIMCLRT
 70
     0
  9
$DIMTFAC
 40
1.0
  9
$DIMGAP
 40
1.5
  9
$DIMJUST
 70
     0
  9
$DIMSD1
 70
     0
  9
$DIMSD2
 70
     0
  9
$DIMTOLJ
 70
     1
  9
$DIMTZIN
 70
     8
  9
$DIMALTZ
 70
     0
  9
$DIMALTTZ
 70
     0
  9
$DIMFIT
 70
     3
  9
$DIMUPT
 70
     0
  9
$DIMUNIT
 70
     2
  9
$DIMDEC
 70
     0
  9
$DIMTDEC
 70
     1
  9
$DIMALTU
 70
     8
  9
$DIMALTTD
 70
     4
  9
$DIMTXSTY
  7
ED20
  9
$DIMAUNIT
 70
     0
  9
$LUNITS
 70
     2
  9
$LUPREC
 70
     4
  9
$SKETCHINC
 40
1.0
  9
$FILLETRAD
 40
15.0
  9
$AUNITS
 70
     0
  9
$AUPREC
 70
     0
  9
$MENU
  1
.
  9
$ELEVATION
 40
0.0
  9
$PELEVATION
 40
0.0
  9
$THICKNESS
 40
0.0
  9
$LIMCHECK
 70
     0
  9
$BLIPMODE
 70
     0
  9
$CHAMFERA
 40
10.0
  9
$CHAMFERB
 40
10.0
  9
$CHAMFERC
 40
20.0
  9
$CHAMFERD
 40
0.0
  9
$SKPOLY
 70
     1
  9
$TDCREATE
 40
2451196.643769328
  9
$TDUPDATE
 40
2452915.680081828
  9
$TDINDWG
 40
0.2676673611
  9
$TDUSRTIMER
 40
0.2676673611
  9
$USRTIMER
 70
     1
  9
$ANGBASE
 50
0.0
  9
$ANGDIR
 70
     0
  9
$PDMODE
 70
     3
  9
$PDSIZE
 40
15.0
  9
$PLINEWID
 40
0.0
  9
$COORDS
 70
     1
  9
$SPLFRAME
 70
     0
  9
$SPLINETYPE
 70
     6
  9
$SPLINESEGS
 70
     8
  9
$ATTDIA
 70
     0
  9
$ATTREQ
 70
     1
  9
$HANDLING
 70
     1
  9
$HANDSEED
  5
B90
  9
$SURFTAB1
 70
     6
  9
$SURFTAB2
 70
     6
  9
$SURFTYPE
 70
     6
  9
$SURFU
 70
     6
  9
$SURFV
 70
     6
  9
$UCSNAME
  2

  9
$UCSORG
 10
170.0
 20
-344.6059767741501
 30
0.0
  9
$UCSXDIR
 10
1.0
 20
0.0
 30
0.0
  9
$UCSYDIR
 10
0.0
 20
1.0
 30
0.0
  9
$PUCSNAME
  2

  9
$PUCSORG
 10
0.0
 20
0.0
 30
0.0
  9
$PUCSXDIR
 10
1.0
 20
0.0
 30
0.0
  9
$PUCSYDIR
 10
0.0
 20
1.0
 30
0.0
  9
$USERI1
 70
     0
  9
$USERI2
 70
     0
  9
$USERI3
 70
     0
  9
$USERI4
 70
     0
  9
$USERI5
 70
     0
  9
$USERR1
 40
0.0
  9
$USERR2
 40
0.0
  9
$USERR3
 40
0.0
  9
$USERR4
 40
0.0
  9
$USERR5
 40
0.0
  9
$WORLDVIEW
 70
     1
  9
$SHADEDGE
 70
     3
  9
$SHADEDIF
 70
    70
  9
$TILEMODE
 70
     1
  9
$MAXACTVP
 70
    48
  9
$PINSBASE
 10
0.0
 20
0.0
 30
0.0
  9
$PLIMCHECK
 70
     0
  9
$PEXTMIN
 10
1.000000E+20
 20
1.000000E+20
 30
1.000000E+20
  9
$PEXTMAX
 10
-1.000000E+20
 20
-1.000000E+20
 30
-1.000000E+20
  9
$PLIMMIN
 10
0.0
 20
0.0
  9
$PLIMMAX
 10
420.0
 20
297.0
  9
$UNITMODE
 70
     0
  9
$VISRETAIN
 70
     1
  9
$PLINEGEN
 70
     0
  9
$PSLTSCALE
 70
     0
  9
$TREEDEPTH
 70
  3020
  9
$PICKSTYLE
 70
     1
  9
$CMLSTYLE
  2
STANDARD
  9
$CMLJUST
 70
     0
  9
$CMLSCALE
 40
1.0
  9
$PROXYGRAPHICS
 70
     1
  9
$MEASUREMENT
 70
     1
  0
ENDSEC
  0
SECTION
  2
CLASSES
  0
CLASS
  1
DICTIONARYVAR
  2
AcDbDictionaryVar
  3
"AutoCAD"
 90
        0
280
     0
281
     0
  0
CLASS
  1
LWPOLYLINE
  2
AcDbPolyline
  3
"AutoCAD"
 90
        0
280
     0
281
     1
  0
CLASS
  1
HATCH
  2
AcDbHatch
  3
"ACAD_SEDONA"
 90
        0
280
     0
281
     1
  0
ENDSEC
  0
SECTION
  2
TABLES
  0
TABLE
  2
VPORT
  5
8
100
AcDbSymbolTable
 70
     2
  0
VPORT
  5
B8F
100
AcDbSymbolTableRecord
100
AcDbViewportTableRecord
  2
*ACTIVE
 70
     0
 10
0.0
 20
0.0
 11
1.0
 21
1.0
 12
377.208891
 22
-144.470569
 13
0.0
 23
0.0
 14
10.0
 24
10.0
 15
10.0
 25
10.0
 16
0.0
 26
0.0
 36
1.0
 17
0.0
 27
0.0
 37
0.0
 40
673.162639
 41
1.730469
 42
50.0
 43
0.0
 44
0.0
 50
0.0
 51
0.0
 71
     0
 72
   100
 73
     1
 74
     1
 75
     0
 76
     0
 77
     0
 78
     0
  0
ENDTAB
  0
TABLE
  2
LTYPE
  5
5
100
AcDbSymbolTable
 70
     3
  0
LTYPE
  5
14
100
AcDbSymbolTableRecord
100
AcDbLinetypeTableRecord
  2
BYBLOCK
 70
     0
  3

 72
    65
 73
     0
 40
0.0
  0
LTYPE
  5
15
100
AcDbSymbolTableRecord
100
AcDbLinetypeTableRecord
  2
BYLAYER
 70
     0
  3

 72
    65
 73
     0
 40
0.0
  0
LTYPE
  5
16
100
AcDbSymbolTableRecord
100
AcDbLinetypeTableRecord
  2
CONTINUOUS
 70
     0
  3
Solid line
 72
    65
 73
     0
 40
0.0
  0
LTYPE
  5
7F
100
AcDbSymbolTableRecord
100
AcDbLinetypeTableRecord
  2
DASHDOT
 70
     0
  3
Dash dot __ . __ . __ . __ . __ . __ . __ . __
 72
    65
 73
     4
 40
25.4
 49
12.7
 74
     0
 49
-6.35
 74
     0
 49
0.0
 74
     0
 49
-6.35
 74
     0
  0
LTYPE
  5
80
100
AcDbSymbolTableRecord
100
AcDbLinetypeTableRecord
  2
DASHED
 70
     0
  3
Dashed __ __ __ __ __ __ __ __ __ __ __ __ __ _
 72
    65
 73
     2
 40
19.05
 49
12.7
 74
     0
 49
-6.35
 74
     0
  0
ENDTAB
  0
TABLE
  2
LAYER
  5
2
100
AcDbSymbolTable
 70
     6
  0
LAYER
  5
F
100
AcDbSymbolTableRecord
100
AcDbLayerTableRecord
  2
0
 70
     0
 62
     7
  6
CONTINUOUS
  0
LAYER
  5
9E
100
AcDbSymbolTableRecord
100
AcDbLayerTableRecord
  2
DEFPOINTS
 70
     0
 62
     7
  6
CONTINUOUS
  0
LAYER
  5
377
100
AcDbSymbolTableRecord
100
AcDbLayerTableRecord
  2
V0-OBRYS
 70
     0
 62
    90
  6
CONTINUOUS
  0
LAYER
  5
378
100
AcDbSymbolTableRecord
100
AcDbLayerTableRecord
  2
V0-VYPLNE
 70
     0
 62
    63
  6
DASHDOT
  0
LAYER
  5
37A
100
AcDbSymbolTableRecord
100
AcDbLayerTableRecord
  2
V0-NAZVY
 70
     0
 62
   210
  6
CONTINUOUS
  0
LAYER
  5
559
100
AcDbSymbolTableRecord
100
AcDbLayerTableRecord
  2
V0-ZBYTEK
 70
     0
 62
    51
  6
CONTINUOUS
  0
ENDTAB
  0
TABLE
  2
STYLE
  5
3
100
AcDbSymbolTable
 70
     5
  0
STYLE
  5
10
100
AcDbSymbolTableRecord
100
AcDbTextStyleTableRecord
  2
STANDARD
 70
     0
 40
7.0
 41
1.0
 50
0.0
 71
     0
 42
20.0
  3
ISOCP.shx
  4

  0
STYLE
  5
331
100
AcDbSymbolTableRecord
100
AcDbTextStyleTableRecord
  2
ED30
 70
     0
 40
30.0
 41
1.0
 50
0.0
 71
     0
 42
2.5
  3
ISOCP.shx
  4

  0
STYLE
  5
5D2
100
AcDbSymbolTableRecord
100
AcDbTextStyleTableRecord
  2
ED20
 70
     0
 40
20.0
 41
1.0
 50
0.0
 71
     0
 42
20.0
  3
isocp.shx
  4

  0
STYLE
  5
64F
100
AcDbSymbolTableRecord
100
AcDbTextStyleTableRecord
  2
ED40
 70
     0
 40
40.0
 41
1.0
 50
0.0
 71
     0
 42
20.0
  3
isocp.shx
  4

  0
STYLE
  5
650
100
AcDbSymbolTableRecord
100
AcDbTextStyleTableRecord
  2
ED10
 70
     0
 40
10.0
 41
1.0
 50
0.0
 71
     0
 42
20.0
  3
isocp.shx
  4

  0
ENDTAB
  0
TABLE
  2
VIEW
  5
6
100
AcDbSymbolTable
 70
     0
  0
ENDTAB
  0
TABLE
  2
UCS
  5
7
100
AcDbSymbolTable
 70
     0
  0
ENDTAB
  0
TABLE
  2
APPID
  5
9
100
AcDbSymbolTable
 70
     3
  0
APPID
  5
11
100
AcDbSymbolTableRecord
100
AcDbRegAppTableRecord
  2
ACAD
 70
     0
  0
APPID
  5
7B3
100
AcDbSymbolTableRecord
100
AcDbRegAppTableRecord
  2
CONTENTBLOCKICON
 70
     0
  0
APPID
  5
7B4
100
AcDbSymbolTableRecord
100
AcDbRegAppTableRecord
  2
CONTENTBLOCKDESCRIPTION
 70
     0
  0
ENDTAB
  0
TABLE
  2
DIMSTYLE
  5
A
100
AcDbSymbolTable
 70
     5
  0
DIMSTYLE
105
1D
100
AcDbSymbolTableRecord
100
AcDbDimStyleTableRecord
  2
STANDARD
 70
     0
  3

  4

  5

  6
_OPEN
  7
_OPEN
 40
0.0
 41
15.0
 42
0.625
 43
3.75
 44
1.25
 45
0.0
 46
0.0
 47
0.0
 48
0.0
140
15.0
141
2.5
142
0.0
143
0.0394
144
1.0
145
0.0
146
1.0
147
3.0
 71
     0
 72
     0
 73
     0
 74
     0
 75
     0
 76
     0
 77
     1
 78
     8
170
     0
171
     4
172
     1
173
     1
174
     0
175
     0
176
     0
177
     0
178
     0
270
     2
271
     0
272
     1
273
     8
274
     4
340
331
275
     0
280
     0
281
     0
282
     0
283
     1
284
     8
285
     0
286
     0
287
     3
288
     0
  0
DIMSTYLE
105
397
100
AcDbSymbolTableRecord
100
AcDbDimStyleTableRecord
  2
ED40
 70
     0
  3

  4

  5

  6
_OPEN
  7
_OPEN
 40
0.0
 41
35.0
 42
1.0
 43
3.75
 44
1.25
 45
0.0
 46
0.0
 47
0.0
 48
0.0
140
40.0
141
3.0
142
0.0
143
0.0394
144
1.0
145
0.0
146
1.0
147
3.0
 71
     0
 72
     0
 73
     0
 74
     0
 75
     0
 76
     0
 77
     1
 78
     8
170
     0
171
     4
172
     1
173
     1
174
     0
175
     0
176
     0
177
     0
178
     0
270
     2
271
     0
272
     1
273
     8
274
     4
340
64F
275
     0
280
     0
281
     0
282
     0
283
     1
284
     8
285
     0
286
     0
287
     3
288
     0
  0
DIMSTYLE
105
656
100
AcDbSymbolTableRecord
100
AcDbDimStyleTableRecord
  2
ED30
 70
     0
  3

  4

  5

  6
_OPEN
  7
_OPEN
 40
0.0
 41
25.0
 42
1.0
 43
3.75
 44
1.25
 45
0.0
 46
0.0
 47
0.0
 48
0.0
140
30.0
141
3.0
142
0.0
143
0.0394
144
1.0
145
0.0
146
1.0
147
2.0
 71
     0
 72
     0
 73
     0
 74
     0
 75
     0
 76
     0
 77
     1
 78
     8
170
     0
171
     4
172
     1
173
     1
174
     0
175
     0
176
     0
177
     0
178
     0
270
     2
271
     0
272
     1
273
     8
274
     4
340
331
275
     0
280
     0
281
     0
282
     0
283
     1
284
     8
285
     0
286
     0
287
     3
288
     0
  0
DIMSTYLE
105
657
100
AcDbSymbolTableRecord
100
AcDbDimStyleTableRecord
  2
ED20
 70
     0
  3

  4

  5

  6
_OPEN
  7
_OPEN
 40
0.0
 41
20.0
 42
1.0
 43
3.75
 44
1.25
 45
0.0
 46
0.0
 47
0.0
 48
0.0
140
20.0
141
3.0
142
0.0
143
0.0394
144
1.0
145
0.0
146
1.0
147
1.5
 71
     0
 72
     0
 73
     0
 74
     0
 75
     0
 76
     0
 77
     1
 78
     8
170
     0
171
     4
172
     1
173
     1
174
     0
175
     0
176
     0
177
     0
178
     0
270
     2
271
     0
272
     1
273
     8
274
     4
340
5D2
275
     0
280
     0
281
     0
282
     0
283
     1
284
     8
285
     0
286
     0
287
     3
288
     0
  0
DIMSTYLE
105
658
102
{ACAD_REACTORS
330
715
330
724
330
731
330
74B
330
758
330
7C7
102
}
100
AcDbSymbolTableRecord
100
AcDbDimStyleTableRecord
  2
ED10
 70
     0
  3

  4

  5

  6
_OPEN
  7
_OPEN
 40
0.0
 41
15.0
 42
1.0
 43
3.75
 44
1.25
 45
0.0
 46
0.0
 47
0.0
 48
0.0
140
10.0
141
3.0
142
0.0
143
0.0394
144
1.0
145
0.0
146
1.0
147
1.5
 71
     0
 72
     0
 73
     0
 74
     0
 75
     0
 76
     0
 77
     1
 78
     8
170
     0
171
     4
172
     1
173
     1
174
     0
175
     0
176
     0
177
     0
178
     0
270
     2
271
     0
272
     1
273
     8
274
     4
340
5D2
275
     0
280
     0
281
     0
282
     0
283
     1
284
     8
285
     0
286
     0
287
     3
288
     0
  0
ENDTAB
  0
TABLE
  2
BLOCK_RECORD
  5
1
100
AcDbSymbolTable
 70
     7
  0
BLOCK_RECORD
  5
1A
100
AcDbSymbolTableRecord
100
AcDbBlockTableRecord
  2
*MODEL_SPACE
  0
BLOCK_RECORD
  5
17
100
AcDbSymbolTableRecord
100
AcDbBlockTableRecord
  2
*PAPER_SPACE
  0
BLOCK_RECORD
  5
90
100
AcDbSymbolTableRecord
100
AcDbBlockTableRecord
  2
_OPEN
  0
BLOCK_RECORD
  5
707
100
AcDbSymbolTableRecord
100
AcDbBlockTableRecord
  2
*D1
  0
BLOCK_RECORD
  5
716
100
AcDbSymbolTableRecord
100
AcDbBlockTableRecord
  2
*D2
  0
BLOCK_RECORD
  5
725
100
AcDbSymbolTableRecord
100
AcDbBlockTableRecord
  2
*D3
  0
BLOCK_RECORD
  5
73F
100
AcDbSymbolTableRecord
100
AcDbBlockTableRecord
  2
*D4
  0
BLOCK_RECORD
  5
74C
100
AcDbSymbolTableRecord
100
AcDbBlockTableRecord
  2
*D5
  0
BLOCK_RECORD
  5
7BB
100
AcDbSymbolTableRecord
100
AcDbBlockTableRecord
  2
*D6
  0
ENDTAB
  0
ENDSEC
  0
SECTION
  2
BLOCKS
  0
BLOCK
  5
1B
100
AcDbEntity
  8
0
100
AcDbBlockBegin
  2
*MODEL_SPACE
 70
     0
 10
0.0
 20
0.0
 30
0.0
  3
*MODEL_SPACE
  1

  0
ENDBLK
  5
1C
100
AcDbEntity
  8
0
100
AcDbBlockEnd
  0
BLOCK
  5
18
100
AcDbEntity
 67
     1
  8
0
100
AcDbBlockBegin
  2
*PAPER_SPACE
 70
     0
 10
0.0
 20
0.0
 30
0.0
  3
*PAPER_SPACE
  1

  0
ENDBLK
  5
19
100
AcDbEntity
 67
     1
  8
0
100
AcDbBlockEnd
  0
BLOCK
  5
91
100
AcDbEntity
  8
0
100
AcDbBlockBegin
  2
_OPEN
 70
     0
 10
0.0
 20
0.0
 30
0.0
  3
_OPEN
  1

  0
LINE
  5
92
100
AcDbEntity
  8
0
  6
BYBLOCK
 62
     0
100
AcDbLine
 10
-1.0
 20
0.166667
 30
0.0
 11
0.0
 21
0.0
 31
0.0
  0
LINE
  5
93
100
AcDbEntity
  8
0
  6
BYBLOCK
 62
     0
100
AcDbLine
 10
0.0
 20
0.0
 30
0.0
 11
-1.0
 21
-0.166667
 31
0.0
  0
LINE
  5
94
100
AcDbEntity
  8
0
  6
BYBLOCK
 62
     0
100
AcDbLine
 10
0.0
 20
0.0
 30
0.0
 11
-1.0
 21
0.0
 31
0.0
  0
ENDBLK
  5
95
100
AcDbEntity
  8
0
100
AcDbBlockEnd
  0
BLOCK
  5
A4B
100
AcDbEntity
  8
0
100
AcDbBlockBegin
  2
*D1
 70
     1
 10
0.0
 20
0.0
 30
0.0
  3
*D1
  1

  0
LINE
  5
A4C
100
AcDbEntity
  8
0
  6
BYBLOCK
 62
     0
100
AcDbLine
 10
132.0
 20
-63.0
 30
0.0
 11
132.0
 21
-156.51496
 31
0.0
  0
LINE
  5
A4D
100
AcDbEntity
  8
0
  6
BYBLOCK
 62
     0
100
AcDbLine
 10
162.0
 20
-63.0
 30
0.0
 11
162.0
 21
-156.51496
 31
0.0
  0
LINE
  5
A4E
100
AcDbEntity
  8
0
  6
BYBLOCK
 62
     0
100
AcDbLine
 10
117.0
 20
-155.26496
 30
0.0
 11
102.0
 21
-155.26496
 31
0.0
  0
LINE
  5
A4F
100
AcDbEntity
  8
0
  6
BYBLOCK
 62
     0
100
AcDbLine
 10
177.0
 20
-155.26496
 30
0.0
 11
192.0
 21
-155.26496
 31
0.0
  0
LINE
  5
A50
100
AcDbEntity
  8
0
  6
BYBLOCK
 62
     0
100
AcDbLine
 10
132.0
 20
-155.26496
 30
0.0
 11
162.0
 21
-155.26496
 31
0.0
  0
INSERT
  5
A51
100
AcDbEntity
  8
0
  6
BYBLOCK
 62
     0
100
AcDbBlockReference
  2
_OPEN
 10
132.0
 20
-155.26496
 30
0.0
 41
15.0
 42
15.0
 43
15.0
  0
INSERT
  5
A52
100
AcDbEntity
  8
0
  6
BYBLOCK
 62
     0
100
AcDbBlockReference
  2
_OPEN
 10
162.0
 20
-155.26496
 30
0.0
 41
15.0
 42
15.0
 43
15.0
 50
180.0
  0
MTEXT
  5
A53
100
AcDbEntity
  8
0
  6
BYBLOCK
 62
     0
100
AcDbMText
 10
147.0
 20
-143.76496
 30
0.0
 40
20.0
 41
0.0
 71
     5
 72
     1
  1
\A1;30
  7
ED20
  0
POINT
  5
A54
100
AcDbEntity
  8
DEFPOINTS
  6
BYBLOCK
 62
     0
100
AcDbPoint
 10
132.0
 20
-62.0
 30
0.0
  0
POINT
  5
A55
100
AcDbEntity
  8
DEFPOINTS
  6
BYBLOCK
 62
     0
100
AcDbPoint
 10
162.0
 20
-62.0
 30
0.0
  0
POINT
  5
A56
100
AcDbEntity
  8
DEFPOINTS
  6
BYBLOCK
 62
     0
100
AcDbPoint
 10
162.0
 20
-155.26496
 30
0.0
  0
ENDBLK
  5
A57
100
AcDbEntity
  8
0
100
AcDbBlockEnd
  0
BLOCK
  5
A3E
100
AcDbEntity
  8
0
100
AcDbBlockBegin
  2
*D2
 70
     1
 10
0.0
 20
0.0
 30
0.0
  3
*D2
  1

  0
LINE
  5
A3F
100
AcDbEntity
  8
0
  6
BYBLOCK
 62
     0
100
AcDbLine
 10
322.0
 20
-63.0
 30
0.0
 11
322.0
 21
-156.51496
 31
0.0
  0
LINE
  5
A40
100
AcDbEntity
  8
0
  6
BYBLOCK
 62
     0
100
AcDbLine
 10
352.0
 20
-63.0
 30
0.0
 11
352.0
 21
-156.51496
 31
0.0
  0
LINE
  5
A41
100
AcDbEntity
  8
0
  6
BYBLOCK
 62
     0
100
AcDbLine
 10
307.0
 20
-155.26496
 30
0.0
 11
292.0
 21
-155.26496
 31
0.0
  0
LINE
  5
A42
100
AcDbEntity
  8
0
  6
BYBLOCK
 62
     0
100
AcDbLine
 10
367.0
 20
-155.26496
 30
0.0
 11
382.0
 21
-155.26496
 31
0.0
  0
LINE
  5
A43
100
AcDbEntity
  8
0
  6
BYBLOCK
 62
     0
100
AcDbLine
 10
322.0
 20
-155.26496
 30
0.0
 11
352.0
 21
-155.26496
 31
0.0
  0
INSERT
  5
A44
100
AcDbEntity
  8
0
  6
BYBLOCK
 62
     0
100
AcDbBlockReference
  2
_OPEN
 10
322.0
 20
-155.26496
 30
0.0
 41
15.0
 42
15.0
 43
15.0
  0
INSERT
  5
A45
100
AcDbEntity
  8
0
  6
BYBLOCK
 62
     0
100
AcDbBlockReference
  2
_OPEN
 10
352.0
 20
-155.26496
 30
0.0
 41
15.0
 42
15.0
 43
15.0
 50
180.0
  0
MTEXT
  5
A46
100
AcDbEntity
  8
0
  6
BYBLOCK
 62
     0
100
AcDbMText
 10
337.0
 20
-143.76496
 30
0.0
 40
20.0
 41
0.0
 71
     5
 72
     1
  1
\A1;30
  7
ED20
  0
POINT
  5
A47
100
AcDbEntity
  8
DEFPOINTS
  6
BYBLOCK
 62
     0
100
AcDbPoint
 10
322.0
 20
-62.0
 30
0.0
  0
POINT
  5
A48
100
AcDbEntity
  8
DEFPOINTS
  6
BYBLOCK
 62
     0
100
AcDbPoint
 10
352.0
 20
-62.0
 30
0.0
  0
POINT
  5
A49
100
AcDbEntity
  8
DEFPOINTS
  6
BYBLOCK
 62
     0
100
AcDbPoint
 10
352.0
 20
-155.26496
 30
0.0
  0
ENDBLK
  5
A4A
100
AcDbEntity
  8
0
100
AcDbBlockEnd
  0
BLOCK
  5
A33
100
AcDbEntity
  8
0
100
AcDbBlockBegin
  2
*D3
 70
     1
 10
0.0
 20
0.0
 30
0.0
  3
*D3
  1

  0
LINE
  5
A34
100
AcDbEntity
  8
0
  6
BYBLOCK
 62
     0
100
AcDbLine
 10
132.0
 20
-63.0
 30
0.0
 11
132.0
 21
-183.459959
 31
0.0
  0
LINE
  5
A35
100
AcDbEntity
  8
0
  6
BYBLOCK
 62
     0
100
AcDbLine
 10
352.0
 20
-63.0
 30
0.0
 11
352.0
 21
-183.459959
 31
0.0
  0
LINE
  5
A36
100
AcDbEntity
  8
0
  6
BYBLOCK
 62
     0
100
AcDbLine
 10
147.0
 20
-182.209959
 30
0.0
 11
337.0
 21
-182.209959
 31
0.0
  0
INSERT
  5
A37
100
AcDbEntity
  8
0
  6
BYBLOCK
 62
     0
100
AcDbBlockReference
  2
_OPEN
 10
132.0
 20
-182.209959
 30
0.0
 41
15.0
 42
15.0
 43
15.0
 50
180.0
  0
INSERT
  5
A38
100
AcDbEntity
  8
0
  6
BYBLOCK
 62
     0
100
AcDbBlockReference
  2
_OPEN
 10
352.0
 20
-182.209959
 30
0.0
 41
15.0
 42
15.0
 43
15.0
  0
MTEXT
  5
A39
100
AcDbEntity
  8
0
  6
BYBLOCK
 62
     0
100
AcDbMText
 10
242.0
 20
-170.70799
 30
0.0
 40
20.0
 41
0.0
 71
     5
 72
     1
  1
\A1;220
  7
ED20
  0
POINT
  5
A3A
100
AcDbEntity
  8
DEFPOINTS
  6
BYBLOCK
 62
     0
100
AcDbPoint
 10
132.0
 20
-62.0
 30
0.0
  0
POINT
  5
A3B
100
AcDbEntity
  8
DEFPOINTS
  6
BYBLOCK
 62
     0
100
AcDbPoint
 10
352.0
 20
-62.0
 30
0.0
  0
POINT
  5
A3C
100
AcDbEntity
  8
DEFPOINTS
  6
BYBLOCK
 62
     0
100
AcDbPoint
 10
352.0
 20
-182.209959
 30
0.0
  0
ENDBLK
  5
A3D
100
AcDbEntity
  8
0
100
AcDbBlockEnd
  0
BLOCK
  5
A58
100
AcDbEntity
  8
0
100
AcDbBlockBegin
  2
*D4
 70
     1
 10
0.0
 20
0.0
 30
0.0
  3
*D4
  1

  0
LINE
  5
A59
100
AcDbEntity
  8
0
  6
BYBLOCK
 62
     0
100
AcDbLine
 10
131.0
 20
62.0
 30
0.0
 11
97.261661
 21
62.0
 31
0.0
  0
LINE
  5
A5A
100
AcDbEntity
  8
0
  6
BYBLOCK
 62
     0
100
AcDbLine
 10
131.0
 20
-62.0
 30
0.0
 11
97.261661
 21
-62.0
 31
0.0
  0
LINE
  5
A5B
100
AcDbEntity
  8
0
  6
BYBLOCK
 62
     0
100
AcDbLine
 10
98.511661
 20
47.0
 30
0.0
 11
98.511661
 21
-47.0
 31
0.0
  0
INSERT
  5
A5C
100
AcDbEntity
  8
0
  6
BYBLOCK
 62
     0
100
AcDbBlockReference
  2
_OPEN
 10
98.511661
 20
62.0
 30
0.0
 41
15.0
 42
15.0
 43
15.0
 50
90.0
  0
INSERT
  5
A5D
100
AcDbEntity
  8
0
  6
BYBLOCK
 62
     0
100
AcDbBlockReference
  2
_OPEN
 10
98.511661
 20
-62.0
 30
0.0
 41
15.0
 42
15.0
 43
15.0
 50
270.0
  0
MTEXT
  5
A5E
100
AcDbEntity
  8
0
  6
BYBLOCK
 62
     0
100
AcDbMText
 10
87.009693
 20
0.0
 30
0.0
 40
20.0
 41
0.0
 71
     5
 72
     1
  1
\A1;\U+2205124
  7
ED20
 11
0.0
 21
1.0
 31
0.0
  0
POINT
  5
A5F
100
AcDbEntity
  8
DEFPOINTS
  6
BYBLOCK
 62
     0
100
AcDbPoint
 10
132.0
 20
62.0
 30
0.0
  0
POINT
  5
A60
100
AcDbEntity
  8
DEFPOINTS
  6
BYBLOCK
 62
     0
100
AcDbPoint
 10
132.0
 20
-62.0
 30
0.0
  0
POINT
  5
A61
100
AcDbEntity
  8
DEFPOINTS
  6
BYBLOCK
 62
     0
100
AcDbPoint
 10
98.511661
 20
-62.0
 30
0.0
  0
ENDBLK
  5
A62
100
AcDbEntity
  8
0
100
AcDbBlockEnd
  0
BLOCK
  5
A63
100
AcDbEntity
  8
0
100
AcDbBlockBegin
  2
*D5
 70
     1
 10
0.0
 20
0.0
 30
0.0
  3
*D5
  1

  0
LINE
  5
A64
100
AcDbEntity
  8
0
  6
BYBLOCK
 62
     0
100
AcDbLine
 10
353.0
 20
62.0
 30
0.0
 11
389.876697
 21
62.0
 31
0.0
  0
LINE
  5
A65
100
AcDbEntity
  8
0
  6
BYBLOCK
 62
     0
100
AcDbLine
 10
353.0
 20
-62.0
 30
0.0
 11
389.876697
 21
-62.0
 31
0.0
  0
LINE
  5
A66
100
AcDbEntity
  8
0
  6
BYBLOCK
 62
     0
100
AcDbLine
 10
388.626697
 20
47.0
 30
0.0
 11
388.626697
 21
-47.0
 31
0.0
  0
INSERT
  5
A67
100
AcDbEntity
  8
0
  6
BYBLOCK
 62
     0
100
AcDbBlockReference
  2
_OPEN
 10
388.626697
 20
62.0
 30
0.0
 41
15.0
 42
15.0
 43
15.0
 50
90.0
  0
INSERT
  5
A68
100
AcDbEntity
  8
0
  6
BYBLOCK
 62
     0
100
AcDbBlockReference
  2
_OPEN
 10
388.626697
 20
-62.0
 30
0.0
 41
15.0
 42
15.0
 43
15.0
 50
270.0
  0
MTEXT
  5
A69
100
AcDbEntity
  8
0
  6
BYBLOCK
 62
     0
100
AcDbMText
 10
377.124729
 20
0.0
 30
0.0
 40
20.0
 41
0.0
 71
     5
 72
     1
  1
\A1;\U+2205124
  7
ED20
 11
0.0
 21
1.0
 31
0.0
  0
POINT
  5
A6A
100
AcDbEntity
  8
DEFPOINTS
  6
BYBLOCK
 62
     0
100
AcDbPoint
 10
352.0
 20
62.0
 30
0.0
  0
POINT
  5
A6B
100
AcDbEntity
  8
DEFPOINTS
  6
BYBLOCK
 62
     0
100
AcDbPoint
 10
352.0
 20
-62.0
 30
0.0
  0
POINT
  5
A6C
100
AcDbEntity
  8
DEFPOINTS
  6
BYBLOCK
 62
     0
100
AcDbPoint
 10
388.626697
 20
-62.0
 30
0.0
  0
ENDBLK
  5
A6D
100
AcDbEntity
  8
0
100
AcDbBlockEnd
  0
BLOCK
  5
9B5
100
AcDbEntity
  8
0
100
AcDbBlockBegin
  2
*D6
 70
     1
 10
0.0
 20
0.0
 30
0.0
  3
*D6
  1

  0
LINE
  5
9B6
100
AcDbEntity
  8
0
  6
BYBLOCK
 62
     0
100
AcDbLine
 10
202.612466
 20
122.5
 30
0.0
 11
66.279438
 21
122.5
 31
0.0
  0
LINE
  5
9B7
100
AcDbEntity
  8
0
  6
BYBLOCK
 62
     0
100
AcDbLine
 10
202.612466
 20
-122.5
 30
0.0
 11
66.279438
 21
-122.5
 31
0.0
  0
LINE
  5
9B8
100
AcDbEntity
  8
0
  6
BYBLOCK
 62
     0
100
AcDbLine
 10
67.529438
 20
107.5
 30
0.0
 11
67.529438
 21
-107.5
 31
0.0
  0
INSERT
  5
9B9
100
AcDbEntity
  8
0
  6
BYBLOCK
 62
     0
100
AcDbBlockReference
  2
_OPEN
 10
67.529438
 20
122.5
 30
0.0
 41
15.0
 42
15.0
 43
15.0
 50
90.0
  0
INSERT
  5
9BA
100
AcDbEntity
  8
0
  6
BYBLOCK
 62
     0
100
AcDbBlockReference
  2
_OPEN
 10
67.529438
 20
-122.5
 30
0.0
 41
15.0
 42
15.0
 43
15.0
 50
270.0
  0
MTEXT
  5
9BB
100
AcDbEntity
  8
0
  6
BYBLOCK
 62
     0
100
AcDbMText
 10
56.02747
 20
1.521904
 30
0.0
 40
20.0
 41
0.0
 71
     5
 72
     1
  1
\A1;\U+2205245
  7
ED20
 11
0.0
 21
1.0
 31
0.0
  0
POINT
  5
9BC
100
AcDbEntity
  8
DEFPOINTS
  6
BYBLOCK
 62
     0
100
AcDbPoint
 10
203.612466
 20
122.5
 30
0.0
  0
POINT
  5
9BD
100
AcDbEntity
  8
DEFPOINTS
  6
BYBLOCK
 62
     0
100
AcDbPoint
 10
203.612466
 20
-122.5
 30
0.0
  0
POINT
  5
9BE
100
AcDbEntity
  8
DEFPOINTS
  6
BYBLOCK
 62
     0
100
AcDbPoint
 10
67.529438
 20
-122.5
 30
0.0
  0
ENDBLK
  5
9BF
100
AcDbEntity
  8
0
100
AcDbBlockEnd
  0
ENDSEC
  0
SECTION
  2
ENTITIES
  0
LINE
  5
66F
100
AcDbEntity
  8
V0-VYPLNE
 62
    63
100
AcDbLine
 10
132.0
 20
0.0
 30
0.0
 11
359.635079
 21
0.0
 31
0.0
  0
LINE
  5
670
100
AcDbEntity
  8
V0-OBRYS
 62
    90
100
AcDbLine
 10
132.0
 20
0.0
 30
0.0
 11
132.0
 21
62.0
 31
0.0
  0
LINE
  5
671
100
AcDbEntity
  8
V0-OBRYS
 62
    90
100
AcDbLine
 10
132.0
 20
62.0
 30
0.0
 11
162.0
 21
62.0
 31
0.0
  0
LINE
  5
672
100
AcDbEntity
  8
V0-OBRYS
 62
    90
100
AcDbLine
 10
162.0
 20
107.500296
 30
0.0
 11
162.0
 21
0.0
 31
0.0
  0
LINE
  5
673
100
AcDbEntity
  8
V0-OBRYS
 62
    90
100
AcDbLine
 10
322.0
 20
0.0
 30
0.0
 11
322.0
 21
64.444174
 31
0.0
  0
LINE
  5
675
100
AcDbEntity
  8
V0-OBRYS
 62
    90
100
AcDbLine
 10
352.0
 20
0.0
 30
0.0
 11
352.0
 21
62.0
 31
0.0
  0
LINE
  5
676
100
AcDbEntity
  8
V0-OBRYS
 62
    90
100
AcDbLine
 10
352.0
 20
62.0
 30
0.0
 11
322.0
 21
62.0
 31
0.0
  0
LINE
  5
67A
100
AcDbEntity
  8
V0-OBRYS
 62
    90
100
AcDbLine
 10
162.0
 20
62.0
 30
0.0
 11
162.0
 21
65.81948
 31
0.0
  0
LINE
  5
685
100
AcDbEntity
  8
V0-OBRYS
 62
    90
100
AcDbLine
 10
247.803472
 20
120.242112
 30
0.0
 11
321.265632
 21
65.992778
 31
0.0
  0
LINE
  5
686
100
AcDbEntity
  8
V0-OBRYS
 62
    90
100
AcDbLine
 10
177.000238
 20
122.500296
 30
0.0
 11
241.475469
 21
122.499091
 31
0.0
  0
ARC
  5
687
100
AcDbEntity
  8
V0-OBRYS
 62
    90
100
AcDbCircle
 10
320.0
 20
64.444174
 30
0.0
 40
2.0
100
AcDbArc
 50
0.0
 51
50.741799
  0
LINE
  5
689
100
AcDbEntity
  8
V0-OBRYS
 62
    90
100
AcDbLine
 10
162.0
 20
-107.500296
 30
0.0
 11
162.0
 21
0.0
 31
0.0
  0
LINE
  5
68A
100
AcDbEntity
  8
V0-OBRYS
 62
    90
100
AcDbLine
 10
132.0
 20
0.0
 30
0.0
 11
132.0
 21
-62.0
 31
0.0
  0
LINE
  5
68B
100
AcDbEntity
  8
V0-OBRYS
 62
    90
100
AcDbLine
 10
132.0
 20
-62.0
 30
0.0
 11
162.0
 21
-62.0
 31
0.0
  0
LINE
  5
68C
100
AcDbEntity
  8
V0-OBRYS
 62
    90
100
AcDbLine
 10
162.0
 20
-62.0
 30
0.0
 11
162.0
 21
-65.81948
 31
0.0
  0
LINE
  5
68E
100
AcDbEntity
  8
V0-OBRYS
 62
    90
100
AcDbLine
 10
322.0
 20
0.0
 30
0.0
 11
322.0
 21
-64.444174
 31
0.0
  0
LINE
  5
691
100
AcDbEntity
  8
V0-OBRYS
 62
    90
100
AcDbLine
 10
223.345626
 20
-122.5
 30
0.0
 11
223.345626
 21
122.499478
 31
0.0
  0
LINE
  5
693
100
AcDbEntity
  8
V0-OBRYS
 62
    90
100
AcDbLine
 10
352.0
 20
0.0
 30
0.0
 11
352.0
 21
-62.0
 31
0.0
  0
LINE
  5
694
100
AcDbEntity
  8
V0-OBRYS
 62
    90
100
AcDbLine
 10
247.803472
 20
-120.242112
 30
0.0
 11
321.265632
 21
-65.992778
 31
0.0
  0
LINE
  5
697
100
AcDbEntity
  8
V0-OBRYS
 62
    90
100
AcDbLine
 10
177.000238
 20
-122.500296
 30
0.0
 11
241.475469
 21
-122.499091
 31
0.0
  0
LINE
  5
699
100
AcDbEntity
  8
V0-OBRYS
 62
    90
100
AcDbLine
 10
352.0
 20
-62.0
 30
0.0
 11
322.0
 21
-62.0
 31
0.0
  0
ARC
  5
69A
100
AcDbEntity
  8
V0-OBRYS
 62
    90
100
AcDbCircle
 10
320.0
 20
-64.444174
 30
0.0
 40
2.0
100
AcDbArc
 50
309.258201
 51
0.0
  0
ARC
  5
69E
100
AcDbEntity
  8
V0-OBRYS
 62
    90
100
AcDbCircle
 10
241.475311
 20
112.499091
 30
0.0
 40
10.0
100
AcDbArc
 50
50.741799
 51
89.999089
  0
ARC
  5
69F
100
AcDbEntity
  8
V0-OBRYS
 62
    90
100
AcDbCircle
 10
241.475311
 20
-112.499091
 30
0.0
 40
10.0
100
AcDbArc
 50
270.000911
 51
309.258201
  0
LINE
  5
6A0
100
AcDbEntity
  8
V0-OBRYS
 62
    90
100
AcDbLine
 10
245.0
 20
116.323614
 30
0.0
 11
245.0
 21
-115.776556
 31
0.0
  0
LINE
  5
6AA
100
AcDbEntity
  8
V0-VYPLNE
 62
    63
100
AcDbLine
 10
550.0
 20
120.016841
 30
0.0
 11
550.0
 21
-120.016841
 31
0.0
  0
LINE
  5
6AB
100
AcDbEntity
  8
V0-VYPLNE
 62
    63
100
AcDbLine
 10
430.784599
 20
0.0
 30
0.0
 11
669.215401
 21
0.0
 31
0.0
  0
CIRCLE
  5
6B0
100
AcDbEntity
  8
V0-OBRYS
 62
    90
100
AcDbCircle
 10
550.0
 20
0.0
 30
0.0
 40
38.463896
  0
LINE
  5
6B1
100
AcDbEntity
  8
V0-OBRYS
 62
    90
100
AcDbLine
 10
550.0
 20
38.463896
 30
0.0
 11
550.0
 21
62.5
 31
0.0
  0
LINE
  5
6C5
100
AcDbEntity
  8
V0-OBRYS
 62
    90
100
AcDbLine
 10
530.768052
 20
33.310711
 30
0.0
 11
518.75
 21
54.126588
 31
0.0
  0
LINE
  5
6C6
100
AcDbEntity
  8
V0-OBRYS
 62
    90
100
AcDbLine
 10
516.689289
 20
19.231948
 30
0.0
 11
495.873412
 21
31.25
 31
0.0
  0
LINE
  5
6C7
100
AcDbEntity
  8
V0-OBRYS
 62
    90
100
AcDbLine
 10
511.536104
 20
0.0
 30
0.0
 11
487.5
 21
0.0
 31
0.0
  0
LINE
  5
6C8
100
AcDbEntity
  8
V0-OBRYS
 62
    90
100
AcDbLine
 10
516.689289
 20
-19.231948
 30
0.0
 11
495.873412
 21
-31.25
 31
0.0
  0
LINE
  5
6C9
100
AcDbEntity
  8
V0-OBRYS
 62
    90
100
AcDbLine
 10
530.768052
 20
-33.310711
 30
0.0
 11
518.75
 21
-54.126588
 31
0.0
  0
LINE
  5
6CA
100
AcDbEntity
  8
V0-OBRYS
 62
    90
100
AcDbLine
 10
550.0
 20
-38.463896
 30
0.0
 11
550.0
 21
-62.5
 31
0.0
  0
LINE
  5
6CB
100
AcDbEntity
  8
V0-OBRYS
 62
    90
100
AcDbLine
 10
569.231948
 20
-33.310711
 30
0.0
 11
581.25
 21
-54.126588
 31
0.0
  0
LINE
  5
6CC
100
AcDbEntity
  8
V0-OBRYS
 62
    90
100
AcDbLine
 10
583.310711
 20
-19.231948
 30
0.0
 11
604.126588
 21
-31.25
 31
0.0
  0
LINE
  5
6CD
100
AcDbEntity
  8
V0-OBRYS
 62
    90
100
AcDbLine
 10
588.463896
 20
0.0
 30
0.0
 11
612.5
 21
0.0
 31
0.0
  0
LINE
  5
6CE
100
AcDbEntity
  8
V0-OBRYS
 62
    90
100
AcDbLine
 10
583.310711
 20
19.231948
 30
0.0
 11
604.126588
 21
31.25
 31
0.0
  0
LINE
  5
6CF
100
AcDbEntity
  8
V0-OBRYS
 62
    90
100
AcDbLine
 10
569.231948
 20
33.310711
 30
0.0
 11
581.25
 21
54.126588
 31
0.0
  0
CIRCLE
  5
6D0
100
AcDbEntity
  8
V0-OBRYS
 62
    90
100
AcDbCircle
 10
550.0
 20
0.0
 30
0.0
 40
10.195323
  0
DIMENSION
  5
715
100
AcDbEntity
  8
V0-VYPLNE
  6
CONTINUOUS
 62
    41
100
AcDbDimension
  2
*D1
 10
162.0
 20
-155.26496
 30
0.0
 11
147.0
 21
-143.76496
 31
0.0
 70
    32
  3
ED10
100
AcDbAlignedDimension
 13
132.0
 23
-62.0
 33
0.0
 14
162.0
 24
-62.0
 34
0.0
100
AcDbRotatedDimension
1001
ACAD
1000
DSTYLE
1002
{
1070
    40
1040
1.0
1002
}
  0
DIMENSION
  5
724
100
AcDbEntity
  8
V0-VYPLNE
  6
CONTINUOUS
 62
    41
100
AcDbDimension
  2
*D2
 10
352.0
 20
-155.26496
 30
0.0
 11
337.0
 21
-143.76496
 31
0.0
 70
    32
  3
ED10
100
AcDbAlignedDimension
 13
322.0
 23
-62.0
 33
0.0
 14
352.0
 24
-62.0
 34
0.0
100
AcDbRotatedDimension
1001
ACAD
1000
DSTYLE
1002
{
1070
    40
1040
1.0
1002
}
  0
DIMENSION
  5
731
100
AcDbEntity
  8
V0-VYPLNE
  6
CONTINUOUS
 62
    41
100
AcDbDimension
  2
*D3
 10
352.0
 20
-182.209959
 30
0.0
 11
242.0
 21
-170.70799
 31
0.0
 70
    32
  3
ED10
100
AcDbAlignedDimension
 13
132.0
 23
-62.0
 33
0.0
 14
352.0
 24
-62.0
 34
0.0
100
AcDbRotatedDimension
1001
ACAD
1000
DSTYLE
1002
{
1070
    40
1040
1.0
1002
}
  0
DIMENSION
  5
74B
100
AcDbEntity
  8
V0-VYPLNE
  6
CONTINUOUS
 62
    41
100
AcDbDimension
  2
*D4
 10
98.511661
 20
-62.0
 30
0.0
 11
87.009693
 21
0.0
 31
0.0
 70
    32
  1
%%c<>
  3
ED10
100
AcDbAlignedDimension
 13
132.0
 23
62.0
 33
0.0
 14
132.0
 24
-62.0
 34
0.0
 50
90.0
100
AcDbRotatedDimension
1001
ACAD
1000
DSTYLE
1002
{
1070
    40
1040
1.0
1002
}
  0
DIMENSION
  5
758
100
AcDbEntity
  8
V0-VYPLNE
  6
CONTINUOUS
 62
    41
100
AcDbDimension
  2
*D5
 10
388.626697
 20
-62.0
 30
0.0
 11
377.124729
 21
0.0
 31
0.0
 70
    32
  1
%%c<>
  3
ED10
100
AcDbAlignedDimension
 13
352.0
 23
62.0
 33
0.0
 14
352.0
 24
-62.0
 34
0.0
 50
90.0
100
AcDbRotatedDimension
1001
ACAD
1000
DSTYLE
1002
{
1070
    40
1040
1.0
1002
}
  0
MTEXT
  5
78B
100
AcDbEntity
  8
V0-ZBYTEK
 62
    51
100
AcDbMText
 10
550.328239
 20
-332.573707
 30
0.0
 40
18.2
 41
515.57012
 71
     5
 72
     5
  1
RADIALNI VENTILATOR
  7
ED10
  0
MTEXT
  5
78C
100
AcDbEntity
  8
V0-ZBYTEK
100
AcDbMText
 10
548.256152
 20
-371.969402
 30
0.0
 40
13.0
 41
204.22415
 71
     5
 72
     5
  1
DO KRUHOVEHO POTRUBI\PPLASTOVY
  7
ED10
  0
MTEXT
  5
78D
100
AcDbEntity
  8
V0-NAZVY
100
AcDbMText
 10
541.987232
 20
-284.934537
 30
0.0
 40
32.5
 41
267.3327
 71
     5
 72
     5
  1
RK-125L
  7
ED10
  0
MTEXT
  5
793
100
AcDbEntity
  8
V0-NAZVY
100
AcDbMText
 10
543.651439
 20
-78.029965
 30
0.0
 40
26.25
 41
215.9226
 71
     5
 72
     5
  1
RK-125L
  7
ED10
  0
MTEXT
  5
794
100
AcDbEntity
  8
V0-NAZVY
100
AcDbMText
 10
218.433977
 20
-65.295792
 30
0.0
 40
26.25
 41
0.0
 71
     5
 72
     5
  1
RK-125L
  7
ED10
  0
LINE
  5
798
100
AcDbEntity
  8
V0-VYPLNE
  6
CONTINUOUS
 62
    41
100
AcDbLine
 10
252.771683
 20
6.535906
 30
0.0
 11
317.918417
 21
6.535906
 31
0.0
  0
LINE
  5
799
100
AcDbEntity
  8
V0-VYPLNE
  6
CONTINUOUS
 62
    41
100
AcDbLine
 10
317.918417
 20
6.535906
 30
0.0
 11
296.185913
 21
11.727036
 31
0.0
  0
LINE
  5
79A
100
AcDbEntity
  8
V0-VYPLNE
  6
CONTINUOUS
 62
    41
100
AcDbLine
 10
317.918417
 20
6.535906
 30
0.0
 11
296.185913
 21
1.344776
 31
0.0
  0
POINT
  5
79E
100
AcDbEntity
  8
V0-VYPLNE
  6
CONTINUOUS
 62
    41
100
AcDbPoint
 10
550.0
 20
0.0
 30
0.0
  0
POINT
  5
79F
100
AcDbEntity
  8
V0-VYPLNE
  6
CONTINUOUS
 62
    41
100
AcDbPoint
 10
162.0
 20
0.0
 30
0.0
  0
POINT
  5
7A2
100
AcDbEntity
  8
V0-VYPLNE
  6
CONTINUOUS
 62
    41
100
AcDbPoint
 10
322.0
 20
0.0
 30
0.0
  0
DIMENSION
  5
7C7
100
AcDbEntity
  8
V0-VYPLNE
  6
CONTINUOUS
 62
    41
100
AcDbDimension
  2
*D6
 10
67.529438
 20
-122.5
 30
0.0
 11
67.529438
 21
1.521904
 31
0.0
 70
   160
  1
%%c<>
  3
ED10
100
AcDbAlignedDimension
 13
203.612466
 23
122.5
 33
0.0
 14
203.612466
 24
-122.5
 34
0.0
 50
90.0
100
AcDbRotatedDimension
1001
ACAD
1000
DSTYLE
1002
{
1070
    40
1040
1.0
1002
}
  0
ARC
  5
929
100
AcDbEntity
  8
V0-OBRYS
 62
    90
100
AcDbCircle
 10
177.0
 20
107.500296
 30
0.0
 40
15.0
100
AcDbArc
 50
89.999089
 51
180.0
  0
ARC
  5
92A
100
AcDbEntity
  8
V0-OBRYS
 62
    90
100
AcDbCircle
 10
177.0
 20
-107.500296
 30
0.0
 40
15.0
100
AcDbArc
 50
180.0
 51
270.000911
  0
CIRCLE
  5
96D
100
AcDbEntity
  8
V0-OBRYS
  6
CONTINUOUS
 62
    90
100
AcDbCircle
 10
550.0
 20
0.0
 30
0.0
 40
122.5
  0
CIRCLE
  5
96E
100
AcDbEntity
  8
V0-OBRYS
  6
CONTINUOUS
 62
    90
100
AcDbCircle
 10
550.0
 20
0.0
 30
0.0
 40
115.193436
  0
LINE
  5
96F
100
AcDbEntity
  8
V0-OBRYS
 62
    90
100
AcDbLine
 10
352.0
 20
-282.105977
 30
0.0
 11
322.0
 21
-282.105977
 31
0.0
  0
LINE
  5
970
100
AcDbEntity
  8
V0-OBRYS
 62
    90
100
AcDbLine
 10
352.0
 20
-407.105977
 30
0.0
 11
322.0
 21
-407.105977
 31
0.0
  0
LINE
  5
971
100
AcDbEntity
  8
V0-VYPLNE
 62
    63
100
AcDbLine
 10
132.0
 20
-344.605977
 30
0.0
 11
359.635079
 21
-344.605977
 31
0.0
  0
LINE
  5
972
100
AcDbEntity
  8
V0-OBRYS
 62
    90
100
AcDbLine
 10
322.0
 20
-344.605977
 30
0.0
 11
322.0
 21
-409.550151
 31
0.0
  0
LINE
  5
973
100
AcDbEntity
  8
V0-OBRYS
 62
    90
100
AcDbLine
 10
132.0
 20
-344.605977
 30
0.0
 11
132.0
 21
-407.105977
 31
0.0
  0
LINE
  5
974
100
AcDbEntity
  8
V0-OBRYS
 62
    90
100
AcDbLine
 10
223.345626
 20
-467.105977
 30
0.0
 11
223.345626
 21
-222.106499
 31
0.0
  0
LINE
  5
975
100
AcDbEntity
  8
V0-OBRYS
 62
    90
100
AcDbLine
 10
245.0
 20
-228.282362
 30
0.0
 11
245.0
 21
-460.382533
 31
0.0
  0
LINE
  5
976
100
AcDbEntity
  8
V0-OBRYS
 62
    90
100
AcDbLine
 10
162.0
 20
-452.106273
 30
0.0
 11
162.0
 21
-344.605977
 31
0.0
  0
MTEXT
  5
977
100
AcDbEntity
  8
V0-NAZVY
100
AcDbMText
 10
221.084457
 20
-411.917324
 30
0.0
 40
26.25
 41
0.0
 71
     5
 72
     5
  1
RK-125L
  7
ED10
  0
LINE
  5
978
100
AcDbEntity
  8
V0-OBRYS
 62
    90
100
AcDbLine
 10
177.000238
 20
-467.106273
 30
0.0
 11
241.475469
 21
-467.105068
 31
0.0
  0
ARC
  5
979
100
AcDbEntity
  8
V0-OBRYS
 62
    90
100
AcDbCircle
 10
177.0
 20
-452.106273
 30
0.0
 40
15.0
100
AcDbArc
 50
180.0
 51
270.000911
  0
LINE
  5
97A
100
AcDbEntity
  8
V0-OBRYS
 62
    90
100
AcDbLine
 10
132.0
 20
-407.105977
 30
0.0
 11
162.0
 21
-407.105977
 31
0.0
  0
LINE
  5
97B
100
AcDbEntity
  8
V0-OBRYS
 62
    90
100
AcDbLine
 10
162.0
 20
-407.105977
 30
0.0
 11
162.0
 21
-410.925457
 31
0.0
  0
LINE
  5
97C
100
AcDbEntity
  8
V0-OBRYS
 62
    90
100
AcDbLine
 10
247.803472
 20
-464.848089
 30
0.0
 11
321.265632
 21
-411.098755
 31
0.0
  0
ARC
  5
97D
100
AcDbEntity
  8
V0-OBRYS
 62
    90
100
AcDbCircle
 10
241.475311
 20
-457.105068
 30
0.0
 40
10.0
100
AcDbArc
 50
270.000911
 51
309.258201
  0
ARC
  5
97E
100
AcDbEntity
  8
V0-OBRYS
 62
    90
100
AcDbCircle
 10
320.0
 20
-409.550151
 30
0.0
 40
2.0
100
AcDbArc
 50
309.258201
 51
0.0
  0
LINE
  5
97F
100
AcDbEntity
  8
V0-OBRYS
 62
    90
100
AcDbLine
 10
177.000238
 20
-222.105681
 30
0.0
 11
241.475469
 21
-222.106886
 31
0.0
  0
LINE
  5
980
100
AcDbEntity
  8
V0-OBRYS
 62
    90
100
AcDbLine
 10
162.0
 20
-237.105681
 30
0.0
 11
162.0
 21
-344.605977
 31
0.0
  0
POINT
  5
981
100
AcDbEntity
  8
V0-VYPLNE
  6
CONTINUOUS
 62
    41
100
AcDbPoint
 10
162.0
 20
-344.605977
 30
0.0
  0
LINE
  5
982
100
AcDbEntity
  8
V0-OBRYS
 62
    90
100
AcDbLine
 10
132.0
 20
-344.605977
 30
0.0
 11
132.0
 21
-282.105977
 31
0.0
  0
LINE
  5
983
100
AcDbEntity
  8
V0-OBRYS
 62
    90
100
AcDbLine
 10
132.0
 20
-282.105977
 30
0.0
 11
162.0
 21
-282.105977
 31
0.0
  0
LINE
  5
984
100
AcDbEntity
  8
V0-OBRYS
 62
    90
100
AcDbLine
 10
162.0
 20
-282.105977
 30
0.0
 11
162.0
 21
-278.286496
 31
0.0
  0
ARC
  5
985
100
AcDbEntity
  8
V0-OBRYS
 62
    90
100
AcDbCircle
 10
177.0
 20
-237.105681
 30
0.0
 40
15.0
100
AcDbArc
 50
89.999089
 51
180.0
  0
LINE
  5
987
100
AcDbEntity
  8
V0-OBRYS
 62
    90
100
AcDbLine
 10
247.803472
 20
-224.363865
 30
0.0
 11
321.265632
 21
-278.113199
 31
0.0
  0
LINE
  5
988
100
AcDbEntity
  8
V0-VYPLNE
  6
CONTINUOUS
 62
    41
100
AcDbLine
 10
174.13982
 20
-338.070071
 30
0.0
 11
247.286555
 21
-338.070071
 31
0.0
  0
LINE
  5
989
100
AcDbEntity
  8
V0-VYPLNE
  6
CONTINUOUS
 62
    41
100
AcDbLine
 10
247.286555
 20
-338.070071
 30
0.0
 11
225.55405
 21
-343.261201
 31
0.0
  0
POINT
  5
98A
100
AcDbEntity
  8
V0-VYPLNE
  6
CONTINUOUS
 62
    41
100
AcDbPoint
 10
322.0
 20
-344.605977
 30
0.0
  0
LINE
  5
98B
100
AcDbEntity
  8
V0-OBRYS
 62
    90
100
AcDbLine
 10
322.0
 20
-344.605977
 30
0.0
 11
322.0
 21
-279.661803
 31
0.0
  0
LINE
  5
98C
100
AcDbEntity
  8
V0-VYPLNE
  6
CONTINUOUS
 62
    41
100
AcDbLine
 10
247.286555
 20
-338.070071
 30
0.0
 11
225.55405
 21
-332.878941
 31
0.0
  0
ARC
  5
98D
100
AcDbEntity
  8
V0-OBRYS
 62
    90
100
AcDbCircle
 10
320.0
 20
-279.661803
 30
0.0
 40
2.0
100
AcDbArc
 50
0.0
 51
50.741799
  0
ARC
  5
990
100
AcDbEntity
  8
V0-OBRYS
 62
    90
100
AcDbCircle
 10
241.475311
 20
-232.106886
 30
0.0
 40
10.0
100
AcDbArc
 50
50.741799
 51
89.999089
  0
LINE
  5
992
100
AcDbEntity
  8
V0-OBRYS
 62
    90
100
AcDbLine
 10
352.0
 20
-344.605977
 30
0.0
 11
352.0
 21
-407.105977
 31
0.0
  0
LINE
  5
993
100
AcDbEntity
  8
V0-OBRYS
 62
    90
100
AcDbLine
 10
352.0
 20
-344.605977
 30
0.0
 11
352.0
 21
-282.105977
 31
0.0
  0
LWPOLYLINE
  5
998
100
AcDbEntity
  8
V0-OBRYS
  6
CONTINUOUS
 62
    90
100
AcDbPolyline
 90
        4
 70
     1
 43
0.0
 10
255.0
 20
-384.605977
 10
315.0
 20
-384.605977
 10
315.0
 20
-304.605977
 10
255.0
 20
-304.605977
  0
LWPOLYLINE
  5
999
100
AcDbEntity
  8
V0-OBRYS
  6
CONTINUOUS
 62
    90
100
AcDbPolyline
 90
        4
 70
     0
 43
0.0
 10
315.0
 20
71.077092
 10
315.0
 20
120.999728
 10
255.0
 20
120.999728
 10
255.0
 20
113.75217
  0
LINE
  5
99C
100
AcDbEntity
  8
V0-OBRYS
  6
CONTINUOUS
 62
    90
100
AcDbLine
 10
315.0
 20
115.999728
 30
0.0
 11
255.0
 21
115.999728
 31
0.0
  0
CIRCLE
  5
99E
100
AcDbEntity
  8
V0-OBRYS
  6
CONTINUOUS
 62
    90
100
AcDbCircle
 10
297.380554
 20
99.938948
 30
0.0
 40
7.344626
  0
CIRCLE
  5
A13
100
AcDbEntity
  8
V0-OBRYS
  6
CONTINUOUS
 62
    90
100
AcDbCircle
 10
550.0
 20
0.0
 30
0.0
 40
62.5
  0
VIEWPORT
  5
22
100
AcDbEntity
 67
     1
  8
0
100
AcDbViewport
 10
261.517699
 20
148.5
 30
0.0
 40
523.035398
 41
297.0
 68
    -1
 69
     1
1001
ACAD
1000
MVIEW
1002
{
1070
    16
1010
0.0
1020
0.0
1030
0.0
1010
0.0
1020
0.0
1030
1.0
1040
0.0
1040
297.0
1040
261.517699
1040
148.5
1040
50.0
1040
0.0
1040
0.0
1070
     0
1070
   100
1070
     1
1070
     1
1070
     0
1070
     0
1070
     0
1070
     0
1040
0.0
1040
0.0
1040
0.0
1040
1.0
1040
1.0
1040
10.0
1040
10.0
1070
     0
1002
{
1002
}
1002
}
  0
ENDSEC
  0
SECTION
  2
OBJECTS
  0
DICTIONARY
  5
C
100
AcDbDictionary
  3
ACAD_GROUP
350
D
  3
ACAD_MLINESTYLE
350
E
  3
ACDBVARIABLEDICTIONARY
350
5D
  0
DICTIONARY
  5
D
102
{ACAD_REACTORS
330
C
102
}
100
AcDbDictionary
  0
DICTIONARY
  5
E
102
{ACAD_REACTORS
330
C
102
}
100
AcDbDictionary
  3
STANDARD
350
13
  0
DICTIONARY
  5
5D
102
{ACAD_REACTORS
330
C
102
}
100
AcDbDictionary
  3
DIMADEC
350
5E
  3
SORTENTS
350
3D8
  0
MLINESTYLE
  5
13
102
{ACAD_REACTORS
330
E
102
}
100
AcDbMlineStyle
  2
STANDARD
 70
     0
  3

 62
     0
 51
90.0
 52
90.0
 71
     2
 49
0.5
 62
   256
  6
BYLAYER
 49
-0.5
 62
   256
  6
BYLAYER
  0
DICTIONARYVAR
  5
5E
102
{ACAD_REACTORS
330
5D
102
}
100
DictionaryVariables
280
     0
  1
0
  0
DICTIONARYVAR
  5
3D8
102
{ACAD_REACTORS
330
5D
102
}
100
DictionaryVariables
280
     0
  1
96
  0
ENDSEC
  0
EOF
