  0
SECTION
  2
HEADER
  9
$ACADVER
  1
AC1014
  9
$ACADMAINTVER
 70
     0
  9
$DWGCODEPAGE
  3
ANSI_1250
  9
$INSBASE
 10
0.0
 20
0.0
 30
0.0
  9
$EXTMIN
 10
-1190.730063
 20
-1114.725639
 30
0.0
  9
$EXTMAX
 10
74.098594
 20
156.524547
 30
0.0
  9
$LIMMIN
 10
-1040.805314
 20
-347.068924
  9
$LIMMAX
 10
643.686187
 20
495.293187
  9
$ORTHOMODE
 70
     0
  9
$REGENMODE
 70
     1
  9
$FILLMODE
 70
     1
  9
$QTEXTMODE
 70
     0
  9
$MIRRTEXT
 70
     1
  9
$DRAGMODE
 70
     2
  9
$LTSCALE
 40
15.0
  9
$OSMODE
 70
  1023
  9
$ATTMODE
 70
     1
  9
$TEXTSIZE
 40
15.0
  9
$TRACEWID
 40
5.0
  9
$TEXTSTYLE
  7
ED40
  9
$CLAYER
  8
V0-ZBYTEK
  9
$CELTYPE
  6
BYLAYER
  9
$CECOLOR
 62
    41
  9
$CELTSCALE
 40
2.0
  9
$DELOBJ
 70
     1
  9
$DISPSILH
 70
     0
  9
$DIMSCALE
 40
0.0
  9
$DIMASZ
 40
25.0
  9
$DIMEXO
 40
0.625
  9
$DIMDLI
 40
3.75
  9
$DIMRND
 40
0.0
  9
$DIMDLE
 40
0.0
  9
$DIMEXE
 40
1.25
  9
$DIMTP
 40
0.0
  9
$DIMTM
 40
0.0
  9
$DIMTXT
 40
40.0
  9
$DIMCEN
 40
2.5
  9
$DIMTSZ
 40
0.0
  9
$DIMTOL
 70
     0
  9
$DIMLIM
 70
     0
  9
$DIMTIH
 70
     0
  9
$DIMTOH
 70
     0
  9
$DIMSE1
 70
     0
  9
$DIMSE2
 70
     0
  9
$DIMTAD
 70
     1
  9
$DIMZIN
 70
     8
  9
$DIMBLK
  1

  9
$DIMASO
 70
     1
  9
$DIMSHO
 70
     1
  9
$DIMPOST
  1

  9
$DIMAPOST
  1

  9
$DIMALT
 70
     0
  9
$DIMALTD
 70
     4
  9
$DIMALTF
 40
0.0394
  9
$DIMLFAC
 40
1.0
  9
$DIMTOFL
 70
     1
  9
$DIMTVP
 40
0.0
  9
$DIMTIX
 70
     0
  9
$DIMSOXD
 70
     0
  9
$DIMSAH
 70
     1
  9
$DIMBLK1
  1
_OPEN
  9
$DIMBLK2
  1
_OPEN
  9
$DIMSTYLE
  2
ED2
  9
$DIMCLRD
 70
     0
  9
$DIMCLRE
 70
     0
  9
$DIMCLRT
 70
     0
  9
$DIMTFAC
 40
1.0
  9
$DIMGAP
 40
5.0
  9
$DIMJUST
 70
     0
  9
$DIMSD1
 70
     0
  9
$DIMSD2
 70
     0
  9
$DIMTOLJ
 70
     1
  9
$DIMTZIN
 70
     8
  9
$DIMALTZ
 70
     0
  9
$DIMALTTZ
 70
     0
  9
$DIMFIT
 70
     3
  9
$DIMUPT
 70
     0
  9
$DIMUNIT
 70
     2
  9
$DIMDEC
 70
     0
  9
$DIMTDEC
 70
     1
  9
$DIMALTU
 70
     8
  9
$DIMALTTD
 70
     4
  9
$DIMTXSTY
  7
ED40
  9
$DIMAUNIT
 70
     0
  9
$LUNITS
 70
     2
  9
$LUPREC
 70
     4
  9
$SKETCHINC
 40
1.0
  9
$FILLETRAD
 40
10.0
  9
$AUNITS
 70
     0
  9
$AUPREC
 70
     0
  9
$MENU
  1
.
  9
$ELEVATION
 40
0.0
  9
$PELEVATION
 40
0.0
  9
$THICKNESS
 40
0.0
  9
$LIMCHECK
 70
     0
  9
$BLIPMODE
 70
     1
  9
$CHAMFERA
 40
10.0
  9
$CHAMFERB
 40
10.0
  9
$CHAMFERC
 40
20.0
  9
$CHAMFERD
 40
0.0
  9
$SKPOLY
 70
     0
  9
$TDCREATE
 40
2450763.421427893
  9
$TDUPDATE
 40
2453312.825143263
  9
$TDINDWG
 40
1.5607577546
  9
$TDUSRTIMER
 40
1.5607577546
  9
$USRTIMER
 70
     1
  9
$ANGBASE
 50
0.0
  9
$ANGDIR
 70
     0
  9
$PDMODE
 70
     3
  9
$PDSIZE
 40
-5.0
  9
$PLINEWID
 40
0.0
  9
$COORDS
 70
     2
  9
$SPLFRAME
 70
     0
  9
$SPLINETYPE
 70
     6
  9
$SPLINESEGS
 70
     8
  9
$ATTDIA
 70
     0
  9
$ATTREQ
 70
     1
  9
$HANDLING
 70
     1
  9
$HANDSEED
  5
4410
  9
$SURFTAB1
 70
     6
  9
$SURFTAB2
 70
     6
  9
$SURFTYPE
 70
     6
  9
$SURFU
 70
     6
  9
$SURFV
 70
     6
  9
$UCSNAME
  2

  9
$UCSORG
 10
-784.27244973706
 20
-855.860653870855
 30
0.0
  9
$UCSXDIR
 10
1.0
 20
0.0
 30
0.0
  9
$UCSYDIR
 10
0.0
 20
1.0
 30
0.0
  9
$PUCSNAME
  2

  9
$PUCSORG
 10
0.0
 20
0.0
 30
0.0
  9
$PUCSXDIR
 10
1.0
 20
0.0
 30
0.0
  9
$PUCSYDIR
 10
0.0
 20
1.0
 30
0.0
  9
$USERI1
 70
     0
  9
$USERI2
 70
     0
  9
$USERI3
 70
     0
  9
$USERI4
 70
     0
  9
$USERI5
 70
     0
  9
$USERR1
 40
0.0
  9
$USERR2
 40
0.0
  9
$USERR3
 40
0.0
  9
$USERR4
 40
0.0
  9
$USERR5
 40
0.0
  9
$WORLDVIEW
 70
     1
  9
$SHADEDGE
 70
     3
  9
$SHADEDIF
 70
    70
  9
$TILEMODE
 70
     1
  9
$MAXACTVP
 70
    16
  9
$PINSBASE
 10
0.0
 20
0.0
 30
0.0
  9
$PLIMCHECK
 70
     0
  9
$PEXTMIN
 10
131.177948
 20
159.528081
 30
0.0
  9
$PEXTMAX
 10
254.393018
 20
159.528081
 30
0.0
  9
$PLIMMIN
 10
0.0
 20
0.0
  9
$PLIMMAX
 10
420.0
 20
297.0
  9
$UNITMODE
 70
     0
  9
$VISRETAIN
 70
     0
  9
$PLINEGEN
 70
     0
  9
$PSLTSCALE
 70
     0
  9
$TREEDEPTH
 70
  3020
  9
$PICKSTYLE
 70
     1
  9
$CMLSTYLE
  2
STANDARD
  9
$CMLJUST
 70
     0
  9
$CMLSCALE
 40
1.0
  9
$PROXYGRAPHICS
 70
     1
  9
$MEASUREMENT
 70
     1
  0
ENDSEC
  0
SECTION
  2
CLASSES
  0
CLASS
  1
LWPOLYLINE
  2
AcDbPolyline
  3
"AutoCAD"
 90
        0
280
     0
281
     1
  0
CLASS
  1
DICTIONARYVAR
  2
AcDbDictionaryVar
  3
"AutoCAD"
 90
        0
280
     0
281
     0
  0
CLASS
  1
HATCH
  2
AcDbHatch
  3
"ACAD_SEDONA"
 90
        0
280
     0
281
     1
  0
ENDSEC
  0
SECTION
  2
TABLES
  0
TABLE
  2
VPORT
  5
8
100
AcDbSymbolTable
 70
     4
  0
VPORT
  5
440F
100
AcDbSymbolTableRecord
100
AcDbViewportTableRecord
  2
*ACTIVE
 70
     0
 10
0.0
 20
0.0
 11
1.0
 21
1.0
 12
-565.26419
 22
-479.134929
 13
0.0
 23
0.0
 14
1.0
 24
1.0
 15
50.0
 25
50.0
 16
0.0
 26
0.0
 36
1.0
 17
0.0
 27
0.0
 37
0.0
 40
1286.160908
 41
1.550584
 42
50.0
 43
0.0
 44
0.0
 50
0.0
 51
0.0
 71
     0
 72
   100
 73
     1
 74
     0
 75
     1
 76
     0
 77
     0
 78
     0
  0
ENDTAB
  0
TABLE
  2
LTYPE
  5
5
100
AcDbSymbolTable
 70
     3
  0
LTYPE
  5
14
100
AcDbSymbolTableRecord
100
AcDbLinetypeTableRecord
  2
BYBLOCK
 70
     0
  3

 72
    65
 73
     0
 40
0.0
  0
LTYPE
  5
15
100
AcDbSymbolTableRecord
100
AcDbLinetypeTableRecord
  2
BYLAYER
 70
     0
  3

 72
    65
 73
     0
 40
0.0
  0
LTYPE
  5
16
100
AcDbSymbolTableRecord
100
AcDbLinetypeTableRecord
  2
CONTINUOUS
 70
     0
  3
Solid line
 72
    65
 73
     0
 40
0.0
  0
LTYPE
  5
1D7
100
AcDbSymbolTableRecord
100
AcDbLinetypeTableRecord
  2
DASHED
 70
     0
  3
__ __ __ __ __ __ __ __ __ __ __ __ __ __ __ __
 72
    65
 73
     2
 40
0.75
 49
0.5
 74
     0
 49
-0.25
 74
     0
  0
LTYPE
  5
492
100
AcDbSymbolTableRecord
100
AcDbLinetypeTableRecord
  2
DASHDOT
 70
     0
  3
__ . __ . __ . __ . __ . __ . __ . __ . __ . __
 72
    65
 73
     4
 40
1.0
 49
0.5
 74
     0
 49
-0.25
 74
     0
 49
0.0
 74
     0
 49
-0.25
 74
     0
  0
ENDTAB
  0
TABLE
  2
LAYER
  5
2
100
AcDbSymbolTable
 70
     7
  0
LAYER
  5
F
100
AcDbSymbolTableRecord
100
AcDbLayerTableRecord
  2
0
 70
     0
 62
     7
  6
CONTINUOUS
  0
LAYER
  5
1A22
100
AcDbSymbolTableRecord
100
AcDbLayerTableRecord
  2
DEFPOINTS
 70
     0
 62
     7
  6
CONTINUOUS
  0
LAYER
  5
3A20
100
AcDbSymbolTableRecord
100
AcDbLayerTableRecord
  2
ASHADE
 70
     4
 62
     7
  6
CONTINUOUS
  0
LAYER
  5
3E17
100
AcDbSymbolTableRecord
100
AcDbLayerTableRecord
  2
V0-OBRYS
 70
     0
 62
    90
  6
CONTINUOUS
  0
LAYER
  5
3E18
100
AcDbSymbolTableRecord
100
AcDbLayerTableRecord
  2
V0-VYPLNE
 70
     0
 62
    52
  6
CONTINUOUS
  0
LAYER
  5
3E19
100
AcDbSymbolTableRecord
100
AcDbLayerTableRecord
  2
V0-NAZVY
 70
     0
 62
   210
  6
CONTINUOUS
  0
LAYER
  5
3E1A
100
AcDbSymbolTableRecord
100
AcDbLayerTableRecord
  2
V0-ZBYTEK
 70
     0
 62
    51
  6
CONTINUOUS
  0
ENDTAB
  0
TABLE
  2
STYLE
  5
3
100
AcDbSymbolTable
 70
     7
  0
STYLE
  5
10
100
AcDbSymbolTableRecord
100
AcDbTextStyleTableRecord
  2
STANDARD
 70
     0
 40
0.0
 41
1.0
 50
0.0
 71
     0
 42
15.0
  3
ISOCP.shx
  4

  0
STYLE
  5
3E1B
100
AcDbSymbolTableRecord
100
AcDbTextStyleTableRecord
  2
ED
 70
     0
 40
20.0
 41
1.0
 50
0.0
 71
     0
 42
2.5
  3
ISOCP.shx
  4

  0
STYLE
  5
3E1C
100
AcDbSymbolTableRecord
100
AcDbTextStyleTableRecord
  2
EDVENT
 70
     0
 40
10.0
 41
1.0
 50
0.0
 71
     0
 42
2.5
  3
ISOCP.shx
  4

  0
STYLE
  5
3E1D
100
AcDbSymbolTableRecord
100
AcDbTextStyleTableRecord
  2
E
 70
     0
 40
25.0
 41
1.0
 50
0.0
 71
     0
 42
2.5
  3
ISOCP.shx
  4

  0
STYLE
  5
3E1E
100
AcDbSymbolTableRecord
100
AcDbTextStyleTableRecord
  2
ED-VENT
 70
     0
 40
25.0
 41
1.0
 50
0.0
 71
     0
 42
2.5
  3
ISOCP.shx
  4

  0
STYLE
  5
3E1F
100
AcDbSymbolTableRecord
100
AcDbTextStyleTableRecord
  2
ED2
 70
     0
 40
25.0
 41
1.0
 50
0.0
 71
     0
 42
2.5
  3
ISOCP.shx
  4

  0
STYLE
  5
413E
100
AcDbSymbolTableRecord
100
AcDbTextStyleTableRecord
  2
ED40
 70
     0
 40
40.0
 41
1.0
 50
0.0
 71
     0
 42
15.0
  3
ISOCP.shx
  4

  0
ENDTAB
  0
TABLE
  2
VIEW
  5
6
100
AcDbSymbolTable
 70
     0
  0
ENDTAB
  0
TABLE
  2
UCS
  5
7
100
AcDbSymbolTable
 70
     0
  0
ENDTAB
  0
TABLE
  2
APPID
  5
9
100
AcDbSymbolTable
 70
     9
  0
APPID
  5
11
100
AcDbSymbolTableRecord
100
AcDbRegAppTableRecord
  2
ACAD
 70
     0
  0
APPID
  5
906
100
AcDbSymbolTableRecord
100
AcDbRegAppTableRecord
  2
CONTENTTABDATA
 70
     0
  0
APPID
  5
907
100
AcDbSymbolTableRecord
100
AcDbRegAppTableRecord
  2
CONTENTCURRENTTAB
 70
     0
  0
APPID
  5
908
100
AcDbSymbolTableRecord
100
AcDbRegAppTableRecord
  2
CONTENTBLOCKDESCRIPTION
 70
     0
  0
APPID
  5
3A1E
100
AcDbSymbolTableRecord
100
AcDbRegAppTableRecord
  2
AVE_RENDER
 70
     0
  0
APPID
  5
3A1F
100
AcDbSymbolTableRecord
100
AcDbRegAppTableRecord
  2
AVE_ENTITY_MATERIAL
 70
     0
  0
APPID
  5
3A2C
100
AcDbSymbolTableRecord
100
AcDbRegAppTableRecord
  2
AVE_FINISH
 70
     0
  0
APPID
  5
3A2D
100
AcDbSymbolTableRecord
100
AcDbRegAppTableRecord
  2
AVE_MATERIAL
 70
     0
  0
APPID
  5
3A2E
100
AcDbSymbolTableRecord
100
AcDbRegAppTableRecord
  2
AVE_GLOBAL
 70
     0
  0
ENDTAB
  0
TABLE
  2
DIMSTYLE
  5
A
100
AcDbSymbolTable
 70
     3
  0
DIMSTYLE
105
1D
100
AcDbSymbolTableRecord
100
AcDbDimStyleTableRecord
  2
STANDARD
 70
     0
  3

  4

  5

  6
_OPEN
  7
_OPEN
 40
1.0
 41
20.0
 42
0.0625
 43
0.38
 44
0.18
 45
0.0
 46
0.0
 47
0.0
 48
0.0
140
20.0
141
0.0
142
0.0
143
25.4
144
1.0
145
0.0
146
1.0
147
0.625
 71
     0
 72
     0
 73
     0
 74
     0
 75
     0
 76
     0
 77
     1
 78
     0
170
     0
171
     2
172
     0
173
     1
174
     0
175
     0
176
     0
177
     0
178
     0
270
     2
271
     0
272
     4
273
     2
274
     2
340
10
275
     0
280
     0
281
     0
282
     0
283
     1
284
     0
285
     0
286
     0
287
     0
288
     0
  0
DIMSTYLE
105
3E20
100
AcDbSymbolTableRecord
100
AcDbDimStyleTableRecord
  2
ED
 70
     0
  3

  4

  5

  6
_OPEN
  7
_OPEN
 40
0.0
 41
15.0
 42
0.625
 43
3.75
 44
1.25
 45
0.0
 46
0.0
 47
0.0
 48
0.0
140
15.0
141
2.5
142
0.0
143
0.0394
144
1.0
145
0.0
146
1.0
147
3.0
 71
     0
 72
     0
 73
     0
 74
     0
 75
     0
 76
     0
 77
     1
 78
     8
170
     0
171
     4
172
     1
173
     1
174
     0
175
     0
176
     0
177
     0
178
     0
270
     2
271
     0
272
     1
273
     8
274
     4
340
3E1B
275
     0
280
     0
281
     0
282
     0
283
     1
284
     8
285
     0
286
     0
287
     3
288
     0
  0
DIMSTYLE
105
3E21
102
{ACAD_REACTORS
330
4202
330
421C
330
42A8
330
43E6
330
4400
102
}
100
AcDbSymbolTableRecord
100
AcDbDimStyleTableRecord
  2
ED2
 70
     0
  3

  4

  5

  6
_OPEN
  7
_OPEN
 40
0.0
 41
25.0
 42
0.625
 43
3.75
 44
1.25
 45
0.0
 46
0.0
 47
0.0
 48
0.0
140
30.0
141
2.5
142
0.0
143
0.0394
144
1.0
145
0.0
146
1.0
147
5.0
 71
     0
 72
     0
 73
     0
 74
     0
 75
     0
 76
     0
 77
     1
 78
     8
170
     0
171
     4
172
     1
173
     1
174
     0
175
     0
176
     0
177
     0
178
     0
270
     2
271
     0
272
     1
273
     8
274
     4
340
3E1B
275
     0
280
     0
281
     0
282
     0
283
     1
284
     8
285
     0
286
     0
287
     3
288
     0
  0
ENDTAB
  0
TABLE
  2
BLOCK_RECORD
  5
1
100
AcDbSymbolTable
 70
    30
  0
BLOCK_RECORD
  5
1A
100
AcDbSymbolTableRecord
100
AcDbBlockTableRecord
  2
*MODEL_SPACE
  0
BLOCK_RECORD
  5
17
100
AcDbSymbolTableRecord
100
AcDbBlockTableRecord
  2
*PAPER_SPACE
  0
BLOCK_RECORD
  5
1A05
100
AcDbSymbolTableRecord
100
AcDbBlockTableRecord
  2
_OPEN
  0
BLOCK_RECORD
  5
3A21
100
AcDbSymbolTableRecord
100
AcDbBlockTableRecord
  2
AVE_RENDER
  0
BLOCK_RECORD
  5
3A2F
100
AcDbSymbolTableRecord
100
AcDbBlockTableRecord
  2
AVE_GLOBAL
  0
BLOCK_RECORD
  5
40D1
100
AcDbSymbolTableRecord
100
AcDbBlockTableRecord
  2
*D17
  0
BLOCK_RECORD
  5
41F6
100
AcDbSymbolTableRecord
100
AcDbBlockTableRecord
  2
*D20
  0
BLOCK_RECORD
  5
4210
100
AcDbSymbolTableRecord
100
AcDbBlockTableRecord
  2
*D22
  0
BLOCK_RECORD
  5
429C
100
AcDbSymbolTableRecord
100
AcDbBlockTableRecord
  2
*D26
  0
BLOCK_RECORD
  5
43DE
100
AcDbSymbolTableRecord
100
AcDbBlockTableRecord
  2
*D28
  0
BLOCK_RECORD
  5
43F2
100
AcDbSymbolTableRecord
100
AcDbBlockTableRecord
  2
*D29
  0
ENDTAB
  0
ENDSEC
  0
SECTION
  2
BLOCKS
  0
BLOCK
  5
1B
100
AcDbEntity
  8
0
100
AcDbBlockBegin
  2
*MODEL_SPACE
 70
     0
 10
0.0
 20
0.0
 30
0.0
  3
*MODEL_SPACE
  1

  0
ENDBLK
  5
1C
100
AcDbEntity
  8
0
100
AcDbBlockEnd
  0
BLOCK
  5
18
100
AcDbEntity
 67
     1
  8
0
100
AcDbBlockBegin
  2
*PAPER_SPACE
 70
     0
 10
0.0
 20
0.0
 30
0.0
  3
*PAPER_SPACE
  1

  0
ENDBLK
  5
19
100
AcDbEntity
 67
     1
  8
0
100
AcDbBlockEnd
  0
BLOCK
  5
1A09
100
AcDbEntity
  8
0
100
AcDbBlockBegin
  2
_OPEN
 70
     0
 10
0.0
 20
0.0
 30
0.0
  3
_OPEN
  1

  0
LINE
  5
1A06
100
AcDbEntity
  8
0
  6
BYBLOCK
 62
     0
100
AcDbLine
 10
-1.0
 20
0.166667
 30
0.0
 11
0.0
 21
0.0
 31
0.0
  0
LINE
  5
1A07
100
AcDbEntity
  8
0
  6
BYBLOCK
 62
     0
100
AcDbLine
 10
0.0
 20
0.0
 30
0.0
 11
-1.0
 21
-0.166667
 31
0.0
  0
LINE
  5
1A08
100
AcDbEntity
  8
0
  6
BYBLOCK
 62
     0
100
AcDbLine
 10
0.0
 20
0.0
 30
0.0
 11
-1.0
 21
0.0
 31
0.0
  0
ENDBLK
  5
1A0A
100
AcDbEntity
  8
0
100
AcDbBlockEnd
  0
BLOCK
  5
3A22
100
AcDbEntity
  8
ASHADE
 48
2.0
100
AcDbBlockBegin
  2
AVE_RENDER
 70
     0
 10
784.27245
 20
355.860654
 30
0.0
  3
AVE_RENDER
  1
AVE_RENDER
  0
ENDBLK
  5
3A23
100
AcDbEntity
  8
0
 48
2.0
100
AcDbBlockEnd
  0
BLOCK
  5
3A30
100
AcDbEntity
  8
ASHADE
 48
2.0
100
AcDbBlockBegin
  2
AVE_GLOBAL
 70
     0
 10
784.27245
 20
355.860654
 30
0.0
  3
AVE_GLOBAL
  1
AVE_GLOBAL
  0
ENDBLK
  5
3A31
100
AcDbEntity
  8
0
 48
2.0
100
AcDbBlockEnd
  0
BLOCK
  5
43D1
100
AcDbEntity
  8
0
 48
2.0
100
AcDbBlockBegin
  2
*D17
 70
     1
 10
0.0
 20
0.0
 30
0.0
  3
*D17
  1

  0
LINE
  5
43D2
100
AcDbEntity
  8
0
  6
BYBLOCK
 62
     0
 48
2.0
100
AcDbLine
 10
-88.209075
 20
-736.31234
 30
0.0
 11
-88.209075
 21
-847.330029
 31
0.0
  0
LINE
  5
43D3
100
AcDbEntity
  8
0
  6
BYBLOCK
 62
     0
 48
2.0
100
AcDbLine
 10
-47.787395
 20
-736.31234
 30
0.0
 11
-47.787395
 21
-847.330029
 31
0.0
  0
LINE
  5
43D4
100
AcDbEntity
  8
0
  6
BYBLOCK
 62
     0
 48
2.0
100
AcDbLine
 10
-113.209075
 20
-846.080029
 30
0.0
 11
-138.209075
 21
-846.080029
 31
0.0
  0
LINE
  5
43D5
100
AcDbEntity
  8
0
  6
BYBLOCK
 62
     0
 48
2.0
100
AcDbLine
 10
-22.787395
 20
-846.080029
 30
0.0
 11
60.244101
 21
-846.080029
 31
0.0
  0
LINE
  5
43D6
100
AcDbEntity
  8
0
  6
BYBLOCK
 62
     0
 48
2.0
100
AcDbLine
 10
-88.209075
 20
-846.080029
 30
0.0
 11
-47.787395
 21
-846.080029
 31
0.0
  0
INSERT
  5
43D7
100
AcDbEntity
  8
0
  6
BYBLOCK
 62
     0
 48
2.0
100
AcDbBlockReference
  2
_OPEN
 10
-88.209075
 20
-846.080029
 30
0.0
 41
25.0
 42
25.0
 43
25.0
  0
INSERT
  5
43D8
100
AcDbEntity
  8
0
  6
BYBLOCK
 62
     0
 48
2.0
100
AcDbBlockReference
  2
_OPEN
 10
-47.787395
 20
-846.080029
 30
0.0
 41
25.0
 42
25.0
 43
25.0
 50
180.0
  0
MTEXT
  5
43D9
100
AcDbEntity
  8
0
  6
BYBLOCK
 62
     0
 48
2.0
100
AcDbMText
 10
31.228353
 20
-821.080029
 30
0.0
 40
40.0
 41
0.0
 71
     5
 72
     1
  1
\A1;40
  7
ED40
  0
POINT
  5
43DA
100
AcDbEntity
  8
DEFPOINTS
  6
BYBLOCK
 62
     0
 48
2.0
100
AcDbPoint
 10
-88.209075
 20
-735.68734
 30
0.0
  0
POINT
  5
43DB
100
AcDbEntity
  8
DEFPOINTS
  6
BYBLOCK
 62
     0
 48
2.0
100
AcDbPoint
 10
-47.787395
 20
-735.68734
 30
0.0
  0
POINT
  5
43DC
100
AcDbEntity
  8
DEFPOINTS
  6
BYBLOCK
 62
     0
 48
2.0
100
AcDbPoint
 10
-47.787395
 20
-846.080029
 30
0.0
  0
ENDBLK
  5
43DD
100
AcDbEntity
  8
0
 48
2.0
100
AcDbBlockEnd
  0
BLOCK
  5
43C6
100
AcDbEntity
  8
0
 48
2.0
100
AcDbBlockBegin
  2
*D20
 70
     1
 10
0.0
 20
0.0
 30
0.0
  3
*D20
  1

  0
LINE
  5
43C7
100
AcDbEntity
  8
0
  6
BYBLOCK
 62
     0
 48
2.0
100
AcDbLine
 10
-1130.337791
 20
-672.803669
 30
0.0
 11
-1130.337791
 21
-809.434654
 31
0.0
  0
LINE
  5
43C8
100
AcDbEntity
  8
0
  6
BYBLOCK
 62
     0
 48
2.0
100
AcDbLine
 10
-438.207109
 20
-672.803669
 30
0.0
 11
-438.207109
 21
-809.434654
 31
0.0
  0
LINE
  5
43C9
100
AcDbEntity
  8
0
  6
BYBLOCK
 62
     0
 48
2.0
100
AcDbLine
 10
-1105.337791
 20
-808.184654
 30
0.0
 11
-463.207109
 21
-808.184654
 31
0.0
  0
INSERT
  5
43CA
100
AcDbEntity
  8
0
  6
BYBLOCK
 62
     0
 48
2.0
100
AcDbBlockReference
  2
_OPEN
 10
-1130.337791
 20
-808.184654
 30
0.0
 41
25.0
 42
25.0
 43
25.0
 50
180.0
  0
INSERT
  5
43CB
100
AcDbEntity
  8
0
  6
BYBLOCK
 62
     0
 48
2.0
100
AcDbBlockReference
  2
_OPEN
 10
-438.207109
 20
-808.184654
 30
0.0
 41
25.0
 42
25.0
 43
25.0
  0
MTEXT
  5
43CC
100
AcDbEntity
  8
0
  6
BYBLOCK
 62
     0
 48
2.0
100
AcDbMText
 10
-784.27245
 20
-783.17105
 30
0.0
 40
40.0
 41
0.0
 71
     5
 72
     1
  1
\A1;692
  7
ED40
  0
POINT
  5
43CD
100
AcDbEntity
  8
DEFPOINTS
  6
BYBLOCK
 62
     0
 48
2.0
100
AcDbPoint
 10
-1130.337791
 20
-672.178669
 30
0.0
  0
POINT
  5
43CE
100
AcDbEntity
  8
DEFPOINTS
  6
BYBLOCK
 62
     0
 48
2.0
100
AcDbPoint
 10
-438.207109
 20
-672.178669
 30
0.0
  0
POINT
  5
43CF
100
AcDbEntity
  8
DEFPOINTS
  6
BYBLOCK
 62
     0
 48
2.0
100
AcDbPoint
 10
-438.207109
 20
-808.184654
 30
0.0
  0
ENDBLK
  5
43D0
100
AcDbEntity
  8
0
 48
2.0
100
AcDbBlockEnd
  0
BLOCK
  5
4397
100
AcDbEntity
  8
0
 48
2.0
100
AcDbBlockBegin
  2
*D22
 70
     1
 10
0.0
 20
0.0
 30
0.0
  3
*D22
  1

  0
LINE
  5
4398
100
AcDbEntity
  8
0
  6
BYBLOCK
 62
     0
 48
2.0
100
AcDbLine
 10
-1164.19844
 20
-734.962301
 30
0.0
 11
-1164.19844
 21
-878.181654
 31
0.0
  0
LINE
  5
4399
100
AcDbEntity
  8
0
  6
BYBLOCK
 62
     0
 48
2.0
100
AcDbLine
 10
-404.34646
 20
-734.962301
 30
0.0
 11
-404.34646
 21
-878.181654
 31
0.0
  0
LINE
  5
439A
100
AcDbEntity
  8
0
  6
BYBLOCK
 62
     0
 48
2.0
100
AcDbLine
 10
-1139.19844
 20
-876.931654
 30
0.0
 11
-429.34646
 21
-876.931654
 31
0.0
  0
INSERT
  5
439B
100
AcDbEntity
  8
0
  6
BYBLOCK
 62
     0
 48
2.0
100
AcDbBlockReference
  2
_OPEN
 10
-1164.19844
 20
-876.931654
 30
0.0
 41
25.0
 42
25.0
 43
25.0
 50
180.0
  0
INSERT
  5
439C
100
AcDbEntity
  8
0
  6
BYBLOCK
 62
     0
 48
2.0
100
AcDbBlockReference
  2
_OPEN
 10
-404.34646
 20
-876.931654
 30
0.0
 41
25.0
 42
25.0
 43
25.0
  0
MTEXT
  5
439D
100
AcDbEntity
  8
0
  6
BYBLOCK
 62
     0
 48
2.0
100
AcDbMText
 10
-784.27245
 20
-851.931654
 30
0.0
 40
40.0
 41
0.0
 71
     5
 72
     1
  1
\A1;760
  7
ED40
  0
POINT
  5
439E
100
AcDbEntity
  8
DEFPOINTS
  6
BYBLOCK
 62
     0
 48
2.0
100
AcDbPoint
 10
-1164.19844
 20
-734.337301
 30
0.0
  0
POINT
  5
439F
100
AcDbEntity
  8
DEFPOINTS
  6
BYBLOCK
 62
     0
 48
2.0
100
AcDbPoint
 10
-404.34646
 20
-734.337301
 30
0.0
  0
POINT
  5
43A0
100
AcDbEntity
  8
DEFPOINTS
  6
BYBLOCK
 62
     0
 48
2.0
100
AcDbPoint
 10
-404.34646
 20
-876.931654
 30
0.0
  0
ENDBLK
  5
43A1
100
AcDbEntity
  8
0
 48
2.0
100
AcDbBlockEnd
  0
BLOCK
  5
438C
100
AcDbEntity
  8
0
 48
2.0
100
AcDbBlockBegin
  2
*D26
 70
     1
 10
0.0
 20
0.0
 30
0.0
  3
*D26
  1

  0
LINE
  5
438D
100
AcDbEntity
  8
0
  6
BYBLOCK
 62
     0
 48
2.0
100
AcDbLine
 10
-404.734303
 20
24.628836
 30
0.0
 11
-221.77645
 21
24.628836
 31
0.0
  0
LINE
  5
438E
100
AcDbEntity
  8
0
  6
BYBLOCK
 62
     0
 48
2.0
100
AcDbLine
 10
-403.72146
 20
-735.041676
 30
0.0
 11
-221.77645
 21
-735.041676
 31
0.0
  0
LINE
  5
438F
100
AcDbEntity
  8
0
  6
BYBLOCK
 62
     0
 48
2.0
100
AcDbLine
 10
-223.02645
 20
-0.371164
 30
0.0
 11
-223.02645
 21
-710.041676
 31
0.0
  0
INSERT
  5
4390
100
AcDbEntity
  8
0
  6
BYBLOCK
 62
     0
 48
2.0
100
AcDbBlockReference
  2
_OPEN
 10
-223.02645
 20
24.628836
 30
0.0
 41
25.0
 42
25.0
 43
25.0
 50
90.0
  0
INSERT
  5
4391
100
AcDbEntity
  8
0
  6
BYBLOCK
 62
     0
 48
2.0
100
AcDbBlockReference
  2
_OPEN
 10
-223.02645
 20
-735.041676
 30
0.0
 41
25.0
 42
25.0
 43
25.0
 50
270.0
  0
MTEXT
  5
4392
100
AcDbEntity
  8
0
  6
BYBLOCK
 62
     0
 48
2.0
100
AcDbMText
 10
-248.02645
 20
-355.20642
 30
0.0
 40
40.0
 41
0.0
 71
     5
 72
     1
  1
\A1;760
  7
ED40
 11
0.0
 21
1.0
 31
0.0
  0
POINT
  5
4393
100
AcDbEntity
  8
DEFPOINTS
  6
BYBLOCK
 62
     0
 48
2.0
100
AcDbPoint
 10
-405.359303
 20
24.628836
 30
0.0
  0
POINT
  5
4394
100
AcDbEntity
  8
DEFPOINTS
  6
BYBLOCK
 62
     0
 48
2.0
100
AcDbPoint
 10
-404.34646
 20
-735.041676
 30
0.0
  0
POINT
  5
4395
100
AcDbEntity
  8
DEFPOINTS
  6
BYBLOCK
 62
     0
 48
2.0
100
AcDbPoint
 10
-223.02645
 20
-735.041676
 30
0.0
  0
ENDBLK
  5
4396
100
AcDbEntity
  8
0
 48
2.0
100
AcDbBlockEnd
  0
BLOCK
  5
43DF
100
AcDbEntity
  8
0
 48
2.0
100
AcDbBlockBegin
  2
*D28
 70
     1
 10
0.0
 20
0.0
 30
0.0
  3
*D28
  1

  0
LINE
  5
43E0
100
AcDbEntity
  8
0
  6
BYBLOCK
 62
     0
 48
2.0
100
AcDbLine
 10
-737.081219
 20
-372.720032
 30
0.0
 11
-473.516046
 21
-466.880424
 31
0.0
  0
MTEXT
  5
43E1
100
AcDbEntity
  8
0
  6
BYBLOCK
 62
     0
 48
2.0
100
AcDbMText
 10
-676.861665
 20
-367.686356
 30
0.0
 40
40.0
 41
0.0
 71
     5
 72
     1
  1
\A1;\U+2205710
  7
ED40
 11
0.941708
 21
-0.336431
 31
0.0
  0
INSERT
  5
43E2
100
AcDbEntity
  8
0
  6
BYBLOCK
 62
     0
 48
2.0
100
AcDbBlockReference
  2
_OPEN
 10
-449.973346
 20
-475.291209
 30
0.0
 41
25.0
 42
25.0
 43
25.0
 50
340.340397
  0
POINT
  5
43E3
100
AcDbEntity
  8
DEFPOINTS
  6
BYBLOCK
 62
     0
 48
2.0
100
AcDbPoint
 10
-449.973346
 20
-475.291209
 30
0.0
  0
POINT
  5
43E4
100
AcDbEntity
  8
DEFPOINTS
  6
BYBLOCK
 62
     0
 48
2.0
100
AcDbPoint
 10
-1118.571553
 20
-236.430099
 30
0.0
  0
ENDBLK
  5
43E5
100
AcDbEntity
  8
0
 48
2.0
100
AcDbBlockEnd
  0
BLOCK
  5
4401
100
AcDbEntity
  8
0
 48
2.0
100
AcDbBlockBegin
  2
*D29
 70
     1
 10
0.0
 20
0.0
 30
0.0
  3
*D29
  1

  0
LINE
  5
4402
100
AcDbEntity
  8
0
  6
BYBLOCK
 62
     0
 48
2.0
100
AcDbLine
 10
-80.209075
 20
-736.31234
 30
0.0
 11
-80.209075
 21
-812.110654
 31
0.0
  0
LINE
  5
4403
100
AcDbEntity
  8
0
  6
BYBLOCK
 62
     0
 48
2.0
100
AcDbLine
 10
-35.558261
 20
-669.364268
 30
0.0
 11
-35.558261
 21
-812.110654
 31
0.0
  0
LINE
  5
4404
100
AcDbEntity
  8
0
  6
BYBLOCK
 62
     0
 48
2.0
100
AcDbLine
 10
-105.209075
 20
-810.860654
 30
0.0
 11
-130.209075
 21
-810.860654
 31
0.0
  0
LINE
  5
4405
100
AcDbEntity
  8
0
  6
BYBLOCK
 62
     0
 48
2.0
100
AcDbLine
 10
-10.558261
 20
-810.860654
 30
0.0
 11
74.098594
 21
-810.860654
 31
0.0
  0
LINE
  5
4406
100
AcDbEntity
  8
0
  6
BYBLOCK
 62
     0
 48
2.0
100
AcDbLine
 10
-80.209075
 20
-810.860654
 30
0.0
 11
-35.558261
 21
-810.860654
 31
0.0
  0
INSERT
  5
4407
100
AcDbEntity
  8
0
  6
BYBLOCK
 62
     0
 48
2.0
100
AcDbBlockReference
  2
_OPEN
 10
-80.209075
 20
-810.860654
 30
0.0
 41
25.0
 42
25.0
 43
25.0
  0
INSERT
  5
4408
100
AcDbEntity
  8
0
  6
BYBLOCK
 62
     0
 48
2.0
100
AcDbBlockReference
  2
_OPEN
 10
-35.558261
 20
-810.860654
 30
0.0
 41
25.0
 42
25.0
 43
25.0
 50
180.0
  0
MTEXT
  5
4409
100
AcDbEntity
  8
0
  6
BYBLOCK
 62
     0
 48
2.0
100
AcDbMText
 10
44.270166
 20
-785.860654
 30
0.0
 40
40.0
 41
0.0
 71
     5
 72
     1
  1
\A1;45
  7
ED40
  0
POINT
  5
440A
100
AcDbEntity
  8
DEFPOINTS
  6
BYBLOCK
 62
     0
 48
2.0
100
AcDbPoint
 10
-80.209075
 20
-735.68734
 30
0.0
  0
POINT
  5
440B
100
AcDbEntity
  8
DEFPOINTS
  6
BYBLOCK
 62
     0
 48
2.0
100
AcDbPoint
 10
-35.558261
 20
-668.739268
 30
0.0
  0
POINT
  5
440C
100
AcDbEntity
  8
DEFPOINTS
  6
BYBLOCK
 62
     0
 48
2.0
100
AcDbPoint
 10
-35.558261
 20
-810.860654
 30
0.0
  0
ENDBLK
  5
440D
100
AcDbEntity
  8
0
 48
2.0
100
AcDbBlockEnd
  0
ENDSEC
  0
SECTION
  2
ENTITIES
  0
TEXT
  5
38DA
100
AcDbEntity
  8
V0-ZBYTEK
  6
CONTINUOUS
 62
   130
100
AcDbText
 10
-325.375268
 20
-1040.549121
 30
0.0
 40
31.322852
  1
ZALUZIOVA KLAPKA
 72
     1
 11
-134.149257
 21
-1040.549121
 31
0.0
100
AcDbText
  0
TEXT
  5
38DB
100
AcDbEntity
  8
V0-ZBYTEK
  6
CONTINUOUS
 62
    51
100
AcDbText
 10
-284.968932
 20
-1102.666169
 30
0.0
 40
20.881901
  1
ELEKTRICKY OVLADANA
 72
     1
 11
-135.558928
 21
-1102.666169
 31
0.0
100
AcDbText
  0
INSERT
  5
3A24
100
AcDbEntity
  8
ASHADE
 62
     1
 48
2.0
100
AcDbBlockReference
  2
AVE_RENDER
 10
784.27245
 20
355.860654
 30
0.0
1001
AVE_RENDER
1002
{
1070
     7
1000
Pref
1070
    30
1070
    20
1070
     1
1070
     0
1000

1070
    10
1070
     1
1070
    10
1040
1.0
1070
     1
1040
0.3
1040
0.7
1040
0.0
1040
10.0
1010
-1.0
1020
-1.0
1030
-1.0
1040
0.3
1070
    49
1070
     0
1070
     0
1010
1.0
1020
1.0
1030
1.0
1040
45.0
1070
     1
1070
     0
1000
WCS
1040
0.0
1070
     0
1040
10.0
1002
}
  0
INSERT
  5
3A25
100
AcDbEntity
  8
ASHADE
 62
     3
 48
2.0
100
AcDbBlockReference
  2
AVE_RENDER
 10
784.27245
 20
355.860654
 30
0.0
1001
AVE_RENDER
1002
{
1070
     0
1000
Full Opt
1070
     0
1070
     1
1070
     1
1070
     1
1070
     0
1070
     0
1070
     0
1070
     1
1070
     1
1040
0.0001
1040
0.0001
1002
}
  0
INSERT
  5
3A26
100
AcDbEntity
  8
ASHADE
 62
     4
 48
2.0
100
AcDbBlockReference
  2
AVE_RENDER
 10
784.27245
 20
355.860654
 30
0.0
1001
AVE_RENDER
1002
{
1070
     0
1000
Quick Opt
1070
     0
1070
     1
1070
     1
1070
     1
1070
     0
1070
     0
1070
     1
1002
}
  0
INSERT
  5
3A27
100
AcDbEntity
  8
ASHADE
 62
     5
 48
2.0
100
AcDbBlockReference
  2
AVE_RENDER
 10
784.27245
 20
355.860654
 30
0.0
1001
AVE_RENDER
1002
{
1070
     1
1000
Scanl Opt
1070
     2
1070
     0
1070
     2
1040
2.0
1040
4.0
1070
     0
1070
     1
1070
     0
1040
0.03
1002
}
  0
INSERT
  5
3A28
100
AcDbEntity
  8
ASHADE
 62
     6
 48
2.0
100
AcDbBlockReference
  2
AVE_RENDER
 10
784.27245
 20
355.860654
 30
0.0
1001
AVE_RENDER
1002
{
1070
     2
1000
Raytr Opt
1070
     2
1070
     0
1070
     2
1040
2.0
1040
4.0
1070
     0
1070
     1
1070
     1
1040
0.03
1070
     3
1040
0.03
1002
}
  0
INSERT
  5
3A29
100
AcDbEntity
  8
ASHADE
 62
     7
 48
2.0
100
AcDbBlockReference
  2
AVE_RENDER
 10
784.27245
 20
355.860654
 30
0.0
1001
AVE_RENDER
1002
{
1070
     0
1000
RFile Opt
1070
     1
1070
   640
1070
   480
1070
 10000
1070
     1
1070
     8
1070
     8
1070
     0
1070
     0
1070
     0
1070
     0
1070
     0
1070
     0
1070
     0
1002
}
  0
INSERT
  5
3A2A
100
AcDbEntity
  8
ASHADE
 62
     8
 48
2.0
100
AcDbBlockReference
  2
AVE_RENDER
 10
784.27245
 20
355.860654
 30
0.0
1001
AVE_RENDER
1002
{
1070
     0
1000
Fog Opt
1070
     0
1070
     0
1040
0.0
1040
1.0
1040
0.0
1040
1.0
1010
0.5
1020
0.5
1030
0.5
1002
}
  0
INSERT
  5
3A2B
100
AcDbEntity
  8
ASHADE
 62
     9
 48
2.0
100
AcDbBlockReference
  2
AVE_RENDER
 10
784.27245
 20
355.860654
 30
0.0
1001
AVE_RENDER
1002
{
1070
     0
1000
BG Opt
1070
     0
1070
     1
1010
0.0
1020
0.0
1030
0.0
1010
1.0
1020
0.0
1030
0.0
1010
0.0
1020
1.0
1030
0.0
1010
0.0
1020
0.0
1030
1.0
1040
0.5
1040
0.33
1040
0.0
1000

1070
     1
1000

1070
     1
1070
     1
1040
1.0
1040
1.0
1040
0.0
1040
0.0
1070
     0
1002
}
  0
INSERT
  5
3A32
100
AcDbEntity
  8
ASHADE
 62
     1
 48
2.0
100
AcDbBlockReference
  2
AVE_GLOBAL
 10
784.27245
 20
355.860654
 30
0.0
1001
AVE_MATERIAL
1002
{
1000
*GLOBAL*
1000
1
1000
Global finish.
1002
{
1002
}
1002
{
1070
    63
1002
{
1002
{
1010
-1.0
1020
-1.0
1030
-1.0
1002
}
1040
0.1
1000

1040
0.0
1002
{
1002
}
1040
0.0
1002
{
1002
}
1040
0.0
1002
}
1002
{
1002
{
1010
-1.0
1020
-1.0
1030
-1.0
1002
}
1040
0.7
1000

1040
0.0
1002
{
1002
}
1040
0.0
1002
{
1002
}
1040
0.0
1002
}
1002
{
1002
{
1010
-1.0
1020
-1.0
1030
-1.0
1002
}
1040
0.2
1000

1040
0.0
1002
{
1002
}
1040
0.0
1002
{
1002
}
1040
0.0
1002
}
1002
{
1070
     0
1002
{
1070
     1
1002
{
1040
1.0
1040
1.0
1000

1040
0.0
1002
{
1002
}
1040
0.0
1002
{
1002
}
1040
0.0
1002
}
1002
}
1040
1.0
1040
0.0
1040
0.0
1002
}
1002
{
1040
1.0
1040
1.0
1000

1040
0.0
1002
{
1002
}
1040
0.0
1002
{
1002
}
1040
0.0
1002
}
1002
{
1040
0.5
1040
1.0
1000

1040
0.0
1002
{
1002
}
1040
0.0
1002
{
1002
}
1040
0.0
1002
}
1002
{
1070
     0
1040
0.0
1002
{
1002
}
1040
1.0
1002
{
1002
}
1040
0.0
1002
}
1002
{
1040
0.0
1002
{
1002
{
1010
0.0
1020
0.0
1030
0.0
1002
}
1040
1.0
1000

1040
0.0
1002
{
1002
}
1040
0.0
1002
{
1002
}
1040
0.0
1002
}
1002
}
1002
{
1002
{
1070
     1
1002
{
1040
0.0
1040
1.0
1000

1040
0.0
1002
{
1002
}
1040
0.0
1002
{
1002
}
1040
0.0
1002
}
1002
}
1040
0.0
1002
{
1002
}
1010
1.0
1020
0.0
1030
0.0
1010
0.0
1020
1.0
1030
0.0
1010
0.0
1020
0.0
1030
1.0
1070
     0
1002
}
1002
{
1002
{
1040
1.0
1040
1.0
1002
{
1070
     1
1002
{
1040
1.0
1040
1.0
1000

1040
0.0
1002
{
1002
}
1040
0.0
1002
{
1002
}
1040
0.0
1002
}
1002
}
1002
}
1070
     0
1040
0.0
1002
{
1002
}
1002
}
1002
{
1002
}
1002
}
1002
{
1071
        3
1070
     3
1070
     0
1002
{
1070
     2
1070
     0
1070
     0
1040
0.0
1002
}
1070
     0
1070
     2
1002
{
1002
}
1002
}
1002
{
1040
8030.0
1040
190.300003
1040
0.305
1040
228.0
1040
545.0
1040
14.0
1040
17.4
1040
0.456
1002
}
1002
}
  0
LINE
  5
3BFE
100
AcDbEntity
  8
V0-OBRYS
  6
CONTINUOUS
 62
    90
100
AcDbLine
 10
-784.27245
 20
-1059.924029
 30
0.0
 11
-405.009263
 21
-1059.924029
 31
0.0
  0
LINE
  5
3BFF
100
AcDbEntity
  8
V0-OBRYS
  6
CONTINUOUS
 62
    90
100
AcDbLine
 10
-428.154018
 20
-1106.779031
 30
0.0
 11
-784.27245
 21
-1106.779031
 31
0.0
  0
LINE
  5
3C00
100
AcDbEntity
  8
V0-OBRYS
  6
CONTINUOUS
 62
    90
100
AcDbLine
 10
-1155.083136
 20
-1088.119324
 30
0.0
 11
-405.009263
 21
-1088.119324
 31
0.0
  0
LINE
  5
3C02
100
AcDbEntity
  8
V0-OBRYS
  6
CONTINUOUS
 62
    90
100
AcDbLine
 10
-784.27245
 20
-1059.924029
 30
0.0
 11
-1155.083136
 21
-1059.924029
 31
0.0
  0
LINE
  5
3C03
100
AcDbEntity
  8
V0-OBRYS
  6
CONTINUOUS
 62
    90
100
AcDbLine
 10
-1131.938382
 20
-1106.779031
 30
0.0
 11
-784.27245
 21
-1106.779031
 31
0.0
  0
LINE
  5
3C04
100
AcDbEntity
  8
V0-OBRYS
  6
CONTINUOUS
 62
    90
100
AcDbLine
 10
-1163.535636
 20
-1088.119324
 30
0.0
 11
-1163.535636
 21
-1059.924029
 31
0.0
  0
LINE
  5
3C05
100
AcDbEntity
  8
V0-OBRYS
  6
CONTINUOUS
 62
    90
100
AcDbLine
 10
-1140.390882
 20
-1088.119324
 30
0.0
 11
-1140.390882
 21
-1106.779031
 31
0.0
  0
LINE
  5
3C09
100
AcDbEntity
  8
V0-VYPLNE
  6
CONTINUOUS
 62
    52
100
AcDbLine
 10
-819.673329
 20
-1077.771747
 30
0.0
 11
-784.27245
 21
-1077.771747
 31
0.0
  0
LINE
  5
3C0A
100
AcDbEntity
  8
V0-VYPLNE
  6
CONTINUOUS
 62
    52
100
AcDbLine
 10
-784.27245
 20
-1103.08944
 30
0.0
 11
-819.673329
 21
-1077.771747
 31
0.0
  0
LINE
  5
3C0B
100
AcDbEntity
  8
V0-VYPLNE
  6
CONTINUOUS
 62
    52
100
AcDbLine
 10
-784.27245
 20
-1103.08944
 30
0.0
 11
-748.87157
 21
-1077.771747
 31
0.0
  0
LINE
  5
3C0C
100
AcDbEntity
  8
V0-VYPLNE
  6
CONTINUOUS
 62
    52
100
AcDbLine
 10
-748.87157
 20
-1077.771747
 30
0.0
 11
-784.27245
 21
-1077.771747
 31
0.0
  0
LINE
  5
3C0D
100
AcDbEntity
  8
V0-OBRYS
  6
CONTINUOUS
 62
    90
100
AcDbLine
 10
-405.009263
 20
-1088.119324
 30
0.0
 11
-405.009263
 21
-1059.924029
 31
0.0
  0
LINE
  5
3C0E
100
AcDbEntity
  8
V0-OBRYS
  6
CONTINUOUS
 62
    90
100
AcDbLine
 10
-428.154018
 20
-1088.119324
 30
0.0
 11
-428.154018
 21
-1106.779031
 31
0.0
  0
ELLIPSE
  5
3C10
100
AcDbEntity
  8
V0-OBRYS
  6
CONTINUOUS
 62
    90
100
AcDbEllipse
 10
-40.908297
 20
-77.163217
 30
0.0
 11
0.000000000000053
 21
11.80029313309137
 31
0.0
210
0.0
220
0.0
230
-0.9999999999999998
 40
0.536378
 41
1.00705969154028
 42
2.35666009722344
  0
LINE
  5
3C11
100
AcDbEntity
  8
V0-OBRYS
  6
CONTINUOUS
 62
    90
100
AcDbLine
 10
-80.209075
 20
-355.860654
 30
0.0
 11
-80.209075
 21
23.966032
 31
0.0
  0
LINE
  5
3C13
100
AcDbEntity
  8
V0-VYPLNE
  6
DASHED
 62
    56
 48
2.0
100
AcDbLine
 10
-65.064774
 20
-26.128839
 30
0.0
 11
-65.064774
 21
-757.006184
 31
0.0
  0
LINE
  5
3C14
100
AcDbEntity
  8
V0-OBRYS
  6
CONTINUOUS
 62
    90
100
AcDbLine
 10
-47.787395
 20
23.966032
 30
0.0
 11
-47.787395
 21
-735.68734
 31
0.0
  0
LINE
  5
3C15
100
AcDbEntity
  8
V0-OBRYS
  6
CONTINUOUS
 62
    90
100
AcDbLine
 10
-80.209075
 20
-355.860654
 30
0.0
 11
-80.209075
 21
-735.68734
 31
0.0
  0
LINE
  5
3C34
100
AcDbEntity
  8
V0-OBRYS
  6
CONTINUOUS
 62
    90
100
AcDbLine
 10
-47.787395
 20
-735.68734
 30
0.0
 11
-80.209075
 21
-735.68734
 31
0.0
  0
LINE
  5
3C36
100
AcDbEntity
  8
V0-VYPLNE
  6
DASHED
 62
    56
 48
2.0
100
AcDbLine
 10
-56.734229
 20
-393.550932
 30
0.0
 11
-49.331143
 21
-415.383733
 31
0.0
  0
LINE
  5
3C39
100
AcDbEntity
  8
V0-OBRYS
  6
CONTINUOUS
 62
    90
100
AcDbLine
 10
-47.534907
 20
-644.886672
 30
0.0
 11
-35.558261
 21
-668.739268
 31
0.0
  0
LINE
  5
3C3A
100
AcDbEntity
  8
V0-OBRYS
  6
CONTINUOUS
 62
    90
100
AcDbLine
 10
-36.434803
 20
-671.392687
 30
0.0
 11
-45.071471
 21
-680.236371
 31
0.0
  0
ELLIPSE
  5
3C3B
100
AcDbEntity
  8
V0-OBRYS
  6
CONTINUOUS
 62
    90
100
AcDbEllipse
 10
-40.666628
 20
-668.377662
 30
0.0
 11
-5.972717534054257
 21
2.185782898063434
 31
0.0
210
0.0
220
0.0
230
-1.0
 40
0.351487
 41
2.455624281016781
 42
3.805224686699954
  0
ELLIPSE
  5
3C3C
100
AcDbEntity
  8
V0-OBRYS
  6
CONTINUOUS
 62
    90
100
AcDbEllipse
 10
-40.908297
 20
-600.309546
 30
0.0
 11
0.0000000000001316
 21
11.80029313309122
 31
0.0
210
0.0
220
0.0
230
-1.0
 40
0.536378
 41
1.007059691540264
 42
2.356660097223425
  0
ELLIPSE
  5
3C3D
100
AcDbEntity
  8
V0-VYPLNE
  6
DASHED
 62
    56
 48
2.0
100
AcDbEllipse
 10
-54.551414
 20
-624.870586
 30
0.0
 11
-0.0000000000003348
 21
3.345030335983662
 31
0.0
210
0.0
220
0.0
230
-1.0
 40
0.536378
 41
-0.0000000000000335
 42
6.283185307179552
  0
ELLIPSE
  5
3C3E
100
AcDbEntity
  8
V0-VYPLNE
  6
DASHED
 62
    56
 48
2.0
100
AcDbEllipse
 10
-54.551414
 20
-624.870586
 30
0.0
 11
-0.0000000000003348
 21
3.345030335983662
 31
0.0
210
0.0
220
0.0
230
-1.0
 40
0.536378
 41
-0.0000000000000335
 42
6.283185307179552
  0
LINE
  5
3C3F
100
AcDbEntity
  8
V0-VYPLNE
  6
DASHED
 62
    56
 48
2.0
100
AcDbLine
 10
-56.734229
 20
-617.756502
 30
0.0
 11
-49.331143
 21
-639.589303
 31
0.0
  0
LINE
  5
3C40
100
AcDbEntity
  8
V0-VYPLNE
  6
DASHED
 62
    56
 48
2.0
100
AcDbLine
 10
-58.811591
 20
-614.024649
 30
0.0
 11
-64.885506
 21
-614.024649
 31
0.0
  0
LINE
  5
3C41
100
AcDbEntity
  8
V0-OBRYS
  6
CONTINUOUS
 62
    90
100
AcDbLine
 10
-36.434803
 20
-608.657497
 30
0.0
 11
-45.071471
 21
-617.501181
 31
0.0
  0
LINE
  5
3C42
100
AcDbEntity
  8
V0-OBRYS
  6
CONTINUOUS
 62
    90
100
AcDbLine
 10
-47.534907
 20
-570.151482
 30
0.0
 11
-35.558261
 21
-594.004078
 31
0.0
  0
LINE
  5
3C43
100
AcDbEntity
  8
V0-VYPLNE
  6
DASHED
 62
    56
 48
2.0
100
AcDbLine
 10
-56.734229
 20
-468.286122
 30
0.0
 11
-49.331143
 21
-490.118923
 31
0.0
  0
ELLIPSE
  5
3C44
100
AcDbEntity
  8
V0-OBRYS
  6
CONTINUOUS
 62
    90
100
AcDbEllipse
 10
-40.908297
 20
-525.574356
 30
0.0
 11
0.0000000000001741
 21
11.80029313309125
 31
0.0
210
0.0
220
0.0
230
-1.0
 40
0.536378
 41
1.007059691540287
 42
2.356660097223446
  0
ELLIPSE
  5
3C45
100
AcDbEntity
  8
V0-VYPLNE
  6
DASHED
 62
    56
 48
2.0
100
AcDbEllipse
 10
-54.551414
 20
-550.135396
 30
0.0
 11
-0.0000000000001004
 21
3.345030335983662
 31
0.0
210
0.0
220
0.0
230
-1.0
 40
0.536378
 41
-0.0000000000000762
 42
6.283185307179509
  0
LINE
  5
3C46
100
AcDbEntity
  8
V0-VYPLNE
  6
DASHED
 62
    56
 48
2.0
100
AcDbLine
 10
-56.734229
 20
-543.021312
 30
0.0
 11
-49.331143
 21
-564.854113
 31
0.0
  0
LINE
  5
3C47
100
AcDbEntity
  8
V0-VYPLNE
  6
DASHED
 62
    56
 48
2.0
100
AcDbLine
 10
-58.811591
 20
-539.28946
 30
0.0
 11
-64.885506
 21
-539.28946
 31
0.0
  0
LINE
  5
3C48
100
AcDbEntity
  8
V0-OBRYS
  6
CONTINUOUS
 62
    90
100
AcDbLine
 10
-36.434803
 20
-533.922307
 30
0.0
 11
-45.071471
 21
-542.765991
 31
0.0
  0
LINE
  5
3C49
100
AcDbEntity
  8
V0-OBRYS
  6
CONTINUOUS
 62
    90
100
AcDbLine
 10
-47.534907
 20
-495.416292
 30
0.0
 11
-35.558261
 21
-519.268889
 31
0.0
  0
ELLIPSE
  5
3C4A
100
AcDbEntity
  8
V0-OBRYS
  6
CONTINUOUS
 62
    90
100
AcDbEllipse
 10
-40.908297
 20
-450.839166
 30
0.0
 11
0.0000000000002129
 21
11.80029313309146
 31
0.0
210
0.0
220
0.0
230
-1.0
 40
0.536378
 41
1.007059691540302
 42
2.356660097223428
  0
ELLIPSE
  5
3C4B
100
AcDbEntity
  8
V0-VYPLNE
  6
DASHED
 62
    56
 48
2.0
100
AcDbEllipse
 10
-54.551414
 20
-475.400207
 30
0.0
 11
-0.000000000000316
 21
3.345030335983583
 31
0.0
210
0.0
220
0.0
230
-1.0
 40
0.536378
 41
0.0000000000000437
 42
6.283185307179629
  0
LINE
  5
3C4C
100
AcDbEntity
  8
V0-VYPLNE
  6
DASHED
 62
    56
 48
2.0
100
AcDbLine
 10
-58.811591
 20
-464.55427
 30
0.0
 11
-64.885506
 21
-464.55427
 31
0.0
  0
LINE
  5
3C4D
100
AcDbEntity
  8
V0-OBRYS
  6
CONTINUOUS
 62
    90
100
AcDbLine
 10
-36.434803
 20
-459.187117
 30
0.0
 11
-45.071471
 21
-468.030801
 31
0.0
  0
LINE
  5
3C4E
100
AcDbEntity
  8
V0-OBRYS
  6
CONTINUOUS
 62
    90
100
AcDbLine
 10
-47.534907
 20
-420.681102
 30
0.0
 11
-35.558261
 21
-444.533699
 31
0.0
  0
LINE
  5
3C51
100
AcDbEntity
  8
V0-VYPLNE
  6
DASHED
 62
    56
 48
2.0
100
AcDbLine
 10
-56.734229
 20
-244.080552
 30
0.0
 11
-49.331143
 21
-265.913354
 31
0.0
  0
ELLIPSE
  5
3C52
100
AcDbEntity
  8
V0-VYPLNE
  6
DASHED
 62
    56
 48
2.0
100
AcDbEllipse
 10
-54.551414
 20
-325.929827
 30
0.0
 11
0.0000000000000408
 21
3.345030335983662
 31
0.0
210
0.0
220
0.0
230
-1.0
 40
0.536378
 41
-0.0000000000000666
 42
6.283185307179519
  0
LINE
  5
3C53
100
AcDbEntity
  8
V0-VYPLNE
  6
DASHED
 62
    56
 48
2.0
100
AcDbLine
 10
-56.734229
 20
-318.815742
 30
0.0
 11
-49.331143
 21
-340.648544
 31
0.0
  0
POINT
  5
3C54
100
AcDbEntity
  8
V0-VYPLNE
  6
CONTINUOUS
 62
    52
100
AcDbPoint
 10
-80.209075
 20
-355.860654
 30
0.0
  0
POINT
  5
3C55
100
AcDbEntity
  8
V0-VYPLNE
  6
CONTINUOUS
 62
    52
100
AcDbPoint
 10
-80.209075
 20
-355.860654
 30
0.0
  0
LINE
  5
3C56
100
AcDbEntity
  8
V0-OBRYS
  6
CONTINUOUS
 62
    90
100
AcDbLine
 10
-47.534907
 20
-345.945913
 30
0.0
 11
-35.558261
 21
-369.798509
 31
0.0
  0
ELLIPSE
  5
3C57
100
AcDbEntity
  8
V0-VYPLNE
  6
DASHED
 62
    56
 48
2.0
100
AcDbEllipse
 10
-54.551414
 20
-400.665017
 30
0.0
 11
-0.0000000000001268
 21
3.345030335983583
 31
0.0
210
0.0
220
0.0
230
-1.0
 40
0.536378
 41
-0.0000000000000175
 42
6.283185307179568
  0
LINE
  5
3C58
100
AcDbEntity
  8
V0-VYPLNE
  6
DASHED
 62
    56
 48
2.0
100
AcDbLine
 10
-58.811591
 20
-389.81908
 30
0.0
 11
-64.885506
 21
-389.81908
 31
0.0
  0
ELLIPSE
  5
3C59
100
AcDbEntity
  8
V0-OBRYS
  6
CONTINUOUS
 62
    90
100
AcDbEllipse
 10
-40.908297
 20
-376.103976
 30
0.0
 11
0.0000000000002293
 21
11.80029313309121
 31
0.0
210
0.0
220
0.0
230
-1.0
 40
0.536378
 41
1.007059691540282
 42
2.356660097223428
  0
LINE
  5
3C5A
100
AcDbEntity
  8
V0-OBRYS
  6
CONTINUOUS
 62
    90
100
AcDbLine
 10
-36.434803
 20
-384.451928
 30
0.0
 11
-45.071471
 21
-393.295611
 31
0.0
  0
LINE
  5
3C5B
100
AcDbEntity
  8
V0-OBRYS
  6
CONTINUOUS
 62
    90
100
AcDbLine
 10
-47.534907
 20
-271.210723
 30
0.0
 11
-35.558261
 21
-295.063319
 31
0.0
  0
LINE
  5
3C5C
100
AcDbEntity
  8
V0-VYPLNE
  6
DASHED
 62
    56
 48
2.0
100
AcDbLine
 10
-58.811591
 20
-315.08389
 30
0.0
 11
-64.885506
 21
-315.08389
 31
0.0
  0
LINE
  5
3C5D
100
AcDbEntity
  8
V0-OBRYS
  6
CONTINUOUS
 62
    90
100
AcDbLine
 10
-36.434803
 20
-309.716738
 30
0.0
 11
-45.071471
 21
-318.560421
 31
0.0
  0
ELLIPSE
  5
3C5E
100
AcDbEntity
  8
V0-OBRYS
  6
CONTINUOUS
 62
    90
100
AcDbEllipse
 10
-40.908297
 20
-301.368786
 30
0.0
 11
0.0000000000002558
 21
11.80029313309121
 31
0.0
210
0.0
220
0.0
230
-1.0
 40
0.536378
 41
1.007059691540269
 42
2.356660097223441
  0
ELLIPSE
  5
3C5F
100
AcDbEntity
  8
V0-VYPLNE
  6
DASHED
 62
    56
 48
2.0
100
AcDbEllipse
 10
-54.551414
 20
-251.194637
 30
0.0
 11
-0.0000000000002721
 21
3.345030335983662
 31
0.0
210
0.0
220
0.0
230
-1.0
 40
0.536378
 41
0.0000000000000633
 42
6.283185307179649
  0
LINE
  5
3C60
100
AcDbEntity
  8
V0-OBRYS
  6
CONTINUOUS
 62
    90
100
AcDbLine
 10
-36.434803
 20
-160.246358
 30
0.0
 11
-45.071471
 21
-169.090042
 31
0.0
  0
LINE
  5
3C61
100
AcDbEntity
  8
V0-OBRYS
  6
CONTINUOUS
 62
    90
100
AcDbLine
 10
-47.534907
 20
-196.475533
 30
0.0
 11
-35.558261
 21
-220.328129
 31
0.0
  0
LINE
  5
3C62
100
AcDbEntity
  8
V0-VYPLNE
  6
DASHED
 62
    56
 48
2.0
100
AcDbLine
 10
-58.811591
 20
-240.3487
 30
0.0
 11
-64.885506
 21
-240.3487
 31
0.0
  0
LINE
  5
3C63
100
AcDbEntity
  8
V0-OBRYS
  6
CONTINUOUS
 62
    90
100
AcDbLine
 10
-36.434803
 20
-234.981548
 30
0.0
 11
-45.071471
 21
-243.825232
 31
0.0
  0
ELLIPSE
  5
3C64
100
AcDbEntity
  8
V0-OBRYS
  6
CONTINUOUS
 62
    90
100
AcDbEllipse
 10
-40.908297
 20
-226.633596
 30
0.0
 11
0.0000000000001762
 21
11.80029313309134
 31
0.0
210
0.0
220
0.0
230
-1.0
 40
0.536378
 41
1.007059691540297
 42
2.356660097223436
  0
ELLIPSE
  5
3C65
100
AcDbEntity
  8
V0-VYPLNE
  6
DASHED
 62
    56
 48
2.0
100
AcDbEllipse
 10
-54.551414
 20
-176.459447
 30
0.0
 11
-0.0000000000003053
 21
3.345030335983543
 31
0.0
210
0.0
220
0.0
230
-1.0
 40
0.536378
 41
0.000000000000038
 42
6.283185307179624
  0
LINE
  5
3C66
100
AcDbEntity
  8
V0-VYPLNE
  6
DASHED
 62
    56
 48
2.0
100
AcDbLine
 10
-56.734229
 20
-169.345363
 30
0.0
 11
-49.331143
 21
-191.178164
 31
0.0
  0
LINE
  5
3C67
100
AcDbEntity
  8
V0-VYPLNE
  6
DASHED
 62
    56
 48
2.0
100
AcDbLine
 10
-58.811591
 20
-165.61351
 30
0.0
 11
-64.885506
 21
-165.61351
 31
0.0
  0
LINE
  5
3C68
100
AcDbEntity
  8
V0-OBRYS
  6
CONTINUOUS
 62
    90
100
AcDbLine
 10
-47.534907
 20
-121.740343
 30
0.0
 11
-35.558261
 21
-145.592939
 31
0.0
  0
ELLIPSE
  5
3C69
100
AcDbEntity
  8
V0-OBRYS
  6
CONTINUOUS
 62
    90
100
AcDbEllipse
 10
-40.908297
 20
-151.898407
 30
0.0
 11
0.0000000000000299
 21
11.80029313309134
 31
0.0
210
0.0
220
0.0
230
-1.0
 40
0.536378
 41
1.007059691540272
 42
2.356660097223442
  0
ELLIPSE
  5
3C6A
100
AcDbEntity
  8
V0-VYPLNE
  6
DASHED
 62
    56
 48
2.0
100
AcDbEllipse
 10
-54.551414
 20
-101.724257
 30
0.0
 11
-0.0000000000002956
 21
3.345030335983504
 31
0.0
210
0.0
220
0.0
230
-1.0
 40
0.536378
 41
0.0000000000000326
 42
6.283185307179619
  0
LINE
  5
3C6B
100
AcDbEntity
  8
V0-VYPLNE
  6
DASHED
 62
    56
 48
2.0
100
AcDbLine
 10
-56.734229
 20
-94.610173
 30
0.0
 11
-49.331143
 21
-116.442974
 31
0.0
  0
LINE
  5
3C6C
100
AcDbEntity
  8
V0-VYPLNE
  6
DASHED
 62
    56
 48
2.0
100
AcDbLine
 10
-58.811591
 20
-90.878321
 30
0.0
 11
-64.885506
 21
-90.878321
 31
0.0
  0
LINE
  5
3C6D
100
AcDbEntity
  8
V0-OBRYS
  6
CONTINUOUS
 62
    90
100
AcDbLine
 10
-36.434803
 20
-85.511168
 30
0.0
 11
-45.071471
 21
-94.354852
 31
0.0
  0
LINE
  5
3C6F
100
AcDbEntity
  8
V0-OBRYS
  6
CONTINUOUS
 62
    90
100
AcDbLine
 10
-47.534907
 20
-59.005153
 30
0.0
 11
-35.558261
 21
-70.857749
 31
0.0
  0
ELLIPSE
  5
3C70
100
AcDbEntity
  8
V0-VYPLNE
  6
DASHED
 62
    56
 48
2.0
100
AcDbEllipse
 10
-54.551414
 20
-38.989067
 30
0.0
 11
-0.0000000000002859
 21
3.345030335983464
 31
0.0
210
0.0
220
0.0
230
-1.0
 40
0.536378
 41
0.0000000000000711
 42
6.283185307179657
  0
LINE
  5
3C71
100
AcDbEntity
  8
V0-VYPLNE
  6
DASHED
 62
    56
 48
2.0
100
AcDbLine
 10
-56.734229
 20
-31.874983
 30
0.0
 11
-49.331143
 21
-53.707784
 31
0.0
  0
LINE
  5
3C72
100
AcDbEntity
  8
V0-VYPLNE
  6
DASHED
 62
    56
 48
2.0
100
AcDbLine
 10
-58.811591
 20
-28.143131
 30
0.0
 11
-64.885506
 21
-28.143131
 31
0.0
  0
LINE
  5
3C73
100
AcDbEntity
  8
V0-OBRYS
  6
CONTINUOUS
 62
    90
100
AcDbLine
 10
-47.787395
 20
23.966032
 30
0.0
 11
-80.209075
 21
23.966032
 31
0.0
  0
TEXT
  5
3C8C
100
AcDbEntity
  8
V0-NAZVY
  6
CONTINUOUS
 62
   210
100
AcDbText
 10
-904.63469
 20
-987.604708
 30
0.0
 40
39.135161
  1
PRG-710W
 72
     1
 11
-785.27245
 21
-987.604708
 31
0.0
100
AcDbText
  0
TEXT
  5
3C8D
100
AcDbEntity
  8
V0-NAZVY
  6
CONTINUOUS
 62
   210
100
AcDbText
 10
32.2024
 20
-482.050297
 30
0.0
 40
39.135161
  1
PRG-710W
 50
90.0
 72
     1
 11
32.2024
 21
-362.688057
 31
0.0
100
AcDbText
  0
TEXT
  5
3C8E
100
AcDbEntity
  8
V0-NAZVY
  6
CONTINUOUS
 62
   210
100
AcDbText
 10
-270.822917
 20
-987.574975
 30
0.0
 40
48.918951
  1
PRG-710W
 72
     1
 11
-121.620117
 21
-987.574975
 31
0.0
100
AcDbText
  0
CIRCLE
  5
3D6E
100
AcDbEntity
  8
V0-VYPLNE
  6
DASHED
 62
    56
 48
2.0
100
AcDbCircle
 10
-784.27245
 20
-355.860654
 30
0.0
 40
354.992321
  0
TEXT
  5
3D6F
100
AcDbEntity
  8
V0-NAZVY
  6
CONTINUOUS
 62
   210
100
AcDbText
 10
-903.63469
 20
-273.444397
 30
0.0
 40
39.135161
  1
PRG-710W
 72
     1
 11
-784.27245
 21
-273.444397
 31
0.0
100
AcDbText
  0
LINE
  5
3D72
100
AcDbEntity
  8
V0-OBRYS
  6
CONTINUOUS
 62
    90
100
AcDbLine
 10
-404.34646
 20
-355.860654
 30
0.0
 11
-404.34646
 21
23.615993
 31
0.0
  0
LINE
  5
3D73
100
AcDbEntity
  8
V0-OBRYS
  6
CONTINUOUS
 62
    90
100
AcDbLine
 10
-417.868639
 20
-355.860654
 30
0.0
 11
-417.868639
 21
-2.022197
 31
0.0
  0
LINE
  5
3D74
100
AcDbEntity
  8
V0-OBRYS
  6
CONTINUOUS
 62
    90
100
AcDbLine
 10
-1150.676261
 20
-355.860654
 30
0.0
 11
-1150.676261
 21
-2.022197
 31
0.0
  0
LINE
  5
3D75
100
AcDbEntity
  8
V0-OBRYS
  6
CONTINUOUS
 62
    90
100
AcDbLine
 10
-1164.19844
 20
-355.860654
 30
0.0
 11
-1164.19844
 21
23.615993
 31
0.0
  0
LINE
  5
3D79
100
AcDbEntity
  8
V0-OBRYS
  6
CONTINUOUS
 62
    90
100
AcDbLine
 10
-405.359303
 20
-735.350144
 30
0.0
 11
-784.27245
 21
-735.350144
 31
0.0
  0
LINE
  5
3D7A
100
AcDbEntity
  8
V0-OBRYS
  6
CONTINUOUS
 62
    90
100
AcDbLine
 10
-784.27245
 20
-716.327965
 30
0.0
 11
-427.868639
 21
-716.327965
 31
0.0
  0
LINE
  5
3D7B
100
AcDbEntity
  8
V0-OBRYS
  6
CONTINUOUS
 62
    90
100
AcDbLine
 10
-1142.223761
 20
-391.229055
 30
0.0
 11
-417.868639
 21
-391.229055
 31
0.0
  0
LINE
  5
3D7C
100
AcDbEntity
  8
V0-OBRYS
  6
CONTINUOUS
 62
    90
100
AcDbLine
 10
-1142.223761
 20
-465.895681
 30
0.0
 11
-417.868639
 21
-465.895681
 31
0.0
  0
LINE
  5
3D7D
100
AcDbEntity
  8
V0-OBRYS
  6
CONTINUOUS
 62
    90
100
AcDbLine
 10
-1142.223761
 20
-540.562306
 30
0.0
 11
-417.868639
 21
-540.562306
 31
0.0
  0
LINE
  5
3D7E
100
AcDbEntity
  8
V0-OBRYS
  6
CONTINUOUS
 62
    90
100
AcDbLine
 10
-1142.223761
 20
-615.228932
 30
0.0
 11
-417.868639
 21
-615.228932
 31
0.0
  0
LINE
  5
3D7F
100
AcDbEntity
  8
V0-VYPLNE
  6
DASHDOT
 62
    63
 48
3.0
100
AcDbLine
 10
-1190.730063
 20
-355.860654
 30
0.0
 11
-392.471735
 21
-355.860654
 31
0.0
  0
LINE
  5
3D80
100
AcDbEntity
  8
V0-OBRYS
  6
CONTINUOUS
 62
    90
100
AcDbLine
 10
-1160.233097
 20
-735.350144
 30
0.0
 11
-784.27245
 21
-735.350144
 31
0.0
  0
LINE
  5
3D81
100
AcDbEntity
  8
V0-OBRYS
  6
CONTINUOUS
 62
    90
100
AcDbLine
 10
-784.27245
 20
-716.327965
 30
0.0
 11
-1140.676261
 21
-716.327965
 31
0.0
  0
LINE
  5
3D82
100
AcDbEntity
  8
V0-OBRYS
  6
CONTINUOUS
 62
    90
100
AcDbLine
 10
-1137.12082
 20
-316.56243
 30
0.0
 11
-776.904411
 21
-316.56243
 31
0.0
  0
LINE
  5
3D83
100
AcDbEntity
  8
V0-OBRYS
  6
CONTINUOUS
 62
    90
100
AcDbLine
 10
-1164.19844
 20
-355.860654
 30
0.0
 11
-1164.19844
 21
-734.337301
 31
0.0
  0
LINE
  5
3D84
100
AcDbEntity
  8
V0-OBRYS
  6
CONTINUOUS
 62
    90
100
AcDbLine
 10
-1150.676261
 20
-355.860654
 30
0.0
 11
-1150.676261
 21
-706.327965
 31
0.0
  0
LINE
  5
3D86
100
AcDbEntity
  8
V0-VYPLNE
  6
DASHDOT
 62
    63
 48
2.0
100
AcDbLine
 10
-784.27245
 20
-292.983496
 30
0.0
 11
-784.27245
 21
-717.16295
 31
0.0
  0
LINE
  5
3D87
100
AcDbEntity
  8
V0-VYPLNE
  6
DASHDOT
 62
    63
 48
2.0
100
AcDbLine
 10
-1130.337791
 20
-723.457169
 30
0.0
 11
-1130.337791
 21
-679.072768
 31
0.0
  0
LINE
  5
3D88
100
AcDbEntity
  8
V0-VYPLNE
  6
DASHDOT
 62
    63
 48
2.0
100
AcDbLine
 10
-1157.846547
 20
-694.792057
 30
0.0
 11
-1106.758856
 21
-694.792057
 31
0.0
  0
CIRCLE
  5
3D89
100
AcDbEntity
  8
V0-OBRYS
  6
CONTINUOUS
 62
    90
100
AcDbCircle
 10
-1130.337791
 20
-694.792057
 30
0.0
 40
9.824556
  0
POINT
  5
3D8A
100
AcDbEntity
  8
V0-VYPLNE
  6
CONTINUOUS
 62
    52
100
AcDbPoint
 10
-784.27245
 20
-355.860654
 30
0.0
  0
LINE
  5
3D8B
100
AcDbEntity
  8
V0-OBRYS
  6
CONTINUOUS
 62
    90
100
AcDbLine
 10
-404.34646
 20
-355.860654
 30
0.0
 11
-404.34646
 21
-734.337301
 31
0.0
  0
LINE
  5
3D8C
100
AcDbEntity
  8
V0-OBRYS
  6
CONTINUOUS
 62
    90
100
AcDbLine
 10
-417.868639
 20
-355.860654
 30
0.0
 11
-417.868639
 21
-706.327965
 31
0.0
  0
CIRCLE
  5
3D8D
100
AcDbEntity
  8
V0-OBRYS
  6
CONTINUOUS
 62
    90
100
AcDbCircle
 10
-438.207109
 20
-694.792057
 30
0.0
 40
9.824556
  0
LINE
  5
3D8E
100
AcDbEntity
  8
V0-VYPLNE
  6
DASHDOT
 62
    63
 48
2.0
100
AcDbLine
 10
-431.61829
 20
-694.792057
 30
0.0
 11
-498.182481
 21
-694.792057
 31
0.0
  0
LINE
  5
3D8F
100
AcDbEntity
  8
V0-VYPLNE
  6
DASHDOT
 62
    63
 48
2.0
100
AcDbLine
 10
-438.207109
 20
-723.457169
 30
0.0
 11
-438.207109
 21
-679.072768
 31
0.0
  0
LINE
  5
3D91
100
AcDbEntity
  8
V0-OBRYS
  6
CONTINUOUS
 62
    90
100
AcDbLine
 10
-605.87312
 20
-316.56243
 30
0.0
 11
-417.868639
 21
-316.56243
 31
0.0
  0
LINE
  5
3D92
100
AcDbEntity
  8
V0-OBRYS
  6
CONTINUOUS
 62
    90
100
AcDbLine
 10
-405.359303
 20
24.628836
 30
0.0
 11
-784.27245
 21
24.628836
 31
0.0
  0
LINE
  5
3D93
100
AcDbEntity
  8
V0-OBRYS
  6
CONTINUOUS
 62
    90
100
AcDbLine
 10
-784.27245
 20
5.606657
 30
0.0
 11
-425.497493
 21
5.606657
 31
0.0
  0
LINE
  5
3D94
100
AcDbEntity
  8
V0-OBRYS
  6
CONTINUOUS
 62
    90
100
AcDbLine
 10
-1142.223761
 20
-92.562554
 30
0.0
 11
-417.868639
 21
-92.562554
 31
0.0
  0
LINE
  5
3D95
100
AcDbEntity
  8
V0-OBRYS
  6
CONTINUOUS
 62
    90
100
AcDbLine
 10
-1142.223761
 20
-167.229179
 30
0.0
 11
-417.868639
 21
-167.229179
 31
0.0
  0
LINE
  5
3D96
100
AcDbEntity
  8
V0-OBRYS
  6
CONTINUOUS
 62
    90
100
AcDbLine
 10
-1137.12082
 20
-241.895805
 30
0.0
 11
-965.04428
 21
-241.895805
 31
0.0
  0
LINE
  5
3D97
100
AcDbEntity
  8
V0-OBRYS
  6
CONTINUOUS
 62
    90
100
AcDbLine
 10
-784.27245
 20
5.606657
 30
0.0
 11
-1143.047406
 21
5.606657
 31
0.0
  0
LINE
  5
3D98
100
AcDbEntity
  8
V0-OBRYS
  6
CONTINUOUS
 62
    90
100
AcDbLine
 10
-1160.233097
 20
24.628836
 30
0.0
 11
-784.27245
 21
24.628836
 31
0.0
  0
ARC
  5
3D99
100
AcDbEntity
  8
V0-OBRYS
  6
CONTINUOUS
 62
    90
100
AcDbCircle
 10
-1143.047406
 20
-2.022197
 30
0.0
 40
7.628855
100
AcDbArc
 50
90.0
 51
180.0
  0
LEADER
  5
3D9A
100
AcDbEntity
  8
V0-VYPLNE
  6
CONTINUOUS
 62
    41
100
AcDbLeader
  3
ED2
 73
     0
 74
     0
 75
     1
 40
39.298224
 41
52.715477
 76
     3
 10
-1129.59228
 20
-15.929251
 30
0.0
 10
-922.164616
 20
114.191234
 30
0.0
 10
-897.164616
 20
114.191234
 30
0.0
 77
    41
340
3D9F
1001
ACAD
1000
DSTYLE
1002
{
1070
    40
1040
1.0
1002
}
  0
LINE
  5
3D9B
100
AcDbEntity
  8
V0-VYPLNE
  6
DASHDOT
 62
    63
 48
2.0
100
AcDbLine
 10
-1136.181099
 20
-15.929251
 30
0.0
 11
-1079.593408
 21
-15.929251
 31
0.0
  0
CIRCLE
  5
3D9C
100
AcDbEntity
  8
V0-OBRYS
  6
CONTINUOUS
 62
    90
100
AcDbCircle
 10
-1129.59228
 20
-15.929251
 30
0.0
 40
9.824556
  0
LINE
  5
3D9D
100
AcDbEntity
  8
V0-VYPLNE
  6
DASHDOT
 62
    63
 48
2.0
100
AcDbLine
 10
-1131.780833
 20
-6.405066
 30
0.0
 11
-1131.780833
 21
-50.126228
 31
0.0
  0
LINE
  5
3D9E
100
AcDbEntity
  8
V0-VYPLNE
  6
DASHDOT
 62
    63
 48
2.0
100
AcDbLine
 10
-784.27245
 20
44.574478
 30
0.0
 11
-784.27245
 21
-186.878291
 31
0.0
  0
MTEXT
  5
3D9F
102
{ACAD_REACTORS
330
3D9A
102
}
100
AcDbEntity
  8
V0-VYPLNE
  6
CONTINUOUS
 62
    41
100
AcDbMText
 10
-892.164616
 20
138.840346
 30
0.0
 40
39.298224
 41
0.0
 71
     4
 72
     1
  1
%%c5
  0
LINE
  5
3DA0
100
AcDbEntity
  8
V0-OBRYS
  6
CONTINUOUS
 62
    90
100
AcDbLine
 10
-607.430442
 20
-241.895805
 30
0.0
 11
-417.868639
 21
-241.895805
 31
0.0
  0
CIRCLE
  5
3DA1
100
AcDbEntity
  8
V0-OBRYS
  6
CONTINUOUS
 62
    90
100
AcDbCircle
 10
-437.461598
 20
-15.929251
 30
0.0
 40
9.824556
  0
LINE
  5
3DA2
100
AcDbEntity
  8
V0-VYPLNE
  6
DASHDOT
 62
    63
 48
2.0
100
AcDbLine
 10
-430.872779
 20
-15.929251
 30
0.0
 11
-497.43697
 21
-15.929251
 31
0.0
  0
ARC
  5
3DA3
100
AcDbEntity
  8
V0-OBRYS
  6
CONTINUOUS
 62
    90
100
AcDbCircle
 10
-425.497493
 20
-2.022197
 30
0.0
 40
7.628855
100
AcDbArc
 50
0.0
 51
90.0
  0
LINE
  5
3DA4
100
AcDbEntity
  8
V0-VYPLNE
  6
DASHDOT
 62
    63
 48
2.0
100
AcDbLine
 10
-437.461598
 20
-5.65397
 30
0.0
 11
-437.461598
 21
-49.375132
 31
0.0
  0
DIMENSION
  5
4202
100
AcDbEntity
  8
V0-ZBYTEK
 62
    41
 48
2.0
100
AcDbDimension
  2
*D20
 10
-438.207109
 20
-808.184654
 30
0.0
 11
-784.27245
 21
-783.17105
 31
0.0
 70
    32
  3
ED2
100
AcDbAlignedDimension
 13
-1130.337791
 23
-672.178669
 33
0.0
 14
-438.207109
 24
-672.178669
 34
0.0
100
AcDbRotatedDimension
1001
ACAD
1000
DSTYLE
1002
{
1070
   140
1040
40.0
1070
   340
1005
413E
1070
    40
1040
1.0
1002
}
  0
DIMENSION
  5
421C
100
AcDbEntity
  8
V0-ZBYTEK
 62
    41
 48
2.0
100
AcDbDimension
  2
*D22
 10
-404.34646
 20
-876.931654
 30
0.0
 11
-784.27245
 21
-851.931654
 31
0.0
 70
    32
  3
ED2
100
AcDbAlignedDimension
 13
-1164.19844
 23
-734.337301
 33
0.0
 14
-404.34646
 24
-734.337301
 34
0.0
100
AcDbRotatedDimension
1001
ACAD
1000
DSTYLE
1002
{
1070
   140
1040
40.0
1070
   340
1005
413E
1070
    40
1040
1.0
1002
}
  0
DIMENSION
  5
42A8
100
AcDbEntity
  8
V0-ZBYTEK
 62
    41
 48
2.0
100
AcDbDimension
  2
*D26
 10
-223.02645
 20
-735.041676
 30
0.0
 11
-248.02645
 21
-355.20642
 31
0.0
 70
    32
  3
ED2
100
AcDbAlignedDimension
 13
-405.359303
 23
24.628836
 33
0.0
 14
-404.34646
 24
-735.041676
 34
0.0
 50
90.0
100
AcDbRotatedDimension
1001
ACAD
1000
DSTYLE
1002
{
1070
   140
1040
40.0
1070
   340
1005
413E
1070
    40
1040
1.0
1002
}
  0
DIMENSION
  5
43E6
100
AcDbEntity
  8
V0-ZBYTEK
 62
    41
 48
2.0
100
AcDbDimension
  2
*D28
 10
-1118.571553
 20
-236.430099
 30
0.0
 11
-685.27245
 21
-391.229055
 31
0.0
 70
   163
  3
ED2
100
AcDbDiametricDimension
 15
-449.973346
 25
-475.291209
 35
0.0
 40
0.0
1001
ACAD
1000
DSTYLE
1002
{
1070
   288
1070
     1
1070
   140
1040
40.0
1070
   340
1005
413E
1070
    40
1040
1.0
1002
}
  0
ARC
  5
43EA
100
AcDbEntity
  8
V0-OBRYS
  6
CONTINUOUS
 62
    90
100
AcDbCircle
 10
-1140.676261
 20
-706.327965
 30
0.0
 40
10.0
100
AcDbArc
 50
180.0
 51
270.0
  0
ARC
  5
43EB
100
AcDbEntity
  8
V0-OBRYS
  6
CONTINUOUS
 62
    90
100
AcDbCircle
 10
-427.868639
 20
-706.327965
 30
0.0
 40
10.0
100
AcDbArc
 50
270.0
 51
0.0
  0
POINT
  5
43F1
100
AcDbEntity
  8
V0-ZBYTEK
 62
    41
 48
2.0
100
AcDbPoint
 10
-784.27245
 20
-1059.924029
 30
0.0
  0
DIMENSION
  5
4400
100
AcDbEntity
  8
V0-ZBYTEK
 62
    41
 48
2.0
100
AcDbDimension
  2
*D29
 10
-35.558261
 20
-810.860654
 30
0.0
 11
44.270166
 21
-785.860654
 31
0.0
 70
    32
  3
ED2
100
AcDbAlignedDimension
 13
-80.209075
 23
-735.68734
 33
0.0
 14
-35.558261
 24
-668.739268
 34
0.0
100
AcDbRotatedDimension
1001
ACAD
1000
DSTYLE
1002
{
1070
   140
1040
40.0
1070
   340
1005
413E
1070
    40
1040
1.0
1002
}
  0
VIEWPORT
  5
22
100
AcDbEntity
 67
     1
  8
0
100
AcDbViewport
 10
261.517699
 20
165.390006
 30
0.0
 40
523.035398
 41
330.780011
 68
    -1
 69
     1
1001
ACAD
1000
MVIEW
1002
{
1070
    16
1010
0.0
1020
0.0
1030
0.0
1010
0.0
1020
0.0
1030
1.0
1040
0.0
1040
330.780011
1040
261.517699
1040
165.390006
1040
50.0
1040
0.0
1040
0.0
1070
     0
1070
   100
1070
     1
1070
     0
1070
     0
1070
     0
1070
     0
1070
     0
1040
0.0
1040
0.0
1040
0.0
1040
1.0
1040
1.0
1040
10.0
1040
10.0
1070
     0
1002
{
1002
}
1002
}
  0
ENDSEC
  0
SECTION
  2
OBJECTS
  0
DICTIONARY
  5
C
100
AcDbDictionary
  3
ACAD_GROUP
350
D
  3
ACAD_MLINESTYLE
350
E
  3
ACDBVARIABLEDICTIONARY
350
86C
  3
CONTENTDICTIONARY
350
905
  0
DICTIONARY
  5
D
102
{ACAD_REACTORS
330
C
102
}
100
AcDbDictionary
  0
DICTIONARY
  5
E
102
{ACAD_REACTORS
330
C
102
}
100
AcDbDictionary
  3
STANDARD
350
13
  0
DICTIONARY
  5
86C
102
{ACAD_REACTORS
330
C
102
}
100
AcDbDictionary
  3
SORTENTS
350
86D
  0
DICTIONARY
  5
905
102
{ACAD_REACTORS
330
C
102
}
100
AcDbDictionary
  0
MLINESTYLE
  5
13
102
{ACAD_REACTORS
330
E
102
}
100
AcDbMlineStyle
  2
STANDARD
 70
     0
  3

 62
     0
 51
90.0
 52
90.0
 71
     2
 49
0.5
 62
   256
  6
BYLAYER
 49
-0.5
 62
   256
  6
BYLAYER
  0
DICTIONARYVAR
  5
86D
102
{ACAD_REACTORS
330
86C
102
}
100
DictionaryVariables
280
     0
  1
96
  0
ENDSEC
  0
EOF
