  0
SECTION
  2
HEADER
  9
$ACADVER
  1
AC1014
  9
$ACADMAINTVER
 70
     0
  9
$DWGCODEPAGE
  3
ANSI_1250
  9
$INSBASE
 10
0.0
 20
0.0
 30
0.0
  9
$EXTMIN
 10
-1114.318876
 20
-954.393621
 30
0.0
  9
$EXTMAX
 10
-124.388175
 20
14.935127
 30
0.0
  9
$LIMMIN
 10
-1040.805314
 20
-347.068924
  9
$LIMMAX
 10
643.686187
 20
495.293187
  9
$ORTHOMODE
 70
     0
  9
$REGENMODE
 70
     1
  9
$FILLMODE
 70
     1
  9
$QTEXTMODE
 70
     0
  9
$MIRRTEXT
 70
     1
  9
$DRAGMODE
 70
     2
  9
$LTSCALE
 40
15.0
  9
$OSMODE
 70
  1023
  9
$ATTMODE
 70
     1
  9
$TEXTSIZE
 40
15.0
  9
$TRACEWID
 40
5.0
  9
$TEXTSTYLE
  7
STANDARD
  9
$CLAYER
  8
V0-ZBYTEK
  9
$CELTYPE
  6
BYLAYER
  9
$CECOLOR
 62
    41
  9
$CELTSCALE
 40
2.0
  9
$DELOBJ
 70
     1
  9
$DISPSILH
 70
     0
  9
$DIMSCALE
 40
0.0
  9
$DIMASZ
 40
25.0
  9
$DIMEXO
 40
0.625
  9
$DIMDLI
 40
3.75
  9
$DIMRND
 40
0.0
  9
$DIMDLE
 40
0.0
  9
$DIMEXE
 40
1.25
  9
$DIMTP
 40
0.0
  9
$DIMTM
 40
0.0
  9
$DIMTXT
 40
30.0
  9
$DIMCEN
 40
2.5
  9
$DIMTSZ
 40
0.0
  9
$DIMTOL
 70
     0
  9
$DIMLIM
 70
     0
  9
$DIMTIH
 70
     0
  9
$DIMTOH
 70
     0
  9
$DIMSE1
 70
     0
  9
$DIMSE2
 70
     0
  9
$DIMTAD
 70
     1
  9
$DIMZIN
 70
     8
  9
$DIMBLK
  1

  9
$DIMASO
 70
     1
  9
$DIMSHO
 70
     1
  9
$DIMPOST
  1

  9
$DIMAPOST
  1

  9
$DIMALT
 70
     0
  9
$DIMALTD
 70
     4
  9
$DIMALTF
 40
0.0394
  9
$DIMLFAC
 40
1.0
  9
$DIMTOFL
 70
     1
  9
$DIMTVP
 40
0.0
  9
$DIMTIX
 70
     0
  9
$DIMSOXD
 70
     0
  9
$DIMSAH
 70
     1
  9
$DIMBLK1
  1
_OPEN
  9
$DIMBLK2
  1
_OPEN
  9
$DIMSTYLE
  2
ED2
  9
$DIMCLRD
 70
     0
  9
$DIMCLRE
 70
     0
  9
$DIMCLRT
 70
     0
  9
$DIMTFAC
 40
1.0
  9
$DIMGAP
 40
5.0
  9
$DIMJUST
 70
     0
  9
$DIMSD1
 70
     0
  9
$DIMSD2
 70
     0
  9
$DIMTOLJ
 70
     1
  9
$DIMTZIN
 70
     8
  9
$DIMALTZ
 70
     0
  9
$DIMALTTZ
 70
     0
  9
$DIMFIT
 70
     3
  9
$DIMUPT
 70
     0
  9
$DIMUNIT
 70
     2
  9
$DIMDEC
 70
     0
  9
$DIMTDEC
 70
     1
  9
$DIMALTU
 70
     8
  9
$DIMALTTD
 70
     4
  9
$DIMTXSTY
  7
ED
  9
$DIMAUNIT
 70
     0
  9
$LUNITS
 70
     2
  9
$LUPREC
 70
     4
  9
$SKETCHINC
 40
1.0
  9
$FILLETRAD
 40
5.0
  9
$AUNITS
 70
     0
  9
$AUPREC
 70
     0
  9
$MENU
  1
.
  9
$ELEVATION
 40
0.0
  9
$PELEVATION
 40
0.0
  9
$THICKNESS
 40
0.0
  9
$LIMCHECK
 70
     0
  9
$BLIPMODE
 70
     1
  9
$CHAMFERA
 40
10.0
  9
$CHAMFERB
 40
10.0
  9
$CHAMFERC
 40
20.0
  9
$CHAMFERD
 40
0.0
  9
$SKPOLY
 70
     0
  9
$TDCREATE
 40
2450763.421427893
  9
$TDUPDATE
 40
2453312.830586631
  9
$TDINDWG
 40
1.5176844907
  9
$TDUSRTIMER
 40
1.5176844907
  9
$USRTIMER
 70
     1
  9
$ANGBASE
 50
0.0
  9
$ANGDIR
 70
     0
  9
$PDMODE
 70
     3
  9
$PDSIZE
 40
-5.0
  9
$PLINEWID
 40
0.0
  9
$COORDS
 70
     2
  9
$SPLFRAME
 70
     0
  9
$SPLINETYPE
 70
     6
  9
$SPLINESEGS
 70
     8
  9
$ATTDIA
 70
     0
  9
$ATTREQ
 70
     1
  9
$HANDLING
 70
     1
  9
$HANDSEED
  5
411D
  9
$SURFTAB1
 70
     6
  9
$SURFTAB2
 70
     6
  9
$SURFTYPE
 70
     6
  9
$SURFU
 70
     6
  9
$SURFV
 70
     6
  9
$UCSNAME
  2

  9
$UCSORG
 10
-784.27244973706
 20
-855.860653870855
 30
0.0
  9
$UCSXDIR
 10
1.0
 20
0.0
 30
0.0
  9
$UCSYDIR
 10
0.0
 20
1.0
 30
0.0
  9
$PUCSNAME
  2

  9
$PUCSORG
 10
0.0
 20
0.0
 30
0.0
  9
$PUCSXDIR
 10
1.0
 20
0.0
 30
0.0
  9
$PUCSYDIR
 10
0.0
 20
1.0
 30
0.0
  9
$USERI1
 70
     0
  9
$USERI2
 70
     0
  9
$USERI3
 70
     0
  9
$USERI4
 70
     0
  9
$USERI5
 70
     0
  9
$USERR1
 40
0.0
  9
$USERR2
 40
0.0
  9
$USERR3
 40
0.0
  9
$USERR4
 40
0.0
  9
$USERR5
 40
0.0
  9
$WORLDVIEW
 70
     1
  9
$SHADEDGE
 70
     3
  9
$SHADEDIF
 70
    70
  9
$TILEMODE
 70
     1
  9
$MAXACTVP
 70
    16
  9
$PINSBASE
 10
0.0
 20
0.0
 30
0.0
  9
$PLIMCHECK
 70
     0
  9
$PEXTMIN
 10
131.177948
 20
159.528081
 30
0.0
  9
$PEXTMAX
 10
254.393018
 20
159.528081
 30
0.0
  9
$PLIMMIN
 10
0.0
 20
0.0
  9
$PLIMMAX
 10
420.0
 20
297.0
  9
$UNITMODE
 70
     0
  9
$VISRETAIN
 70
     0
  9
$PLINEGEN
 70
     0
  9
$PSLTSCALE
 70
     0
  9
$TREEDEPTH
 70
  3020
  9
$PICKSTYLE
 70
     1
  9
$CMLSTYLE
  2
STANDARD
  9
$CMLJUST
 70
     0
  9
$CMLSCALE
 40
1.0
  9
$PROXYGRAPHICS
 70
     1
  9
$MEASUREMENT
 70
     1
  0
ENDSEC
  0
SECTION
  2
CLASSES
  0
CLASS
  1
LWPOLYLINE
  2
AcDbPolyline
  3
"AutoCAD"
 90
        0
280
     0
281
     1
  0
CLASS
  1
DICTIONARYVAR
  2
AcDbDictionaryVar
  3
"AutoCAD"
 90
        0
280
     0
281
     0
  0
CLASS
  1
HATCH
  2
AcDbHatch
  3
"ACAD_SEDONA"
 90
        0
280
     0
281
     1
  0
ENDSEC
  0
SECTION
  2
TABLES
  0
TABLE
  2
VPORT
  5
8
100
AcDbSymbolTable
 70
     2
  0
VPORT
  5
411C
100
AcDbSymbolTableRecord
100
AcDbViewportTableRecord
  2
*ACTIVE
 70
     0
 10
0.0
 20
0.0
 11
1.0
 21
1.0
 12
-607.27245
 22
-477.860654
 13
0.0
 23
0.0
 14
1.0
 24
1.0
 15
50.0
 25
50.0
 16
0.0
 26
0.0
 36
1.0
 17
0.0
 27
0.0
 37
0.0
 40
1126.0
 41
1.550584
 42
50.0
 43
0.0
 44
0.0
 50
0.0
 51
0.0
 71
     0
 72
   100
 73
     1
 74
     0
 75
     1
 76
     0
 77
     0
 78
     0
  0
ENDTAB
  0
TABLE
  2
LTYPE
  5
5
100
AcDbSymbolTable
 70
     3
  0
LTYPE
  5
14
100
AcDbSymbolTableRecord
100
AcDbLinetypeTableRecord
  2
BYBLOCK
 70
     0
  3

 72
    65
 73
     0
 40
0.0
  0
LTYPE
  5
15
100
AcDbSymbolTableRecord
100
AcDbLinetypeTableRecord
  2
BYLAYER
 70
     0
  3

 72
    65
 73
     0
 40
0.0
  0
LTYPE
  5
16
100
AcDbSymbolTableRecord
100
AcDbLinetypeTableRecord
  2
CONTINUOUS
 70
     0
  3
Solid line
 72
    65
 73
     0
 40
0.0
  0
LTYPE
  5
1D7
100
AcDbSymbolTableRecord
100
AcDbLinetypeTableRecord
  2
DASHED
 70
     0
  3
__ __ __ __ __ __ __ __ __ __ __ __ __ __ __ __
 72
    65
 73
     2
 40
0.75
 49
0.5
 74
     0
 49
-0.25
 74
     0
  0
LTYPE
  5
492
100
AcDbSymbolTableRecord
100
AcDbLinetypeTableRecord
  2
DASHDOT
 70
     0
  3
__ . __ . __ . __ . __ . __ . __ . __ . __ . __
 72
    65
 73
     4
 40
1.0
 49
0.5
 74
     0
 49
-0.25
 74
     0
 49
0.0
 74
     0
 49
-0.25
 74
     0
  0
ENDTAB
  0
TABLE
  2
LAYER
  5
2
100
AcDbSymbolTable
 70
     7
  0
LAYER
  5
F
100
AcDbSymbolTableRecord
100
AcDbLayerTableRecord
  2
0
 70
     0
 62
     7
  6
CONTINUOUS
  0
LAYER
  5
1A22
100
AcDbSymbolTableRecord
100
AcDbLayerTableRecord
  2
DEFPOINTS
 70
     0
 62
     7
  6
CONTINUOUS
  0
LAYER
  5
3A20
100
AcDbSymbolTableRecord
100
AcDbLayerTableRecord
  2
ASHADE
 70
     4
 62
     7
  6
CONTINUOUS
  0
LAYER
  5
3E17
100
AcDbSymbolTableRecord
100
AcDbLayerTableRecord
  2
V0-OBRYS
 70
     0
 62
    90
  6
CONTINUOUS
  0
LAYER
  5
3E18
100
AcDbSymbolTableRecord
100
AcDbLayerTableRecord
  2
V0-VYPLNE
 70
     0
 62
    52
  6
CONTINUOUS
  0
LAYER
  5
3E19
100
AcDbSymbolTableRecord
100
AcDbLayerTableRecord
  2
V0-NAZVY
 70
     0
 62
   210
  6
CONTINUOUS
  0
LAYER
  5
3E1A
100
AcDbSymbolTableRecord
100
AcDbLayerTableRecord
  2
V0-ZBYTEK
 70
     0
 62
    51
  6
CONTINUOUS
  0
ENDTAB
  0
TABLE
  2
STYLE
  5
3
100
AcDbSymbolTable
 70
     6
  0
STYLE
  5
10
100
AcDbSymbolTableRecord
100
AcDbTextStyleTableRecord
  2
STANDARD
 70
     0
 40
0.0
 41
1.0
 50
0.0
 71
     0
 42
15.0
  3
ISOCP.shx
  4

  0
STYLE
  5
3E1B
100
AcDbSymbolTableRecord
100
AcDbTextStyleTableRecord
  2
ED
 70
     0
 40
20.0
 41
1.0
 50
0.0
 71
     0
 42
2.5
  3
ISOCP.shx
  4

  0
STYLE
  5
3E1C
100
AcDbSymbolTableRecord
100
AcDbTextStyleTableRecord
  2
EDVENT
 70
     0
 40
10.0
 41
1.0
 50
0.0
 71
     0
 42
2.5
  3
ISOCP.shx
  4

  0
STYLE
  5
3E1D
100
AcDbSymbolTableRecord
100
AcDbTextStyleTableRecord
  2
E
 70
     0
 40
25.0
 41
1.0
 50
0.0
 71
     0
 42
2.5
  3
ISOCP.shx
  4

  0
STYLE
  5
3E1E
100
AcDbSymbolTableRecord
100
AcDbTextStyleTableRecord
  2
ED-VENT
 70
     0
 40
25.0
 41
1.0
 50
0.0
 71
     0
 42
2.5
  3
ISOCP.shx
  4

  0
STYLE
  5
3E1F
100
AcDbSymbolTableRecord
100
AcDbTextStyleTableRecord
  2
ED2
 70
     0
 40
25.0
 41
1.0
 50
0.0
 71
     0
 42
2.5
  3
ISOCP.shx
  4

  0
ENDTAB
  0
TABLE
  2
VIEW
  5
6
100
AcDbSymbolTable
 70
     0
  0
ENDTAB
  0
TABLE
  2
UCS
  5
7
100
AcDbSymbolTable
 70
     0
  0
ENDTAB
  0
TABLE
  2
APPID
  5
9
100
AcDbSymbolTable
 70
     9
  0
APPID
  5
11
100
AcDbSymbolTableRecord
100
AcDbRegAppTableRecord
  2
ACAD
 70
     0
  0
APPID
  5
906
100
AcDbSymbolTableRecord
100
AcDbRegAppTableRecord
  2
CONTENTTABDATA
 70
     0
  0
APPID
  5
907
100
AcDbSymbolTableRecord
100
AcDbRegAppTableRecord
  2
CONTENTCURRENTTAB
 70
     0
  0
APPID
  5
908
100
AcDbSymbolTableRecord
100
AcDbRegAppTableRecord
  2
CONTENTBLOCKDESCRIPTION
 70
     0
  0
APPID
  5
3A1E
100
AcDbSymbolTableRecord
100
AcDbRegAppTableRecord
  2
AVE_RENDER
 70
     0
  0
APPID
  5
3A1F
100
AcDbSymbolTableRecord
100
AcDbRegAppTableRecord
  2
AVE_ENTITY_MATERIAL
 70
     0
  0
APPID
  5
3A2C
100
AcDbSymbolTableRecord
100
AcDbRegAppTableRecord
  2
AVE_FINISH
 70
     0
  0
APPID
  5
3A2D
100
AcDbSymbolTableRecord
100
AcDbRegAppTableRecord
  2
AVE_MATERIAL
 70
     0
  0
APPID
  5
3A2E
100
AcDbSymbolTableRecord
100
AcDbRegAppTableRecord
  2
AVE_GLOBAL
 70
     0
  0
ENDTAB
  0
TABLE
  2
DIMSTYLE
  5
A
100
AcDbSymbolTable
 70
     3
  0
DIMSTYLE
105
1D
102
{ACAD_REACTORS
330
3D70
330
3D71
330
3D76
330
3D77
330
4038
102
}
100
AcDbSymbolTableRecord
100
AcDbDimStyleTableRecord
  2
STANDARD
 70
     0
  3

  4

  5

  6
_OPEN
  7
_OPEN
 40
1.0
 41
20.0
 42
0.0625
 43
0.38
 44
0.18
 45
0.0
 46
0.0
 47
0.0
 48
0.0
140
20.0
141
0.0
142
0.0
143
25.4
144
1.0
145
0.0
146
1.0
147
0.625
 71
     0
 72
     0
 73
     0
 74
     0
 75
     0
 76
     0
 77
     1
 78
     0
170
     0
171
     2
172
     0
173
     1
174
     0
175
     0
176
     0
177
     0
178
     0
270
     2
271
     0
272
     4
273
     2
274
     2
340
10
275
     0
280
     0
281
     0
282
     0
283
     1
284
     0
285
     0
286
     0
287
     0
288
     0
  0
DIMSTYLE
105
3E20
100
AcDbSymbolTableRecord
100
AcDbDimStyleTableRecord
  2
ED
 70
     0
  3

  4

  5

  6
_OPEN
  7
_OPEN
 40
0.0
 41
15.0
 42
0.625
 43
3.75
 44
1.25
 45
0.0
 46
0.0
 47
0.0
 48
0.0
140
15.0
141
2.5
142
0.0
143
0.0394
144
1.0
145
0.0
146
1.0
147
3.0
 71
     0
 72
     0
 73
     0
 74
     0
 75
     0
 76
     0
 77
     1
 78
     8
170
     0
171
     4
172
     1
173
     1
174
     0
175
     0
176
     0
177
     0
178
     0
270
     2
271
     0
272
     1
273
     8
274
     4
340
3E1B
275
     0
280
     0
281
     0
282
     0
283
     1
284
     8
285
     0
286
     0
287
     3
288
     0
  0
DIMSTYLE
105
3E21
102
{ACAD_REACTORS
330
410E
102
}
100
AcDbSymbolTableRecord
100
AcDbDimStyleTableRecord
  2
ED2
 70
     0
  3

  4

  5

  6
_OPEN
  7
_OPEN
 40
0.0
 41
25.0
 42
0.625
 43
3.75
 44
1.25
 45
0.0
 46
0.0
 47
0.0
 48
0.0
140
30.0
141
2.5
142
0.0
143
0.0394
144
1.0
145
0.0
146
1.0
147
5.0
 71
     0
 72
     0
 73
     0
 74
     0
 75
     0
 76
     0
 77
     1
 78
     8
170
     0
171
     4
172
     1
173
     1
174
     0
175
     0
176
     0
177
     0
178
     0
270
     2
271
     0
272
     1
273
     8
274
     4
340
3E1B
275
     0
280
     0
281
     0
282
     0
283
     1
284
     8
285
     0
286
     0
287
     3
288
     0
  0
ENDTAB
  0
TABLE
  2
BLOCK_RECORD
  5
1
100
AcDbSymbolTable
 70
    20
  0
BLOCK_RECORD
  5
1A
100
AcDbSymbolTableRecord
100
AcDbBlockTableRecord
  2
*MODEL_SPACE
  0
BLOCK_RECORD
  5
17
100
AcDbSymbolTableRecord
100
AcDbBlockTableRecord
  2
*PAPER_SPACE
  0
BLOCK_RECORD
  5
1A05
100
AcDbSymbolTableRecord
100
AcDbBlockTableRecord
  2
_OPEN
  0
BLOCK_RECORD
  5
3A21
100
AcDbSymbolTableRecord
100
AcDbBlockTableRecord
  2
AVE_RENDER
  0
BLOCK_RECORD
  5
3A2F
100
AcDbSymbolTableRecord
100
AcDbBlockTableRecord
  2
AVE_GLOBAL
  0
BLOCK_RECORD
  5
3E68
100
AcDbSymbolTableRecord
100
AcDbBlockTableRecord
  2
*D3
  0
BLOCK_RECORD
  5
3E74
100
AcDbSymbolTableRecord
100
AcDbBlockTableRecord
  2
*D4
  0
BLOCK_RECORD
  5
3E80
100
AcDbSymbolTableRecord
100
AcDbBlockTableRecord
  2
*D5
  0
BLOCK_RECORD
  5
3E89
100
AcDbSymbolTableRecord
100
AcDbBlockTableRecord
  2
*D6
  0
BLOCK_RECORD
  5
402C
100
AcDbSymbolTableRecord
100
AcDbBlockTableRecord
  2
*D16
  0
BLOCK_RECORD
  5
40D1
100
AcDbSymbolTableRecord
100
AcDbBlockTableRecord
  2
*D17
  0
BLOCK_RECORD
  5
4100
100
AcDbSymbolTableRecord
100
AcDbBlockTableRecord
  2
*D19
  0
ENDTAB
  0
ENDSEC
  0
SECTION
  2
BLOCKS
  0
BLOCK
  5
1B
100
AcDbEntity
  8
0
100
AcDbBlockBegin
  2
*MODEL_SPACE
 70
     0
 10
0.0
 20
0.0
 30
0.0
  3
*MODEL_SPACE
  1

  0
ENDBLK
  5
1C
100
AcDbEntity
  8
0
100
AcDbBlockEnd
  0
BLOCK
  5
18
100
AcDbEntity
 67
     1
  8
0
100
AcDbBlockBegin
  2
*PAPER_SPACE
 70
     0
 10
0.0
 20
0.0
 30
0.0
  3
*PAPER_SPACE
  1

  0
ENDBLK
  5
19
100
AcDbEntity
 67
     1
  8
0
100
AcDbBlockEnd
  0
BLOCK
  5
1A09
100
AcDbEntity
  8
0
100
AcDbBlockBegin
  2
_OPEN
 70
     0
 10
0.0
 20
0.0
 30
0.0
  3
_OPEN
  1

  0
LINE
  5
1A06
100
AcDbEntity
  8
0
  6
BYBLOCK
 62
     0
100
AcDbLine
 10
-1.0
 20
0.166667
 30
0.0
 11
0.0
 21
0.0
 31
0.0
  0
LINE
  5
1A07
100
AcDbEntity
  8
0
  6
BYBLOCK
 62
     0
100
AcDbLine
 10
0.0
 20
0.0
 30
0.0
 11
-1.0
 21
-0.166667
 31
0.0
  0
LINE
  5
1A08
100
AcDbEntity
  8
0
  6
BYBLOCK
 62
     0
100
AcDbLine
 10
0.0
 20
0.0
 30
0.0
 11
-1.0
 21
0.0
 31
0.0
  0
ENDBLK
  5
1A0A
100
AcDbEntity
  8
0
100
AcDbBlockEnd
  0
BLOCK
  5
3A22
100
AcDbEntity
  8
ASHADE
 48
2.0
100
AcDbBlockBegin
  2
AVE_RENDER
 70
     0
 10
784.27245
 20
355.860654
 30
0.0
  3
AVE_RENDER
  1
AVE_RENDER
  0
ENDBLK
  5
3A23
100
AcDbEntity
  8
0
 48
2.0
100
AcDbBlockEnd
  0
BLOCK
  5
3A30
100
AcDbEntity
  8
ASHADE
 48
2.0
100
AcDbBlockBegin
  2
AVE_GLOBAL
 70
     0
 10
784.27245
 20
355.860654
 30
0.0
  3
AVE_GLOBAL
  1
AVE_GLOBAL
  0
ENDBLK
  5
3A31
100
AcDbEntity
  8
0
 48
2.0
100
AcDbBlockEnd
  0
BLOCK
  5
408F
100
AcDbEntity
  8
0
 48
2.0
100
AcDbBlockBegin
  2
*D3
 70
     1
 10
0.0
 20
0.0
 30
0.0
  3
*D3
  1

  0
LINE
  5
4090
100
AcDbEntity
  8
0
  6
BYBLOCK
 62
     0
 48
2.0
100
AcDbLine
 10
-511.120252
 20
-111.618198
 30
0.0
 11
-437.088869
 21
-111.618198
 31
0.0
  0
LINE
  5
4091
100
AcDbEntity
  8
0
  6
BYBLOCK
 62
     0
 48
2.0
100
AcDbLine
 10
-517.708252
 20
-600.103109
 30
0.0
 11
-437.088869
 21
-600.103109
 31
0.0
  0
LINE
  5
4092
100
AcDbEntity
  8
0
  6
BYBLOCK
 62
     0
 48
2.0
100
AcDbLine
 10
-438.338869
 20
-136.618198
 30
0.0
 11
-438.338869
 21
-575.103109
 31
0.0
  0
INSERT
  5
4093
100
AcDbEntity
  8
0
  6
BYBLOCK
 62
     0
 48
2.0
100
AcDbBlockReference
  2
_OPEN
 10
-438.338869
 20
-111.618198
 30
0.0
 41
25.0
 42
25.0
 43
25.0
 50
90.0
  0
INSERT
  5
4094
100
AcDbEntity
  8
0
  6
BYBLOCK
 62
     0
 48
2.0
100
AcDbBlockReference
  2
_OPEN
 10
-438.338869
 20
-600.103109
 30
0.0
 41
25.0
 42
25.0
 43
25.0
 50
270.0
  0
MTEXT
  5
4095
100
AcDbEntity
  8
0
  6
BYBLOCK
 62
     0
 48
2.0
100
AcDbMText
 10
-453.338869
 20
-355.860654
 30
0.0
 40
20.0
 41
0.0
 71
     5
 72
     1
  1
\A1;489
  7
ED
 11
0.0
 21
1.0
 31
0.0
  0
POINT
  5
4096
100
AcDbEntity
  8
DEFPOINTS
  6
BYBLOCK
 62
     0
 48
2.0
100
AcDbPoint
 10
-511.745252
 20
-111.618198
 30
0.0
  0
POINT
  5
4097
100
AcDbEntity
  8
DEFPOINTS
  6
BYBLOCK
 62
     0
 48
2.0
100
AcDbPoint
 10
-518.333252
 20
-600.103109
 30
0.0
  0
POINT
  5
4098
100
AcDbEntity
  8
DEFPOINTS
  6
BYBLOCK
 62
     0
 48
2.0
100
AcDbPoint
 10
-438.338869
 20
-600.103109
 30
0.0
  0
ENDBLK
  5
4099
100
AcDbEntity
  8
0
 48
2.0
100
AcDbBlockEnd
  0
BLOCK
  5
4084
100
AcDbEntity
  8
0
 48
2.0
100
AcDbBlockBegin
  2
*D4
 70
     1
 10
0.0
 20
0.0
 30
0.0
  3
*D4
  1

  0
LINE
  5
4085
100
AcDbEntity
  8
0
  6
BYBLOCK
 62
     0
 48
2.0
100
AcDbLine
 10
-481.992597
 20
-53.40695
 30
0.0
 11
-393.428341
 21
-53.40695
 31
0.0
  0
LINE
  5
4086
100
AcDbEntity
  8
0
  6
BYBLOCK
 62
     0
 48
2.0
100
AcDbLine
 10
-481.992597
 20
-658.314358
 30
0.0
 11
-393.428341
 21
-658.314358
 31
0.0
  0
LINE
  5
4087
100
AcDbEntity
  8
0
  6
BYBLOCK
 62
     0
 48
2.0
100
AcDbLine
 10
-394.678341
 20
-78.40695
 30
0.0
 11
-394.678341
 21
-633.314358
 31
0.0
  0
INSERT
  5
4088
100
AcDbEntity
  8
0
  6
BYBLOCK
 62
     0
 48
2.0
100
AcDbBlockReference
  2
_OPEN
 10
-394.678341
 20
-53.40695
 30
0.0
 41
25.0
 42
25.0
 43
25.0
 50
90.0
  0
INSERT
  5
4089
100
AcDbEntity
  8
0
  6
BYBLOCK
 62
     0
 48
2.0
100
AcDbBlockReference
  2
_OPEN
 10
-394.678341
 20
-658.314358
 30
0.0
 41
25.0
 42
25.0
 43
25.0
 50
270.0
  0
MTEXT
  5
408A
100
AcDbEntity
  8
0
  6
BYBLOCK
 62
     0
 48
2.0
100
AcDbMText
 10
-409.678341
 20
-355.860654
 30
0.0
 40
20.0
 41
0.0
 71
     5
 72
     1
  1
\A1;605
  7
ED
 11
0.0
 21
1.0
 31
0.0
  0
POINT
  5
408B
100
AcDbEntity
  8
DEFPOINTS
  6
BYBLOCK
 62
     0
 48
2.0
100
AcDbPoint
 10
-482.617597
 20
-53.40695
 30
0.0
  0
POINT
  5
408C
100
AcDbEntity
  8
DEFPOINTS
  6
BYBLOCK
 62
     0
 48
2.0
100
AcDbPoint
 10
-482.617597
 20
-658.314358
 30
0.0
  0
POINT
  5
408D
100
AcDbEntity
  8
DEFPOINTS
  6
BYBLOCK
 62
     0
 48
2.0
100
AcDbPoint
 10
-394.678341
 20
-658.314358
 30
0.0
  0
ENDBLK
  5
408E
100
AcDbEntity
  8
0
 48
2.0
100
AcDbBlockEnd
  0
BLOCK
  5
40CA
100
AcDbEntity
  8
0
 48
2.0
100
AcDbBlockBegin
  2
*D5
 70
     1
 10
0.0
 20
0.0
 30
0.0
  3
*D5
  1

  0
LINE
  5
40CB
100
AcDbEntity
  8
0
  6
BYBLOCK
 62
     0
 48
2.0
100
AcDbLine
 10
-725.151026
 20
-339.998808
 30
0.0
 11
-537.992185
 21
-289.785461
 31
0.0
  0
MTEXT
  5
40CC
100
AcDbEntity
  8
0
  6
BYBLOCK
 62
     0
 48
2.0
100
AcDbMText
 10
-698.123378
 20
-317.217011
 30
0.0
 40
20.0
 41
0.0
 71
     5
 72
     1
  1
\A1;\U+2205560
  7
ED
 11
0.965843
 21
0.259129
 31
0.0
  0
INSERT
  5
40CD
100
AcDbEntity
  8
0
  6
BYBLOCK
 62
     0
 48
2.0
100
AcDbBlockReference
  2
_OPEN
 10
-513.846114
 20
-283.307247
 30
0.0
 41
25.0
 42
25.0
 43
25.0
 50
15.018361
  0
POINT
  5
40CE
100
AcDbEntity
  8
DEFPOINTS
  6
BYBLOCK
 62
     0
 48
2.0
100
AcDbPoint
 10
-513.846114
 20
-283.307247
 30
0.0
  0
POINT
  5
40CF
100
AcDbEntity
  8
DEFPOINTS
  6
BYBLOCK
 62
     0
 48
2.0
100
AcDbPoint
 10
-1054.698786
 20
-428.414061
 30
0.0
  0
ENDBLK
  5
40D0
100
AcDbEntity
  8
0
 48
2.0
100
AcDbBlockEnd
  0
BLOCK
  5
40A5
100
AcDbEntity
  8
0
 48
2.0
100
AcDbBlockBegin
  2
*D6
 70
     1
 10
0.0
 20
0.0
 30
0.0
  3
*D6
  1

  0
LINE
  5
40A6
100
AcDbEntity
  8
0
  6
BYBLOCK
 62
     0
 48
2.0
100
AcDbLine
 10
-1086.726154
 20
-658.140507
 30
0.0
 11
-1086.726154
 21
-746.494485
 31
0.0
  0
LINE
  5
40A7
100
AcDbEntity
  8
0
  6
BYBLOCK
 62
     0
 48
2.0
100
AcDbLine
 10
-481.818746
 20
-658.140507
 30
0.0
 11
-481.818746
 21
-746.494485
 31
0.0
  0
LINE
  5
40A8
100
AcDbEntity
  8
0
  6
BYBLOCK
 62
     0
 48
2.0
100
AcDbLine
 10
-1061.726154
 20
-745.244485
 30
0.0
 11
-506.818746
 21
-745.244485
 31
0.0
  0
INSERT
  5
40A9
100
AcDbEntity
  8
0
  6
BYBLOCK
 62
     0
 48
2.0
100
AcDbBlockReference
  2
_OPEN
 10
-1086.726154
 20
-745.244485
 30
0.0
 41
25.0
 42
25.0
 43
25.0
 50
180.0
  0
INSERT
  5
40AA
100
AcDbEntity
  8
0
  6
BYBLOCK
 62
     0
 48
2.0
100
AcDbBlockReference
  2
_OPEN
 10
-481.818746
 20
-745.244485
 30
0.0
 41
25.0
 42
25.0
 43
25.0
  0
MTEXT
  5
40AB
100
AcDbEntity
  8
0
  6
BYBLOCK
 62
     0
 48
2.0
100
AcDbMText
 10
-784.27245
 20
-730.244485
 30
0.0
 40
20.0
 41
0.0
 71
     5
 72
     1
  1
\A1;605
  7
ED
  0
POINT
  5
40AC
100
AcDbEntity
  8
DEFPOINTS
  6
BYBLOCK
 62
     0
 48
2.0
100
AcDbPoint
 10
-1086.726154
 20
-657.515507
 30
0.0
  0
POINT
  5
40AD
100
AcDbEntity
  8
DEFPOINTS
  6
BYBLOCK
 62
     0
 48
2.0
100
AcDbPoint
 10
-481.818746
 20
-657.515507
 30
0.0
  0
POINT
  5
40AE
100
AcDbEntity
  8
DEFPOINTS
  6
BYBLOCK
 62
     0
 48
2.0
100
AcDbPoint
 10
-481.818746
 20
-745.244485
 30
0.0
  0
ENDBLK
  5
40AF
100
AcDbEntity
  8
0
 48
2.0
100
AcDbBlockEnd
  0
BLOCK
  5
409A
100
AcDbEntity
  8
0
 48
2.0
100
AcDbBlockBegin
  2
*D16
 70
     1
 10
0.0
 20
0.0
 30
0.0
  3
*D16
  1

  0
LINE
  5
409B
100
AcDbEntity
  8
0
  6
BYBLOCK
 62
     0
 48
2.0
100
AcDbLine
 10
-1045.014905
 20
-616.225782
 30
0.0
 11
-1045.014905
 21
-700.110654
 31
0.0
  0
LINE
  5
409C
100
AcDbEntity
  8
0
  6
BYBLOCK
 62
     0
 48
2.0
100
AcDbLine
 10
-523.529994
 20
-616.225782
 30
0.0
 11
-523.529994
 21
-700.110654
 31
0.0
  0
LINE
  5
409D
100
AcDbEntity
  8
0
  6
BYBLOCK
 62
     0
 48
2.0
100
AcDbLine
 10
-1020.014905
 20
-698.860654
 30
0.0
 11
-548.529994
 21
-698.860654
 31
0.0
  0
INSERT
  5
409E
100
AcDbEntity
  8
0
  6
BYBLOCK
 62
     0
 48
2.0
100
AcDbBlockReference
  2
_OPEN
 10
-1045.014905
 20
-698.860654
 30
0.0
 41
25.0
 42
25.0
 43
25.0
 50
180.0
  0
INSERT
  5
409F
100
AcDbEntity
  8
0
  6
BYBLOCK
 62
     0
 48
2.0
100
AcDbBlockReference
  2
_OPEN
 10
-523.529994
 20
-698.860654
 30
0.0
 41
25.0
 42
25.0
 43
25.0
  0
MTEXT
  5
40A0
100
AcDbEntity
  8
0
  6
BYBLOCK
 62
     0
 48
2.0
100
AcDbMText
 10
-784.27245
 20
-683.858685
 30
0.0
 40
20.0
 41
0.0
 71
     5
 72
     1
  1
\A1;522
  7
ED
  0
POINT
  5
40A1
100
AcDbEntity
  8
DEFPOINTS
  6
BYBLOCK
 62
     0
 48
2.0
100
AcDbPoint
 10
-1045.014905
 20
-615.600782
 30
0.0
  0
POINT
  5
40A2
100
AcDbEntity
  8
DEFPOINTS
  6
BYBLOCK
 62
     0
 48
2.0
100
AcDbPoint
 10
-523.529994
 20
-615.600782
 30
0.0
  0
POINT
  5
40A3
100
AcDbEntity
  8
DEFPOINTS
  6
BYBLOCK
 62
     0
 48
2.0
100
AcDbPoint
 10
-523.529994
 20
-698.860654
 30
0.0
  0
ENDBLK
  5
40A4
100
AcDbEntity
  8
0
 48
2.0
100
AcDbBlockEnd
  0
BLOCK
  5
40E0
100
AcDbEntity
  8
0
 48
2.0
100
AcDbBlockBegin
  2
*D17
 70
     1
 10
0.0
 20
0.0
 30
0.0
  3
*D17
  1

  0
LINE
  5
40E1
100
AcDbEntity
  8
0
  6
BYBLOCK
 62
     0
 48
2.0
100
AcDbLine
 10
-235.27245
 20
-658.416591
 30
0.0
 11
-235.27245
 21
-746.110654
 31
0.0
  0
LINE
  5
40E2
100
AcDbEntity
  8
0
  6
BYBLOCK
 62
     0
 48
2.0
100
AcDbLine
 10
-207.23445
 20
-658.416591
 30
0.0
 11
-207.23445
 21
-746.110654
 31
0.0
  0
LINE
  5
40E3
100
AcDbEntity
  8
0
  6
BYBLOCK
 62
     0
 48
2.0
100
AcDbLine
 10
-260.27245
 20
-744.860654
 30
0.0
 11
-285.27245
 21
-744.860654
 31
0.0
  0
LINE
  5
40E4
100
AcDbEntity
  8
0
  6
BYBLOCK
 62
     0
 48
2.0
100
AcDbLine
 10
-182.23445
 20
-744.860654
 30
0.0
 11
-124.726576
 21
-744.860654
 31
0.0
  0
LINE
  5
40E5
100
AcDbEntity
  8
0
  6
BYBLOCK
 62
     0
 48
2.0
100
AcDbLine
 10
-235.27245
 20
-744.860654
 30
0.0
 11
-207.23445
 21
-744.860654
 31
0.0
  0
INSERT
  5
40E6
100
AcDbEntity
  8
0
  6
BYBLOCK
 62
     0
 48
2.0
100
AcDbBlockReference
  2
_OPEN
 10
-235.27245
 20
-744.860654
 30
0.0
 41
25.0
 42
25.0
 43
25.0
  0
INSERT
  5
40E7
100
AcDbEntity
  8
0
  6
BYBLOCK
 62
     0
 48
2.0
100
AcDbBlockReference
  2
_OPEN
 10
-207.23445
 20
-744.860654
 30
0.0
 41
25.0
 42
25.0
 43
25.0
 50
180.0
  0
MTEXT
  5
40E8
100
AcDbEntity
  8
0
  6
BYBLOCK
 62
     0
 48
2.0
100
AcDbMText
 10
-140.980513
 20
-729.858685
 30
0.0
 40
20.0
 41
0.0
 71
     5
 72
     1
  1
\A1;28
  7
ED
  0
POINT
  5
40E9
100
AcDbEntity
  8
DEFPOINTS
  6
BYBLOCK
 62
     0
 48
2.0
100
AcDbPoint
 10
-235.27245
 20
-657.791591
 30
0.0
  0
POINT
  5
40EA
100
AcDbEntity
  8
DEFPOINTS
  6
BYBLOCK
 62
     0
 48
2.0
100
AcDbPoint
 10
-207.23445
 20
-657.791591
 30
0.0
  0
POINT
  5
40EB
100
AcDbEntity
  8
DEFPOINTS
  6
BYBLOCK
 62
     0
 48
2.0
100
AcDbPoint
 10
-207.23445
 20
-744.860654
 30
0.0
  0
ENDBLK
  5
40EC
100
AcDbEntity
  8
0
 48
2.0
100
AcDbBlockEnd
  0
BLOCK
  5
410F
100
AcDbEntity
  8
0
 48
2.0
100
AcDbBlockBegin
  2
*D19
 70
     1
 10
0.0
 20
0.0
 30
0.0
  3
*D19
  1

  0
LINE
  5
4110
100
AcDbEntity
  8
0
  6
BYBLOCK
 62
     0
 48
2.0
100
AcDbLine
 10
-242.27245
 20
-658.416591
 30
0.0
 11
-242.27245
 21
-733.110654
 31
0.0
  0
LINE
  5
4111
100
AcDbEntity
  8
0
  6
BYBLOCK
 62
     0
 48
2.0
100
AcDbLine
 10
-196.838826
 20
-609.110073
 30
0.0
 11
-196.838826
 21
-733.110654
 31
0.0
  0
LINE
  5
4112
100
AcDbEntity
  8
0
  6
BYBLOCK
 62
     0
 48
2.0
100
AcDbLine
 10
-267.27245
 20
-731.860654
 30
0.0
 11
-292.27245
 21
-731.860654
 31
0.0
  0
LINE
  5
4113
100
AcDbEntity
  8
0
  6
BYBLOCK
 62
     0
 48
2.0
100
AcDbLine
 10
-171.838826
 20
-731.860654
 30
0.0
 11
-146.838826
 21
-731.860654
 31
0.0
  0
LINE
  5
4114
100
AcDbEntity
  8
0
  6
BYBLOCK
 62
     0
 48
2.0
100
AcDbLine
 10
-242.27245
 20
-731.860654
 30
0.0
 11
-196.838826
 21
-731.860654
 31
0.0
  0
INSERT
  5
4115
100
AcDbEntity
  8
0
  6
BYBLOCK
 62
     0
 48
2.0
100
AcDbBlockReference
  2
_OPEN
 10
-242.27245
 20
-731.860654
 30
0.0
 41
25.0
 42
25.0
 43
25.0
  0
INSERT
  5
4116
100
AcDbEntity
  8
0
  6
BYBLOCK
 62
     0
 48
2.0
100
AcDbBlockReference
  2
_OPEN
 10
-196.838826
 20
-731.860654
 30
0.0
 41
25.0
 42
25.0
 43
25.0
 50
180.0
  0
MTEXT
  5
4117
100
AcDbEntity
  8
0
  6
BYBLOCK
 62
     0
 48
2.0
100
AcDbMText
 10
-219.555638
 20
-716.860654
 30
0.0
 40
20.0
 41
0.0
 71
     5
 72
     1
  1
\A1;45
  7
ED
  0
POINT
  5
4118
100
AcDbEntity
  8
DEFPOINTS
  6
BYBLOCK
 62
     0
 48
2.0
100
AcDbPoint
 10
-242.27245
 20
-657.791591
 30
0.0
  0
POINT
  5
4119
100
AcDbEntity
  8
DEFPOINTS
  6
BYBLOCK
 62
     0
 48
2.0
100
AcDbPoint
 10
-196.838826
 20
-608.485073
 30
0.0
  0
POINT
  5
411A
100
AcDbEntity
  8
DEFPOINTS
  6
BYBLOCK
 62
     0
 48
2.0
100
AcDbPoint
 10
-196.838826
 20
-731.860654
 30
0.0
  0
ENDBLK
  5
411B
100
AcDbEntity
  8
0
 48
2.0
100
AcDbBlockEnd
  0
ENDSEC
  0
SECTION
  2
ENTITIES
  0
TEXT
  5
38DA
100
AcDbEntity
  8
V0-ZBYTEK
  6
CONTINUOUS
 62
   130
100
AcDbText
 10
-422.330475
 20
-895.889022
 30
0.0
 40
24.705
  1
ZALUZIOVA KLAPKA
 72
     1
 11
-271.50645
 21
-895.889022
 31
0.0
100
AcDbText
  0
TEXT
  5
38DB
100
AcDbEntity
  8
V0-ZBYTEK
  6
CONTINUOUS
 62
    51
100
AcDbText
 10
-390.461137
 20
-944.88206
 30
0.0
 40
16.47
  1
ELEKTRICKY OVLADANA
 72
     1
 11
-272.618287
 21
-944.88206
 31
0.0
100
AcDbText
  0
INSERT
  5
3A24
100
AcDbEntity
  8
ASHADE
 62
     1
 48
2.0
100
AcDbBlockReference
  2
AVE_RENDER
 10
784.27245
 20
355.860654
 30
0.0
1001
AVE_RENDER
1002
{
1070
     7
1000
Pref
1070
    30
1070
    20
1070
     1
1070
     0
1000

1070
    10
1070
     1
1070
    10
1040
1.0
1070
     1
1040
0.3
1040
0.7
1040
0.0
1040
10.0
1010
-1.0
1020
-1.0
1030
-1.0
1040
0.3
1070
    49
1070
     0
1070
     0
1010
1.0
1020
1.0
1030
1.0
1040
45.0
1070
     1
1070
     0
1000
WCS
1040
0.0
1070
     0
1040
10.0
1002
}
  0
INSERT
  5
3A25
100
AcDbEntity
  8
ASHADE
 62
     3
 48
2.0
100
AcDbBlockReference
  2
AVE_RENDER
 10
784.27245
 20
355.860654
 30
0.0
1001
AVE_RENDER
1002
{
1070
     0
1000
Full Opt
1070
     0
1070
     1
1070
     1
1070
     1
1070
     0
1070
     0
1070
     0
1070
     1
1070
     1
1040
0.0001
1040
0.0001
1002
}
  0
INSERT
  5
3A26
100
AcDbEntity
  8
ASHADE
 62
     4
 48
2.0
100
AcDbBlockReference
  2
AVE_RENDER
 10
784.27245
 20
355.860654
 30
0.0
1001
AVE_RENDER
1002
{
1070
     0
1000
Quick Opt
1070
     0
1070
     1
1070
     1
1070
     1
1070
     0
1070
     0
1070
     1
1002
}
  0
INSERT
  5
3A27
100
AcDbEntity
  8
ASHADE
 62
     5
 48
2.0
100
AcDbBlockReference
  2
AVE_RENDER
 10
784.27245
 20
355.860654
 30
0.0
1001
AVE_RENDER
1002
{
1070
     1
1000
Scanl Opt
1070
     2
1070
     0
1070
     2
1040
2.0
1040
4.0
1070
     0
1070
     1
1070
     0
1040
0.03
1002
}
  0
INSERT
  5
3A28
100
AcDbEntity
  8
ASHADE
 62
     6
 48
2.0
100
AcDbBlockReference
  2
AVE_RENDER
 10
784.27245
 20
355.860654
 30
0.0
1001
AVE_RENDER
1002
{
1070
     2
1000
Raytr Opt
1070
     2
1070
     0
1070
     2
1040
2.0
1040
4.0
1070
     0
1070
     1
1070
     1
1040
0.03
1070
     3
1040
0.03
1002
}
  0
INSERT
  5
3A29
100
AcDbEntity
  8
ASHADE
 62
     7
 48
2.0
100
AcDbBlockReference
  2
AVE_RENDER
 10
784.27245
 20
355.860654
 30
0.0
1001
AVE_RENDER
1002
{
1070
     0
1000
RFile Opt
1070
     1
1070
   640
1070
   480
1070
 10000
1070
     1
1070
     8
1070
     8
1070
     0
1070
     0
1070
     0
1070
     0
1070
     0
1070
     0
1070
     0
1002
}
  0
INSERT
  5
3A2A
100
AcDbEntity
  8
ASHADE
 62
     8
 48
2.0
100
AcDbBlockReference
  2
AVE_RENDER
 10
784.27245
 20
355.860654
 30
0.0
1001
AVE_RENDER
1002
{
1070
     0
1000
Fog Opt
1070
     0
1070
     0
1040
0.0
1040
1.0
1040
0.0
1040
1.0
1010
0.5
1020
0.5
1030
0.5
1002
}
  0
INSERT
  5
3A2B
100
AcDbEntity
  8
ASHADE
 62
     9
 48
2.0
100
AcDbBlockReference
  2
AVE_RENDER
 10
784.27245
 20
355.860654
 30
0.0
1001
AVE_RENDER
1002
{
1070
     0
1000
BG Opt
1070
     0
1070
     1
1010
0.0
1020
0.0
1030
0.0
1010
1.0
1020
0.0
1030
0.0
1010
0.0
1020
1.0
1030
0.0
1010
0.0
1020
0.0
1030
1.0
1040
0.5
1040
0.33
1040
0.0
1000

1070
     1
1000

1070
     1
1070
     1
1040
1.0
1040
1.0
1040
0.0
1040
0.0
1070
     0
1002
}
  0
INSERT
  5
3A32
100
AcDbEntity
  8
ASHADE
 62
     1
 48
2.0
100
AcDbBlockReference
  2
AVE_GLOBAL
 10
784.27245
 20
355.860654
 30
0.0
1001
AVE_MATERIAL
1002
{
1000
*GLOBAL*
1000
1
1000
Global finish.
1002
{
1002
}
1002
{
1070
    63
1002
{
1002
{
1010
-1.0
1020
-1.0
1030
-1.0
1002
}
1040
0.1
1000

1040
0.0
1002
{
1002
}
1040
0.0
1002
{
1002
}
1040
0.0
1002
}
1002
{
1002
{
1010
-1.0
1020
-1.0
1030
-1.0
1002
}
1040
0.7
1000

1040
0.0
1002
{
1002
}
1040
0.0
1002
{
1002
}
1040
0.0
1002
}
1002
{
1002
{
1010
-1.0
1020
-1.0
1030
-1.0
1002
}
1040
0.2
1000

1040
0.0
1002
{
1002
}
1040
0.0
1002
{
1002
}
1040
0.0
1002
}
1002
{
1070
     0
1002
{
1070
     1
1002
{
1040
1.0
1040
1.0
1000

1040
0.0
1002
{
1002
}
1040
0.0
1002
{
1002
}
1040
0.0
1002
}
1002
}
1040
1.0
1040
0.0
1040
0.0
1002
}
1002
{
1040
1.0
1040
1.0
1000

1040
0.0
1002
{
1002
}
1040
0.0
1002
{
1002
}
1040
0.0
1002
}
1002
{
1040
0.5
1040
1.0
1000

1040
0.0
1002
{
1002
}
1040
0.0
1002
{
1002
}
1040
0.0
1002
}
1002
{
1070
     0
1040
0.0
1002
{
1002
}
1040
1.0
1002
{
1002
}
1040
0.0
1002
}
1002
{
1040
0.0
1002
{
1002
{
1010
0.0
1020
0.0
1030
0.0
1002
}
1040
1.0
1000

1040
0.0
1002
{
1002
}
1040
0.0
1002
{
1002
}
1040
0.0
1002
}
1002
}
1002
{
1002
{
1070
     1
1002
{
1040
0.0
1040
1.0
1000

1040
0.0
1002
{
1002
}
1040
0.0
1002
{
1002
}
1040
0.0
1002
}
1002
}
1040
0.0
1002
{
1002
}
1010
1.0
1020
0.0
1030
0.0
1010
0.0
1020
1.0
1030
0.0
1010
0.0
1020
0.0
1030
1.0
1070
     0
1002
}
1002
{
1002
{
1040
1.0
1040
1.0
1002
{
1070
     1
1002
{
1040
1.0
1040
1.0
1000

1040
0.0
1002
{
1002
}
1040
0.0
1002
{
1002
}
1040
0.0
1002
}
1002
}
1002
}
1070
     0
1040
0.0
1002
{
1002
}
1002
}
1002
{
1002
}
1002
}
1002
{
1071
        3
1070
     3
1070
     0
1002
{
1070
     2
1070
     0
1070
     0
1040
0.0
1002
}
1070
     0
1070
     2
1002
{
1002
}
1002
}
1002
{
1040
8030.0
1040
190.300003
1040
0.305
1040
228.0
1040
545.0
1040
14.0
1040
17.4
1040
0.456
1002
}
1002
}
  0
LINE
  5
3BFE
100
AcDbEntity
  8
V0-OBRYS
  6
CONTINUOUS
 62
    90
100
AcDbLine
 10
-784.27245
 20
-897.860654
 30
0.0
 11
-482.341513
 21
-897.860654
 31
0.0
  0
LINE
  5
3BFF
100
AcDbEntity
  8
V0-OBRYS
  6
CONTINUOUS
 62
    90
100
AcDbLine
 10
-511.26294
 20
-948.125961
 30
0.0
 11
-784.27245
 21
-948.125961
 31
0.0
  0
LINE
  5
3C00
100
AcDbEntity
  8
V0-OBRYS
  6
CONTINUOUS
 62
    90
100
AcDbLine
 10
-1086.203386
 20
-933.408654
 30
0.0
 11
-482.341513
 21
-933.408654
 31
0.0
  0
LINE
  5
3C02
100
AcDbEntity
  8
V0-OBRYS
  6
CONTINUOUS
 62
    90
100
AcDbLine
 10
-784.27245
 20
-897.860654
 30
0.0
 11
-1086.203386
 21
-897.860654
 31
0.0
  0
LINE
  5
3C03
100
AcDbEntity
  8
V0-OBRYS
  6
CONTINUOUS
 62
    90
100
AcDbLine
 10
-1057.281959
 20
-948.125961
 30
0.0
 11
-784.27245
 21
-948.125961
 31
0.0
  0
LINE
  5
3C04
100
AcDbEntity
  8
V0-OBRYS
  6
CONTINUOUS
 62
    90
100
AcDbLine
 10
-1086.203386
 20
-933.408654
 30
0.0
 11
-1086.203386
 21
-897.860654
 31
0.0
  0
LINE
  5
3C05
100
AcDbEntity
  8
V0-OBRYS
  6
CONTINUOUS
 62
    90
100
AcDbLine
 10
-1057.281959
 20
-933.408654
 30
0.0
 11
-1057.281959
 21
-948.125961
 31
0.0
  0
POINT
  5
3C07
100
AcDbEntity
  8
V0-VYPLNE
  6
CONTINUOUS
 62
    52
100
AcDbPoint
 10
-784.27245
 20
-897.860654
 30
0.0
  0
LINE
  5
3C08
100
AcDbEntity
  8
V0-VYPLNE
  6
DASHDOT
 62
    63
 48
2.0
100
AcDbLine
 10
-784.27245
 20
-877.097022
 30
0.0
 11
-784.27245
 21
-954.393621
 31
0.0
  0
LINE
  5
3C09
100
AcDbEntity
  8
V0-VYPLNE
  6
CONTINUOUS
 62
    52
100
AcDbLine
 10
-812.193877
 20
-925.2473
 30
0.0
 11
-784.27245
 21
-925.2473
 31
0.0
  0
LINE
  5
3C0A
100
AcDbEntity
  8
V0-VYPLNE
  6
CONTINUOUS
 62
    52
100
AcDbLine
 10
-784.27245
 20
-945.215903
 30
0.0
 11
-812.193877
 21
-925.2473
 31
0.0
  0
LINE
  5
3C0B
100
AcDbEntity
  8
V0-VYPLNE
  6
CONTINUOUS
 62
    52
100
AcDbLine
 10
-784.27245
 20
-945.215903
 30
0.0
 11
-756.351023
 21
-925.2473
 31
0.0
  0
LINE
  5
3C0C
100
AcDbEntity
  8
V0-VYPLNE
  6
CONTINUOUS
 62
    52
100
AcDbLine
 10
-756.351023
 20
-925.2473
 30
0.0
 11
-784.27245
 21
-925.2473
 31
0.0
  0
LINE
  5
3C0D
100
AcDbEntity
  8
V0-OBRYS
  6
CONTINUOUS
 62
    90
100
AcDbLine
 10
-482.341513
 20
-933.408654
 30
0.0
 11
-482.341513
 21
-897.860654
 31
0.0
  0
LINE
  5
3C0E
100
AcDbEntity
  8
V0-OBRYS
  6
CONTINUOUS
 62
    90
100
AcDbLine
 10
-511.26294
 20
-933.408654
 30
0.0
 11
-511.26294
 21
-948.125961
 31
0.0
  0
ELLIPSE
  5
3C10
100
AcDbEntity
  8
V0-OBRYS
  6
CONTINUOUS
 62
    90
100
AcDbEllipse
 10
-201.808758
 20
-136.046053
 30
0.0
 11
0.0000000000000556
 21
9.307142370573956
 31
0.0
210
0.0
220
0.0
230
-1.0
 40
0.536378
 41
1.007059691540281
 42
2.356660097223434
  0
LINE
  5
3C11
100
AcDbEntity
  8
V0-OBRYS
  6
CONTINUOUS
 62
    90
100
AcDbLine
 10
-242.27245
 20
-355.860654
 30
0.0
 11
-242.27245
 21
-53.929717
 31
0.0
  0
LINE
  5
3C13
100
AcDbEntity
  8
V0-VYPLNE
  6
DASHED
 62
    56
 48
2.0
100
AcDbLine
 10
-220.861486
 20
-86.329497
 30
0.0
 11
-220.861486
 21
-674.606216
 31
0.0
  0
LINE
  5
3C14
100
AcDbEntity
  8
V0-OBRYS
  6
CONTINUOUS
 62
    90
100
AcDbLine
 10
-207.23445
 20
-53.929717
 30
0.0
 11
-207.23445
 21
-657.791591
 31
0.0
  0
LINE
  5
3C15
100
AcDbEntity
  8
V0-OBRYS
  6
CONTINUOUS
 62
    90
100
AcDbLine
 10
-242.27245
 20
-355.860654
 30
0.0
 11
-242.27245
 21
-657.791591
 31
0.0
  0
LINE
  5
3C34
100
AcDbEntity
  8
V0-OBRYS
  6
CONTINUOUS
 62
    90
100
AcDbLine
 10
-207.23445
 20
-657.791591
 30
0.0
 11
-242.27245
 21
-657.791591
 31
0.0
  0
LINE
  5
3C36
100
AcDbEntity
  8
V0-VYPLNE
  6
DASHED
 62
    56
 48
2.0
100
AcDbLine
 10
-214.291007
 20
-385.587779
 30
0.0
 11
-208.452037
 21
-402.807774
 31
0.0
  0
LINE
  5
3C39
100
AcDbEntity
  8
V0-OBRYS
  6
CONTINUOUS
 62
    90
100
AcDbLine
 10
-207.035307
 20
-583.821626
 30
0.0
 11
-197.589071
 21
-602.634677
 31
0.0
  0
LINE
  5
3C3A
100
AcDbEntity
  8
V0-OBRYS
  6
CONTINUOUS
 62
    90
100
AcDbLine
 10
-198.280418
 20
-614.19214
 30
0.0
 11
-205.092342
 21
-621.167342
 31
0.0
  0
ELLIPSE
  5
3C3B
100
AcDbEntity
  8
V0-OBRYS
  6
CONTINUOUS
 62
    90
100
AcDbEllipse
 10
-201.808758
 20
-607.607933
 30
0.0
 11
0.0000000000001825
 21
9.307142370573885
 31
0.0
210
0.0
220
0.0
230
-1.0
 40
0.536378
 41
1.007059691540273
 42
2.356660097223453
  0
ELLIPSE
  5
3C3C
100
AcDbEntity
  8
V0-OBRYS
  6
CONTINUOUS
 62
    90
100
AcDbEllipse
 10
-201.808758
 20
-548.662698
 30
0.0
 11
0.0000000000001232
 21
9.307142370573826
 31
0.0
210
0.0
220
0.0
230
-1.0
 40
0.536378
 41
1.007059691540258
 42
2.356660097223427
  0
ELLIPSE
  5
3C3D
100
AcDbEntity
  8
V0-VYPLNE
  6
DASHED
 62
    56
 48
2.0
100
AcDbEllipse
 10
-212.569375
 20
-568.034514
 30
0.0
 11
-0.0000000000002641
 21
2.638296627020536
 31
0.0
210
0.0
220
0.0
230
-1.0
 40
0.536378
 41
-0.0000000000000335
 42
6.283185307179552
  0
ELLIPSE
  5
3C3E
100
AcDbEntity
  8
V0-VYPLNE
  6
DASHED
 62
    56
 48
2.0
100
AcDbEllipse
 10
-212.569375
 20
-568.034514
 30
0.0
 11
-0.0000000000002641
 21
2.638296627020536
 31
0.0
210
0.0
220
0.0
230
-1.0
 40
0.536378
 41
-0.0000000000000335
 42
6.283185307179552
  0
LINE
  5
3C3F
100
AcDbEntity
  8
V0-VYPLNE
  6
DASHED
 62
    56
 48
2.0
100
AcDbLine
 10
-214.291007
 20
-562.423484
 30
0.0
 11
-208.452037
 21
-579.643479
 31
0.0
  0
LINE
  5
3C40
100
AcDbEntity
  8
V0-VYPLNE
  6
DASHED
 62
    56
 48
2.0
100
AcDbLine
 10
-215.929467
 20
-559.480092
 30
0.0
 11
-220.720093
 21
-559.480092
 31
0.0
  0
LINE
  5
3C41
100
AcDbEntity
  8
V0-OBRYS
  6
CONTINUOUS
 62
    90
100
AcDbLine
 10
-198.280418
 20
-555.246905
 30
0.0
 11
-205.092342
 21
-562.222107
 31
0.0
  0
LINE
  5
3C42
100
AcDbEntity
  8
V0-OBRYS
  6
CONTINUOUS
 62
    90
100
AcDbLine
 10
-207.035307
 20
-524.876391
 30
0.0
 11
-197.589071
 21
-543.689442
 31
0.0
  0
LINE
  5
3C43
100
AcDbEntity
  8
V0-VYPLNE
  6
DASHED
 62
    56
 48
2.0
100
AcDbLine
 10
-214.291007
 20
-444.533014
 30
0.0
 11
-208.452037
 21
-461.753009
 31
0.0
  0
ELLIPSE
  5
3C44
100
AcDbEntity
  8
V0-OBRYS
  6
CONTINUOUS
 62
    90
100
AcDbEllipse
 10
-201.808758
 20
-489.717463
 30
0.0
 11
0.0000000000001929
 21
9.307142370573654
 31
0.0
210
0.0
220
0.0
230
-1.0
 40
0.536378
 41
1.007059691540271
 42
2.356660097223443
  0
ELLIPSE
  5
3C45
100
AcDbEntity
  8
V0-VYPLNE
  6
DASHED
 62
    56
 48
2.0
100
AcDbEllipse
 10
-212.569375
 20
-509.089279
 30
0.0
 11
-0.0000000000000792
 21
2.638296627020536
 31
0.0
210
0.0
220
0.0
230
-1.0
 40
0.536378
 41
-0.0000000000000762
 42
6.283185307179509
  0
LINE
  5
3C46
100
AcDbEntity
  8
V0-VYPLNE
  6
DASHED
 62
    56
 48
2.0
100
AcDbLine
 10
-214.291007
 20
-503.478249
 30
0.0
 11
-208.452037
 21
-520.698244
 31
0.0
  0
LINE
  5
3C47
100
AcDbEntity
  8
V0-VYPLNE
  6
DASHED
 62
    56
 48
2.0
100
AcDbLine
 10
-215.929467
 20
-500.534857
 30
0.0
 11
-220.720093
 21
-500.534857
 31
0.0
  0
LINE
  5
3C48
100
AcDbEntity
  8
V0-OBRYS
  6
CONTINUOUS
 62
    90
100
AcDbLine
 10
-198.280418
 20
-496.30167
 30
0.0
 11
-205.092342
 21
-503.276872
 31
0.0
  0
LINE
  5
3C49
100
AcDbEntity
  8
V0-OBRYS
  6
CONTINUOUS
 62
    90
100
AcDbLine
 10
-207.035307
 20
-465.931156
 30
0.0
 11
-197.589071
 21
-484.744207
 31
0.0
  0
ELLIPSE
  5
3C4A
100
AcDbEntity
  8
V0-OBRYS
  6
CONTINUOUS
 62
    90
100
AcDbEllipse
 10
-201.808758
 20
-430.772228
 30
0.0
 11
0.0000000000001874
 21
9.307142370574032
 31
0.0
210
0.0
220
0.0
230
-1.0
 40
0.536378
 41
1.007059691540297
 42
2.356660097223428
  0
ELLIPSE
  5
3C4B
100
AcDbEntity
  8
V0-VYPLNE
  6
DASHED
 62
    56
 48
2.0
100
AcDbEllipse
 10
-212.569375
 20
-450.144044
 30
0.0
 11
-0.0000000000002492
 21
2.638296627020473
 31
0.0
210
0.0
220
0.0
230
-1.0
 40
0.536378
 41
0.0000000000000437
 42
6.283185307179629
  0
LINE
  5
3C4C
100
AcDbEntity
  8
V0-VYPLNE
  6
DASHED
 62
    56
 48
2.0
100
AcDbLine
 10
-215.929467
 20
-441.589622
 30
0.0
 11
-220.720093
 21
-441.589622
 31
0.0
  0
LINE
  5
3C4D
100
AcDbEntity
  8
V0-OBRYS
  6
CONTINUOUS
 62
    90
100
AcDbLine
 10
-198.280418
 20
-437.356435
 30
0.0
 11
-205.092342
 21
-444.331637
 31
0.0
  0
LINE
  5
3C4E
100
AcDbEntity
  8
V0-OBRYS
  6
CONTINUOUS
 62
    90
100
AcDbLine
 10
-207.035307
 20
-406.985921
 30
0.0
 11
-197.589071
 21
-425.798972
 31
0.0
  0
LINE
  5
3C51
100
AcDbEntity
  8
V0-VYPLNE
  6
DASHED
 62
    56
 48
2.0
100
AcDbLine
 10
-214.291007
 20
-267.697309
 30
0.0
 11
-208.452037
 21
-284.917304
 31
0.0
  0
ELLIPSE
  5
3C52
100
AcDbEntity
  8
V0-VYPLNE
  6
DASHED
 62
    56
 48
2.0
100
AcDbEllipse
 10
-212.569375
 20
-332.253574
 30
0.0
 11
0.0000000000000322
 21
2.638296627020536
 31
0.0
210
0.0
220
0.0
230
-1.0
 40
0.536378
 41
-0.0000000000000666
 42
6.283185307179519
  0
LINE
  5
3C53
100
AcDbEntity
  8
V0-VYPLNE
  6
DASHED
 62
    56
 48
2.0
100
AcDbLine
 10
-214.291007
 20
-326.642544
 30
0.0
 11
-208.452037
 21
-343.862539
 31
0.0
  0
POINT
  5
3C54
100
AcDbEntity
  8
V0-VYPLNE
  6
CONTINUOUS
 62
    52
100
AcDbPoint
 10
-242.27245
 20
-355.860654
 30
0.0
  0
POINT
  5
3C55
100
AcDbEntity
  8
V0-VYPLNE
  6
CONTINUOUS
 62
    52
100
AcDbPoint
 10
-242.27245
 20
-355.860654
 30
0.0
  0
LINE
  5
3C56
100
AcDbEntity
  8
V0-OBRYS
  6
CONTINUOUS
 62
    90
100
AcDbLine
 10
-207.035307
 20
-348.040686
 30
0.0
 11
-197.589071
 21
-366.853737
 31
0.0
  0
ELLIPSE
  5
3C57
100
AcDbEntity
  8
V0-VYPLNE
  6
DASHED
 62
    56
 48
2.0
100
AcDbEllipse
 10
-212.569375
 20
-391.198809
 30
0.0
 11
-0.0000000000001
 21
2.638296627020474
 31
0.0
210
0.0
220
0.0
230
-1.0
 40
0.536378
 41
-0.0000000000000175
 42
6.283185307179568
  0
LINE
  5
3C58
100
AcDbEntity
  8
V0-VYPLNE
  6
DASHED
 62
    56
 48
2.0
100
AcDbLine
 10
-215.929467
 20
-382.644387
 30
0.0
 11
-220.720093
 21
-382.644387
 31
0.0
  0
ELLIPSE
  5
3C59
100
AcDbEntity
  8
V0-OBRYS
  6
CONTINUOUS
 62
    90
100
AcDbEllipse
 10
-201.808758
 20
-371.826993
 30
0.0
 11
0.0000000000001629
 21
9.307142370573766
 31
0.0
210
0.0
220
0.0
230
-1.0
 40
0.536378
 41
1.007059691540288
 42
2.356660097223432
  0
LINE
  5
3C5A
100
AcDbEntity
  8
V0-OBRYS
  6
CONTINUOUS
 62
    90
100
AcDbLine
 10
-198.280418
 20
-378.4112
 30
0.0
 11
-205.092342
 21
-385.386402
 31
0.0
  0
LINE
  5
3C5B
100
AcDbEntity
  8
V0-OBRYS
  6
CONTINUOUS
 62
    90
100
AcDbLine
 10
-207.035307
 20
-289.095451
 30
0.0
 11
-197.589071
 21
-307.908502
 31
0.0
  0
LINE
  5
3C5C
100
AcDbEntity
  8
V0-VYPLNE
  6
DASHED
 62
    56
 48
2.0
100
AcDbLine
 10
-215.929467
 20
-323.699152
 30
0.0
 11
-220.720093
 21
-323.699152
 31
0.0
  0
LINE
  5
3C5D
100
AcDbEntity
  8
V0-OBRYS
  6
CONTINUOUS
 62
    90
100
AcDbLine
 10
-198.280418
 20
-319.465965
 30
0.0
 11
-205.092342
 21
-326.441167
 31
0.0
  0
ELLIPSE
  5
3C5E
100
AcDbEntity
  8
V0-OBRYS
  6
CONTINUOUS
 62
    90
100
AcDbEllipse
 10
-201.808758
 20
-312.881758
 30
0.0
 11
0.0000000000001953
 21
9.307142370573743
 31
0.0
210
0.0
220
0.0
230
-1.0
 40
0.536378
 41
1.00705969154027
 42
2.356660097223449
  0
ELLIPSE
  5
3C5F
100
AcDbEntity
  8
V0-VYPLNE
  6
DASHED
 62
    56
 48
2.0
100
AcDbEllipse
 10
-212.569375
 20
-273.308339
 30
0.0
 11
-0.0000000000002146
 21
2.638296627020536
 31
0.0
210
0.0
220
0.0
230
-1.0
 40
0.536378
 41
0.0000000000000633
 42
6.283185307179649
  0
LINE
  5
3C60
100
AcDbEntity
  8
V0-OBRYS
  6
CONTINUOUS
 62
    90
100
AcDbLine
 10
-198.280418
 20
-201.575495
 30
0.0
 11
-205.092342
 21
-208.550697
 31
0.0
  0
LINE
  5
3C61
100
AcDbEntity
  8
V0-OBRYS
  6
CONTINUOUS
 62
    90
100
AcDbLine
 10
-207.035307
 20
-230.150216
 30
0.0
 11
-197.589071
 21
-248.963267
 31
0.0
  0
LINE
  5
3C62
100
AcDbEntity
  8
V0-VYPLNE
  6
DASHED
 62
    56
 48
2.0
100
AcDbLine
 10
-215.929467
 20
-264.753917
 30
0.0
 11
-220.720093
 21
-264.753917
 31
0.0
  0
LINE
  5
3C63
100
AcDbEntity
  8
V0-OBRYS
  6
CONTINUOUS
 62
    90
100
AcDbLine
 10
-198.280418
 20
-260.52073
 30
0.0
 11
-205.092342
 21
-267.495932
 31
0.0
  0
ELLIPSE
  5
3C64
100
AcDbEntity
  8
V0-OBRYS
  6
CONTINUOUS
 62
    90
100
AcDbEllipse
 10
-201.808758
 20
-253.936523
 30
0.0
 11
0.0000000000001577
 21
9.307142370573869
 31
0.0
210
0.0
220
0.0
230
-1.0
 40
0.536378
 41
1.007059691540295
 42
2.356660097223439
  0
ELLIPSE
  5
3C65
100
AcDbEntity
  8
V0-VYPLNE
  6
DASHED
 62
    56
 48
2.0
100
AcDbEllipse
 10
-212.569375
 20
-214.363103
 30
0.0
 11
-0.0000000000002408
 21
2.638296627020442
 31
0.0
210
0.0
220
0.0
230
-1.0
 40
0.536378
 41
0.000000000000038
 42
6.283185307179624
  0
LINE
  5
3C66
100
AcDbEntity
  8
V0-VYPLNE
  6
DASHED
 62
    56
 48
2.0
100
AcDbLine
 10
-214.291007
 20
-208.752074
 30
0.0
 11
-208.452037
 21
-225.972069
 31
0.0
  0
LINE
  5
3C67
100
AcDbEntity
  8
V0-VYPLNE
  6
DASHED
 62
    56
 48
2.0
100
AcDbLine
 10
-215.929467
 20
-205.808682
 30
0.0
 11
-220.720093
 21
-205.808682
 31
0.0
  0
LINE
  5
3C68
100
AcDbEntity
  8
V0-OBRYS
  6
CONTINUOUS
 62
    90
100
AcDbLine
 10
-207.035307
 20
-171.204981
 30
0.0
 11
-197.589071
 21
-190.018032
 31
0.0
  0
ELLIPSE
  5
3C69
100
AcDbEntity
  8
V0-OBRYS
  6
CONTINUOUS
 62
    90
100
AcDbEllipse
 10
-201.808758
 20
-194.991288
 30
0.0
 11
0.0000000000000483
 21
9.307142370573899
 31
0.0
210
0.0
220
0.0
230
-1.0
 40
0.536378
 41
1.007059691540274
 42
2.356660097223441
  0
ELLIPSE
  5
3C6A
100
AcDbEntity
  8
V0-VYPLNE
  6
DASHED
 62
    56
 48
2.0
100
AcDbEllipse
 10
-212.569375
 20
-155.417868
 30
0.0
 11
-0.0000000000002332
 21
2.638296627020411
 31
0.0
210
0.0
220
0.0
230
-1.0
 40
0.536378
 41
0.0000000000000326
 42
6.283185307179619
  0
LINE
  5
3C6B
100
AcDbEntity
  8
V0-VYPLNE
  6
DASHED
 62
    56
 48
2.0
100
AcDbLine
 10
-214.291007
 20
-149.806839
 30
0.0
 11
-208.452037
 21
-167.026834
 31
0.0
  0
LINE
  5
3C6C
100
AcDbEntity
  8
V0-VYPLNE
  6
DASHED
 62
    56
 48
2.0
100
AcDbLine
 10
-215.929467
 20
-146.863447
 30
0.0
 11
-220.720093
 21
-146.863447
 31
0.0
  0
LINE
  5
3C6D
100
AcDbEntity
  8
V0-OBRYS
  6
CONTINUOUS
 62
    90
100
AcDbLine
 10
-198.280418
 20
-142.63026
 30
0.0
 11
-205.092342
 21
-149.605462
 31
0.0
  0
LINE
  5
3C6F
100
AcDbEntity
  8
V0-OBRYS
  6
CONTINUOUS
 62
    90
100
AcDbLine
 10
-207.035307
 20
-112.259746
 30
0.0
 11
-197.589071
 21
-131.072797
 31
0.0
  0
ELLIPSE
  5
3C70
100
AcDbEntity
  8
V0-VYPLNE
  6
DASHED
 62
    56
 48
2.0
100
AcDbEllipse
 10
-212.569375
 20
-96.472633
 30
0.0
 11
-0.0000000000002255
 21
2.63829662702038
 31
0.0
210
0.0
220
0.0
230
-0.9999999999999998
 40
0.536378
 41
0.0000000000000711
 42
6.283185307179657
  0
LINE
  5
3C71
100
AcDbEntity
  8
V0-VYPLNE
  6
DASHED
 62
    56
 48
2.0
100
AcDbLine
 10
-214.291007
 20
-90.861604
 30
0.0
 11
-208.452037
 21
-108.081599
 31
0.0
  0
LINE
  5
3C72
100
AcDbEntity
  8
V0-VYPLNE
  6
DASHED
 62
    56
 48
2.0
100
AcDbLine
 10
-215.929467
 20
-87.918212
 30
0.0
 11
-220.720093
 21
-87.918212
 31
0.0
  0
LINE
  5
3C73
100
AcDbEntity
  8
V0-OBRYS
  6
CONTINUOUS
 62
    90
100
AcDbLine
 10
-207.23445
 20
-53.929717
 30
0.0
 11
-242.27245
 21
-53.929717
 31
0.0
  0
TEXT
  5
3C8C
100
AcDbEntity
  8
V0-NAZVY
  6
CONTINUOUS
 62
   210
100
AcDbText
 10
-905.810216
 20
-851.911185
 30
0.0
 40
38.583418
  1
PRG-560W
 72
     1
 11
-784.27245
 21
-851.911185
 31
0.0
100
AcDbText
  0
TEXT
  5
3C8D
100
AcDbEntity
  8
V0-NAZVY
  6
CONTINUOUS
 62
   210
100
AcDbText
 10
-140.501918
 20
-479.59442
 30
0.0
 40
38.583418
  1
PRG-560W
 50
90.0
 72
     1
 11
-140.501918
 21
-358.056654
 31
0.0
100
AcDbText
  0
TEXT
  5
3C8E
100
AcDbEntity
  8
V0-NAZVY
  6
CONTINUOUS
 62
   210
100
AcDbText
 10
-383.162216
 20
-854.107185
 30
0.0
 40
38.583418
  1
PRG-560W
 72
     1
 11
-261.62445
 21
-854.107185
 31
0.0
100
AcDbText
  0
CIRCLE
  5
3D6E
100
AcDbEntity
  8
V0-VYPLNE
  6
DASHED
 62
    56
 48
2.0
100
AcDbCircle
 10
-784.27245
 20
-355.860654
 30
0.0
 40
279.99
  0
TEXT
  5
3D6F
100
AcDbEntity
  8
V0-NAZVY
  6
CONTINUOUS
 62
   210
100
AcDbText
 10
-905.810216
 20
-294.127185
 30
0.0
 40
38.583418
  1
PRG-560W
 72
     1
 11
-784.27245
 21
-294.127185
 31
0.0
100
AcDbText
  0
DIMENSION
  5
3D70
100
AcDbEntity
  8
V0-VYPLNE
  6
CONTINUOUS
 62
    41
100
AcDbDimension
  2
*D3
 10
-438.338869
 20
-600.103109
 30
0.0
 11
-453.338869
 21
-355.860654
 31
0.0
 70
    32
  3
ED2
100
AcDbAlignedDimension
 13
-511.745252
 23
-111.618198
 33
0.0
 14
-518.333252
 24
-600.103109
 34
0.0
 50
90.0
100
AcDbRotatedDimension
1001
ACAD
1000
DSTYLE
1002
{
1070
    40
1040
1.0
1002
}
  0
DIMENSION
  5
3D71
100
AcDbEntity
  8
V0-VYPLNE
  6
CONTINUOUS
 62
    41
100
AcDbDimension
  2
*D4
 10
-394.678341
 20
-658.314358
 30
0.0
 11
-409.678341
 21
-355.860654
 31
0.0
 70
    32
  3
ED2
100
AcDbAlignedDimension
 13
-482.617597
 23
-53.40695
 33
0.0
 14
-482.617597
 24
-658.314358
 34
0.0
 50
90.0
100
AcDbRotatedDimension
1001
ACAD
1000
DSTYLE
1002
{
1070
    40
1040
1.0
1002
}
  0
LINE
  5
3D72
100
AcDbEntity
  8
V0-OBRYS
  6
CONTINUOUS
 62
    90
100
AcDbLine
 10
-481.818746
 20
-355.860654
 30
0.0
 11
-481.818746
 21
-54.205801
 31
0.0
  0
LINE
  5
3D73
100
AcDbEntity
  8
V0-OBRYS
  6
CONTINUOUS
 62
    90
100
AcDbLine
 10
-507.48861
 20
-355.860654
 30
0.0
 11
-507.48861
 21
-85.093854
 31
0.0
  0
LINE
  5
3D74
100
AcDbEntity
  8
V0-OBRYS
  6
CONTINUOUS
 62
    90
100
AcDbLine
 10
-1061.05629
 20
-355.860654
 30
0.0
 11
-1061.05629
 21
-85.093854
 31
0.0
  0
LINE
  5
3D75
100
AcDbEntity
  8
V0-OBRYS
  6
CONTINUOUS
 62
    90
100
AcDbLine
 10
-1086.726154
 20
-355.860654
 30
0.0
 11
-1086.726154
 21
-54.205801
 31
0.0
  0
DIMENSION
  5
3D76
100
AcDbEntity
  8
V0-VYPLNE
  6
CONTINUOUS
 62
    41
 48
2.0
100
AcDbDimension
  2
*D5
 10
-1054.698786
 20
-428.414061
 30
0.0
 11
-694.23645
 21
-331.704654
 31
0.0
 70
   163
  3
ED2
100
AcDbDiametricDimension
 15
-513.846114
 25
-283.307247
 35
0.0
 40
0.0
1001
ACAD
1000
DSTYLE
1002
{
1070
    40
1040
1.0
1002
}
  0
DIMENSION
  5
3D77
100
AcDbEntity
  8
V0-VYPLNE
  6
CONTINUOUS
 62
    41
100
AcDbDimension
  2
*D6
 10
-481.818746
 20
-745.244485
 30
0.0
 11
-784.27245
 21
-730.244485
 31
0.0
 70
    32
  3
ED2
100
AcDbAlignedDimension
 13
-1086.726154
 23
-657.515507
 33
0.0
 14
-481.818746
 24
-657.515507
 34
0.0
100
AcDbRotatedDimension
1001
ACAD
1000
DSTYLE
1002
{
1070
    40
1040
1.0
1002
}
  0
LINE
  5
3D79
100
AcDbEntity
  8
V0-OBRYS
  6
CONTINUOUS
 62
    90
100
AcDbLine
 10
-482.617597
 20
-658.314358
 30
0.0
 11
-784.27245
 21
-658.314358
 31
0.0
  0
LINE
  5
3D7A
100
AcDbEntity
  8
V0-OBRYS
  6
CONTINUOUS
 62
    90
100
AcDbLine
 10
-784.27245
 20
-632.644494
 30
0.0
 11
-513.50565
 21
-632.644494
 31
0.0
  0
LINE
  5
3D7B
100
AcDbEntity
  8
V0-OBRYS
  6
CONTINUOUS
 62
    90
100
AcDbLine
 10
-1061.05629
 20
-383.756465
 30
0.0
 11
-507.48861
 21
-383.756465
 31
0.0
  0
LINE
  5
3D7C
100
AcDbEntity
  8
V0-OBRYS
  6
CONTINUOUS
 62
    90
100
AcDbLine
 10
-1061.05629
 20
-442.647622
 30
0.0
 11
-507.48861
 21
-442.647622
 31
0.0
  0
LINE
  5
3D7D
100
AcDbEntity
  8
V0-OBRYS
  6
CONTINUOUS
 62
    90
100
AcDbLine
 10
-1061.05629
 20
-501.538779
 30
0.0
 11
-507.48861
 21
-501.538779
 31
0.0
  0
LINE
  5
3D7E
100
AcDbEntity
  8
V0-OBRYS
  6
CONTINUOUS
 62
    90
100
AcDbLine
 10
-1061.05629
 20
-560.429935
 30
0.0
 11
-507.48861
 21
-560.429935
 31
0.0
  0
LINE
  5
3D7F
100
AcDbEntity
  8
V0-VYPLNE
  6
DASHDOT
 62
    63
 48
3.0
100
AcDbLine
 10
-1114.318876
 20
-355.860654
 30
0.0
 11
-472.452897
 21
-355.860654
 31
0.0
  0
LINE
  5
3D80
100
AcDbEntity
  8
V0-OBRYS
  6
CONTINUOUS
 62
    90
100
AcDbLine
 10
-1085.927303
 20
-658.314358
 30
0.0
 11
-784.27245
 21
-658.314358
 31
0.0
  0
LINE
  5
3D81
100
AcDbEntity
  8
V0-OBRYS
  6
CONTINUOUS
 62
    90
100
AcDbLine
 10
-784.27245
 20
-632.644494
 30
0.0
 11
-1055.03925
 21
-632.644494
 31
0.0
  0
LINE
  5
3D82
100
AcDbEntity
  8
V0-OBRYS
  6
CONTINUOUS
 62
    90
100
AcDbLine
 10
-1057.031492
 20
-324.865308
 30
0.0
 11
-778.461121
 21
-324.865308
 31
0.0
  0
LINE
  5
3D83
100
AcDbEntity
  8
V0-OBRYS
  6
CONTINUOUS
 62
    90
100
AcDbLine
 10
-1086.726154
 20
-355.860654
 30
0.0
 11
-1086.726154
 21
-657.515507
 31
0.0
  0
LINE
  5
3D84
100
AcDbEntity
  8
V0-OBRYS
  6
CONTINUOUS
 62
    90
100
AcDbLine
 10
-1061.05629
 20
-355.860654
 30
0.0
 11
-1061.05629
 21
-626.627454
 31
0.0
  0
ARC
  5
3D85
100
AcDbEntity
  8
V0-OBRYS
  6
CONTINUOUS
 62
    90
100
AcDbCircle
 10
-1055.03925
 20
-626.627454
 30
0.0
 40
6.01704
100
AcDbArc
 50
180.0
 51
270.0
  0
LINE
  5
3D86
100
AcDbEntity
  8
V0-VYPLNE
  6
DASHDOT
 62
    63
 48
2.0
100
AcDbLine
 10
-784.27245
 20
-306.268101
 30
0.0
 11
-784.27245
 21
-643.969731
 31
0.0
  0
LINE
  5
3D87
100
AcDbEntity
  8
V0-VYPLNE
  6
DASHDOT
 62
    63
 48
2.0
100
AcDbLine
 10
-1045.014905
 20
-615.600782
 30
0.0
 11
-1045.014905
 21
-587.704971
 31
0.0
  0
LINE
  5
3D88
100
AcDbEntity
  8
V0-VYPLNE
  6
DASHDOT
 62
    63
 48
2.0
100
AcDbLine
 10
-1066.711647
 20
-600.103109
 30
0.0
 11
-1026.417698
 21
-600.103109
 31
0.0
  0
CIRCLE
  5
3D89
100
AcDbEntity
  8
V0-OBRYS
  6
CONTINUOUS
 62
    90
100
AcDbCircle
 10
-1045.014905
 20
-600.103109
 30
0.0
 40
7.748836
  0
POINT
  5
3D8A
100
AcDbEntity
  8
V0-VYPLNE
  6
CONTINUOUS
 62
    52
100
AcDbPoint
 10
-784.27245
 20
-355.860654
 30
0.0
  0
LINE
  5
3D8B
100
AcDbEntity
  8
V0-OBRYS
  6
CONTINUOUS
 62
    90
100
AcDbLine
 10
-481.818746
 20
-355.860654
 30
0.0
 11
-481.818746
 21
-657.515507
 31
0.0
  0
LINE
  5
3D8C
100
AcDbEntity
  8
V0-OBRYS
  6
CONTINUOUS
 62
    90
100
AcDbLine
 10
-507.48861
 20
-355.860654
 30
0.0
 11
-507.48861
 21
-626.627454
 31
0.0
  0
CIRCLE
  5
3D8D
100
AcDbEntity
  8
V0-OBRYS
  6
CONTINUOUS
 62
    90
100
AcDbCircle
 10
-523.529994
 20
-600.103109
 30
0.0
 40
7.748836
  0
LINE
  5
3D8E
100
AcDbEntity
  8
V0-VYPLNE
  6
DASHDOT
 62
    63
 48
2.0
100
AcDbLine
 10
-518.333252
 20
-600.103109
 30
0.0
 11
-558.627202
 21
-600.103109
 31
0.0
  0
LINE
  5
3D8F
100
AcDbEntity
  8
V0-VYPLNE
  6
DASHDOT
 62
    63
 48
2.0
100
AcDbLine
 10
-523.529994
 20
-615.600782
 30
0.0
 11
-523.529994
 21
-587.704971
 31
0.0
  0
ARC
  5
3D90
100
AcDbEntity
  8
V0-OBRYS
  6
CONTINUOUS
 62
    90
100
AcDbCircle
 10
-513.50565
 20
-626.627454
 30
0.0
 40
6.01704
100
AcDbArc
 50
270.0
 51
0.0
  0
LINE
  5
3D91
100
AcDbEntity
  8
V0-OBRYS
  6
CONTINUOUS
 62
    90
100
AcDbLine
 10
-643.565101
 20
-324.865308
 30
0.0
 11
-507.48861
 21
-324.865308
 31
0.0
  0
LINE
  5
3D92
100
AcDbEntity
  8
V0-OBRYS
  6
CONTINUOUS
 62
    90
100
AcDbLine
 10
-482.617597
 20
-53.40695
 30
0.0
 11
-784.27245
 21
-53.40695
 31
0.0
  0
LINE
  5
3D93
100
AcDbEntity
  8
V0-OBRYS
  6
CONTINUOUS
 62
    90
100
AcDbLine
 10
-784.27245
 20
-79.076814
 30
0.0
 11
-513.50565
 21
-79.076814
 31
0.0
  0
LINE
  5
3D94
100
AcDbEntity
  8
V0-OBRYS
  6
CONTINUOUS
 62
    90
100
AcDbLine
 10
-1061.05629
 20
-148.191838
 30
0.0
 11
-507.48861
 21
-148.191838
 31
0.0
  0
LINE
  5
3D95
100
AcDbEntity
  8
V0-OBRYS
  6
CONTINUOUS
 62
    90
100
AcDbLine
 10
-1061.05629
 20
-207.082995
 30
0.0
 11
-507.48861
 21
-207.082995
 31
0.0
  0
LINE
  5
3D96
100
AcDbEntity
  8
V0-OBRYS
  6
CONTINUOUS
 62
    90
100
AcDbLine
 10
-1057.031492
 20
-265.974151
 30
0.0
 11
-926.85104
 21
-265.974151
 31
0.0
  0
LINE
  5
3D97
100
AcDbEntity
  8
V0-OBRYS
  6
CONTINUOUS
 62
    90
100
AcDbLine
 10
-784.27245
 20
-79.076814
 30
0.0
 11
-1055.03925
 21
-79.076814
 31
0.0
  0
LINE
  5
3D98
100
AcDbEntity
  8
V0-OBRYS
  6
CONTINUOUS
 62
    90
100
AcDbLine
 10
-1085.927303
 20
-53.40695
 30
0.0
 11
-784.27245
 21
-53.40695
 31
0.0
  0
ARC
  5
3D99
100
AcDbEntity
  8
V0-OBRYS
  6
CONTINUOUS
 62
    90
100
AcDbCircle
 10
-1055.03925
 20
-85.093854
 30
0.0
 40
6.01704
100
AcDbArc
 50
90.0
 51
180.0
  0
LEADER
  5
3D9A
100
AcDbEntity
  8
V0-VYPLNE
  6
CONTINUOUS
 62
    41
100
AcDbLeader
  3
ED2
 73
     0
 74
     0
 75
     1
 40
30.995346
 41
41.577819
 76
     3
 10
-1044.426905
 20
-111.618198
 30
0.0
 10
-892.702631
 20
-19.510451
 30
0.0
 10
-867.702631
 20
-19.510451
 30
0.0
 77
    41
340
3D9F
1001
ACAD
1000
DSTYLE
1002
{
1070
    40
1040
1.0
1002
}
  0
LINE
  5
3D9B
100
AcDbEntity
  8
V0-VYPLNE
  6
DASHDOT
 62
    63
 48
2.0
100
AcDbLine
 10
-1049.623647
 20
-111.618198
 30
0.0
 11
-1009.329698
 21
-111.618198
 31
0.0
  0
CIRCLE
  5
3D9C
100
AcDbEntity
  8
V0-OBRYS
  6
CONTINUOUS
 62
    90
100
AcDbCircle
 10
-1044.426905
 20
-111.618198
 30
0.0
 40
7.748836
  0
LINE
  5
3D9D
100
AcDbEntity
  8
V0-VYPLNE
  6
DASHDOT
 62
    63
 48
2.0
100
AcDbLine
 10
-1038.426905
 20
-103.513865
 30
0.0
 11
-1038.426905
 21
-137.997677
 31
0.0
  0
LINE
  5
3D9E
100
AcDbEntity
  8
V0-VYPLNE
  6
DASHDOT
 62
    63
 48
2.0
100
AcDbLine
 10
-784.27245
 20
-37.675397
 30
0.0
 11
-784.27245
 21
-222.580667
 31
0.0
  0
MTEXT
  5
3D9F
102
{ACAD_REACTORS
330
3D9A
102
}
100
AcDbEntity
  8
V0-VYPLNE
  6
CONTINUOUS
 62
    41
100
AcDbMText
 10
-862.702631
 20
0.987222
 30
0.0
 40
30.995346
 41
0.0
 71
     4
 72
     1
  1
%%c5
  0
LINE
  5
3DA0
100
AcDbEntity
  8
V0-OBRYS
  6
CONTINUOUS
 62
    90
100
AcDbLine
 10
-644.793394
 20
-265.974151
 30
0.0
 11
-507.48861
 21
-265.974151
 31
0.0
  0
CIRCLE
  5
3DA1
100
AcDbEntity
  8
V0-OBRYS
  6
CONTINUOUS
 62
    90
100
AcDbCircle
 10
-522.941994
 20
-111.618198
 30
0.0
 40
7.748836
  0
LINE
  5
3DA2
100
AcDbEntity
  8
V0-VYPLNE
  6
DASHDOT
 62
    63
 48
2.0
100
AcDbLine
 10
-517.745252
 20
-111.618198
 30
0.0
 11
-558.039202
 21
-111.618198
 31
0.0
  0
ARC
  5
3DA3
100
AcDbEntity
  8
V0-OBRYS
  6
CONTINUOUS
 62
    90
100
AcDbCircle
 10
-513.50565
 20
-85.093854
 30
0.0
 40
6.01704
100
AcDbArc
 50
0.0
 51
90.0
  0
LINE
  5
3DA4
100
AcDbEntity
  8
V0-VYPLNE
  6
DASHDOT
 62
    63
 48
2.0
100
AcDbLine
 10
-522.941994
 20
-103.513865
 30
0.0
 11
-522.941994
 21
-137.997677
 31
0.0
  0
DIMENSION
  5
4038
100
AcDbEntity
  8
V0-ZBYTEK
 62
    41
 48
2.0
100
AcDbDimension
  2
*D16
 10
-523.529994
 20
-698.860654
 30
0.0
 11
-784.27245
 21
-683.858685
 31
0.0
 70
    32
  3
ED2
100
AcDbAlignedDimension
 13
-1045.014905
 23
-615.600782
 33
0.0
 14
-523.529994
 24
-615.600782
 34
0.0
100
AcDbRotatedDimension
1001
ACAD
1000
DSTYLE
1002
{
1070
    40
1040
1.0
1002
}
  0
DIMENSION
  5
410E
100
AcDbEntity
  8
V0-ZBYTEK
 62
    41
 48
2.0
100
AcDbDimension
  2
*D19
 10
-196.838826
 20
-731.860654
 30
0.0
 11
-219.555638
 21
-716.860654
 31
0.0
 70
    32
  3
ED2
100
AcDbAlignedDimension
 13
-242.27245
 23
-657.791591
 33
0.0
 14
-196.838826
 24
-608.485073
 34
0.0
100
AcDbRotatedDimension
1001
ACAD
1000
DSTYLE
1002
{
1070
    40
1040
1.0
1002
}
  0
VIEWPORT
  5
22
100
AcDbEntity
 67
     1
  8
0
100
AcDbViewport
 10
261.517699
 20
165.390006
 30
0.0
 40
523.035398
 41
330.780011
 68
    -1
 69
     1
1001
ACAD
1000
MVIEW
1002
{
1070
    16
1010
0.0
1020
0.0
1030
0.0
1010
0.0
1020
0.0
1030
1.0
1040
0.0
1040
330.780011
1040
261.517699
1040
165.390006
1040
50.0
1040
0.0
1040
0.0
1070
     0
1070
   100
1070
     1
1070
     0
1070
     0
1070
     0
1070
     0
1070
     0
1040
0.0
1040
0.0
1040
0.0
1040
1.0
1040
1.0
1040
10.0
1040
10.0
1070
     0
1002
{
1002
}
1002
}
  0
ENDSEC
  0
SECTION
  2
OBJECTS
  0
DICTIONARY
  5
C
100
AcDbDictionary
  3
ACAD_GROUP
350
D
  3
ACAD_MLINESTYLE
350
E
  3
ACDBVARIABLEDICTIONARY
350
86C
  3
CONTENTDICTIONARY
350
905
  0
DICTIONARY
  5
D
102
{ACAD_REACTORS
330
C
102
}
100
AcDbDictionary
  0
DICTIONARY
  5
E
102
{ACAD_REACTORS
330
C
102
}
100
AcDbDictionary
  3
STANDARD
350
13
  0
DICTIONARY
  5
86C
102
{ACAD_REACTORS
330
C
102
}
100
AcDbDictionary
  3
SORTENTS
350
86D
  0
DICTIONARY
  5
905
102
{ACAD_REACTORS
330
C
102
}
100
AcDbDictionary
  0
MLINESTYLE
  5
13
102
{ACAD_REACTORS
330
E
102
}
100
AcDbMlineStyle
  2
STANDARD
 70
     0
  3

 62
     0
 51
90.0
 52
90.0
 71
     2
 49
0.5
 62
   256
  6
BYLAYER
 49
-0.5
 62
   256
  6
BYLAYER
  0
DICTIONARYVAR
  5
86D
102
{ACAD_REACTORS
330
86C
102
}
100
DictionaryVariables
280
     0
  1
96
  0
ENDSEC
  0
EOF
