  0
SECTION
  2
HEADER
  9
$ACADVER
  1
AC1014
  9
$ACADMAINTVER
 70
     0
  9
$DWGCODEPAGE
  3
ANSI_1250
  9
$INSBASE
 10
0.0
 20
0.0
 30
0.0
  9
$EXTMIN
 10
-1083.950434
 20
-901.359251
 30
0.0
  9
$EXTMAX
 10
-156.48745
 20
-15.819099
 30
0.0
  9
$LIMMIN
 10
-1040.805314
 20
-347.068924
  9
$LIMMAX
 10
643.686187
 20
495.293187
  9
$ORTHOMODE
 70
     0
  9
$REGENMODE
 70
     1
  9
$FILLMODE
 70
     1
  9
$QTEXTMODE
 70
     0
  9
$MIRRTEXT
 70
     1
  9
$DRAGMODE
 70
     2
  9
$LTSCALE
 40
15.0
  9
$OSMODE
 70
  1023
  9
$ATTMODE
 70
     1
  9
$TEXTSIZE
 40
15.0
  9
$TRACEWID
 40
5.0
  9
$TEXTSTYLE
  7
STANDARD
  9
$CLAYER
  8
V0-ZBYTEK
  9
$CELTYPE
  6
BYLAYER
  9
$CECOLOR
 62
    41
  9
$CELTSCALE
 40
2.0
  9
$DELOBJ
 70
     1
  9
$DISPSILH
 70
     0
  9
$DIMSCALE
 40
1.0
  9
$DIMASZ
 40
20.0
  9
$DIMEXO
 40
0.0625
  9
$DIMDLI
 40
0.38
  9
$DIMRND
 40
0.0
  9
$DIMDLE
 40
0.0
  9
$DIMEXE
 40
0.18
  9
$DIMTP
 40
0.0
  9
$DIMTM
 40
0.0
  9
$DIMTXT
 40
20.0
  9
$DIMCEN
 40
0.0
  9
$DIMTSZ
 40
0.0
  9
$DIMTOL
 70
     0
  9
$DIMLIM
 70
     0
  9
$DIMTIH
 70
     0
  9
$DIMTOH
 70
     0
  9
$DIMSE1
 70
     0
  9
$DIMSE2
 70
     0
  9
$DIMTAD
 70
     1
  9
$DIMZIN
 70
     0
  9
$DIMBLK
  1

  9
$DIMASO
 70
     1
  9
$DIMSHO
 70
     1
  9
$DIMPOST
  1

  9
$DIMAPOST
  1

  9
$DIMALT
 70
     0
  9
$DIMALTD
 70
     2
  9
$DIMALTF
 40
25.4
  9
$DIMLFAC
 40
1.0
  9
$DIMTOFL
 70
     0
  9
$DIMTVP
 40
0.0
  9
$DIMTIX
 70
     0
  9
$DIMSOXD
 70
     0
  9
$DIMSAH
 70
     1
  9
$DIMBLK1
  1
_OPEN
  9
$DIMBLK2
  1
_OPEN
  9
$DIMSTYLE
  2
STANDARD
  9
$DIMCLRD
 70
     0
  9
$DIMCLRE
 70
     0
  9
$DIMCLRT
 70
     0
  9
$DIMTFAC
 40
1.0
  9
$DIMGAP
 40
0.625
  9
$DIMJUST
 70
     0
  9
$DIMSD1
 70
     0
  9
$DIMSD2
 70
     0
  9
$DIMTOLJ
 70
     1
  9
$DIMTZIN
 70
     0
  9
$DIMALTZ
 70
     0
  9
$DIMALTTZ
 70
     0
  9
$DIMFIT
 70
     0
  9
$DIMUPT
 70
     0
  9
$DIMUNIT
 70
     2
  9
$DIMDEC
 70
     0
  9
$DIMTDEC
 70
     4
  9
$DIMALTU
 70
     2
  9
$DIMALTTD
 70
     2
  9
$DIMTXSTY
  7
STANDARD
  9
$DIMAUNIT
 70
     0
  9
$LUNITS
 70
     2
  9
$LUPREC
 70
     4
  9
$SKETCHINC
 40
1.0
  9
$FILLETRAD
 40
5.0
  9
$AUNITS
 70
     0
  9
$AUPREC
 70
     0
  9
$MENU
  1
.
  9
$ELEVATION
 40
0.0
  9
$PELEVATION
 40
0.0
  9
$THICKNESS
 40
0.0
  9
$LIMCHECK
 70
     0
  9
$BLIPMODE
 70
     1
  9
$CHAMFERA
 40
10.0
  9
$CHAMFERB
 40
10.0
  9
$CHAMFERC
 40
20.0
  9
$CHAMFERD
 40
0.0
  9
$SKPOLY
 70
     0
  9
$TDCREATE
 40
2450763.421427893
  9
$TDUPDATE
 40
2453312.834717801
  9
$TDINDWG
 40
1.5097261690
  9
$TDUSRTIMER
 40
1.5097261690
  9
$USRTIMER
 70
     1
  9
$ANGBASE
 50
0.0
  9
$ANGDIR
 70
     0
  9
$PDMODE
 70
     3
  9
$PDSIZE
 40
-5.0
  9
$PLINEWID
 40
0.0
  9
$COORDS
 70
     2
  9
$SPLFRAME
 70
     0
  9
$SPLINETYPE
 70
     6
  9
$SPLINESEGS
 70
     8
  9
$ATTDIA
 70
     0
  9
$ATTREQ
 70
     1
  9
$HANDLING
 70
     1
  9
$HANDSEED
  5
3F61
  9
$SURFTAB1
 70
     6
  9
$SURFTAB2
 70
     6
  9
$SURFTYPE
 70
     6
  9
$SURFU
 70
     6
  9
$SURFV
 70
     6
  9
$UCSNAME
  2

  9
$UCSORG
 10
-784.27244973706
 20
-855.860653870855
 30
0.0
  9
$UCSXDIR
 10
1.0
 20
0.0
 30
0.0
  9
$UCSYDIR
 10
0.0
 20
1.0
 30
0.0
  9
$PUCSNAME
  2

  9
$PUCSORG
 10
0.0
 20
0.0
 30
0.0
  9
$PUCSXDIR
 10
1.0
 20
0.0
 30
0.0
  9
$PUCSYDIR
 10
0.0
 20
1.0
 30
0.0
  9
$USERI1
 70
     0
  9
$USERI2
 70
     0
  9
$USERI3
 70
     0
  9
$USERI4
 70
     0
  9
$USERI5
 70
     0
  9
$USERR1
 40
0.0
  9
$USERR2
 40
0.0
  9
$USERR3
 40
0.0
  9
$USERR4
 40
0.0
  9
$USERR5
 40
0.0
  9
$WORLDVIEW
 70
     1
  9
$SHADEDGE
 70
     3
  9
$SHADEDIF
 70
    70
  9
$TILEMODE
 70
     1
  9
$MAXACTVP
 70
    16
  9
$PINSBASE
 10
0.0
 20
0.0
 30
0.0
  9
$PLIMCHECK
 70
     0
  9
$PEXTMIN
 10
131.177948
 20
159.528081
 30
0.0
  9
$PEXTMAX
 10
254.393018
 20
159.528081
 30
0.0
  9
$PLIMMIN
 10
0.0
 20
0.0
  9
$PLIMMAX
 10
420.0
 20
297.0
  9
$UNITMODE
 70
     0
  9
$VISRETAIN
 70
     0
  9
$PLINEGEN
 70
     0
  9
$PSLTSCALE
 70
     0
  9
$TREEDEPTH
 70
  3020
  9
$PICKSTYLE
 70
     1
  9
$CMLSTYLE
  2
STANDARD
  9
$CMLJUST
 70
     0
  9
$CMLSCALE
 40
1.0
  9
$PROXYGRAPHICS
 70
     1
  9
$MEASUREMENT
 70
     1
  0
ENDSEC
  0
SECTION
  2
CLASSES
  0
CLASS
  1
LWPOLYLINE
  2
AcDbPolyline
  3
"AutoCAD"
 90
        0
280
     0
281
     1
  0
CLASS
  1
DICTIONARYVAR
  2
AcDbDictionaryVar
  3
"AutoCAD"
 90
        0
280
     0
281
     0
  0
CLASS
  1
HATCH
  2
AcDbHatch
  3
"ACAD_SEDONA"
 90
        0
280
     0
281
     1
  0
ENDSEC
  0
SECTION
  2
TABLES
  0
TABLE
  2
VPORT
  5
8
100
AcDbSymbolTable
 70
     1
  0
VPORT
  5
3F5D
100
AcDbSymbolTableRecord
100
AcDbViewportTableRecord
  2
*ACTIVE
 70
     0
 10
0.0
 20
0.0
 11
1.0
 21
1.0
 12
-627.77245
 22
-442.008709
 13
0.0
 23
0.0
 14
1.0
 24
1.0
 15
50.0
 25
50.0
 16
0.0
 26
0.0
 36
1.0
 17
0.0
 27
0.0
 37
0.0
 40
957.70389
 41
1.550584
 42
50.0
 43
0.0
 44
0.0
 50
0.0
 51
0.0
 71
     0
 72
   100
 73
     1
 74
     0
 75
     1
 76
     0
 77
     0
 78
     0
  0
ENDTAB
  0
TABLE
  2
LTYPE
  5
5
100
AcDbSymbolTable
 70
     3
  0
LTYPE
  5
14
100
AcDbSymbolTableRecord
100
AcDbLinetypeTableRecord
  2
BYBLOCK
 70
     0
  3

 72
    65
 73
     0
 40
0.0
  0
LTYPE
  5
15
100
AcDbSymbolTableRecord
100
AcDbLinetypeTableRecord
  2
BYLAYER
 70
     0
  3

 72
    65
 73
     0
 40
0.0
  0
LTYPE
  5
16
100
AcDbSymbolTableRecord
100
AcDbLinetypeTableRecord
  2
CONTINUOUS
 70
     0
  3
Solid line
 72
    65
 73
     0
 40
0.0
  0
LTYPE
  5
1D7
100
AcDbSymbolTableRecord
100
AcDbLinetypeTableRecord
  2
DASHED
 70
     0
  3
__ __ __ __ __ __ __ __ __ __ __ __ __ __ __ __
 72
    65
 73
     2
 40
0.75
 49
0.5
 74
     0
 49
-0.25
 74
     0
  0
LTYPE
  5
492
100
AcDbSymbolTableRecord
100
AcDbLinetypeTableRecord
  2
DASHDOT
 70
     0
  3
__ . __ . __ . __ . __ . __ . __ . __ . __ . __
 72
    65
 73
     4
 40
1.0
 49
0.5
 74
     0
 49
-0.25
 74
     0
 49
0.0
 74
     0
 49
-0.25
 74
     0
  0
ENDTAB
  0
TABLE
  2
LAYER
  5
2
100
AcDbSymbolTable
 70
     7
  0
LAYER
  5
F
100
AcDbSymbolTableRecord
100
AcDbLayerTableRecord
  2
0
 70
     0
 62
     7
  6
CONTINUOUS
  0
LAYER
  5
1A22
100
AcDbSymbolTableRecord
100
AcDbLayerTableRecord
  2
DEFPOINTS
 70
     0
 62
     7
  6
CONTINUOUS
  0
LAYER
  5
3A20
100
AcDbSymbolTableRecord
100
AcDbLayerTableRecord
  2
ASHADE
 70
     4
 62
     7
  6
CONTINUOUS
  0
LAYER
  5
3E17
100
AcDbSymbolTableRecord
100
AcDbLayerTableRecord
  2
V0-OBRYS
 70
     0
 62
    90
  6
CONTINUOUS
  0
LAYER
  5
3E18
100
AcDbSymbolTableRecord
100
AcDbLayerTableRecord
  2
V0-VYPLNE
 70
     0
 62
    52
  6
CONTINUOUS
  0
LAYER
  5
3E19
100
AcDbSymbolTableRecord
100
AcDbLayerTableRecord
  2
V0-NAZVY
 70
     0
 62
   210
  6
CONTINUOUS
  0
LAYER
  5
3E1A
100
AcDbSymbolTableRecord
100
AcDbLayerTableRecord
  2
V0-ZBYTEK
 70
     0
 62
    51
  6
CONTINUOUS
  0
ENDTAB
  0
TABLE
  2
STYLE
  5
3
100
AcDbSymbolTable
 70
     6
  0
STYLE
  5
10
100
AcDbSymbolTableRecord
100
AcDbTextStyleTableRecord
  2
STANDARD
 70
     0
 40
0.0
 41
1.0
 50
0.0
 71
     0
 42
15.0
  3
ISOCP.shx
  4

  0
STYLE
  5
3E1B
100
AcDbSymbolTableRecord
100
AcDbTextStyleTableRecord
  2
ED
 70
     0
 40
20.0
 41
1.0
 50
0.0
 71
     0
 42
2.5
  3
ISOCP.shx
  4

  0
STYLE
  5
3E1C
100
AcDbSymbolTableRecord
100
AcDbTextStyleTableRecord
  2
EDVENT
 70
     0
 40
10.0
 41
1.0
 50
0.0
 71
     0
 42
2.5
  3
ISOCP.shx
  4

  0
STYLE
  5
3E1D
100
AcDbSymbolTableRecord
100
AcDbTextStyleTableRecord
  2
E
 70
     0
 40
25.0
 41
1.0
 50
0.0
 71
     0
 42
2.5
  3
ISOCP.shx
  4

  0
STYLE
  5
3E1E
100
AcDbSymbolTableRecord
100
AcDbTextStyleTableRecord
  2
ED-VENT
 70
     0
 40
25.0
 41
1.0
 50
0.0
 71
     0
 42
2.5
  3
ISOCP.shx
  4

  0
STYLE
  5
3E1F
100
AcDbSymbolTableRecord
100
AcDbTextStyleTableRecord
  2
ED2
 70
     0
 40
25.0
 41
1.0
 50
0.0
 71
     0
 42
2.5
  3
ISOCP.shx
  4

  0
ENDTAB
  0
TABLE
  2
VIEW
  5
6
100
AcDbSymbolTable
 70
     0
  0
ENDTAB
  0
TABLE
  2
UCS
  5
7
100
AcDbSymbolTable
 70
     0
  0
ENDTAB
  0
TABLE
  2
APPID
  5
9
100
AcDbSymbolTable
 70
     9
  0
APPID
  5
11
100
AcDbSymbolTableRecord
100
AcDbRegAppTableRecord
  2
ACAD
 70
     0
  0
APPID
  5
906
100
AcDbSymbolTableRecord
100
AcDbRegAppTableRecord
  2
CONTENTTABDATA
 70
     0
  0
APPID
  5
907
100
AcDbSymbolTableRecord
100
AcDbRegAppTableRecord
  2
CONTENTCURRENTTAB
 70
     0
  0
APPID
  5
908
100
AcDbSymbolTableRecord
100
AcDbRegAppTableRecord
  2
CONTENTBLOCKDESCRIPTION
 70
     0
  0
APPID
  5
3A1E
100
AcDbSymbolTableRecord
100
AcDbRegAppTableRecord
  2
AVE_RENDER
 70
     0
  0
APPID
  5
3A1F
100
AcDbSymbolTableRecord
100
AcDbRegAppTableRecord
  2
AVE_ENTITY_MATERIAL
 70
     0
  0
APPID
  5
3A2C
100
AcDbSymbolTableRecord
100
AcDbRegAppTableRecord
  2
AVE_FINISH
 70
     0
  0
APPID
  5
3A2D
100
AcDbSymbolTableRecord
100
AcDbRegAppTableRecord
  2
AVE_MATERIAL
 70
     0
  0
APPID
  5
3A2E
100
AcDbSymbolTableRecord
100
AcDbRegAppTableRecord
  2
AVE_GLOBAL
 70
     0
  0
ENDTAB
  0
TABLE
  2
DIMSTYLE
  5
A
100
AcDbSymbolTable
 70
     3
  0
DIMSTYLE
105
1D
102
{ACAD_REACTORS
330
3D70
330
3D71
330
3D76
330
3D77
330
3D78
330
3F50
102
}
100
AcDbSymbolTableRecord
100
AcDbDimStyleTableRecord
  2
STANDARD
 70
     0
  3

  4

  5

  6
_OPEN
  7
_OPEN
 40
5.0
 41
3.5
 42
0.0625
 43
0.38
 44
0.18
 45
0.0
 46
0.0
 47
0.0
 48
0.0
140
3.5
141
0.0
142
0.0
143
25.4
144
1.0
145
0.0
146
1.0
147
0.625
 71
     0
 72
     0
 73
     0
 74
     0
 75
     0
 76
     0
 77
     1
 78
     0
170
     0
171
     2
172
     0
173
     1
174
     0
175
     0
176
     0
177
     0
178
     0
270
     2
271
     0
272
     4
273
     2
274
     2
340
10
275
     0
280
     0
281
     0
282
     0
283
     1
284
     0
285
     0
286
     0
287
     0
288
     0
  0
DIMSTYLE
105
3E20
100
AcDbSymbolTableRecord
100
AcDbDimStyleTableRecord
  2
ED
 70
     0
  3

  4

  5

  6
_OPEN
  7
_OPEN
 40
0.0
 41
15.0
 42
0.625
 43
3.75
 44
1.25
 45
0.0
 46
0.0
 47
0.0
 48
0.0
140
15.0
141
2.5
142
0.0
143
0.0394
144
1.0
145
0.0
146
1.0
147
3.0
 71
     0
 72
     0
 73
     0
 74
     0
 75
     0
 76
     0
 77
     1
 78
     8
170
     0
171
     4
172
     1
173
     1
174
     0
175
     0
176
     0
177
     0
178
     0
270
     2
271
     0
272
     1
273
     8
274
     4
340
3E1B
275
     0
280
     0
281
     0
282
     0
283
     1
284
     8
285
     0
286
     0
287
     3
288
     0
  0
DIMSTYLE
105
3E21
100
AcDbSymbolTableRecord
100
AcDbDimStyleTableRecord
  2
ED2
 70
     0
  3

  4

  5

  6
_OPEN
  7
_OPEN
 40
0.0
 41
25.0
 42
0.625
 43
3.75
 44
1.25
 45
0.0
 46
0.0
 47
0.0
 48
0.0
140
30.0
141
2.5
142
0.0
143
0.0394
144
1.0
145
0.0
146
1.0
147
5.0
 71
     0
 72
     0
 73
     0
 74
     0
 75
     0
 76
     0
 77
     1
 78
     8
170
     0
171
     4
172
     1
173
     1
174
     0
175
     0
176
     0
177
     0
178
     0
270
     2
271
     0
272
     1
273
     8
274
     4
340
3E1B
275
     0
280
     0
281
     0
282
     0
283
     1
284
     8
285
     0
286
     0
287
     3
288
     0
  0
ENDTAB
  0
TABLE
  2
BLOCK_RECORD
  5
1
100
AcDbSymbolTable
 70
    11
  0
BLOCK_RECORD
  5
1A
100
AcDbSymbolTableRecord
100
AcDbBlockTableRecord
  2
*MODEL_SPACE
  0
BLOCK_RECORD
  5
17
100
AcDbSymbolTableRecord
100
AcDbBlockTableRecord
  2
*PAPER_SPACE
  0
BLOCK_RECORD
  5
1A05
100
AcDbSymbolTableRecord
100
AcDbBlockTableRecord
  2
_OPEN
  0
BLOCK_RECORD
  5
3A21
100
AcDbSymbolTableRecord
100
AcDbBlockTableRecord
  2
AVE_RENDER
  0
BLOCK_RECORD
  5
3A2F
100
AcDbSymbolTableRecord
100
AcDbBlockTableRecord
  2
AVE_GLOBAL
  0
BLOCK_RECORD
  5
3E68
100
AcDbSymbolTableRecord
100
AcDbBlockTableRecord
  2
*D3
  0
BLOCK_RECORD
  5
3E74
100
AcDbSymbolTableRecord
100
AcDbBlockTableRecord
  2
*D4
  0
BLOCK_RECORD
  5
3E80
100
AcDbSymbolTableRecord
100
AcDbBlockTableRecord
  2
*D5
  0
BLOCK_RECORD
  5
3E89
100
AcDbSymbolTableRecord
100
AcDbBlockTableRecord
  2
*D6
  0
BLOCK_RECORD
  5
3E95
100
AcDbSymbolTableRecord
100
AcDbBlockTableRecord
  2
*D7
  0
BLOCK_RECORD
  5
3F43
100
AcDbSymbolTableRecord
100
AcDbBlockTableRecord
  2
*D10
  0
ENDTAB
  0
ENDSEC
  0
SECTION
  2
BLOCKS
  0
BLOCK
  5
1B
100
AcDbEntity
  8
0
100
AcDbBlockBegin
  2
*MODEL_SPACE
 70
     0
 10
0.0
 20
0.0
 30
0.0
  3
*MODEL_SPACE
  1

  0
ENDBLK
  5
1C
100
AcDbEntity
  8
0
100
AcDbBlockEnd
  0
BLOCK
  5
18
100
AcDbEntity
 67
     1
  8
0
100
AcDbBlockBegin
  2
*PAPER_SPACE
 70
     0
 10
0.0
 20
0.0
 30
0.0
  3
*PAPER_SPACE
  1

  0
ENDBLK
  5
19
100
AcDbEntity
 67
     1
  8
0
100
AcDbBlockEnd
  0
BLOCK
  5
1A09
100
AcDbEntity
  8
0
100
AcDbBlockBegin
  2
_OPEN
 70
     0
 10
0.0
 20
0.0
 30
0.0
  3
_OPEN
  1

  0
LINE
  5
1A06
100
AcDbEntity
  8
0
  6
BYBLOCK
 62
     0
100
AcDbLine
 10
-1.0
 20
0.166667
 30
0.0
 11
0.0
 21
0.0
 31
0.0
  0
LINE
  5
1A07
100
AcDbEntity
  8
0
  6
BYBLOCK
 62
     0
100
AcDbLine
 10
0.0
 20
0.0
 30
0.0
 11
-1.0
 21
-0.166667
 31
0.0
  0
LINE
  5
1A08
100
AcDbEntity
  8
0
  6
BYBLOCK
 62
     0
100
AcDbLine
 10
0.0
 20
0.0
 30
0.0
 11
-1.0
 21
0.0
 31
0.0
  0
ENDBLK
  5
1A0A
100
AcDbEntity
  8
0
100
AcDbBlockEnd
  0
BLOCK
  5
3A22
100
AcDbEntity
  8
ASHADE
 48
2.0
100
AcDbBlockBegin
  2
AVE_RENDER
 70
     0
 10
784.27245
 20
355.860654
 30
0.0
  3
AVE_RENDER
  1
AVE_RENDER
  0
ENDBLK
  5
3A23
100
AcDbEntity
  8
0
 48
2.0
100
AcDbBlockEnd
  0
BLOCK
  5
3A30
100
AcDbEntity
  8
ASHADE
 48
2.0
100
AcDbBlockBegin
  2
AVE_GLOBAL
 70
     0
 10
784.27245
 20
355.860654
 30
0.0
  3
AVE_GLOBAL
  1
AVE_GLOBAL
  0
ENDBLK
  5
3A31
100
AcDbEntity
  8
0
 48
2.0
100
AcDbBlockEnd
  0
BLOCK
  5
3E69
100
AcDbEntity
  8
0
 48
2.0
100
AcDbBlockBegin
  2
*D3
 70
     1
 10
0.0
 20
0.0
 30
0.0
  3
*D3
  1

  0
LINE
  5
3E6A
100
AcDbEntity
  8
0
  6
BYBLOCK
 62
     0
 48
2.0
100
AcDbLine
 10
-536.006673
 20
-133.417616
 30
0.0
 11
-469.945291
 21
-133.417616
 31
0.0
  0
LINE
  5
3E6B
100
AcDbEntity
  8
0
  6
BYBLOCK
 62
     0
 48
2.0
100
AcDbLine
 10
-542.006673
 20
-578.303692
 30
0.0
 11
-469.945291
 21
-578.303692
 31
0.0
  0
LINE
  5
3E6C
100
AcDbEntity
  8
0
  6
BYBLOCK
 62
     0
 48
2.0
100
AcDbLine
 10
-470.125291
 20
-158.417616
 30
0.0
 11
-470.125291
 21
-553.303692
 31
0.0
  0
INSERT
  5
3E6D
100
AcDbEntity
  8
0
  6
BYBLOCK
 62
     0
 48
2.0
100
AcDbBlockReference
  2
_OPEN
 10
-470.125291
 20
-133.417616
 30
0.0
 41
25.0
 42
25.0
 43
25.0
 50
90.0
  0
INSERT
  5
3E6E
100
AcDbEntity
  8
0
  6
BYBLOCK
 62
     0
 48
2.0
100
AcDbBlockReference
  2
_OPEN
 10
-470.125291
 20
-578.303692
 30
0.0
 41
25.0
 42
25.0
 43
25.0
 50
270.0
  0
MTEXT
  5
3E6F
100
AcDbEntity
  8
0
  6
BYBLOCK
 62
     0
 48
2.0
100
AcDbMText
 10
-483.250291
 20
-355.860654
 30
0.0
 40
25.0
 41
0.0
 71
     5
 72
     1
  1
\A1;445
 11
0.0
 21
1.0
 31
0.0
  0
POINT
  5
3E70
100
AcDbEntity
  8
DEFPOINTS
  6
BYBLOCK
 62
     0
 48
2.0
100
AcDbPoint
 10
-536.069173
 20
-133.417616
 30
0.0
  0
POINT
  5
3E71
100
AcDbEntity
  8
DEFPOINTS
  6
BYBLOCK
 62
     0
 48
2.0
100
AcDbPoint
 10
-542.069173
 20
-578.303692
 30
0.0
  0
POINT
  5
3E72
100
AcDbEntity
  8
DEFPOINTS
  6
BYBLOCK
 62
     0
 48
2.0
100
AcDbPoint
 10
-470.125291
 20
-578.303692
 30
0.0
  0
ENDBLK
  5
3E73
100
AcDbEntity
  8
0
 48
2.0
100
AcDbBlockEnd
  0
BLOCK
  5
3E75
100
AcDbEntity
  8
0
 48
2.0
100
AcDbBlockBegin
  2
*D4
 70
     1
 10
0.0
 20
0.0
 30
0.0
  3
*D4
  1

  0
LINE
  5
3E76
100
AcDbEntity
  8
0
  6
BYBLOCK
 62
     0
 48
2.0
100
AcDbLine
 10
-510.389501
 20
-81.312654
 30
0.0
 11
-429.270857
 21
-81.312654
 31
0.0
  0
LINE
  5
3E77
100
AcDbEntity
  8
0
  6
BYBLOCK
 62
     0
 48
2.0
100
AcDbLine
 10
-510.389501
 20
-630.408654
 30
0.0
 11
-429.270857
 21
-630.408654
 31
0.0
  0
LINE
  5
3E78
100
AcDbEntity
  8
0
  6
BYBLOCK
 62
     0
 48
2.0
100
AcDbLine
 10
-429.450857
 20
-106.312654
 30
0.0
 11
-429.450857
 21
-605.408654
 31
0.0
  0
INSERT
  5
3E79
100
AcDbEntity
  8
0
  6
BYBLOCK
 62
     0
 48
2.0
100
AcDbBlockReference
  2
_OPEN
 10
-429.450857
 20
-81.312654
 30
0.0
 41
25.0
 42
25.0
 43
25.0
 50
90.0
  0
INSERT
  5
3E7A
100
AcDbEntity
  8
0
  6
BYBLOCK
 62
     0
 48
2.0
100
AcDbBlockReference
  2
_OPEN
 10
-429.450857
 20
-630.408654
 30
0.0
 41
25.0
 42
25.0
 43
25.0
 50
270.0
  0
MTEXT
  5
3E7B
100
AcDbEntity
  8
0
  6
BYBLOCK
 62
     0
 48
2.0
100
AcDbMText
 10
-442.575857
 20
-355.860654
 30
0.0
 40
25.0
 41
0.0
 71
     5
 72
     1
  1
\A1;549
 11
0.0
 21
1.0
 31
0.0
  0
POINT
  5
3E7C
100
AcDbEntity
  8
DEFPOINTS
  6
BYBLOCK
 62
     0
 48
2.0
100
AcDbPoint
 10
-510.452001
 20
-81.312654
 30
0.0
  0
POINT
  5
3E7D
100
AcDbEntity
  8
DEFPOINTS
  6
BYBLOCK
 62
     0
 48
2.0
100
AcDbPoint
 10
-510.452001
 20
-630.408654
 30
0.0
  0
POINT
  5
3E7E
100
AcDbEntity
  8
DEFPOINTS
  6
BYBLOCK
 62
     0
 48
2.0
100
AcDbPoint
 10
-429.450857
 20
-630.408654
 30
0.0
  0
ENDBLK
  5
3E7F
100
AcDbEntity
  8
0
 48
2.0
100
AcDbBlockEnd
  0
BLOCK
  5
3E81
100
AcDbEntity
  8
0
 48
2.0
100
AcDbBlockBegin
  2
*D5
 70
     1
 10
0.0
 20
0.0
 30
0.0
  3
*D5
  1

  0
LINE
  5
3E82
100
AcDbEntity
  8
0
  6
BYBLOCK
 62
     0
 48
2.0
100
AcDbLine
 10
-1006.416302
 20
-415.460224
 30
0.0
 11
-562.128597
 21
-296.261084
 31
0.0
  0
INSERT
  5
3E83
100
AcDbEntity
  8
0
  6
BYBLOCK
 62
     0
 48
2.0
100
AcDbBlockReference
  2
_OPEN
 10
-1030.562373
 20
-421.938438
 30
0.0
 41
25.0
 42
25.0
 43
25.0
 50
195.018361
  0
INSERT
  5
3E84
100
AcDbEntity
  8
0
  6
BYBLOCK
 62
     0
 48
2.0
100
AcDbBlockReference
  2
_OPEN
 10
-537.982526
 20
-289.78287
 30
0.0
 41
25.0
 42
25.0
 43
25.0
 50
15.018361
  0
MTEXT
  5
3E85
100
AcDbEntity
  8
0
  6
BYBLOCK
 62
     0
 48
2.0
100
AcDbMText
 10
-705.673512
 20
-321.183967
 30
0.0
 40
25.0
 41
0.0
 71
     5
 72
     1
  1
\A1;\U+2205510
 11
0.965843
 21
0.259129
 31
0.0
  0
POINT
  5
3E86
100
AcDbEntity
  8
DEFPOINTS
  6
BYBLOCK
 62
     0
 48
2.0
100
AcDbPoint
 10
-537.982526
 20
-289.78287
 30
0.0
  0
POINT
  5
3E87
100
AcDbEntity
  8
DEFPOINTS
  6
BYBLOCK
 62
     0
 48
2.0
100
AcDbPoint
 10
-1030.562373
 20
-421.938438
 30
0.0
  0
ENDBLK
  5
3E88
100
AcDbEntity
  8
0
 48
2.0
100
AcDbBlockEnd
  0
BLOCK
  5
3E8A
100
AcDbEntity
  8
0
 48
2.0
100
AcDbBlockBegin
  2
*D6
 70
     1
 10
0.0
 20
0.0
 30
0.0
  3
*D6
  1

  0
LINE
  5
3E8B
100
AcDbEntity
  8
0
  6
BYBLOCK
 62
     0
 48
2.0
100
AcDbLine
 10
-1058.82045
 20
-629.743603
 30
0.0
 11
-1058.82045
 21
-709.75999
 31
0.0
  0
LINE
  5
3E8C
100
AcDbEntity
  8
0
  6
BYBLOCK
 62
     0
 48
2.0
100
AcDbLine
 10
-509.72445
 20
-629.743603
 30
0.0
 11
-509.72445
 21
-709.75999
 31
0.0
  0
LINE
  5
3E8D
100
AcDbEntity
  8
0
  6
BYBLOCK
 62
     0
 48
2.0
100
AcDbLine
 10
-1033.82045
 20
-709.57999
 30
0.0
 11
-534.72445
 21
-709.57999
 31
0.0
  0
INSERT
  5
3E8E
100
AcDbEntity
  8
0
  6
BYBLOCK
 62
     0
 48
2.0
100
AcDbBlockReference
  2
_OPEN
 10
-1058.82045
 20
-709.57999
 30
0.0
 41
25.0
 42
25.0
 43
25.0
 50
180.0
  0
INSERT
  5
3E8F
100
AcDbEntity
  8
0
  6
BYBLOCK
 62
     0
 48
2.0
100
AcDbBlockReference
  2
_OPEN
 10
-509.72445
 20
-709.57999
 30
0.0
 41
25.0
 42
25.0
 43
25.0
  0
MTEXT
  5
3E90
100
AcDbEntity
  8
0
  6
BYBLOCK
 62
     0
 48
2.0
100
AcDbMText
 10
-784.27245
 20
-696.45499
 30
0.0
 40
25.0
 41
0.0
 71
     5
 72
     1
  1
\A1;549
  0
POINT
  5
3E91
100
AcDbEntity
  8
DEFPOINTS
  6
BYBLOCK
 62
     0
 48
2.0
100
AcDbPoint
 10
-1058.82045
 20
-629.681103
 30
0.0
  0
POINT
  5
3E92
100
AcDbEntity
  8
DEFPOINTS
  6
BYBLOCK
 62
     0
 48
2.0
100
AcDbPoint
 10
-509.72445
 20
-629.681103
 30
0.0
  0
POINT
  5
3E93
100
AcDbEntity
  8
DEFPOINTS
  6
BYBLOCK
 62
     0
 48
2.0
100
AcDbPoint
 10
-509.72445
 20
-709.57999
 30
0.0
  0
ENDBLK
  5
3E94
100
AcDbEntity
  8
0
 48
2.0
100
AcDbBlockEnd
  0
BLOCK
  5
3E96
100
AcDbEntity
  8
0
 48
2.0
100
AcDbBlockBegin
  2
*D7
 70
     1
 10
0.0
 20
0.0
 30
0.0
  3
*D7
  1

  0
LINE
  5
3E97
100
AcDbEntity
  8
0
  6
BYBLOCK
 62
     0
 48
2.0
100
AcDbLine
 10
-1006.715488
 20
-592.480648
 30
0.0
 11
-1006.715488
 21
-669.129995
 31
0.0
  0
LINE
  5
3E98
100
AcDbEntity
  8
0
  6
BYBLOCK
 62
     0
 48
2.0
100
AcDbLine
 10
-561.829412
 20
-592.480648
 30
0.0
 11
-561.829412
 21
-669.129995
 31
0.0
  0
LINE
  5
3E99
100
AcDbEntity
  8
0
  6
BYBLOCK
 62
     0
 48
2.0
100
AcDbLine
 10
-981.715488
 20
-668.949995
 30
0.0
 11
-586.829412
 21
-668.949995
 31
0.0
  0
INSERT
  5
3E9A
100
AcDbEntity
  8
0
  6
BYBLOCK
 62
     0
 48
2.0
100
AcDbBlockReference
  2
_OPEN
 10
-1006.715488
 20
-668.949995
 30
0.0
 41
25.0
 42
25.0
 43
25.0
 50
180.0
  0
INSERT
  5
3E9B
100
AcDbEntity
  8
0
  6
BYBLOCK
 62
     0
 48
2.0
100
AcDbBlockReference
  2
_OPEN
 10
-561.829412
 20
-668.949995
 30
0.0
 41
25.0
 42
25.0
 43
25.0
  0
MTEXT
  5
3E9C
100
AcDbEntity
  8
0
  6
BYBLOCK
 62
     0
 48
2.0
100
AcDbMText
 10
-784.27245
 20
-655.824995
 30
0.0
 40
25.0
 41
0.0
 71
     5
 72
     1
  1
\A1;445
  0
POINT
  5
3E9D
100
AcDbEntity
  8
DEFPOINTS
  6
BYBLOCK
 62
     0
 48
2.0
100
AcDbPoint
 10
-1006.715488
 20
-592.418148
 30
0.0
  0
POINT
  5
3E9E
100
AcDbEntity
  8
DEFPOINTS
  6
BYBLOCK
 62
     0
 48
2.0
100
AcDbPoint
 10
-561.829412
 20
-592.418148
 30
0.0
  0
POINT
  5
3E9F
100
AcDbEntity
  8
DEFPOINTS
  6
BYBLOCK
 62
     0
 48
2.0
100
AcDbPoint
 10
-561.829412
 20
-668.949995
 30
0.0
  0
ENDBLK
  5
3EA0
100
AcDbEntity
  8
0
 48
2.0
100
AcDbBlockEnd
  0
BLOCK
  5
3F51
100
AcDbEntity
  8
0
 48
2.0
100
AcDbBlockBegin
  2
*D10
 70
     1
 10
0.0
 20
0.0
 30
0.0
  3
*D10
  1

  0
LINE
  5
3F52
100
AcDbEntity
  8
0
  6
BYBLOCK
 62
     0
 48
2.0
100
AcDbLine
 10
-285.27245
 20
-629.995045
 30
0.0
 11
-285.27245
 21
-689.040654
 31
0.0
  0
LINE
  5
3F53
100
AcDbEntity
  8
0
  6
BYBLOCK
 62
     0
 48
2.0
100
AcDbLine
 10
-243.784433
 20
-585.201186
 30
0.0
 11
-243.784433
 21
-689.040654
 31
0.0
  0
LINE
  5
3F54
100
AcDbEntity
  8
0
  6
BYBLOCK
 62
     0
 48
2.0
100
AcDbLine
 10
-265.27245
 20
-688.860654
 30
0.0
 11
-263.784433
 21
-688.860654
 31
0.0
  0
INSERT
  5
3F55
100
AcDbEntity
  8
0
  6
BYBLOCK
 62
     0
 48
2.0
100
AcDbBlockReference
  2
_OPEN
 10
-285.27245
 20
-688.860654
 30
0.0
 41
20.0
 42
20.0
 43
20.0
 50
180.0
  0
INSERT
  5
3F56
100
AcDbEntity
  8
0
  6
BYBLOCK
 62
     0
 48
2.0
100
AcDbBlockReference
  2
_OPEN
 10
-243.784433
 20
-688.860654
 30
0.0
 41
20.0
 42
20.0
 43
20.0
  0
MTEXT
  5
3F57
100
AcDbEntity
  8
0
  6
BYBLOCK
 62
     0
 48
2.0
100
AcDbMText
 10
-264.528441
 20
-678.233685
 30
0.0
 40
20.0
 41
0.0
 71
     5
 72
     1
  1
\A1;42
  0
POINT
  5
3F58
100
AcDbEntity
  8
DEFPOINTS
  6
BYBLOCK
 62
     0
 48
2.0
100
AcDbPoint
 10
-285.27245
 20
-629.932545
 30
0.0
  0
POINT
  5
3F59
100
AcDbEntity
  8
DEFPOINTS
  6
BYBLOCK
 62
     0
 48
2.0
100
AcDbPoint
 10
-243.784433
 20
-585.138686
 30
0.0
  0
POINT
  5
3F5A
100
AcDbEntity
  8
DEFPOINTS
  6
BYBLOCK
 62
     0
 48
2.0
100
AcDbPoint
 10
-243.784433
 20
-688.860654
 30
0.0
  0
ENDBLK
  5
3F5B
100
AcDbEntity
  8
0
 48
2.0
100
AcDbBlockEnd
  0
ENDSEC
  0
SECTION
  2
ENTITIES
  0
TEXT
  5
38DA
100
AcDbEntity
  8
V0-ZBYTEK
  6
CONTINUOUS
 62
   130
100
AcDbText
 10
-482.10745
 20
-847.689768
 30
0.0
 40
27.0
  1
ZALUZIOVA KLAPKA
 72
     1
 11
-317.27245
 21
-847.689768
 31
0.0
100
AcDbText
  0
TEXT
  5
38DB
100
AcDbEntity
  8
V0-ZBYTEK
  6
CONTINUOUS
 62
    51
100
AcDbText
 10
-447.277572
 20
-901.234073
 30
0.0
 40
18.0
  1
ELEKTRICKY OVLADANA
 72
     1
 11
-318.487572
 21
-901.234073
 31
0.0
100
AcDbText
  0
INSERT
  5
3A24
100
AcDbEntity
  8
ASHADE
 62
     1
 48
2.0
100
AcDbBlockReference
  2
AVE_RENDER
 10
784.27245
 20
355.860654
 30
0.0
1001
AVE_RENDER
1002
{
1070
     7
1000
Pref
1070
    30
1070
    20
1070
     1
1070
     0
1000

1070
    10
1070
     1
1070
    10
1040
1.0
1070
     1
1040
0.3
1040
0.7
1040
0.0
1040
10.0
1010
-1.0
1020
-1.0
1030
-1.0
1040
0.3
1070
    49
1070
     0
1070
     0
1010
1.0
1020
1.0
1030
1.0
1040
45.0
1070
     1
1070
     0
1000
WCS
1040
0.0
1070
     0
1040
10.0
1002
}
  0
INSERT
  5
3A25
100
AcDbEntity
  8
ASHADE
 62
     3
 48
2.0
100
AcDbBlockReference
  2
AVE_RENDER
 10
784.27245
 20
355.860654
 30
0.0
1001
AVE_RENDER
1002
{
1070
     0
1000
Full Opt
1070
     0
1070
     1
1070
     1
1070
     1
1070
     0
1070
     0
1070
     0
1070
     1
1070
     1
1040
0.0001
1040
0.0001
1002
}
  0
INSERT
  5
3A26
100
AcDbEntity
  8
ASHADE
 62
     4
 48
2.0
100
AcDbBlockReference
  2
AVE_RENDER
 10
784.27245
 20
355.860654
 30
0.0
1001
AVE_RENDER
1002
{
1070
     0
1000
Quick Opt
1070
     0
1070
     1
1070
     1
1070
     1
1070
     0
1070
     0
1070
     1
1002
}
  0
INSERT
  5
3A27
100
AcDbEntity
  8
ASHADE
 62
     5
 48
2.0
100
AcDbBlockReference
  2
AVE_RENDER
 10
784.27245
 20
355.860654
 30
0.0
1001
AVE_RENDER
1002
{
1070
     1
1000
Scanl Opt
1070
     2
1070
     0
1070
     2
1040
2.0
1040
4.0
1070
     0
1070
     1
1070
     0
1040
0.03
1002
}
  0
INSERT
  5
3A28
100
AcDbEntity
  8
ASHADE
 62
     6
 48
2.0
100
AcDbBlockReference
  2
AVE_RENDER
 10
784.27245
 20
355.860654
 30
0.0
1001
AVE_RENDER
1002
{
1070
     2
1000
Raytr Opt
1070
     2
1070
     0
1070
     2
1040
2.0
1040
4.0
1070
     0
1070
     1
1070
     1
1040
0.03
1070
     3
1040
0.03
1002
}
  0
INSERT
  5
3A29
100
AcDbEntity
  8
ASHADE
 62
     7
 48
2.0
100
AcDbBlockReference
  2
AVE_RENDER
 10
784.27245
 20
355.860654
 30
0.0
1001
AVE_RENDER
1002
{
1070
     0
1000
RFile Opt
1070
     1
1070
   640
1070
   480
1070
 10000
1070
     1
1070
     8
1070
     8
1070
     0
1070
     0
1070
     0
1070
     0
1070
     0
1070
     0
1070
     0
1002
}
  0
INSERT
  5
3A2A
100
AcDbEntity
  8
ASHADE
 62
     8
 48
2.0
100
AcDbBlockReference
  2
AVE_RENDER
 10
784.27245
 20
355.860654
 30
0.0
1001
AVE_RENDER
1002
{
1070
     0
1000
Fog Opt
1070
     0
1070
     0
1040
0.0
1040
1.0
1040
0.0
1040
1.0
1010
0.5
1020
0.5
1030
0.5
1002
}
  0
INSERT
  5
3A2B
100
AcDbEntity
  8
ASHADE
 62
     9
 48
2.0
100
AcDbBlockReference
  2
AVE_RENDER
 10
784.27245
 20
355.860654
 30
0.0
1001
AVE_RENDER
1002
{
1070
     0
1000
BG Opt
1070
     0
1070
     1
1010
0.0
1020
0.0
1030
0.0
1010
1.0
1020
0.0
1030
0.0
1010
0.0
1020
1.0
1030
0.0
1010
0.0
1020
0.0
1030
1.0
1040
0.5
1040
0.33
1040
0.0
1000

1070
     1
1000

1070
     1
1070
     1
1040
1.0
1040
1.0
1040
0.0
1040
0.0
1070
     0
1002
}
  0
INSERT
  5
3A32
100
AcDbEntity
  8
ASHADE
 62
     1
 48
2.0
100
AcDbBlockReference
  2
AVE_GLOBAL
 10
784.27245
 20
355.860654
 30
0.0
1001
AVE_MATERIAL
1002
{
1000
*GLOBAL*
1000
1
1000
Global finish.
1002
{
1002
}
1002
{
1070
    63
1002
{
1002
{
1010
-1.0
1020
-1.0
1030
-1.0
1002
}
1040
0.1
1000

1040
0.0
1002
{
1002
}
1040
0.0
1002
{
1002
}
1040
0.0
1002
}
1002
{
1002
{
1010
-1.0
1020
-1.0
1030
-1.0
1002
}
1040
0.7
1000

1040
0.0
1002
{
1002
}
1040
0.0
1002
{
1002
}
1040
0.0
1002
}
1002
{
1002
{
1010
-1.0
1020
-1.0
1030
-1.0
1002
}
1040
0.2
1000

1040
0.0
1002
{
1002
}
1040
0.0
1002
{
1002
}
1040
0.0
1002
}
1002
{
1070
     0
1002
{
1070
     1
1002
{
1040
1.0
1040
1.0
1000

1040
0.0
1002
{
1002
}
1040
0.0
1002
{
1002
}
1040
0.0
1002
}
1002
}
1040
1.0
1040
0.0
1040
0.0
1002
}
1002
{
1040
1.0
1040
1.0
1000

1040
0.0
1002
{
1002
}
1040
0.0
1002
{
1002
}
1040
0.0
1002
}
1002
{
1040
0.5
1040
1.0
1000

1040
0.0
1002
{
1002
}
1040
0.0
1002
{
1002
}
1040
0.0
1002
}
1002
{
1070
     0
1040
0.0
1002
{
1002
}
1040
1.0
1002
{
1002
}
1040
0.0
1002
}
1002
{
1040
0.0
1002
{
1002
{
1010
0.0
1020
0.0
1030
0.0
1002
}
1040
1.0
1000

1040
0.0
1002
{
1002
}
1040
0.0
1002
{
1002
}
1040
0.0
1002
}
1002
}
1002
{
1002
{
1070
     1
1002
{
1040
0.0
1040
1.0
1000

1040
0.0
1002
{
1002
}
1040
0.0
1002
{
1002
}
1040
0.0
1002
}
1002
}
1040
0.0
1002
{
1002
}
1010
1.0
1020
0.0
1030
0.0
1010
0.0
1020
1.0
1030
0.0
1010
0.0
1020
0.0
1030
1.0
1070
     0
1002
}
1002
{
1002
{
1040
1.0
1040
1.0
1002
{
1070
     1
1002
{
1040
1.0
1040
1.0
1000

1040
0.0
1002
{
1002
}
1040
0.0
1002
{
1002
}
1040
0.0
1002
}
1002
}
1002
}
1070
     0
1040
0.0
1002
{
1002
}
1002
}
1002
{
1002
}
1002
}
1002
{
1071
        3
1070
     3
1070
     0
1002
{
1070
     2
1070
     0
1070
     0
1040
0.0
1002
}
1070
     0
1070
     2
1002
{
1002
}
1002
}
1002
{
1040
8030.0
1040
190.300003
1040
0.305
1040
228.0
1040
545.0
1040
14.0
1040
17.4
1040
0.456
1002
}
1002
}
  0
LINE
  5
3BFE
100
AcDbEntity
  8
V0-OBRYS
  6
CONTINUOUS
 62
    90
100
AcDbLine
 10
-784.27245
 20
-855.860654
 30
0.0
 11
-510.200558
 21
-855.860654
 31
0.0
  0
LINE
  5
3BFF
100
AcDbEntity
  8
V0-OBRYS
  6
CONTINUOUS
 62
    90
100
AcDbLine
 10
-535.629909
 20
-895.264395
 30
0.0
 11
-784.27245
 21
-895.264395
 31
0.0
  0
LINE
  5
3C00
100
AcDbEntity
  8
V0-OBRYS
  6
CONTINUOUS
 62
    90
100
AcDbLine
 10
-1058.344341
 20
-881.860654
 30
0.0
 11
-510.200558
 21
-881.860654
 31
0.0
  0
LINE
  5
3C02
100
AcDbEntity
  8
V0-OBRYS
  6
CONTINUOUS
 62
    90
100
AcDbLine
 10
-784.27245
 20
-855.860654
 30
0.0
 11
-1058.344341
 21
-855.860654
 31
0.0
  0
LINE
  5
3C03
100
AcDbEntity
  8
V0-OBRYS
  6
CONTINUOUS
 62
    90
100
AcDbLine
 10
-1032.91499
 20
-895.264395
 30
0.0
 11
-784.27245
 21
-895.264395
 31
0.0
  0
LINE
  5
3C04
100
AcDbEntity
  8
V0-OBRYS
  6
CONTINUOUS
 62
    90
100
AcDbLine
 10
-1058.344341
 20
-881.860654
 30
0.0
 11
-1058.344341
 21
-855.860654
 31
0.0
  0
LINE
  5
3C05
100
AcDbEntity
  8
V0-OBRYS
  6
CONTINUOUS
 62
    90
100
AcDbLine
 10
-1032.91499
 20
-881.860654
 30
0.0
 11
-1032.91499
 21
-895.264395
 31
0.0
  0
POINT
  5
3C07
100
AcDbEntity
  8
V0-VYPLNE
  6
CONTINUOUS
 62
    52
100
AcDbPoint
 10
-784.27245
 20
-855.860654
 30
0.0
  0
LINE
  5
3C08
100
AcDbEntity
  8
V0-VYPLNE
  6
DASHDOT
 62
    63
 48
2.0
100
AcDbLine
 10
-784.27245
 20
-836.950242
 30
0.0
 11
-784.27245
 21
-900.972646
 31
0.0
  0
LINE
  5
3C09
100
AcDbEntity
  8
V0-VYPLNE
  6
CONTINUOUS
 62
    52
100
AcDbLine
 10
-809.7018
 20
-874.427726
 30
0.0
 11
-784.27245
 21
-874.427726
 31
0.0
  0
LINE
  5
3C0A
100
AcDbEntity
  8
V0-VYPLNE
  6
CONTINUOUS
 62
    52
100
AcDbLine
 10
-784.27245
 20
-892.614068
 30
0.0
 11
-809.7018
 21
-874.427726
 31
0.0
  0
LINE
  5
3C0B
100
AcDbEntity
  8
V0-VYPLNE
  6
CONTINUOUS
 62
    52
100
AcDbLine
 10
-784.27245
 20
-892.614068
 30
0.0
 11
-758.843099
 21
-874.427726
 31
0.0
  0
LINE
  5
3C0C
100
AcDbEntity
  8
V0-VYPLNE
  6
CONTINUOUS
 62
    52
100
AcDbLine
 10
-758.843099
 20
-874.427726
 30
0.0
 11
-784.27245
 21
-874.427726
 31
0.0
  0
LINE
  5
3C0D
100
AcDbEntity
  8
V0-OBRYS
  6
CONTINUOUS
 62
    90
100
AcDbLine
 10
-510.200558
 20
-881.860654
 30
0.0
 11
-510.200558
 21
-855.860654
 31
0.0
  0
LINE
  5
3C0E
100
AcDbEntity
  8
V0-OBRYS
  6
CONTINUOUS
 62
    90
100
AcDbLine
 10
-535.629909
 20
-881.860654
 30
0.0
 11
-535.629909
 21
-895.264395
 31
0.0
  0
ELLIPSE
  5
3C10
100
AcDbEntity
  8
V0-OBRYS
  6
CONTINUOUS
 62
    90
100
AcDbEllipse
 10
-248.331018
 20
-155.665207
 30
0.0
 11
0.0000000000000522
 21
8.476450246424345
 31
0.0
210
0.0
220
0.0
230
-1.0
 40
0.536378
 41
1.00705969154028
 42
2.356660097223436
  0
LINE
  5
3C11
100
AcDbEntity
  8
V0-OBRYS
  6
CONTINUOUS
 62
    90
100
AcDbLine
 10
-285.27245
 20
-355.860654
 30
0.0
 11
-285.27245
 21
-81.788763
 31
0.0
  0
LINE
  5
3C13
100
AcDbEntity
  8
V0-VYPLNE
  6
DASHED
 62
    56
 48
2.0
100
AcDbLine
 10
-265.683229
 20
-110.386012
 30
0.0
 11
-265.683229
 21
-645.246412
 31
0.0
  0
LINE
  5
3C14
100
AcDbEntity
  8
V0-OBRYS
  6
CONTINUOUS
 62
    90
100
AcDbLine
 10
-253.27245
 20
-81.788763
 30
0.0
 11
-253.27245
 21
-629.932545
 31
0.0
  0
LINE
  5
3C15
100
AcDbEntity
  8
V0-OBRYS
  6
CONTINUOUS
 62
    90
100
AcDbLine
 10
-285.27245
 20
-355.860654
 30
0.0
 11
-285.27245
 21
-629.932545
 31
0.0
  0
LINE
  5
3C34
100
AcDbEntity
  8
V0-OBRYS
  6
CONTINUOUS
 62
    90
100
AcDbLine
 10
-253.27245
 20
-629.932545
 30
0.0
 11
-285.27245
 21
-629.932545
 31
0.0
  0
LINE
  5
3C36
100
AcDbEntity
  8
V0-VYPLNE
  6
DASHED
 62
    56
 48
2.0
100
AcDbLine
 10
-259.699187
 20
-382.934538
 30
0.0
 11
-254.381363
 21
-398.617594
 31
0.0
  0
LINE
  5
3C39
100
AcDbEntity
  8
V0-OBRYS
  6
CONTINUOUS
 62
    90
100
AcDbLine
 10
-253.091081
 20
-563.475383
 30
0.0
 11
-244.487952
 21
-580.609309
 31
0.0
  0
LINE
  5
3C3A
100
AcDbEntity
  8
V0-OBRYS
  6
CONTINUOUS
 62
    90
100
AcDbLine
 10
-245.117594
 20
-591.135232
 30
0.0
 11
-251.321532
 21
-597.487874
 31
0.0
  0
ELLIPSE
  5
3C3B
100
AcDbEntity
  8
V0-OBRYS
  6
CONTINUOUS
 62
    90
100
AcDbEllipse
 10
-248.331018
 20
-585.138686
 30
0.0
 11
0.0000000000002062
 21
8.476450246424258
 31
0.0
210
0.0
220
0.0
230
-1.0
 40
0.536378
 41
1.007059691540263
 42
2.356660097223443
  0
ELLIPSE
  5
3C3C
100
AcDbEntity
  8
V0-OBRYS
  6
CONTINUOUS
 62
    90
100
AcDbEllipse
 10
-248.331018
 20
-531.454501
 30
0.0
 11
0.0000000000000866
 21
8.476450246424272
 31
0.0
210
0.0
220
0.0
230
-1.0
 40
0.536378
 41
1.007059691540272
 42
2.356660097223429
  0
ELLIPSE
  5
3C3D
100
AcDbEntity
  8
V0-VYPLNE
  6
DASHED
 62
    56
 48
2.0
100
AcDbEllipse
 10
-258.131216
 20
-549.09732
 30
0.0
 11
-0.0000000000002405
 21
2.402820243188102
 31
0.0
210
0.0
220
0.0
230
-1.0
 40
0.536378
 41
-0.0000000000000335
 42
6.283185307179552
  0
ELLIPSE
  5
3C3E
100
AcDbEntity
  8
V0-VYPLNE
  6
DASHED
 62
    56
 48
2.0
100
AcDbEllipse
 10
-258.131216
 20
-549.09732
 30
0.0
 11
-0.0000000000002405
 21
2.402820243188102
 31
0.0
210
0.0
220
0.0
230
-1.0
 40
0.536378
 41
-0.0000000000000335
 42
6.283185307179552
  0
LINE
  5
3C3F
100
AcDbEntity
  8
V0-VYPLNE
  6
DASHED
 62
    56
 48
2.0
100
AcDbLine
 10
-259.699187
 20
-543.987093
 30
0.0
 11
-254.381363
 21
-559.670148
 31
0.0
  0
LINE
  5
3C40
100
AcDbEntity
  8
V0-VYPLNE
  6
DASHED
 62
    56
 48
2.0
100
AcDbLine
 10
-261.191409
 20
-541.306408
 30
0.0
 11
-265.554457
 21
-541.306408
 31
0.0
  0
LINE
  5
3C41
100
AcDbEntity
  8
V0-OBRYS
  6
CONTINUOUS
 62
    90
100
AcDbLine
 10
-245.117594
 20
-537.451047
 30
0.0
 11
-251.321532
 21
-543.803689
 31
0.0
  0
LINE
  5
3C42
100
AcDbEntity
  8
V0-OBRYS
  6
CONTINUOUS
 62
    90
100
AcDbLine
 10
-253.091081
 20
-509.791198
 30
0.0
 11
-244.487952
 21
-526.925124
 31
0.0
  0
LINE
  5
3C43
100
AcDbEntity
  8
V0-VYPLNE
  6
DASHED
 62
    56
 48
2.0
100
AcDbLine
 10
-259.699187
 20
-436.618723
 30
0.0
 11
-254.381363
 21
-452.301778
 31
0.0
  0
ELLIPSE
  5
3C44
100
AcDbEntity
  8
V0-OBRYS
  6
CONTINUOUS
 62
    90
100
AcDbEllipse
 10
-248.331018
 20
-477.770316
 30
0.0
 11
0.0000000000001905
 21
8.476450246424079
 31
0.0
210
0.0
220
0.0
230
-1.0
 40
0.536378
 41
1.007059691540267
 42
2.356660097223445
  0
ELLIPSE
  5
3C45
100
AcDbEntity
  8
V0-VYPLNE
  6
DASHED
 62
    56
 48
2.0
100
AcDbEllipse
 10
-258.131216
 20
-495.413135
 30
0.0
 11
-0.0000000000000721
 21
2.402820243188102
 31
0.0
210
0.0
220
0.0
230
-1.0
 40
0.536378
 41
-0.0000000000000762
 42
6.283185307179509
  0
LINE
  5
3C46
100
AcDbEntity
  8
V0-VYPLNE
  6
DASHED
 62
    56
 48
2.0
100
AcDbLine
 10
-259.699187
 20
-490.302908
 30
0.0
 11
-254.381363
 21
-505.985963
 31
0.0
  0
LINE
  5
3C47
100
AcDbEntity
  8
V0-VYPLNE
  6
DASHED
 62
    56
 48
2.0
100
AcDbLine
 10
-261.191409
 20
-487.622223
 30
0.0
 11
-265.554457
 21
-487.622223
 31
0.0
  0
LINE
  5
3C48
100
AcDbEntity
  8
V0-OBRYS
  6
CONTINUOUS
 62
    90
100
AcDbLine
 10
-245.117594
 20
-483.766862
 30
0.0
 11
-251.321532
 21
-490.119504
 31
0.0
  0
LINE
  5
3C49
100
AcDbEntity
  8
V0-OBRYS
  6
CONTINUOUS
 62
    90
100
AcDbLine
 10
-253.091081
 20
-456.107013
 30
0.0
 11
-244.487952
 21
-473.240939
 31
0.0
  0
ELLIPSE
  5
3C4A
100
AcDbEntity
  8
V0-OBRYS
  6
CONTINUOUS
 62
    90
100
AcDbEllipse
 10
-248.331018
 20
-424.086131
 30
0.0
 11
0.0000000000001584
 21
8.476450246424432
 31
0.0
210
0.0
220
0.0
230
-1.0
 40
0.536378
 41
1.007059691540303
 42
2.356660097223434
  0
ELLIPSE
  5
3C4B
100
AcDbEntity
  8
V0-VYPLNE
  6
DASHED
 62
    56
 48
2.0
100
AcDbEllipse
 10
-258.131216
 20
-441.72895
 30
0.0
 11
-0.000000000000227
 21
2.402820243188045
 31
0.0
210
0.0
220
0.0
230
-1.0
 40
0.536378
 41
0.0000000000000437
 42
6.283185307179629
  0
LINE
  5
3C4C
100
AcDbEntity
  8
V0-VYPLNE
  6
DASHED
 62
    56
 48
2.0
100
AcDbLine
 10
-261.191409
 20
-433.938039
 30
0.0
 11
-265.554457
 21
-433.938039
 31
0.0
  0
LINE
  5
3C4D
100
AcDbEntity
  8
V0-OBRYS
  6
CONTINUOUS
 62
    90
100
AcDbLine
 10
-245.117594
 20
-430.082677
 30
0.0
 11
-251.321532
 21
-436.435319
 31
0.0
  0
LINE
  5
3C4E
100
AcDbEntity
  8
V0-OBRYS
  6
CONTINUOUS
 62
    90
100
AcDbLine
 10
-253.091081
 20
-402.422828
 30
0.0
 11
-244.487952
 21
-419.556754
 31
0.0
  0
LINE
  5
3C51
100
AcDbEntity
  8
V0-VYPLNE
  6
DASHED
 62
    56
 48
2.0
100
AcDbLine
 10
-259.699187
 20
-275.566168
 30
0.0
 11
-254.381363
 21
-291.249224
 31
0.0
  0
ELLIPSE
  5
3C52
100
AcDbEntity
  8
V0-VYPLNE
  6
DASHED
 62
    56
 48
2.0
100
AcDbEllipse
 10
-258.131216
 20
-334.360581
 30
0.0
 11
0.0000000000000293
 21
2.402820243188102
 31
0.0
210
0.0
220
0.0
230
-1.0
 40
0.536378
 41
-0.0000000000000666
 42
6.283185307179519
  0
LINE
  5
3C53
100
AcDbEntity
  8
V0-VYPLNE
  6
DASHED
 62
    56
 48
2.0
100
AcDbLine
 10
-259.699187
 20
-329.250353
 30
0.0
 11
-254.381363
 21
-344.933409
 31
0.0
  0
POINT
  5
3C54
100
AcDbEntity
  8
V0-VYPLNE
  6
CONTINUOUS
 62
    52
100
AcDbPoint
 10
-285.27245
 20
-355.860654
 30
0.0
  0
POINT
  5
3C55
100
AcDbEntity
  8
V0-VYPLNE
  6
CONTINUOUS
 62
    52
100
AcDbPoint
 10
-285.27245
 20
-355.860654
 30
0.0
  0
LINE
  5
3C56
100
AcDbEntity
  8
V0-OBRYS
  6
CONTINUOUS
 62
    90
100
AcDbLine
 10
-253.091081
 20
-348.738643
 30
0.0
 11
-244.487952
 21
-365.872569
 31
0.0
  0
ELLIPSE
  5
3C57
100
AcDbEntity
  8
V0-VYPLNE
  6
DASHED
 62
    56
 48
2.0
100
AcDbEllipse
 10
-258.131216
 20
-388.044766
 30
0.0
 11
-0.0000000000000911
 21
2.402820243188045
 31
0.0
210
0.0
220
0.0
230
-1.0
 40
0.536378
 41
-0.0000000000000175
 42
6.283185307179568
  0
LINE
  5
3C58
100
AcDbEntity
  8
V0-VYPLNE
  6
DASHED
 62
    56
 48
2.0
100
AcDbLine
 10
-261.191409
 20
-380.253854
 30
0.0
 11
-265.554457
 21
-380.253854
 31
0.0
  0
ELLIPSE
  5
3C59
100
AcDbEntity
  8
V0-OBRYS
  6
CONTINUOUS
 62
    90
100
AcDbEllipse
 10
-248.331018
 20
-370.401946
 30
0.0
 11
0.0000000000001215
 21
8.476450246424146
 31
0.0
210
0.0
220
0.0
230
-1.0
 40
0.536378
 41
1.007059691540284
 42
2.356660097223441
  0
LINE
  5
3C5A
100
AcDbEntity
  8
V0-OBRYS
  6
CONTINUOUS
 62
    90
100
AcDbLine
 10
-245.117594
 20
-376.398492
 30
0.0
 11
-251.321532
 21
-382.751135
 31
0.0
  0
LINE
  5
3C5B
100
AcDbEntity
  8
V0-OBRYS
  6
CONTINUOUS
 62
    90
100
AcDbLine
 10
-253.091081
 20
-295.054459
 30
0.0
 11
-244.487952
 21
-312.188384
 31
0.0
  0
LINE
  5
3C5C
100
AcDbEntity
  8
V0-VYPLNE
  6
DASHED
 62
    56
 48
2.0
100
AcDbLine
 10
-261.191409
 20
-326.569669
 30
0.0
 11
-265.554457
 21
-326.569669
 31
0.0
  0
LINE
  5
3C5D
100
AcDbEntity
  8
V0-OBRYS
  6
CONTINUOUS
 62
    90
100
AcDbLine
 10
-245.117594
 20
-322.714307
 30
0.0
 11
-251.321532
 21
-329.06695
 31
0.0
  0
ELLIPSE
  5
3C5E
100
AcDbEntity
  8
V0-OBRYS
  6
CONTINUOUS
 62
    90
100
AcDbEllipse
 10
-248.331018
 20
-316.717762
 30
0.0
 11
0.0000000000001448
 21
8.47645024642418
 31
0.0
210
0.0
220
0.0
230
-1.0
 40
0.536378
 41
1.007059691540277
 42
2.356660097223456
  0
ELLIPSE
  5
3C5F
100
AcDbEntity
  8
V0-VYPLNE
  6
DASHED
 62
    56
 48
2.0
100
AcDbEllipse
 10
-258.131216
 20
-280.676396
 30
0.0
 11
-0.0000000000001955
 21
2.402820243188102
 31
0.0
210
0.0
220
0.0
230
-1.0
 40
0.536378
 41
0.0000000000000633
 42
6.283185307179649
  0
LINE
  5
3C60
100
AcDbEntity
  8
V0-OBRYS
  6
CONTINUOUS
 62
    90
100
AcDbLine
 10
-245.117594
 20
-215.345937
 30
0.0
 11
-251.321532
 21
-221.69858
 31
0.0
  0
LINE
  5
3C61
100
AcDbEntity
  8
V0-OBRYS
  6
CONTINUOUS
 62
    90
100
AcDbLine
 10
-253.091081
 20
-241.370274
 30
0.0
 11
-244.487952
 21
-258.504199
 31
0.0
  0
LINE
  5
3C62
100
AcDbEntity
  8
V0-VYPLNE
  6
DASHED
 62
    56
 48
2.0
100
AcDbLine
 10
-261.191409
 20
-272.885484
 30
0.0
 11
-265.554457
 21
-272.885484
 31
0.0
  0
LINE
  5
3C63
100
AcDbEntity
  8
V0-OBRYS
  6
CONTINUOUS
 62
    90
100
AcDbLine
 10
-245.117594
 20
-269.030122
 30
0.0
 11
-251.321532
 21
-275.382765
 31
0.0
  0
ELLIPSE
  5
3C64
100
AcDbEntity
  8
V0-OBRYS
  6
CONTINUOUS
 62
    90
100
AcDbEllipse
 10
-248.331018
 20
-263.033577
 30
0.0
 11
0.0000000000001602
 21
8.476450246424306
 31
0.0
210
0.0
220
0.0
230
-1.0
 40
0.536378
 41
1.007059691540293
 42
2.35666009722344
  0
ELLIPSE
  5
3C65
100
AcDbEntity
  8
V0-VYPLNE
  6
DASHED
 62
    56
 48
2.0
100
AcDbEllipse
 10
-258.131216
 20
-226.992211
 30
0.0
 11
-0.0000000000002193
 21
2.402820243188017
 31
0.0
210
0.0
220
0.0
230
-1.0
 40
0.536378
 41
0.000000000000038
 42
6.283185307179624
  0
LINE
  5
3C66
100
AcDbEntity
  8
V0-VYPLNE
  6
DASHED
 62
    56
 48
2.0
100
AcDbLine
 10
-259.699187
 20
-221.881983
 30
0.0
 11
-254.381363
 21
-237.565039
 31
0.0
  0
LINE
  5
3C67
100
AcDbEntity
  8
V0-VYPLNE
  6
DASHED
 62
    56
 48
2.0
100
AcDbLine
 10
-261.191409
 20
-219.201299
 30
0.0
 11
-265.554457
 21
-219.201299
 31
0.0
  0
LINE
  5
3C68
100
AcDbEntity
  8
V0-OBRYS
  6
CONTINUOUS
 62
    90
100
AcDbLine
 10
-253.091081
 20
-187.686089
 30
0.0
 11
-244.487952
 21
-204.820014
 31
0.0
  0
ELLIPSE
  5
3C69
100
AcDbEntity
  8
V0-OBRYS
  6
CONTINUOUS
 62
    90
100
AcDbEllipse
 10
-248.331018
 20
-209.349392
 30
0.0
 11
0.0000000000000675
 21
8.476450246424361
 31
0.0
210
0.0
220
0.0
230
-1.0
 40
0.536378
 41
1.007059691540276
 42
2.356660097223433
  0
ELLIPSE
  5
3C6A
100
AcDbEntity
  8
V0-VYPLNE
  6
DASHED
 62
    56
 48
2.0
100
AcDbEllipse
 10
-258.131216
 20
-173.308026
 30
0.0
 11
-0.0000000000002124
 21
2.402820243187989
 31
0.0
210
0.0
220
0.0
230
-1.0
 40
0.536378
 41
0.0000000000000326
 42
6.283185307179619
  0
LINE
  5
3C6B
100
AcDbEntity
  8
V0-VYPLNE
  6
DASHED
 62
    56
 48
2.0
100
AcDbLine
 10
-259.699187
 20
-168.197798
 30
0.0
 11
-254.381363
 21
-183.880854
 31
0.0
  0
LINE
  5
3C6C
100
AcDbEntity
  8
V0-VYPLNE
  6
DASHED
 62
    56
 48
2.0
100
AcDbLine
 10
-261.191409
 20
-165.517114
 30
0.0
 11
-265.554457
 21
-165.517114
 31
0.0
  0
LINE
  5
3C6D
100
AcDbEntity
  8
V0-OBRYS
  6
CONTINUOUS
 62
    90
100
AcDbLine
 10
-245.117594
 20
-161.661752
 30
0.0
 11
-251.321532
 21
-168.014395
 31
0.0
  0
LINE
  5
3C6F
100
AcDbEntity
  8
V0-OBRYS
  6
CONTINUOUS
 62
    90
100
AcDbLine
 10
-253.091081
 20
-134.001904
 30
0.0
 11
-244.487952
 21
-151.135829
 31
0.0
  0
ELLIPSE
  5
3C70
100
AcDbEntity
  8
V0-VYPLNE
  6
DASHED
 62
    56
 48
2.0
100
AcDbEllipse
 10
-258.131216
 20
-119.623841
 30
0.0
 11
-0.0000000000002054
 21
2.40282024318796
 31
0.0
210
0.0
220
0.0
230
-1.0
 40
0.536378
 41
0.0000000000000711
 42
6.283185307179657
  0
LINE
  5
3C71
100
AcDbEntity
  8
V0-VYPLNE
  6
DASHED
 62
    56
 48
2.0
100
AcDbLine
 10
-259.699187
 20
-114.513614
 30
0.0
 11
-254.381363
 21
-130.196669
 31
0.0
  0
LINE
  5
3C72
100
AcDbEntity
  8
V0-VYPLNE
  6
DASHED
 62
    56
 48
2.0
100
AcDbLine
 10
-261.191409
 20
-111.832929
 30
0.0
 11
-265.554457
 21
-111.832929
 31
0.0
  0
LINE
  5
3C73
100
AcDbEntity
  8
V0-OBRYS
  6
CONTINUOUS
 62
    90
100
AcDbLine
 10
-253.27245
 20
-81.788763
 30
0.0
 11
-285.27245
 21
-81.788763
 31
0.0
  0
TEXT
  5
3C8C
100
AcDbEntity
  8
V0-NAZVY
  6
CONTINUOUS
 62
   210
100
AcDbText
 10
-872.824556
 20
-807.637094
 30
0.0
 40
28.11178
  1
PRG-500W
 72
     1
 11
-784.27245
 21
-807.637094
 31
0.0
100
AcDbText
  0
TEXT
  5
3C8D
100
AcDbEntity
  8
V0-NAZVY
  6
CONTINUOUS
 62
   210
100
AcDbText
 10
-192.496009
 20
-446.41276
 30
0.0
 40
28.11178
  1
PRG-500W
 50
90.0
 72
     1
 11
-192.496009
 21
-357.860654
 31
0.0
100
AcDbText
  0
TEXT
  5
3C8E
100
AcDbEntity
  8
V0-NAZVY
  6
CONTINUOUS
 62
   210
100
AcDbText
 10
-439.30061
 20
-802.026559
 30
0.0
 40
42.16767
  1
PRG-500W
 72
     1
 11
-306.47245
 21
-802.026559
 31
0.0
100
AcDbText
  0
CIRCLE
  5
3D6E
100
AcDbEntity
  8
V0-VYPLNE
  6
DASHED
 62
    56
 48
2.0
100
AcDbCircle
 10
-784.27245
 20
-355.860654
 30
0.0
 40
255.0
  0
TEXT
  5
3D6F
100
AcDbEntity
  8
V0-NAZVY
  6
CONTINUOUS
 62
   210
100
AcDbText
 10
-872.824556
 20
-299.637094
 30
0.0
 40
28.11178
  1
PRG-500W
 72
     1
 11
-784.27245
 21
-299.637094
 31
0.0
100
AcDbText
  0
DIMENSION
  5
3D70
100
AcDbEntity
  8
V0-VYPLNE
  6
CONTINUOUS
 62
    41
100
AcDbDimension
  2
*D3
 10
-470.125291
 20
-578.303692
 30
0.0
 11
-483.250291
 21
-355.860654
 31
0.0
 70
    32
  3
STANDARD
100
AcDbAlignedDimension
 13
-536.069173
 23
-133.417616
 33
0.0
 14
-542.069173
 24
-578.303692
 34
0.0
 50
90.0
100
AcDbRotatedDimension
1001
ACAD
1000
DSTYLE
1002
{
1070
   140
1040
25.0
1070
    40
1040
1.0
1070
    41
1040
25.0
1002
}
  0
DIMENSION
  5
3D71
100
AcDbEntity
  8
V0-VYPLNE
  6
CONTINUOUS
 62
    41
100
AcDbDimension
  2
*D4
 10
-429.450857
 20
-630.408654
 30
0.0
 11
-442.575857
 21
-355.860654
 31
0.0
 70
    32
  3
STANDARD
100
AcDbAlignedDimension
 13
-510.452001
 23
-81.312654
 33
0.0
 14
-510.452001
 24
-630.408654
 34
0.0
 50
90.0
100
AcDbRotatedDimension
1001
ACAD
1000
DSTYLE
1002
{
1070
   140
1040
25.0
1070
    40
1040
1.0
1070
    41
1040
25.0
1002
}
  0
LINE
  5
3D72
100
AcDbEntity
  8
V0-OBRYS
  6
CONTINUOUS
 62
    90
100
AcDbLine
 10
-509.72445
 20
-355.860654
 30
0.0
 11
-509.72445
 21
-82.040205
 31
0.0
  0
LINE
  5
3D73
100
AcDbEntity
  8
V0-OBRYS
  6
CONTINUOUS
 62
    90
100
AcDbLine
 10
-532.19245
 20
-355.860654
 30
0.0
 11
-532.19245
 21
-109.260654
 31
0.0
  0
LINE
  5
3D74
100
AcDbEntity
  8
V0-OBRYS
  6
CONTINUOUS
 62
    90
100
AcDbLine
 10
-1036.35245
 20
-355.860654
 30
0.0
 11
-1036.35245
 21
-109.260654
 31
0.0
  0
LINE
  5
3D75
100
AcDbEntity
  8
V0-OBRYS
  6
CONTINUOUS
 62
    90
100
AcDbLine
 10
-1058.82045
 20
-355.860654
 30
0.0
 11
-1058.82045
 21
-82.040205
 31
0.0
  0
DIMENSION
  5
3D76
100
AcDbEntity
  8
V0-VYPLNE
  6
CONTINUOUS
 62
    41
 48
2.0
100
AcDbDimension
  2
*D5
 10
-1030.562373
 20
-421.938438
 30
0.0
 11
-702.27245
 21
-333.860654
 31
0.0
 70
   163
  3
STANDARD
100
AcDbDiametricDimension
 15
-537.982526
 25
-289.78287
 35
0.0
 40
0.0
1001
ACAD
1000
DSTYLE
1002
{
1070
   140
1040
25.0
1070
    40
1040
1.0
1070
    41
1040
25.0
1002
}
  0
DIMENSION
  5
3D77
100
AcDbEntity
  8
V0-VYPLNE
  6
CONTINUOUS
 62
    41
100
AcDbDimension
  2
*D6
 10
-509.72445
 20
-709.57999
 30
0.0
 11
-784.27245
 21
-696.45499
 31
0.0
 70
    32
  3
STANDARD
100
AcDbAlignedDimension
 13
-1058.82045
 23
-629.681103
 33
0.0
 14
-509.72445
 24
-629.681103
 34
0.0
100
AcDbRotatedDimension
1001
ACAD
1000
DSTYLE
1002
{
1070
   140
1040
25.0
1070
    40
1040
1.0
1070
    41
1040
25.0
1002
}
  0
DIMENSION
  5
3D78
100
AcDbEntity
  8
V0-VYPLNE
  6
CONTINUOUS
 62
    41
100
AcDbDimension
  2
*D7
 10
-561.829412
 20
-668.949995
 30
0.0
 11
-784.27245
 21
-655.824995
 31
0.0
 70
    32
  3
STANDARD
100
AcDbAlignedDimension
 13
-1006.715488
 23
-592.418148
 33
0.0
 14
-561.829412
 24
-592.418148
 34
0.0
100
AcDbRotatedDimension
1001
ACAD
1000
DSTYLE
1002
{
1070
   140
1040
25.0
1070
    40
1040
1.0
1070
    41
1040
25.0
1002
}
  0
LINE
  5
3D79
100
AcDbEntity
  8
V0-OBRYS
  6
CONTINUOUS
 62
    90
100
AcDbLine
 10
-510.452001
 20
-630.408654
 30
0.0
 11
-784.27245
 21
-630.408654
 31
0.0
  0
LINE
  5
3D7A
100
AcDbEntity
  8
V0-OBRYS
  6
CONTINUOUS
 62
    90
100
AcDbLine
 10
-784.27245
 20
-607.940654
 30
0.0
 11
-537.67245
 21
-607.940654
 31
0.0
  0
LINE
  5
3D7B
100
AcDbEntity
  8
V0-OBRYS
  6
CONTINUOUS
 62
    90
100
AcDbLine
 10
-1036.35245
 20
-381.266675
 30
0.0
 11
-532.19245
 21
-381.266675
 31
0.0
  0
LINE
  5
3D7C
100
AcDbEntity
  8
V0-OBRYS
  6
CONTINUOUS
 62
    90
100
AcDbLine
 10
-1036.35245
 20
-434.901608
 30
0.0
 11
-532.19245
 21
-434.901608
 31
0.0
  0
LINE
  5
3D7D
100
AcDbEntity
  8
V0-OBRYS
  6
CONTINUOUS
 62
    90
100
AcDbLine
 10
-1036.35245
 20
-488.536542
 30
0.0
 11
-532.19245
 21
-488.536542
 31
0.0
  0
LINE
  5
3D7E
100
AcDbEntity
  8
V0-OBRYS
  6
CONTINUOUS
 62
    90
100
AcDbLine
 10
-1036.35245
 20
-542.171475
 30
0.0
 11
-532.19245
 21
-542.171475
 31
0.0
  0
LINE
  5
3D7F
100
AcDbEntity
  8
V0-VYPLNE
  6
DASHDOT
 62
    63
 48
3.0
100
AcDbLine
 10
-1083.950434
 20
-355.860654
 30
0.0
 11
-501.194533
 21
-355.860654
 31
0.0
  0
LINE
  5
3D80
100
AcDbEntity
  8
V0-OBRYS
  6
CONTINUOUS
 62
    90
100
AcDbLine
 10
-1058.092899
 20
-630.408654
 30
0.0
 11
-784.27245
 21
-630.408654
 31
0.0
  0
LINE
  5
3D81
100
AcDbEntity
  8
V0-OBRYS
  6
CONTINUOUS
 62
    90
100
AcDbLine
 10
-784.27245
 20
-607.940654
 30
0.0
 11
-1030.87245
 21
-607.940654
 31
0.0
  0
LINE
  5
3D82
100
AcDbEntity
  8
V0-OBRYS
  6
CONTINUOUS
 62
    90
100
AcDbLine
 10
-1032.686878
 20
-327.631742
 30
0.0
 11
-778.979801
 21
-327.631742
 31
0.0
  0
LINE
  5
3D83
100
AcDbEntity
  8
V0-OBRYS
  6
CONTINUOUS
 62
    90
100
AcDbLine
 10
-1058.82045
 20
-355.860654
 30
0.0
 11
-1058.82045
 21
-629.681103
 31
0.0
  0
LINE
  5
3D84
100
AcDbEntity
  8
V0-OBRYS
  6
CONTINUOUS
 62
    90
100
AcDbLine
 10
-1036.35245
 20
-355.860654
 30
0.0
 11
-1036.35245
 21
-602.460654
 31
0.0
  0
ARC
  5
3D85
100
AcDbEntity
  8
V0-OBRYS
  6
CONTINUOUS
 62
    90
100
AcDbCircle
 10
-1030.87245
 20
-602.460654
 30
0.0
 40
5.48
100
AcDbArc
 50
180.0
 51
270.0
  0
LINE
  5
3D86
100
AcDbEntity
  8
V0-VYPLNE
  6
DASHDOT
 62
    63
 48
2.0
100
AcDbLine
 10
-784.27245
 20
-310.694394
 30
0.0
 11
-784.27245
 21
-618.255078
 31
0.0
  0
LINE
  5
3D87
100
AcDbEntity
  8
V0-VYPLNE
  6
DASHDOT
 62
    63
 48
2.0
100
AcDbLine
 10
-1006.715488
 20
-592.418148
 30
0.0
 11
-1006.715488
 21
-567.012127
 31
0.0
  0
LINE
  5
3D88
100
AcDbEntity
  8
V0-VYPLNE
  6
DASHDOT
 62
    63
 48
2.0
100
AcDbLine
 10
-1026.475726
 20
-578.303692
 30
0.0
 11
-989.77814
 21
-578.303692
 31
0.0
  0
CIRCLE
  5
3D89
100
AcDbEntity
  8
V0-OBRYS
  6
CONTINUOUS
 62
    90
100
AcDbCircle
 10
-1006.715488
 20
-578.303692
 30
0.0
 40
7.057228
  0
POINT
  5
3D8A
100
AcDbEntity
  8
V0-VYPLNE
  6
CONTINUOUS
 62
    52
100
AcDbPoint
 10
-784.27245
 20
-355.860654
 30
0.0
  0
LINE
  5
3D8B
100
AcDbEntity
  8
V0-OBRYS
  6
CONTINUOUS
 62
    90
100
AcDbLine
 10
-509.72445
 20
-355.860654
 30
0.0
 11
-509.72445
 21
-629.681103
 31
0.0
  0
LINE
  5
3D8C
100
AcDbEntity
  8
V0-OBRYS
  6
CONTINUOUS
 62
    90
100
AcDbLine
 10
-532.19245
 20
-355.860654
 30
0.0
 11
-532.19245
 21
-602.460654
 31
0.0
  0
CIRCLE
  5
3D8D
100
AcDbEntity
  8
V0-OBRYS
  6
CONTINUOUS
 62
    90
100
AcDbCircle
 10
-561.829412
 20
-578.303692
 30
0.0
 40
7.057228
  0
LINE
  5
3D8E
100
AcDbEntity
  8
V0-VYPLNE
  6
DASHDOT
 62
    63
 48
2.0
100
AcDbLine
 10
-542.069173
 20
-578.303692
 30
0.0
 11
-578.766759
 21
-578.303692
 31
0.0
  0
LINE
  5
3D8F
100
AcDbEntity
  8
V0-VYPLNE
  6
DASHDOT
 62
    63
 48
2.0
100
AcDbLine
 10
-561.829412
 20
-592.418148
 30
0.0
 11
-561.829412
 21
-567.012127
 31
0.0
  0
ARC
  5
3D90
100
AcDbEntity
  8
V0-OBRYS
  6
CONTINUOUS
 62
    90
100
AcDbCircle
 10
-537.67245
 20
-602.460654
 30
0.0
 40
5.48
100
AcDbArc
 50
270.0
 51
0.0
  0
LINE
  5
3D91
100
AcDbEntity
  8
V0-OBRYS
  6
CONTINUOUS
 62
    90
100
AcDbLine
 10
-656.12368
 20
-327.631742
 30
0.0
 11
-532.19245
 21
-327.631742
 31
0.0
  0
LINE
  5
3D92
100
AcDbEntity
  8
V0-OBRYS
  6
CONTINUOUS
 62
    90
100
AcDbLine
 10
-510.452001
 20
-81.312654
 30
0.0
 11
-784.27245
 21
-81.312654
 31
0.0
  0
LINE
  5
3D93
100
AcDbEntity
  8
V0-OBRYS
  6
CONTINUOUS
 62
    90
100
AcDbLine
 10
-784.27245
 20
-103.780654
 30
0.0
 11
-537.67245
 21
-103.780654
 31
0.0
  0
LINE
  5
3D94
100
AcDbEntity
  8
V0-OBRYS
  6
CONTINUOUS
 62
    90
100
AcDbLine
 10
-1036.35245
 20
-166.726942
 30
0.0
 11
-532.19245
 21
-166.726942
 31
0.0
  0
LINE
  5
3D95
100
AcDbEntity
  8
V0-OBRYS
  6
CONTINUOUS
 62
    90
100
AcDbLine
 10
-1036.35245
 20
-220.361875
 30
0.0
 11
-532.19245
 21
-220.361875
 31
0.0
  0
LINE
  5
3D96
100
AcDbEntity
  8
V0-OBRYS
  6
CONTINUOUS
 62
    90
100
AcDbLine
 10
-1032.686878
 20
-273.996808
 30
0.0
 11
-914.125446
 21
-273.996808
 31
0.0
  0
LINE
  5
3D97
100
AcDbEntity
  8
V0-OBRYS
  6
CONTINUOUS
 62
    90
100
AcDbLine
 10
-784.27245
 20
-103.780654
 30
0.0
 11
-1030.87245
 21
-103.780654
 31
0.0
  0
LINE
  5
3D98
100
AcDbEntity
  8
V0-OBRYS
  6
CONTINUOUS
 62
    90
100
AcDbLine
 10
-1058.092899
 20
-81.312654
 30
0.0
 11
-784.27245
 21
-81.312654
 31
0.0
  0
ARC
  5
3D99
100
AcDbEntity
  8
V0-OBRYS
  6
CONTINUOUS
 62
    90
100
AcDbCircle
 10
-1030.87245
 20
-109.260654
 30
0.0
 40
5.48
100
AcDbArc
 50
90.0
 51
180.0
  0
LEADER
  5
3D9A
100
AcDbEntity
  8
V0-VYPLNE
  6
CONTINUOUS
 62
    41
100
AcDbLeader
  3
STANDARD
 73
     0
 74
     0
 75
     1
 40
28.228912
 41
37.866866
 76
     3
 10
-992.631618
 20
-130.16639
 30
0.0
 10
-837.751815
 20
-43.261566
 30
0.0
 10
-827.751815
 20
-43.261566
 30
0.0
 77
    41
340
3D9F
1001
ACAD
1000
DSTYLE
1002
{
1070
   140
1040
10.0
1070
    40
1040
1.0
1070
    41
1040
10.0
1002
}
  0
LINE
  5
3D9B
100
AcDbEntity
  8
V0-VYPLNE
  6
DASHDOT
 62
    63
 48
2.0
100
AcDbLine
 10
-1020.475726
 20
-133.417616
 30
0.0
 11
-983.77814
 21
-133.417616
 31
0.0
  0
CIRCLE
  5
3D9C
100
AcDbEntity
  8
V0-OBRYS
  6
CONTINUOUS
 62
    90
100
AcDbCircle
 10
-1000.715488
 20
-133.417616
 30
0.0
 40
7.057228
  0
LINE
  5
3D9D
100
AcDbEntity
  8
V0-VYPLNE
  6
DASHDOT
 62
    63
 48
2.0
100
AcDbLine
 10
-1000.715488
 20
-126.036621
 30
0.0
 11
-1000.715488
 21
-157.442642
 31
0.0
  0
LINE
  5
3D9E
100
AcDbEntity
  8
V0-VYPLNE
  6
DASHDOT
 62
    63
 48
2.0
100
AcDbLine
 10
-784.27245
 20
-66.985192
 30
0.0
 11
-784.27245
 21
-234.476331
 31
0.0
  0
MTEXT
  5
3D9F
102
{ACAD_REACTORS
330
3D9A
102
}
100
AcDbEntity
  8
V0-VYPLNE
  6
CONTINUOUS
 62
    41
100
AcDbMText
 10
-827.126815
 20
-28.52211
 30
0.0
 40
28.228912
 41
0.0
 71
     4
 72
     1
  1
%%c5
  0
LINE
  5
3DA0
100
AcDbEntity
  8
V0-OBRYS
  6
CONTINUOUS
 62
    90
100
AcDbLine
 10
-657.242344
 20
-273.996808
 30
0.0
 11
-532.19245
 21
-273.996808
 31
0.0
  0
CIRCLE
  5
3DA1
100
AcDbEntity
  8
V0-OBRYS
  6
CONTINUOUS
 62
    90
100
AcDbCircle
 10
-555.829412
 20
-133.417616
 30
0.0
 40
7.057228
  0
LINE
  5
3DA2
100
AcDbEntity
  8
V0-VYPLNE
  6
DASHDOT
 62
    63
 48
2.0
100
AcDbLine
 10
-536.069173
 20
-133.417616
 30
0.0
 11
-572.766759
 21
-133.417616
 31
0.0
  0
ARC
  5
3DA3
100
AcDbEntity
  8
V0-OBRYS
  6
CONTINUOUS
 62
    90
100
AcDbCircle
 10
-537.67245
 20
-109.260654
 30
0.0
 40
5.48
100
AcDbArc
 50
0.0
 51
90.0
  0
LINE
  5
3DA4
100
AcDbEntity
  8
V0-VYPLNE
  6
DASHDOT
 62
    63
 48
2.0
100
AcDbLine
 10
-555.829412
 20
-126.036621
 30
0.0
 11
-555.829412
 21
-157.442642
 31
0.0
  0
DIMENSION
  5
3F50
100
AcDbEntity
  8
V0-ZBYTEK
 62
    41
 48
2.0
100
AcDbDimension
  2
*D10
 10
-243.784433
 20
-688.860654
 30
0.0
 11
-264.528441
 21
-678.233685
 31
0.0
 70
    32
  3
STANDARD
100
AcDbAlignedDimension
 13
-285.27245
 23
-629.932545
 33
0.0
 14
-243.784433
 24
-585.138686
 34
0.0
100
AcDbRotatedDimension
1001
ACAD
1000
DSTYLE
1002
{
1070
   140
1040
20.0
1070
    40
1040
1.0
1070
    41
1040
20.0
1002
}
  0
VIEWPORT
  5
22
100
AcDbEntity
 67
     1
  8
0
100
AcDbViewport
 10
261.517699
 20
165.390006
 30
0.0
 40
523.035398
 41
330.780011
 68
    -1
 69
     1
1001
ACAD
1000
MVIEW
1002
{
1070
    16
1010
0.0
1020
0.0
1030
0.0
1010
0.0
1020
0.0
1030
1.0
1040
0.0
1040
330.780011
1040
261.517699
1040
165.390006
1040
50.0
1040
0.0
1040
0.0
1070
     0
1070
   100
1070
     1
1070
     0
1070
     0
1070
     0
1070
     0
1070
     0
1040
0.0
1040
0.0
1040
0.0
1040
1.0
1040
1.0
1040
10.0
1040
10.0
1070
     0
1002
{
1002
}
1002
}
  0
ENDSEC
  0
SECTION
  2
OBJECTS
  0
DICTIONARY
  5
C
100
AcDbDictionary
  3
ACAD_GROUP
350
D
  3
ACAD_MLINESTYLE
350
E
  3
ACDBVARIABLEDICTIONARY
350
86C
  3
CONTENTDICTIONARY
350
905
  0
DICTIONARY
  5
D
102
{ACAD_REACTORS
330
C
102
}
100
AcDbDictionary
  0
DICTIONARY
  5
E
102
{ACAD_REACTORS
330
C
102
}
100
AcDbDictionary
  3
STANDARD
350
13
  0
DICTIONARY
  5
86C
102
{ACAD_REACTORS
330
C
102
}
100
AcDbDictionary
  3
SORTENTS
350
86D
  0
DICTIONARY
  5
905
102
{ACAD_REACTORS
330
C
102
}
100
AcDbDictionary
  0
MLINESTYLE
  5
13
102
{ACAD_REACTORS
330
E
102
}
100
AcDbMlineStyle
  2
STANDARD
 70
     0
  3

 62
     0
 51
90.0
 52
90.0
 71
     2
 49
0.5
 62
   256
  6
BYLAYER
 49
-0.5
 62
   256
  6
BYLAYER
  0
DICTIONARYVAR
  5
86D
102
{ACAD_REACTORS
330
86C
102
}
100
DictionaryVariables
280
     0
  1
96
  0
ENDSEC
  0
EOF
