  0
SECTION
  2
HEADER
  9
$ACADVER
  1
AC1014
  9
$ACADMAINTVER
 70
     0
  9
$DWGCODEPAGE
  3
ANSI_1250
  9
$INSBASE
 10
0.0
 20
0.0
 30
0.0
  9
$EXTMIN
 10
-1057.701267
 20
-850.972646
 30
0.0
  9
$EXTMAX
 10
-210.29745
 20
-45.603761
 30
0.0
  9
$LIMMIN
 10
-1040.805314
 20
-347.068924
  9
$LIMMAX
 10
643.686187
 20
495.293187
  9
$ORTHOMODE
 70
     0
  9
$REGENMODE
 70
     1
  9
$FILLMODE
 70
     1
  9
$QTEXTMODE
 70
     0
  9
$MIRRTEXT
 70
     1
  9
$DRAGMODE
 70
     2
  9
$LTSCALE
 40
15.0
  9
$OSMODE
 70
  1023
  9
$ATTMODE
 70
     1
  9
$TEXTSIZE
 40
15.0
  9
$TRACEWID
 40
5.0
  9
$TEXTSTYLE
  7
STANDARD
  9
$CLAYER
  8
0
  9
$CELTYPE
  6
BYLAYER
  9
$CECOLOR
 62
   256
  9
$CELTSCALE
 40
2.0
  9
$DELOBJ
 70
     1
  9
$DISPSILH
 70
     0
  9
$DIMSCALE
 40
1.0
  9
$DIMASZ
 40
20.0
  9
$DIMEXO
 40
0.0625
  9
$DIMDLI
 40
0.38
  9
$DIMRND
 40
0.0
  9
$DIMDLE
 40
0.0
  9
$DIMEXE
 40
0.18
  9
$DIMTP
 40
0.0
  9
$DIMTM
 40
0.0
  9
$DIMTXT
 40
20.0
  9
$DIMCEN
 40
0.0
  9
$DIMTSZ
 40
0.0
  9
$DIMTOL
 70
     0
  9
$DIMLIM
 70
     0
  9
$DIMTIH
 70
     0
  9
$DIMTOH
 70
     0
  9
$DIMSE1
 70
     0
  9
$DIMSE2
 70
     0
  9
$DIMTAD
 70
     1
  9
$DIMZIN
 70
     0
  9
$DIMBLK
  1

  9
$DIMASO
 70
     1
  9
$DIMSHO
 70
     1
  9
$DIMPOST
  1

  9
$DIMAPOST
  1

  9
$DIMALT
 70
     0
  9
$DIMALTD
 70
     2
  9
$DIMALTF
 40
25.4
  9
$DIMLFAC
 40
1.0
  9
$DIMTOFL
 70
     0
  9
$DIMTVP
 40
0.0
  9
$DIMTIX
 70
     0
  9
$DIMSOXD
 70
     0
  9
$DIMSAH
 70
     1
  9
$DIMBLK1
  1
_OPEN
  9
$DIMBLK2
  1
_OPEN
  9
$DIMSTYLE
  2
STANDARD
  9
$DIMCLRD
 70
     0
  9
$DIMCLRE
 70
     0
  9
$DIMCLRT
 70
     0
  9
$DIMTFAC
 40
1.0
  9
$DIMGAP
 40
0.625
  9
$DIMJUST
 70
     0
  9
$DIMSD1
 70
     0
  9
$DIMSD2
 70
     0
  9
$DIMTOLJ
 70
     1
  9
$DIMTZIN
 70
     0
  9
$DIMALTZ
 70
     0
  9
$DIMALTTZ
 70
     0
  9
$DIMFIT
 70
     0
  9
$DIMUPT
 70
     0
  9
$DIMUNIT
 70
     2
  9
$DIMDEC
 70
     0
  9
$DIMTDEC
 70
     4
  9
$DIMALTU
 70
     2
  9
$DIMALTTD
 70
     2
  9
$DIMTXSTY
  7
STANDARD
  9
$DIMAUNIT
 70
     0
  9
$LUNITS
 70
     2
  9
$LUPREC
 70
     4
  9
$SKETCHINC
 40
1.0
  9
$FILLETRAD
 40
5.0
  9
$AUNITS
 70
     0
  9
$AUPREC
 70
     0
  9
$MENU
  1
.
  9
$ELEVATION
 40
0.0
  9
$PELEVATION
 40
0.0
  9
$THICKNESS
 40
0.0
  9
$LIMCHECK
 70
     0
  9
$BLIPMODE
 70
     1
  9
$CHAMFERA
 40
10.0
  9
$CHAMFERB
 40
10.0
  9
$CHAMFERC
 40
20.0
  9
$CHAMFERD
 40
0.0
  9
$SKPOLY
 70
     0
  9
$TDCREATE
 40
2450763.421427893
  9
$TDUPDATE
 40
2453315.714123055
  9
$TDINDWG
 40
1.4944779398
  9
$TDUSRTIMER
 40
1.4944779398
  9
$USRTIMER
 70
     1
  9
$ANGBASE
 50
0.0
  9
$ANGDIR
 70
     0
  9
$PDMODE
 70
     3
  9
$PDSIZE
 40
-5.0
  9
$PLINEWID
 40
0.0
  9
$COORDS
 70
     2
  9
$SPLFRAME
 70
     0
  9
$SPLINETYPE
 70
     6
  9
$SPLINESEGS
 70
     8
  9
$ATTDIA
 70
     0
  9
$ATTREQ
 70
     1
  9
$HANDLING
 70
     1
  9
$HANDSEED
  5
3AF4
  9
$SURFTAB1
 70
     6
  9
$SURFTAB2
 70
     6
  9
$SURFTYPE
 70
     6
  9
$SURFU
 70
     6
  9
$SURFV
 70
     6
  9
$UCSNAME
  2

  9
$UCSORG
 10
-784.27244973706
 20
-805.860653870855
 30
0.0
  9
$UCSXDIR
 10
1.0
 20
0.0
 30
0.0
  9
$UCSYDIR
 10
0.0
 20
1.0
 30
0.0
  9
$PUCSNAME
  2

  9
$PUCSORG
 10
0.0
 20
0.0
 30
0.0
  9
$PUCSXDIR
 10
1.0
 20
0.0
 30
0.0
  9
$PUCSYDIR
 10
0.0
 20
1.0
 30
0.0
  9
$USERI1
 70
     0
  9
$USERI2
 70
     0
  9
$USERI3
 70
     0
  9
$USERI4
 70
     0
  9
$USERI5
 70
     0
  9
$USERR1
 40
0.0
  9
$USERR2
 40
0.0
  9
$USERR3
 40
0.0
  9
$USERR4
 40
0.0
  9
$USERR5
 40
0.0
  9
$WORLDVIEW
 70
     1
  9
$SHADEDGE
 70
     3
  9
$SHADEDIF
 70
    70
  9
$TILEMODE
 70
     1
  9
$MAXACTVP
 70
    16
  9
$PINSBASE
 10
0.0
 20
0.0
 30
0.0
  9
$PLIMCHECK
 70
     0
  9
$PEXTMIN
 10
131.177948
 20
159.528081
 30
0.0
  9
$PEXTMAX
 10
254.393018
 20
159.528081
 30
0.0
  9
$PLIMMIN
 10
0.0
 20
0.0
  9
$PLIMMAX
 10
420.0
 20
297.0
  9
$UNITMODE
 70
     0
  9
$VISRETAIN
 70
     0
  9
$PLINEGEN
 70
     0
  9
$PSLTSCALE
 70
     0
  9
$TREEDEPTH
 70
  3020
  9
$PICKSTYLE
 70
     1
  9
$CMLSTYLE
  2
STANDARD
  9
$CMLJUST
 70
     0
  9
$CMLSCALE
 40
1.0
  9
$PROXYGRAPHICS
 70
     1
  9
$MEASUREMENT
 70
     1
  0
ENDSEC
  0
SECTION
  2
CLASSES
  0
CLASS
  1
LWPOLYLINE
  2
AcDbPolyline
  3
"AutoCAD"
 90
        0
280
     0
281
     1
  0
CLASS
  1
DICTIONARYVAR
  2
AcDbDictionaryVar
  3
"AutoCAD"
 90
        0
280
     0
281
     0
  0
CLASS
  1
HATCH
  2
AcDbHatch
  3
"ACAD_SEDONA"
 90
        0
280
     0
281
     1
  0
ENDSEC
  0
SECTION
  2
TABLES
  0
TABLE
  2
VPORT
  5
8
100
AcDbSymbolTable
 70
     2
  0
VPORT
  5
3AF3
100
AcDbSymbolTableRecord
100
AcDbViewportTableRecord
  2
*ACTIVE
 70
     0
 10
0.0
 20
0.0
 11
1.0
 21
1.0
 12
-634.27245
 22
-408.592664
 13
0.0
 23
0.0
 14
1.0
 24
1.0
 15
50.0
 25
50.0
 16
0.0
 26
0.0
 36
1.0
 17
0.0
 27
0.0
 37
0.0
 40
920.53598
 41
1.523346
 42
50.0
 43
0.0
 44
0.0
 50
0.0
 51
0.0
 71
     0
 72
   100
 73
     1
 74
     0
 75
     1
 76
     0
 77
     0
 78
     0
  0
ENDTAB
  0
TABLE
  2
LTYPE
  5
5
100
AcDbSymbolTable
 70
     4
  0
LTYPE
  5
14
100
AcDbSymbolTableRecord
100
AcDbLinetypeTableRecord
  2
BYBLOCK
 70
     0
  3

 72
    65
 73
     0
 40
0.0
  0
LTYPE
  5
15
100
AcDbSymbolTableRecord
100
AcDbLinetypeTableRecord
  2
BYLAYER
 70
     0
  3

 72
    65
 73
     0
 40
0.0
  0
LTYPE
  5
16
100
AcDbSymbolTableRecord
100
AcDbLinetypeTableRecord
  2
CONTINUOUS
 70
     0
  3
Solid line
 72
    65
 73
     0
 40
0.0
  0
LTYPE
  5
1D7
100
AcDbSymbolTableRecord
100
AcDbLinetypeTableRecord
  2
DASHED
 70
     0
  3
__ __ __ __ __ __ __ __ __ __ __ __ __ __ __ __
 72
    65
 73
     2
 40
0.75
 49
0.5
 74
     0
 49
-0.25
 74
     0
  0
LTYPE
  5
492
100
AcDbSymbolTableRecord
100
AcDbLinetypeTableRecord
  2
DASHDOT
 70
     0
  3
__ . __ . __ . __ . __ . __ . __ . __ . __ . __
 72
    65
 73
     4
 40
1.0
 49
0.5
 74
     0
 49
-0.25
 74
     0
 49
0.0
 74
     0
 49
-0.25
 74
     0
  0
LTYPE
  5
39DE
100
AcDbSymbolTableRecord
100
AcDbLinetypeTableRecord
  2
DOT
 70
     0
  3
Dot . . . . . . . . . . . . . . . . . . . . . .
 72
    65
 73
     2
 40
6.35
 49
0.0
 74
     0
 49
-6.35
 74
     0
  0
ENDTAB
  0
TABLE
  2
LAYER
  5
2
100
AcDbSymbolTable
 70
     6
  0
LAYER
  5
F
100
AcDbSymbolTableRecord
100
AcDbLayerTableRecord
  2
0
 70
     0
 62
     7
  6
CONTINUOUS
  0
LAYER
  5
1A22
100
AcDbSymbolTableRecord
100
AcDbLayerTableRecord
  2
DEFPOINTS
 70
     0
 62
     7
  6
CONTINUOUS
  0
LAYER
  5
39DF
100
AcDbSymbolTableRecord
100
AcDbLayerTableRecord
  2
V0-OBRYS
 70
     0
 62
    90
  6
CONTINUOUS
  0
LAYER
  5
39E0
100
AcDbSymbolTableRecord
100
AcDbLayerTableRecord
  2
V0-VYPLNE
 70
     0
 62
    52
  6
CONTINUOUS
  0
LAYER
  5
39E1
100
AcDbSymbolTableRecord
100
AcDbLayerTableRecord
  2
V0-NAZVY
 70
     0
 62
   210
  6
CONTINUOUS
  0
LAYER
  5
39E2
100
AcDbSymbolTableRecord
100
AcDbLayerTableRecord
  2
V0-ZBYTEK
 70
     0
 62
    51
  6
CONTINUOUS
  0
ENDTAB
  0
TABLE
  2
STYLE
  5
3
100
AcDbSymbolTable
 70
     6
  0
STYLE
  5
10
100
AcDbSymbolTableRecord
100
AcDbTextStyleTableRecord
  2
STANDARD
 70
     0
 40
0.0
 41
1.0
 50
0.0
 71
     0
 42
15.0
  3
ISOCP.shx
  4

  0
STYLE
  5
39E3
100
AcDbSymbolTableRecord
100
AcDbTextStyleTableRecord
  2
ED
 70
     0
 40
20.0
 41
1.0
 50
0.0
 71
     0
 42
2.5
  3
ISOCP.shx
  4

  0
STYLE
  5
39E4
100
AcDbSymbolTableRecord
100
AcDbTextStyleTableRecord
  2
EDVENT
 70
     0
 40
10.0
 41
1.0
 50
0.0
 71
     0
 42
2.5
  3
ISOCP.shx
  4

  0
STYLE
  5
39E5
100
AcDbSymbolTableRecord
100
AcDbTextStyleTableRecord
  2
E
 70
     0
 40
25.0
 41
1.0
 50
0.0
 71
     0
 42
2.5
  3
ISOCP.shx
  4

  0
STYLE
  5
39E6
100
AcDbSymbolTableRecord
100
AcDbTextStyleTableRecord
  2
ED-VENT
 70
     0
 40
25.0
 41
1.0
 50
0.0
 71
     0
 42
2.5
  3
ISOCP.shx
  4

  0
STYLE
  5
39E7
100
AcDbSymbolTableRecord
100
AcDbTextStyleTableRecord
  2
ED2
 70
     0
 40
25.0
 41
1.0
 50
0.0
 71
     0
 42
2.5
  3
ISOCP.shx
  4

  0
ENDTAB
  0
TABLE
  2
VIEW
  5
6
100
AcDbSymbolTable
 70
     0
  0
ENDTAB
  0
TABLE
  2
UCS
  5
7
100
AcDbSymbolTable
 70
     0
  0
ENDTAB
  0
TABLE
  2
APPID
  5
9
100
AcDbSymbolTable
 70
     4
  0
APPID
  5
11
100
AcDbSymbolTableRecord
100
AcDbRegAppTableRecord
  2
ACAD
 70
     0
  0
APPID
  5
906
100
AcDbSymbolTableRecord
100
AcDbRegAppTableRecord
  2
CONTENTTABDATA
 70
     0
  0
APPID
  5
907
100
AcDbSymbolTableRecord
100
AcDbRegAppTableRecord
  2
CONTENTCURRENTTAB
 70
     0
  0
APPID
  5
908
100
AcDbSymbolTableRecord
100
AcDbRegAppTableRecord
  2
CONTENTBLOCKDESCRIPTION
 70
     0
  0
ENDTAB
  0
TABLE
  2
DIMSTYLE
  5
A
100
AcDbSymbolTable
 70
     3
  0
DIMSTYLE
105
1D
102
{ACAD_REACTORS
330
3A0F
330
3A10
330
3A03
330
3A04
330
3A0D
330
3769
330
3783
330
37AB
330
370D
330
375C
330
3A75
330
3A76
330
3861
330
3877
102
}
100
AcDbSymbolTableRecord
100
AcDbDimStyleTableRecord
  2
STANDARD
 70
     0
  3

  4

  5

  6
_OPEN
  7
_OPEN
 40
5.0
 41
3.5
 42
0.0625
 43
0.38
 44
0.18
 45
0.0
 46
0.0
 47
0.0
 48
0.0
140
3.5
141
0.0
142
0.0
143
25.4
144
1.0
145
0.0
146
1.0
147
0.625
 71
     0
 72
     0
 73
     0
 74
     0
 75
     0
 76
     0
 77
     1
 78
     0
170
     0
171
     2
172
     0
173
     1
174
     0
175
     0
176
     0
177
     0
178
     0
270
     2
271
     0
272
     4
273
     2
274
     2
340
10
275
     0
280
     0
281
     0
282
     0
283
     1
284
     0
285
     0
286
     0
287
     0
288
     0
  0
DIMSTYLE
105
39E8
100
AcDbSymbolTableRecord
100
AcDbDimStyleTableRecord
  2
ED
 70
     0
  3

  4

  5

  6
_OPEN
  7
_OPEN
 40
0.0
 41
15.0
 42
0.625
 43
3.75
 44
1.25
 45
0.0
 46
0.0
 47
0.0
 48
0.0
140
15.0
141
2.5
142
0.0
143
0.0394
144
1.0
145
0.0
146
1.0
147
3.0
 71
     0
 72
     0
 73
     0
 74
     0
 75
     0
 76
     0
 77
     1
 78
     8
170
     0
171
     4
172
     1
173
     1
174
     0
175
     0
176
     0
177
     0
178
     0
270
     2
271
     0
272
     1
273
     8
274
     4
340
39E3
275
     0
280
     0
281
     0
282
     0
283
     1
284
     8
285
     0
286
     0
287
     3
288
     0
  0
DIMSTYLE
105
39E9
100
AcDbSymbolTableRecord
100
AcDbDimStyleTableRecord
  2
ED2
 70
     0
  3

  4

  5

  6
_OPEN
  7
_OPEN
 40
0.0
 41
25.0
 42
0.625
 43
3.75
 44
1.25
 45
0.0
 46
0.0
 47
0.0
 48
0.0
140
30.0
141
2.5
142
0.0
143
0.0394
144
1.0
145
0.0
146
1.0
147
5.0
 71
     0
 72
     0
 73
     0
 74
     0
 75
     0
 76
     0
 77
     1
 78
     8
170
     0
171
     4
172
     1
173
     1
174
     0
175
     0
176
     0
177
     0
178
     0
270
     2
271
     0
272
     1
273
     8
274
     4
340
39E3
275
     0
280
     0
281
     0
282
     0
283
     1
284
     8
285
     0
286
     0
287
     3
288
     0
  0
ENDTAB
  0
TABLE
  2
BLOCK_RECORD
  5
1
100
AcDbSymbolTable
 70
    18
  0
BLOCK_RECORD
  5
1A
100
AcDbSymbolTableRecord
100
AcDbBlockTableRecord
  2
*MODEL_SPACE
  0
BLOCK_RECORD
  5
17
100
AcDbSymbolTableRecord
100
AcDbBlockTableRecord
  2
*PAPER_SPACE
  0
BLOCK_RECORD
  5
1A05
100
AcDbSymbolTableRecord
100
AcDbBlockTableRecord
  2
_OPEN
  0
BLOCK_RECORD
  5
3701
100
AcDbSymbolTableRecord
100
AcDbBlockTableRecord
  2
*D1
  0
BLOCK_RECORD
  5
3750
100
AcDbSymbolTableRecord
100
AcDbBlockTableRecord
  2
*D2
  0
BLOCK_RECORD
  5
375D
100
AcDbSymbolTableRecord
100
AcDbBlockTableRecord
  2
*D3
  0
BLOCK_RECORD
  5
3777
100
AcDbSymbolTableRecord
100
AcDbBlockTableRecord
  2
*D4
  0
BLOCK_RECORD
  5
37A2
100
AcDbSymbolTableRecord
100
AcDbBlockTableRecord
  2
*D5
  0
BLOCK_RECORD
  5
3854
100
AcDbSymbolTableRecord
100
AcDbBlockTableRecord
  2
*D6
  0
BLOCK_RECORD
  5
386A
100
AcDbSymbolTableRecord
100
AcDbBlockTableRecord
  2
*D7
  0
BLOCK_RECORD
  5
39FB
100
AcDbSymbolTableRecord
100
AcDbBlockTableRecord
  2
PAR-450W-N
  0
BLOCK_RECORD
  5
3A35
100
AcDbSymbolTableRecord
100
AcDbBlockTableRecord
  2
*D9
  0
BLOCK_RECORD
  5
3A41
100
AcDbSymbolTableRecord
100
AcDbBlockTableRecord
  2
*D10
  0
BLOCK_RECORD
  5
3A4D
100
AcDbSymbolTableRecord
100
AcDbBlockTableRecord
  2
*D11
  0
BLOCK_RECORD
  5
3A56
100
AcDbSymbolTableRecord
100
AcDbBlockTableRecord
  2
*D12
  0
BLOCK_RECORD
  5
3A62
100
AcDbSymbolTableRecord
100
AcDbBlockTableRecord
  2
*D13
  0
BLOCK_RECORD
  5
3A6E
100
AcDbSymbolTableRecord
100
AcDbBlockTableRecord
  2
PAR-450W-B
  0
BLOCK_RECORD
  5
3ABC
100
AcDbSymbolTableRecord
100
AcDbBlockTableRecord
  2
*D15
  0
BLOCK_RECORD
  5
3AC9
100
AcDbSymbolTableRecord
100
AcDbBlockTableRecord
  2
*D16
  0
BLOCK_RECORD
  5
3AD6
100
AcDbSymbolTableRecord
100
AcDbBlockTableRecord
  2
PAR-450W-P
  0
ENDTAB
  0
ENDSEC
  0
SECTION
  2
BLOCKS
  0
BLOCK
  5
1B
100
AcDbEntity
  8
0
100
AcDbBlockBegin
  2
*MODEL_SPACE
 70
     0
 10
0.0
 20
0.0
 30
0.0
  3
*MODEL_SPACE
  1

  0
ENDBLK
  5
1C
100
AcDbEntity
  8
0
100
AcDbBlockEnd
  0
BLOCK
  5
18
100
AcDbEntity
 67
     1
  8
0
100
AcDbBlockBegin
  2
*PAPER_SPACE
 70
     0
 10
0.0
 20
0.0
 30
0.0
  3
*PAPER_SPACE
  1

  0
ENDBLK
  5
19
100
AcDbEntity
 67
     1
  8
0
100
AcDbBlockEnd
  0
BLOCK
  5
1A09
100
AcDbEntity
  8
0
100
AcDbBlockBegin
  2
_OPEN
 70
     0
 10
0.0
 20
0.0
 30
0.0
  3
_OPEN
  1

  0
LINE
  5
1A06
100
AcDbEntity
  8
0
  6
BYBLOCK
 62
     0
100
AcDbLine
 10
-1.0
 20
0.166667
 30
0.0
 11
0.0
 21
0.0
 31
0.0
  0
LINE
  5
1A07
100
AcDbEntity
  8
0
  6
BYBLOCK
 62
     0
100
AcDbLine
 10
0.0
 20
0.0
 30
0.0
 11
-1.0
 21
-0.166667
 31
0.0
  0
LINE
  5
1A08
100
AcDbEntity
  8
0
  6
BYBLOCK
 62
     0
100
AcDbLine
 10
0.0
 20
0.0
 30
0.0
 11
-1.0
 21
0.0
 31
0.0
  0
ENDBLK
  5
1A0A
100
AcDbEntity
  8
0
100
AcDbBlockEnd
  0
BLOCK
  5
3702
100
AcDbEntity
  8
0
 48
2.0
100
AcDbBlockBegin
  2
*D1
 70
     1
 10
0.0
 20
0.0
 30
0.0
  3
*D1
  1

  0
LINE
  5
3703
100
AcDbEntity
  8
0
  6
BYBLOCK
 62
     0
 48
2.0
100
AcDbLine
 10
-981.756973
 20
-566.285831
 30
0.0
 11
-981.756973
 21
-641.706111
 31
0.0
  0
LINE
  5
3704
100
AcDbEntity
  8
0
  6
BYBLOCK
 62
     0
 48
2.0
100
AcDbLine
 10
-586.787926
 20
-566.285831
 30
0.0
 11
-586.787926
 21
-641.706111
 31
0.0
  0
LINE
  5
3705
100
AcDbEntity
  8
0
  6
BYBLOCK
 62
     0
 48
2.0
100
AcDbLine
 10
-961.756973
 20
-641.526111
 30
0.0
 11
-606.787926
 21
-641.526111
 31
0.0
  0
INSERT
  5
3706
100
AcDbEntity
  8
0
  6
BYBLOCK
 62
     0
 48
2.0
100
AcDbBlockReference
  2
_OPEN
 10
-981.756973
 20
-641.526111
 30
0.0
 41
20.0
 42
20.0
 43
20.0
 50
180.0
  0
INSERT
  5
3707
100
AcDbEntity
  8
0
  6
BYBLOCK
 62
     0
 48
2.0
100
AcDbBlockReference
  2
_OPEN
 10
-586.787926
 20
-641.526111
 30
0.0
 41
20.0
 42
20.0
 43
20.0
  0
MTEXT
  5
3708
100
AcDbEntity
  8
0
  6
BYBLOCK
 62
     0
 48
2.0
100
AcDbMText
 10
-784.27245
 20
-630.901111
 30
0.0
 40
20.0
 41
0.0
 71
     5
 72
     1
  1
\A1;395
  0
POINT
  5
3709
100
AcDbEntity
  8
DEFPOINTS
  6
BYBLOCK
 62
     0
 48
2.0
100
AcDbPoint
 10
-981.756973
 20
-566.223331
 30
0.0
  0
POINT
  5
370A
100
AcDbEntity
  8
DEFPOINTS
  6
BYBLOCK
 62
     0
 48
2.0
100
AcDbPoint
 10
-586.787926
 20
-566.223331
 30
0.0
  0
POINT
  5
370B
100
AcDbEntity
  8
DEFPOINTS
  6
BYBLOCK
 62
     0
 48
2.0
100
AcDbPoint
 10
-586.787926
 20
-641.526111
 30
0.0
  0
ENDBLK
  5
370C
100
AcDbEntity
  8
0
 48
2.0
100
AcDbBlockEnd
  0
BLOCK
  5
3751
100
AcDbEntity
  8
0
 48
2.0
100
AcDbBlockBegin
  2
*D2
 70
     1
 10
0.0
 20
0.0
 30
0.0
  3
*D2
  1

  0
LINE
  5
3752
100
AcDbEntity
  8
0
  6
BYBLOCK
 62
     0
 48
2.0
100
AcDbLine
 10
-1034.77245
 20
-605.75933
 30
0.0
 11
-1034.77245
 21
-678.777274
 31
0.0
  0
LINE
  5
3753
100
AcDbEntity
  8
0
  6
BYBLOCK
 62
     0
 48
2.0
100
AcDbLine
 10
-533.77245
 20
-605.75933
 30
0.0
 11
-533.77245
 21
-678.777274
 31
0.0
  0
LINE
  5
3754
100
AcDbEntity
  8
0
  6
BYBLOCK
 62
     0
 48
2.0
100
AcDbLine
 10
-1014.77245
 20
-678.597274
 30
0.0
 11
-553.77245
 21
-678.597274
 31
0.0
  0
INSERT
  5
3755
100
AcDbEntity
  8
0
  6
BYBLOCK
 62
     0
 48
2.0
100
AcDbBlockReference
  2
_OPEN
 10
-1034.77245
 20
-678.597274
 30
0.0
 41
20.0
 42
20.0
 43
20.0
 50
180.0
  0
INSERT
  5
3756
100
AcDbEntity
  8
0
  6
BYBLOCK
 62
     0
 48
2.0
100
AcDbBlockReference
  2
_OPEN
 10
-533.77245
 20
-678.597274
 30
0.0
 41
20.0
 42
20.0
 43
20.0
  0
MTEXT
  5
3757
100
AcDbEntity
  8
0
  6
BYBLOCK
 62
     0
 48
2.0
100
AcDbMText
 10
-784.27245
 20
-667.972274
 30
0.0
 40
20.0
 41
0.0
 71
     5
 72
     1
  1
\A1;501
  0
POINT
  5
3758
100
AcDbEntity
  8
DEFPOINTS
  6
BYBLOCK
 62
     0
 48
2.0
100
AcDbPoint
 10
-1034.77245
 20
-605.69683
 30
0.0
  0
POINT
  5
3759
100
AcDbEntity
  8
DEFPOINTS
  6
BYBLOCK
 62
     0
 48
2.0
100
AcDbPoint
 10
-533.77245
 20
-605.69683
 30
0.0
  0
POINT
  5
375A
100
AcDbEntity
  8
DEFPOINTS
  6
BYBLOCK
 62
     0
 48
2.0
100
AcDbPoint
 10
-533.77245
 20
-678.597274
 30
0.0
  0
ENDBLK
  5
375B
100
AcDbEntity
  8
0
 48
2.0
100
AcDbBlockEnd
  0
BLOCK
  5
375E
100
AcDbEntity
  8
0
 48
2.0
100
AcDbBlockBegin
  2
*D3
 70
     1
 10
0.0
 20
0.0
 30
0.0
  3
*D3
  1

  0
LINE
  5
375F
100
AcDbEntity
  8
0
  6
BYBLOCK
 62
     0
 48
2.0
100
AcDbLine
 10
-534.373773
 20
-105.360654
 30
0.0
 11
-460.350121
 21
-105.360654
 31
0.0
  0
LINE
  5
3760
100
AcDbEntity
  8
0
  6
BYBLOCK
 62
     0
 48
2.0
100
AcDbLine
 10
-534.373773
 20
-606.360654
 30
0.0
 11
-460.350121
 21
-606.360654
 31
0.0
  0
LINE
  5
3761
100
AcDbEntity
  8
0
  6
BYBLOCK
 62
     0
 48
2.0
100
AcDbLine
 10
-460.530121
 20
-125.360654
 30
0.0
 11
-460.530121
 21
-586.360654
 31
0.0
  0
INSERT
  5
3762
100
AcDbEntity
  8
0
  6
BYBLOCK
 62
     0
 48
2.0
100
AcDbBlockReference
  2
_OPEN
 10
-460.530121
 20
-105.360654
 30
0.0
 41
20.0
 42
20.0
 43
20.0
 50
90.0
  0
INSERT
  5
3763
100
AcDbEntity
  8
0
  6
BYBLOCK
 62
     0
 48
2.0
100
AcDbBlockReference
  2
_OPEN
 10
-460.530121
 20
-606.360654
 30
0.0
 41
20.0
 42
20.0
 43
20.0
 50
270.0
  0
MTEXT
  5
3764
100
AcDbEntity
  8
0
  6
BYBLOCK
 62
     0
 48
2.0
100
AcDbMText
 10
-471.155121
 20
-355.860654
 30
0.0
 40
20.0
 41
0.0
 71
     5
 72
     1
  1
\A1;501
 11
0.0
 21
1.0
 31
0.0
  0
POINT
  5
3765
100
AcDbEntity
  8
DEFPOINTS
  6
BYBLOCK
 62
     0
 48
2.0
100
AcDbPoint
 10
-534.436273
 20
-105.360654
 30
0.0
  0
POINT
  5
3766
100
AcDbEntity
  8
DEFPOINTS
  6
BYBLOCK
 62
     0
 48
2.0
100
AcDbPoint
 10
-534.436273
 20
-606.360654
 30
0.0
  0
POINT
  5
3767
100
AcDbEntity
  8
DEFPOINTS
  6
BYBLOCK
 62
     0
 48
2.0
100
AcDbPoint
 10
-460.530121
 20
-606.360654
 30
0.0
  0
ENDBLK
  5
3768
100
AcDbEntity
  8
0
 48
2.0
100
AcDbBlockEnd
  0
BLOCK
  5
3778
100
AcDbEntity
  8
0
 48
2.0
100
AcDbBlockBegin
  2
*D4
 70
     1
 10
0.0
 20
0.0
 30
0.0
  3
*D4
  1

  0
LINE
  5
3779
100
AcDbEntity
  8
0
  6
BYBLOCK
 62
     0
 48
2.0
100
AcDbLine
 10
-568.696011
 20
-158.37613
 30
0.0
 11
-497.46183
 21
-158.37613
 31
0.0
  0
LINE
  5
377A
100
AcDbEntity
  8
0
  6
BYBLOCK
 62
     0
 48
2.0
100
AcDbLine
 10
-568.696011
 20
-553.345177
 30
0.0
 11
-497.46183
 21
-553.345177
 31
0.0
  0
LINE
  5
377B
100
AcDbEntity
  8
0
  6
BYBLOCK
 62
     0
 48
2.0
100
AcDbLine
 10
-497.64183
 20
-178.37613
 30
0.0
 11
-497.64183
 21
-533.345177
 31
0.0
  0
INSERT
  5
377C
100
AcDbEntity
  8
0
  6
BYBLOCK
 62
     0
 48
2.0
100
AcDbBlockReference
  2
_OPEN
 10
-497.64183
 20
-158.37613
 30
0.0
 41
20.0
 42
20.0
 43
20.0
 50
90.0
  0
INSERT
  5
377D
100
AcDbEntity
  8
0
  6
BYBLOCK
 62
     0
 48
2.0
100
AcDbBlockReference
  2
_OPEN
 10
-497.64183
 20
-553.345177
 30
0.0
 41
20.0
 42
20.0
 43
20.0
 50
270.0
  0
MTEXT
  5
377E
100
AcDbEntity
  8
0
  6
BYBLOCK
 62
     0
 48
2.0
100
AcDbMText
 10
-508.26683
 20
-355.860654
 30
0.0
 40
20.0
 41
0.0
 71
     5
 72
     1
  1
\A1;395
 11
0.0
 21
1.0
 31
0.0
  0
POINT
  5
377F
100
AcDbEntity
  8
DEFPOINTS
  6
BYBLOCK
 62
     0
 48
2.0
100
AcDbPoint
 10
-568.758511
 20
-158.37613
 30
0.0
  0
POINT
  5
3780
100
AcDbEntity
  8
DEFPOINTS
  6
BYBLOCK
 62
     0
 48
2.0
100
AcDbPoint
 10
-568.758511
 20
-553.345177
 30
0.0
  0
POINT
  5
3781
100
AcDbEntity
  8
DEFPOINTS
  6
BYBLOCK
 62
     0
 48
2.0
100
AcDbPoint
 10
-497.64183
 20
-553.345177
 30
0.0
  0
ENDBLK
  5
3782
100
AcDbEntity
  8
0
 48
2.0
100
AcDbBlockEnd
  0
BLOCK
  5
39EA
100
AcDbEntity
  8
0
 48
2.0
100
AcDbBlockBegin
  2
*D5
 70
     1
 10
0.0
 20
0.0
 30
0.0
  3
*D5
  1

  0
LINE
  5
39EB
100
AcDbEntity
  8
0
  6
BYBLOCK
 62
     0
 48
2.0
100
AcDbLine
 10
-991.603716
 20
-389.233488
 30
0.0
 11
-576.941184
 21
-322.487819
 31
0.0
  0
INSERT
  5
39EC
100
AcDbEntity
  8
0
  6
BYBLOCK
 62
     0
 48
2.0
100
AcDbBlockReference
  2
_OPEN
 10
-1011.349551
 20
-392.411854
 30
0.0
 41
20.0
 42
20.0
 43
20.0
 50
189.144114
  0
INSERT
  5
39ED
100
AcDbEntity
  8
0
  6
BYBLOCK
 62
     0
 48
2.0
100
AcDbBlockReference
  2
_OPEN
 10
-557.195349
 20
-319.309454
 30
0.0
 41
20.0
 42
20.0
 43
20.0
 50
9.144114
  0
MTEXT
  5
39EE
100
AcDbEntity
  8
0
  6
BYBLOCK
 62
     0
 48
2.0
100
AcDbMText
 10
-722.000602
 20
-335.075376
 30
0.0
 40
20.0
 41
0.0
 71
     5
 72
     1
  1
\A1;\U+2205460
 11
0.987292
 21
0.158918
 31
0.0
  0
POINT
  5
39EF
100
AcDbEntity
  8
DEFPOINTS
  6
BYBLOCK
 62
     0
 48
2.0
100
AcDbPoint
 10
-557.195349
 20
-319.309454
 30
0.0
  0
POINT
  5
39F0
100
AcDbEntity
  8
DEFPOINTS
  6
BYBLOCK
 62
     0
 48
2.0
100
AcDbPoint
 10
-1011.349551
 20
-392.411854
 30
0.0
  0
ENDBLK
  5
39F1
100
AcDbEntity
  8
0
 48
2.0
100
AcDbBlockEnd
  0
BLOCK
  5
38B2
100
AcDbEntity
  8
0
 48
2.0
100
AcDbBlockBegin
  2
*D6
 70
     1
 10
0.0
 20
0.0
 30
0.0
  3
*D6
  1

  0
LINE
  5
38B3
100
AcDbEntity
  8
0
  6
BYBLOCK
 62
     0
 48
2.0
100
AcDbLine
 10
-310.27245
 20
-605.988748
 30
0.0
 11
-310.27245
 21
-694.353505
 31
0.0
  0
LINE
  5
38B4
100
AcDbEntity
  8
0
  6
BYBLOCK
 62
     0
 48
2.0
100
AcDbLine
 10
-274.855985
 20
-605.988748
 30
0.0
 11
-274.855985
 21
-694.353505
 31
0.0
  0
LINE
  5
38B5
100
AcDbEntity
  8
0
  6
BYBLOCK
 62
     0
 48
2.0
100
AcDbLine
 10
-330.27245
 20
-694.173505
 30
0.0
 11
-350.27245
 21
-694.173505
 31
0.0
  0
LINE
  5
38B6
100
AcDbEntity
  8
0
  6
BYBLOCK
 62
     0
 48
2.0
100
AcDbLine
 10
-254.855985
 20
-694.173505
 30
0.0
 11
-234.855985
 21
-694.173505
 31
0.0
  0
INSERT
  5
38B7
100
AcDbEntity
  8
0
  6
BYBLOCK
 62
     0
 48
2.0
100
AcDbBlockReference
  2
_OPEN
 10
-310.27245
 20
-694.173505
 30
0.0
 41
20.0
 42
20.0
 43
20.0
  0
INSERT
  5
38B8
100
AcDbEntity
  8
0
  6
BYBLOCK
 62
     0
 48
2.0
100
AcDbBlockReference
  2
_OPEN
 10
-274.855985
 20
-694.173505
 30
0.0
 41
20.0
 42
20.0
 43
20.0
 50
180.0
  0
MTEXT
  5
38B9
100
AcDbEntity
  8
0
  6
BYBLOCK
 62
     0
 48
2.0
100
AcDbMText
 10
-292.564217
 20
-683.546536
 30
0.0
 40
20.0
 41
0.0
 71
     5
 72
     1
  1
\A1;42
  0
POINT
  5
38BA
100
AcDbEntity
  8
DEFPOINTS
  6
BYBLOCK
 62
     0
 48
2.0
100
AcDbPoint
 10
-310.27245
 20
-605.926248
 30
0.0
  0
POINT
  5
38BB
100
AcDbEntity
  8
DEFPOINTS
  6
BYBLOCK
 62
     0
 48
2.0
100
AcDbPoint
 10
-274.855985
 20
-605.926248
 30
0.0
  0
POINT
  5
38BC
100
AcDbEntity
  8
DEFPOINTS
  6
BYBLOCK
 62
     0
 48
2.0
100
AcDbPoint
 10
-274.855985
 20
-694.173505
 30
0.0
  0
ENDBLK
  5
38BD
100
AcDbEntity
  8
0
 48
2.0
100
AcDbBlockEnd
  0
BLOCK
  5
38BE
100
AcDbEntity
  8
0
 48
2.0
100
AcDbBlockBegin
  2
*D7
 70
     1
 10
0.0
 20
0.0
 30
0.0
  3
*D7
  1

  0
LINE
  5
38BF
100
AcDbEntity
  8
0
  6
BYBLOCK
 62
     0
 48
2.0
100
AcDbLine
 10
-310.27245
 20
-605.988748
 30
0.0
 11
-310.27245
 21
-660.823469
 31
0.0
  0
LINE
  5
38C0
100
AcDbEntity
  8
0
  6
BYBLOCK
 62
     0
 48
2.0
100
AcDbLine
 10
-284.27245
 20
-605.988748
 30
0.0
 11
-284.27245
 21
-660.823469
 31
0.0
  0
LINE
  5
38C1
100
AcDbEntity
  8
0
  6
BYBLOCK
 62
     0
 48
2.0
100
AcDbLine
 10
-330.27245
 20
-660.643469
 30
0.0
 11
-350.27245
 21
-660.643469
 31
0.0
  0
LINE
  5
38C2
100
AcDbEntity
  8
0
  6
BYBLOCK
 62
     0
 48
2.0
100
AcDbLine
 10
-264.27245
 20
-660.643469
 30
0.0
 11
-219.52245
 21
-660.643469
 31
0.0
  0
INSERT
  5
38C3
100
AcDbEntity
  8
0
  6
BYBLOCK
 62
     0
 48
2.0
100
AcDbBlockReference
  2
_OPEN
 10
-310.27245
 20
-660.643469
 30
0.0
 41
20.0
 42
20.0
 43
20.0
  0
INSERT
  5
38C4
100
AcDbEntity
  8
0
  6
BYBLOCK
 62
     0
 48
2.0
100
AcDbBlockReference
  2
_OPEN
 10
-284.27245
 20
-660.643469
 30
0.0
 41
20.0
 42
20.0
 43
20.0
 50
180.0
  0
MTEXT
  5
38C5
100
AcDbEntity
  8
0
  6
BYBLOCK
 62
     0
 48
2.0
100
AcDbMText
 10
-231.89745
 20
-650.016501
 30
0.0
 40
20.0
 41
0.0
 71
     5
 72
     1
  1
\A1;26
  0
POINT
  5
38C6
100
AcDbEntity
  8
DEFPOINTS
  6
BYBLOCK
 62
     0
 48
2.0
100
AcDbPoint
 10
-310.27245
 20
-605.926248
 30
0.0
  0
POINT
  5
38C7
100
AcDbEntity
  8
DEFPOINTS
  6
BYBLOCK
 62
     0
 48
2.0
100
AcDbPoint
 10
-284.27245
 20
-605.926248
 30
0.0
  0
POINT
  5
38C8
100
AcDbEntity
  8
DEFPOINTS
  6
BYBLOCK
 62
     0
 48
2.0
100
AcDbPoint
 10
-284.27245
 20
-660.643469
 30
0.0
  0
ENDBLK
  5
38C9
100
AcDbEntity
  8
0
 48
2.0
100
AcDbBlockEnd
  0
BLOCK
  5
39FC
100
AcDbEntity
  8
0
 48
2.0
100
AcDbBlockBegin
  2
PAR-450W-N
 70
     0
 10
0.0
 20
0.0
 30
0.0
  3
PAR-450W-N
  1

  0
LINE
  5
39FD
100
AcDbEntity
  8
V0-OBRYS
  6
CONTINUOUS
 62
    90
100
AcDbLine
 10
-250.5
 20
0.0
 30
0.0
 11
-250.5
 21
249.836176
 31
0.0
  0
LINE
  5
39FE
100
AcDbEntity
  8
V0-OBRYS
  6
CONTINUOUS
 62
    90
100
AcDbLine
 10
-230.0
 20
0.0
 30
0.0
 11
-230.0
 21
225.0
 31
0.0
  0
LINE
  5
39FF
100
AcDbEntity
  8
V0-OBRYS
  6
CONTINUOUS
 62
    90
100
AcDbLine
 10
230.0
 20
0.0
 30
0.0
 11
230.0
 21
225.0
 31
0.0
  0
LINE
  5
3A00
100
AcDbEntity
  8
V0-OBRYS
  6
CONTINUOUS
 62
    90
100
AcDbLine
 10
250.5
 20
0.0
 30
0.0
 11
250.5
 21
249.836176
 31
0.0
  0
CIRCLE
  5
3A01
100
AcDbEntity
  8
V0-VYPLNE
  6
DASHED
 62
    56
 48
2.0
100
AcDbCircle
 10
0.0
 20
0.0
 30
0.0
 40
230.0
  0
LINE
  5
3A02
100
AcDbEntity
  8
V0-VYPLNE
  6
DASHDOT
 62
    63
 48
2.0
100
AcDbLine
 10
0.0
 20
263.572501
 30
0.0
 11
0.0
 21
110.752119
 31
0.0
  0
DIMENSION
  5
3A03
100
AcDbEntity
  8
V0-VYPLNE
  6
CONTINUOUS
 62
    41
100
AcDbDimension
  2
*D3
 10
323.742329
 20
-250.5
 30
0.0
 11
313.117329
 21
0.0
 31
0.0
 12
784.27245
 22
355.860654
 32
0.0
  3
STANDARD
100
AcDbAlignedDimension
 13
249.836176
 23
250.5
 33
0.0
 14
249.836176
 24
-250.5
 34
0.0
 50
90.0
100
AcDbRotatedDimension
1001
ACAD
1000
DSTYLE
1002
{
1070
   140
1040
20.0
1070
    40
1040
1.0
1070
    41
1040
20.0
1002
}
  0
DIMENSION
  5
3A04
100
AcDbEntity
  8
V0-VYPLNE
  6
CONTINUOUS
 62
    41
100
AcDbDimension
  2
*D4
 10
286.630619
 20
-197.484524
 30
0.0
 11
276.005619
 21
0.0
 31
0.0
 12
784.27245
 22
355.860654
 32
0.0
  3
STANDARD
100
AcDbAlignedDimension
 13
215.513938
 23
197.484524
 33
0.0
 14
215.513938
 24
-197.484524
 34
0.0
 50
90.0
100
AcDbRotatedDimension
1001
ACAD
1000
DSTYLE
1002
{
1070
   140
1040
20.0
1070
    40
1040
1.0
1070
    41
1040
20.0
1002
}
  0
LINE
  5
3A05
100
AcDbEntity
  8
V0-OBRYS
  6
CONTINUOUS
 62
    90
100
AcDbLine
 10
-230.0
 20
-169.991625
 30
0.0
 11
230.0
 21
-169.991625
 31
0.0
  0
LINE
  5
3A06
100
AcDbEntity
  8
V0-OBRYS
  6
CONTINUOUS
 62
    90
100
AcDbLine
 10
-230.0
 20
-121.054642
 30
0.0
 11
230.0
 21
-121.054642
 31
0.0
  0
LINE
  5
3A07
100
AcDbEntity
  8
V0-OBRYS
  6
CONTINUOUS
 62
    90
100
AcDbLine
 10
-230.0
 20
-72.117659
 30
0.0
 11
230.0
 21
-72.117659
 31
0.0
  0
LINE
  5
3A08
100
AcDbEntity
  8
V0-OBRYS
  6
CONTINUOUS
 62
    90
100
AcDbLine
 10
-230.0
 20
-23.180676
 30
0.0
 11
230.0
 21
-23.180676
 31
0.0
  0
LINE
  5
3A09
100
AcDbEntity
  8
V0-OBRYS
  6
CONTINUOUS
 62
    90
100
AcDbLine
 10
-230.0
 20
123.630273
 30
0.0
 11
230.0
 21
123.630273
 31
0.0
  0
LINE
  5
3A0A
100
AcDbEntity
  8
V0-OBRYS
  6
CONTINUOUS
 62
    90
100
AcDbLine
 10
0.0
 20
-230.0
 30
0.0
 11
225.0
 21
-230.0
 31
0.0
  0
LINE
  5
3A0B
100
AcDbEntity
  8
V0-OBRYS
  6
CONTINUOUS
 62
    90
100
AcDbLine
 10
249.836176
 20
-250.5
 30
0.0
 11
0.0
 21
-250.5
 31
0.0
  0
LINE
  5
3A0C
100
AcDbEntity
  8
V0-VYPLNE
  6
DASHDOT
 62
    63
 48
2.0
100
AcDbLine
 10
-273.428818
 20
0.0
 30
0.0
 11
258.282771
 21
0.0
 31
0.0
  0
DIMENSION
  5
3A0D
100
AcDbEntity
  8
V0-VYPLNE
  6
CONTINUOUS
 62
    41
 48
2.0
100
AcDbDimension
  2
*D5
 10
-227.077101
 20
-36.5512
 30
0.0
 11
63.960354
 21
10.295304
 31
0.0
 12
784.27245
 22
355.860654
 32
0.0
 70
   131
  3
STANDARD
100
AcDbDiametricDimension
 15
227.077101
 25
36.5512
 35
0.0
 40
0.0
1001
ACAD
1000
DSTYLE
1002
{
1070
   140
1040
20.0
1070
    40
1040
1.0
1070
    41
1040
20.0
1002
}
  0
TEXT
  5
3A0E
100
AcDbEntity
  8
V0-NAZVY
  6
CONTINUOUS
 62
   210
100
AcDbText
 10
-104.200826
 20
51.298868
 30
0.0
 40
32.061793
  1
PAR-450W
 72
     1
 11
0.0
 21
51.298868
 31
0.0
100
AcDbText
  0
DIMENSION
  5
3A0F
100
AcDbEntity
  8
V0-VYPLNE
  6
CONTINUOUS
 62
    41
100
AcDbDimension
  2
*D1
 10
197.484524
 20
-285.665457
 30
0.0
 11
0.0
 21
-275.040457
 31
0.0
 12
784.27245
 22
355.860654
 32
0.0
  3
STANDARD
100
AcDbAlignedDimension
 13
-197.484524
 23
-210.362677
 33
0.0
 14
197.484524
 24
-210.362677
 34
0.0
100
AcDbRotatedDimension
1001
ACAD
1000
DSTYLE
1002
{
1070
   140
1040
20.0
1070
    40
1040
1.0
1070
    41
1040
20.0
1002
}
  0
DIMENSION
  5
3A10
100
AcDbEntity
  8
V0-VYPLNE
  6
CONTINUOUS
 62
    41
100
AcDbDimension
  2
*D2
 10
250.5
 20
-322.73662
 30
0.0
 11
0.0
 21
-312.11162
 31
0.0
 12
784.27245
 22
355.860654
 32
0.0
  3
STANDARD
100
AcDbAlignedDimension
 13
-250.5
 23
-249.836176
 33
0.0
 14
250.5
 24
-249.836176
 34
0.0
100
AcDbRotatedDimension
1001
ACAD
1000
DSTYLE
1002
{
1070
   140
1040
20.0
1070
    40
1040
1.0
1070
    41
1040
20.0
1002
}
  0
LINE
  5
3A11
100
AcDbEntity
  8
V0-OBRYS
  6
CONTINUOUS
 62
    90
100
AcDbLine
 10
-226.6555
 20
25.756307
 30
0.0
 11
4.829059
 21
25.756307
 31
0.0
  0
LINE
  5
3A12
100
AcDbEntity
  8
V0-OBRYS
  6
CONTINUOUS
 62
    90
100
AcDbLine
 10
0.0
 20
-230.0
 30
0.0
 11
-225.0
 21
-230.0
 31
0.0
  0
LINE
  5
3A13
100
AcDbEntity
  8
V0-OBRYS
  6
CONTINUOUS
 62
    90
100
AcDbLine
 10
-226.6555
 20
74.69329
 30
0.0
 11
-118.479011
 21
74.69329
 31
0.0
  0
LINE
  5
3A14
100
AcDbEntity
  8
V0-OBRYS
  6
CONTINUOUS
 62
    90
100
AcDbLine
 10
-249.836176
 20
-250.5
 30
0.0
 11
0.0
 21
-250.5
 31
0.0
  0
LINE
  5
3A15
100
AcDbEntity
  8
V0-OBRYS
  6
CONTINUOUS
 62
    90
100
AcDbLine
 10
-230.0
 20
0.0
 30
0.0
 11
-230.0
 21
-225.0
 31
0.0
  0
LINE
  5
3A16
100
AcDbEntity
  8
V0-OBRYS
  6
CONTINUOUS
 62
    90
100
AcDbLine
 10
-250.5
 20
0.0
 30
0.0
 11
-250.5
 21
-249.836176
 31
0.0
  0
ARC
  5
3A17
100
AcDbEntity
  8
V0-OBRYS
  6
CONTINUOUS
 62
    90
100
AcDbCircle
 10
-225.0
 20
-225.0
 30
0.0
 40
5.0
100
AcDbArc
 50
180.0
 51
270.0
  0
LINE
  5
3A18
100
AcDbEntity
  8
V0-VYPLNE
  6
DASHDOT
 62
    63
 48
2.0
100
AcDbLine
 10
0.0
 20
41.210091
 30
0.0
 11
0.0
 21
-239.410971
 31
0.0
  0
CIRCLE
  5
3A19
100
AcDbEntity
  8
V0-OBRYS
  6
CONTINUOUS
 62
    90
100
AcDbCircle
 10
-197.484524
 20
-197.484524
 30
0.0
 40
6.439077
  0
LINE
  5
3A1A
100
AcDbEntity
  8
V0-OBRYS
  6
CONTINUOUS
 62
    90
100
AcDbLine
 10
-197.484524
 20
-210.362677
 30
0.0
 11
-197.484524
 21
-187.182001
 31
0.0
  0
LINE
  5
3A1B
100
AcDbEntity
  8
V0-OBRYS
  6
CONTINUOUS
 62
    90
100
AcDbLine
 10
-215.513938
 20
-197.484524
 30
0.0
 11
-182.030739
 21
-197.484524
 31
0.0
  0
POINT
  5
3A1C
100
AcDbEntity
  8
V0-VYPLNE
  6
CONTINUOUS
 62
    41
100
AcDbPoint
 10
0.0
 20
0.0
 30
0.0
  0
LINE
  5
3A1D
100
AcDbEntity
  8
V0-OBRYS
  6
CONTINUOUS
 62
    90
100
AcDbLine
 10
230.0
 20
0.0
 30
0.0
 11
230.0
 21
-225.0
 31
0.0
  0
LINE
  5
3A1E
100
AcDbEntity
  8
V0-OBRYS
  6
CONTINUOUS
 62
    90
100
AcDbLine
 10
250.5
 20
0.0
 30
0.0
 11
250.5
 21
-249.836176
 31
0.0
  0
CIRCLE
  5
3A1F
100
AcDbEntity
  8
V0-OBRYS
  6
CONTINUOUS
 62
    90
100
AcDbCircle
 10
197.484524
 20
-197.484524
 30
0.0
 40
6.439077
  0
LINE
  5
3A20
100
AcDbEntity
  8
V0-OBRYS
  6
CONTINUOUS
 62
    90
100
AcDbLine
 10
197.484524
 20
-210.362677
 30
0.0
 11
197.484524
 21
-187.182001
 31
0.0
  0
ARC
  5
3A21
100
AcDbEntity
  8
V0-OBRYS
  6
CONTINUOUS
 62
    90
100
AcDbCircle
 10
225.0
 20
-225.0
 30
0.0
 40
5.0
100
AcDbArc
 50
270.0
 51
0.0
  0
LINE
  5
3A22
100
AcDbEntity
  8
V0-OBRYS
  6
CONTINUOUS
 62
    90
100
AcDbLine
 10
215.513938
 20
-197.484524
 30
0.0
 11
182.030739
 21
-197.484524
 31
0.0
  0
LINE
  5
3A23
100
AcDbEntity
  8
V0-OBRYS
  6
CONTINUOUS
 62
    90
100
AcDbLine
 10
116.92406
 20
25.756307
 30
0.0
 11
230.0
 21
25.756307
 31
0.0
  0
LINE
  5
3A24
100
AcDbEntity
  8
V0-OBRYS
  6
CONTINUOUS
 62
    90
100
AcDbLine
 10
115.903381
 20
74.69329
 30
0.0
 11
230.0
 21
74.69329
 31
0.0
  0
LINE
  5
3A25
100
AcDbEntity
  8
V0-OBRYS
  6
CONTINUOUS
 62
    90
100
AcDbLine
 10
0.0
 20
230.0
 30
0.0
 11
225.0
 21
230.0
 31
0.0
  0
LINE
  5
3A26
100
AcDbEntity
  8
V0-OBRYS
  6
CONTINUOUS
 62
    90
100
AcDbLine
 10
249.836176
 20
250.5
 30
0.0
 11
0.0
 21
250.5
 31
0.0
  0
LINE
  5
3A27
100
AcDbEntity
  8
V0-OBRYS
  6
CONTINUOUS
 62
    90
100
AcDbLine
 10
-230.0
 20
172.567256
 30
0.0
 11
230.0
 21
172.567256
 31
0.0
  0
LINE
  5
3A28
100
AcDbEntity
  8
V0-OBRYS
  6
CONTINUOUS
 62
    90
100
AcDbLine
 10
-249.836176
 20
250.5
 30
0.0
 11
0.0
 21
250.5
 31
0.0
  0
LINE
  5
3A29
100
AcDbEntity
  8
V0-OBRYS
  6
CONTINUOUS
 62
    90
100
AcDbLine
 10
0.0
 20
230.0
 30
0.0
 11
-225.0
 21
230.0
 31
0.0
  0
ARC
  5
3A2A
100
AcDbEntity
  8
V0-OBRYS
  6
CONTINUOUS
 62
    90
100
AcDbCircle
 10
-225.0
 20
225.0
 30
0.0
 40
5.0
100
AcDbArc
 50
90.0
 51
180.0
  0
LEADER
  5
3A2B
100
AcDbEntity
  8
V0-VYPLNE
  6
CONTINUOUS
 62
    41
100
AcDbLeader
  3
STANDARD
 73
     0
 74
     0
 75
     1
 40
25.756307
 41
34.55006
 76
     3
 10
-190.10873
 20
200.450971
 30
0.0
 10
-49.725698
 20
285.163402
 30
0.0
 10
-39.725698
 20
285.163402
 30
0.0
 77
    41
340
3A2F
1001
ACAD
1000
DSTYLE
1002
{
1070
   140
1040
10.0
1070
    40
1040
1.0
1070
    41
1040
10.0
1002
}
  0
LINE
  5
3A2C
100
AcDbEntity
  8
V0-OBRYS
  6
CONTINUOUS
 62
    90
100
AcDbLine
 10
-215.513938
 20
197.484524
 30
0.0
 11
-182.030739
 21
197.484524
 31
0.0
  0
LINE
  5
3A2D
100
AcDbEntity
  8
V0-OBRYS
  6
CONTINUOUS
 62
    90
100
AcDbLine
 10
-197.484524
 20
204.219008
 30
0.0
 11
-197.484524
 21
181.038332
 31
0.0
  0
CIRCLE
  5
3A2E
100
AcDbEntity
  8
V0-OBRYS
  6
CONTINUOUS
 62
    90
100
AcDbCircle
 10
-197.484524
 20
197.484524
 30
0.0
 40
6.439077
  0
MTEXT
  5
3A2F
102
{ACAD_REACTORS
330
3A2B
102
}
100
AcDbEntity
  8
V0-VYPLNE
  6
CONTINUOUS
 62
    41
100
AcDbMText
 10
-39.100698
 20
298.666555
 30
0.0
 40
25.756307
 41
0.0
 71
     4
 72
     1
  1
%%c5
  0
LINE
  5
3A30
100
AcDbEntity
  8
V0-OBRYS
  6
CONTINUOUS
 62
    90
100
AcDbLine
 10
215.513938
 20
197.484524
 30
0.0
 11
182.030739
 21
197.484524
 31
0.0
  0
LINE
  5
3A31
100
AcDbEntity
  8
V0-OBRYS
  6
CONTINUOUS
 62
    90
100
AcDbLine
 10
197.484524
 20
204.219008
 30
0.0
 11
197.484524
 21
181.038332
 31
0.0
  0
CIRCLE
  5
3A32
100
AcDbEntity
  8
V0-OBRYS
  6
CONTINUOUS
 62
    90
100
AcDbCircle
 10
197.484524
 20
197.484524
 30
0.0
 40
6.439077
  0
ARC
  5
3A33
100
AcDbEntity
  8
V0-OBRYS
  6
CONTINUOUS
 62
    90
100
AcDbCircle
 10
225.0
 20
225.0
 30
0.0
 40
5.0
100
AcDbArc
 50
0.0
 51
90.0
  0
ENDBLK
  5
3A34
100
AcDbEntity
  8
0
 48
2.0
100
AcDbBlockEnd
  0
BLOCK
  5
3A36
100
AcDbEntity
  8
0
 48
2.0
100
AcDbBlockBegin
  2
*D9
 70
     1
 10
0.0
 20
0.0
 30
0.0
  3
*D9
  1

  0
LINE
  5
3A37
100
AcDbEntity
  8
0
  6
BYBLOCK
 62
     0
 48
2.0
100
AcDbLine
 10
-534.373773
 20
-105.360654
 30
0.0
 11
-460.350121
 21
-105.360654
 31
0.0
  0
LINE
  5
3A38
100
AcDbEntity
  8
0
  6
BYBLOCK
 62
     0
 48
2.0
100
AcDbLine
 10
-534.373773
 20
-606.360654
 30
0.0
 11
-460.350121
 21
-606.360654
 31
0.0
  0
LINE
  5
3A39
100
AcDbEntity
  8
0
  6
BYBLOCK
 62
     0
 48
2.0
100
AcDbLine
 10
-460.530121
 20
-125.360654
 30
0.0
 11
-460.530121
 21
-586.360654
 31
0.0
  0
INSERT
  5
3A3A
100
AcDbEntity
  8
0
  6
BYBLOCK
 62
     0
 48
2.0
100
AcDbBlockReference
  2
_OPEN
 10
-460.530121
 20
-105.360654
 30
0.0
 41
20.0
 42
20.0
 43
20.0
 50
90.0
  0
INSERT
  5
3A3B
100
AcDbEntity
  8
0
  6
BYBLOCK
 62
     0
 48
2.0
100
AcDbBlockReference
  2
_OPEN
 10
-460.530121
 20
-606.360654
 30
0.0
 41
20.0
 42
20.0
 43
20.0
 50
270.0
  0
MTEXT
  5
3A3C
100
AcDbEntity
  8
0
  6
BYBLOCK
 62
     0
 48
2.0
100
AcDbMText
 10
-471.155121
 20
-355.860654
 30
0.0
 40
20.0
 41
0.0
 71
     5
 72
     1
  1
\A1;501
 11
0.0
 21
1.0
 31
0.0
  0
POINT
  5
3A3D
100
AcDbEntity
  8
DEFPOINTS
  6
BYBLOCK
 62
     0
 48
2.0
100
AcDbPoint
 10
-534.436273
 20
-105.360654
 30
0.0
  0
POINT
  5
3A3E
100
AcDbEntity
  8
DEFPOINTS
  6
BYBLOCK
 62
     0
 48
2.0
100
AcDbPoint
 10
-534.436273
 20
-606.360654
 30
0.0
  0
POINT
  5
3A3F
100
AcDbEntity
  8
DEFPOINTS
  6
BYBLOCK
 62
     0
 48
2.0
100
AcDbPoint
 10
-460.530121
 20
-606.360654
 30
0.0
  0
ENDBLK
  5
3A40
100
AcDbEntity
  8
0
 48
2.0
100
AcDbBlockEnd
  0
BLOCK
  5
3A42
100
AcDbEntity
  8
0
 48
2.0
100
AcDbBlockBegin
  2
*D10
 70
     1
 10
0.0
 20
0.0
 30
0.0
  3
*D10
  1

  0
LINE
  5
3A43
100
AcDbEntity
  8
0
  6
BYBLOCK
 62
     0
 48
2.0
100
AcDbLine
 10
-568.696011
 20
-158.37613
 30
0.0
 11
-497.46183
 21
-158.37613
 31
0.0
  0
LINE
  5
3A44
100
AcDbEntity
  8
0
  6
BYBLOCK
 62
     0
 48
2.0
100
AcDbLine
 10
-568.696011
 20
-553.345177
 30
0.0
 11
-497.46183
 21
-553.345177
 31
0.0
  0
LINE
  5
3A45
100
AcDbEntity
  8
0
  6
BYBLOCK
 62
     0
 48
2.0
100
AcDbLine
 10
-497.64183
 20
-178.37613
 30
0.0
 11
-497.64183
 21
-533.345177
 31
0.0
  0
INSERT
  5
3A46
100
AcDbEntity
  8
0
  6
BYBLOCK
 62
     0
 48
2.0
100
AcDbBlockReference
  2
_OPEN
 10
-497.64183
 20
-158.37613
 30
0.0
 41
20.0
 42
20.0
 43
20.0
 50
90.0
  0
INSERT
  5
3A47
100
AcDbEntity
  8
0
  6
BYBLOCK
 62
     0
 48
2.0
100
AcDbBlockReference
  2
_OPEN
 10
-497.64183
 20
-553.345177
 30
0.0
 41
20.0
 42
20.0
 43
20.0
 50
270.0
  0
MTEXT
  5
3A48
100
AcDbEntity
  8
0
  6
BYBLOCK
 62
     0
 48
2.0
100
AcDbMText
 10
-508.26683
 20
-355.860654
 30
0.0
 40
20.0
 41
0.0
 71
     5
 72
     1
  1
\A1;395
 11
0.0
 21
1.0
 31
0.0
  0
POINT
  5
3A49
100
AcDbEntity
  8
DEFPOINTS
  6
BYBLOCK
 62
     0
 48
2.0
100
AcDbPoint
 10
-568.758511
 20
-158.37613
 30
0.0
  0
POINT
  5
3A4A
100
AcDbEntity
  8
DEFPOINTS
  6
BYBLOCK
 62
     0
 48
2.0
100
AcDbPoint
 10
-568.758511
 20
-553.345177
 30
0.0
  0
POINT
  5
3A4B
100
AcDbEntity
  8
DEFPOINTS
  6
BYBLOCK
 62
     0
 48
2.0
100
AcDbPoint
 10
-497.64183
 20
-553.345177
 30
0.0
  0
ENDBLK
  5
3A4C
100
AcDbEntity
  8
0
 48
2.0
100
AcDbBlockEnd
  0
BLOCK
  5
3A4E
100
AcDbEntity
  8
0
 48
2.0
100
AcDbBlockBegin
  2
*D11
 70
     1
 10
0.0
 20
0.0
 30
0.0
  3
*D11
  1

  0
LINE
  5
3A4F
100
AcDbEntity
  8
0
  6
BYBLOCK
 62
     0
 48
2.0
100
AcDbLine
 10
-991.603716
 20
-389.233488
 30
0.0
 11
-576.941184
 21
-322.487819
 31
0.0
  0
INSERT
  5
3A50
100
AcDbEntity
  8
0
  6
BYBLOCK
 62
     0
 48
2.0
100
AcDbBlockReference
  2
_OPEN
 10
-1011.349551
 20
-392.411854
 30
0.0
 41
20.0
 42
20.0
 43
20.0
 50
189.144114
  0
INSERT
  5
3A51
100
AcDbEntity
  8
0
  6
BYBLOCK
 62
     0
 48
2.0
100
AcDbBlockReference
  2
_OPEN
 10
-557.195349
 20
-319.309454
 30
0.0
 41
20.0
 42
20.0
 43
20.0
 50
9.144114
  0
MTEXT
  5
3A52
100
AcDbEntity
  8
0
  6
BYBLOCK
 62
     0
 48
2.0
100
AcDbMText
 10
-722.000602
 20
-335.075376
 30
0.0
 40
20.0
 41
0.0
 71
     5
 72
     1
  1
\A1;\U+2205460
 11
0.987292
 21
0.158918
 31
0.0
  0
POINT
  5
3A53
100
AcDbEntity
  8
DEFPOINTS
  6
BYBLOCK
 62
     0
 48
2.0
100
AcDbPoint
 10
-557.195349
 20
-319.309454
 30
0.0
  0
POINT
  5
3A54
100
AcDbEntity
  8
DEFPOINTS
  6
BYBLOCK
 62
     0
 48
2.0
100
AcDbPoint
 10
-1011.349551
 20
-392.411854
 30
0.0
  0
ENDBLK
  5
3A55
100
AcDbEntity
  8
0
 48
2.0
100
AcDbBlockEnd
  0
BLOCK
  5
3A57
100
AcDbEntity
  8
0
 48
2.0
100
AcDbBlockBegin
  2
*D12
 70
     1
 10
0.0
 20
0.0
 30
0.0
  3
*D12
  1

  0
LINE
  5
3A58
100
AcDbEntity
  8
0
  6
BYBLOCK
 62
     0
 48
2.0
100
AcDbLine
 10
-981.756973
 20
-566.285831
 30
0.0
 11
-981.756973
 21
-641.706111
 31
0.0
  0
LINE
  5
3A59
100
AcDbEntity
  8
0
  6
BYBLOCK
 62
     0
 48
2.0
100
AcDbLine
 10
-586.787926
 20
-566.285831
 30
0.0
 11
-586.787926
 21
-641.706111
 31
0.0
  0
LINE
  5
3A5A
100
AcDbEntity
  8
0
  6
BYBLOCK
 62
     0
 48
2.0
100
AcDbLine
 10
-961.756973
 20
-641.526111
 30
0.0
 11
-606.787926
 21
-641.526111
 31
0.0
  0
INSERT
  5
3A5B
100
AcDbEntity
  8
0
  6
BYBLOCK
 62
     0
 48
2.0
100
AcDbBlockReference
  2
_OPEN
 10
-981.756973
 20
-641.526111
 30
0.0
 41
20.0
 42
20.0
 43
20.0
 50
180.0
  0
INSERT
  5
3A5C
100
AcDbEntity
  8
0
  6
BYBLOCK
 62
     0
 48
2.0
100
AcDbBlockReference
  2
_OPEN
 10
-586.787926
 20
-641.526111
 30
0.0
 41
20.0
 42
20.0
 43
20.0
  0
MTEXT
  5
3A5D
100
AcDbEntity
  8
0
  6
BYBLOCK
 62
     0
 48
2.0
100
AcDbMText
 10
-784.27245
 20
-630.901111
 30
0.0
 40
20.0
 41
0.0
 71
     5
 72
     1
  1
\A1;395
  0
POINT
  5
3A5E
100
AcDbEntity
  8
DEFPOINTS
  6
BYBLOCK
 62
     0
 48
2.0
100
AcDbPoint
 10
-981.756973
 20
-566.223331
 30
0.0
  0
POINT
  5
3A5F
100
AcDbEntity
  8
DEFPOINTS
  6
BYBLOCK
 62
     0
 48
2.0
100
AcDbPoint
 10
-586.787926
 20
-566.223331
 30
0.0
  0
POINT
  5
3A60
100
AcDbEntity
  8
DEFPOINTS
  6
BYBLOCK
 62
     0
 48
2.0
100
AcDbPoint
 10
-586.787926
 20
-641.526111
 30
0.0
  0
ENDBLK
  5
3A61
100
AcDbEntity
  8
0
 48
2.0
100
AcDbBlockEnd
  0
BLOCK
  5
3A63
100
AcDbEntity
  8
0
 48
2.0
100
AcDbBlockBegin
  2
*D13
 70
     1
 10
0.0
 20
0.0
 30
0.0
  3
*D13
  1

  0
LINE
  5
3A64
100
AcDbEntity
  8
0
  6
BYBLOCK
 62
     0
 48
2.0
100
AcDbLine
 10
-1034.77245
 20
-605.75933
 30
0.0
 11
-1034.77245
 21
-678.777274
 31
0.0
  0
LINE
  5
3A65
100
AcDbEntity
  8
0
  6
BYBLOCK
 62
     0
 48
2.0
100
AcDbLine
 10
-533.77245
 20
-605.75933
 30
0.0
 11
-533.77245
 21
-678.777274
 31
0.0
  0
LINE
  5
3A66
100
AcDbEntity
  8
0
  6
BYBLOCK
 62
     0
 48
2.0
100
AcDbLine
 10
-1014.77245
 20
-678.597274
 30
0.0
 11
-553.77245
 21
-678.597274
 31
0.0
  0
INSERT
  5
3A67
100
AcDbEntity
  8
0
  6
BYBLOCK
 62
     0
 48
2.0
100
AcDbBlockReference
  2
_OPEN
 10
-1034.77245
 20
-678.597274
 30
0.0
 41
20.0
 42
20.0
 43
20.0
 50
180.0
  0
INSERT
  5
3A68
100
AcDbEntity
  8
0
  6
BYBLOCK
 62
     0
 48
2.0
100
AcDbBlockReference
  2
_OPEN
 10
-533.77245
 20
-678.597274
 30
0.0
 41
20.0
 42
20.0
 43
20.0
  0
MTEXT
  5
3A69
100
AcDbEntity
  8
0
  6
BYBLOCK
 62
     0
 48
2.0
100
AcDbMText
 10
-784.27245
 20
-667.972274
 30
0.0
 40
20.0
 41
0.0
 71
     5
 72
     1
  1
\A1;501
  0
POINT
  5
3A6A
100
AcDbEntity
  8
DEFPOINTS
  6
BYBLOCK
 62
     0
 48
2.0
100
AcDbPoint
 10
-1034.77245
 20
-605.69683
 30
0.0
  0
POINT
  5
3A6B
100
AcDbEntity
  8
DEFPOINTS
  6
BYBLOCK
 62
     0
 48
2.0
100
AcDbPoint
 10
-533.77245
 20
-605.69683
 30
0.0
  0
POINT
  5
3A6C
100
AcDbEntity
  8
DEFPOINTS
  6
BYBLOCK
 62
     0
 48
2.0
100
AcDbPoint
 10
-533.77245
 20
-678.597274
 30
0.0
  0
ENDBLK
  5
3A6D
100
AcDbEntity
  8
0
 48
2.0
100
AcDbBlockEnd
  0
BLOCK
  5
3A6F
100
AcDbEntity
  8
0
 48
2.0
100
AcDbBlockBegin
  2
PAR-450W-B
 70
     0
 10
0.0
 20
0.0
 30
0.0
  3
PAR-450W-B
  1

  0
LINE
  5
3A70
100
AcDbEntity
  8
V0-VYPLNE
  6
DASHED
 62
    56
 48
2.0
100
AcDbLine
 10
19.573263
 20
171.225233
 30
0.0
 11
24.891087
 21
156.915876
 31
0.0
  0
LINE
  5
3A71
100
AcDbEntity
  8
V0-OBRYS
  6
CONTINUOUS
 62
    90
100
AcDbLine
 10
26.0
 20
250.065594
 30
0.0
 11
26.0
 21
-250.065594
 31
0.0
  0
LINE
  5
3A72
100
AcDbEntity
  8
V0-OBRYS
  6
CONTINUOUS
 62
    90
100
AcDbLine
 10
-36.15
 20
221.13702
 30
0.0
 11
-36.15
 21
0.0
 31
0.0
  0
LINE
  5
3A73
100
AcDbEntity
  8
V0-OBRYS
  6
CONTINUOUS
 62
    90
100
AcDbLine
 10
0.0
 20
0.0
 30
0.0
 11
0.0
 21
250.065594
 31
0.0
  0
LINE
  5
3A74
100
AcDbEntity
  8
V0-VYPLNE
  6
DASHED
 62
    56
 48
2.0
100
AcDbLine
 10
13.58922
 20
223.973213
 30
0.0
 11
13.58922
 21
-264.038101
 31
0.0
  0
DIMENSION
  5
3A75
100
AcDbEntity
  8
V0-VYPLNE
  6
CONTINUOUS
 62
    41
100
AcDbDimension
  2
*D6
 10
35.416465
 20
-338.312851
 30
0.0
 11
17.708232
 21
-338.312851
 31
0.0
 12
310.27245
 22
355.860654
 32
0.0
 70
   128
  1
42
  3
STANDARD
100
AcDbAlignedDimension
 13
0.0
 23
-250.065594
 33
0.0
 14
35.416465
 24
-250.065594
 34
0.0
100
AcDbRotatedDimension
1001
ACAD
1000
DSTYLE
1002
{
1070
   140
1040
20.0
1070
    40
1040
1.0
1070
    41
1040
20.0
1002
}
  0
DIMENSION
  5
3A76
100
AcDbEntity
  8
V0-VYPLNE
  6
CONTINUOUS
 62
    41
100
AcDbDimension
  2
*D7
 10
26.0
 20
-304.782816
 30
0.0
 11
78.375
 21
-304.782816
 31
0.0
 12
310.27245
 22
355.860654
 32
0.0
 70
   128
  3
STANDARD
100
AcDbAlignedDimension
 13
0.0
 23
-250.065594
 33
0.0
 14
26.0
 24
-250.065594
 34
0.0
100
AcDbRotatedDimension
1001
ACAD
1000
DSTYLE
1002
{
1070
   140
1040
20.0
1070
    40
1040
1.0
1070
    41
1040
20.0
1002
}
  0
LINE
  5
3A77
100
AcDbEntity
  8
V0-VYPLNE
  6
CONTINUOUS
 62
    41
100
AcDbLine
 10
26.0
 20
-304.71692
 30
0.0
 11
-8.905087
 21
-304.71692
 31
0.0
  0
LINE
  5
3A78
100
AcDbEntity
  8
V0-OBRYS
  6
CONTINUOUS
 62
    90
100
AcDbLine
 10
26.181369
 20
-42.483736
 30
0.0
 11
34.784498
 21
-58.11688
 31
0.0
  0
LINE
  5
3A79
100
AcDbEntity
  8
V0-OBRYS
  6
CONTINUOUS
 62
    90
100
AcDbLine
 10
-36.15
 20
-230.0
 30
0.0
 11
-36.15
 21
0.0
 31
0.0
  0
TEXT
  5
3A7A
100
AcDbEntity
  8
V0-NAZVY
  6
CONTINUOUS
 62
   210
100
AcDbText
 10
89.701132
 20
-104.200826
 30
0.0
 40
32.061793
  1
PAR-450W
 50
90.0
 72
     1
 11
89.701132
 21
0.0
 31
0.0
100
AcDbText
  0
LINE
  5
3A7B
100
AcDbEntity
  8
V0-OBRYS
  6
CONTINUOUS
 62
    90
100
AcDbLine
 10
0.0
 20
0.0
 30
0.0
 11
0.0
 21
-250.065594
 31
0.0
  0
LINE
  5
3A7C
100
AcDbEntity
  8
V0-OBRYS
  6
CONTINUOUS
 62
    90
100
AcDbLine
 10
0.0
 20
-230.0
 30
0.0
 11
-36.15
 21
-230.0
 31
0.0
  0
LINE
  5
3A7D
100
AcDbEntity
  8
V0-OBRYS
  6
CONTINUOUS
 62
    90
100
AcDbLine
 10
26.181369
 20
-140.447577
 30
0.0
 11
34.784498
 21
-156.080721
 31
0.0
  0
LINE
  5
3A7E
100
AcDbEntity
  8
V0-OBRYS
  6
CONTINUOUS
 62
    90
100
AcDbLine
 10
26.181369
 20
-189.429497
 30
0.0
 11
34.784498
 21
-205.062641
 31
0.0
  0
LINE
  5
3A7F
100
AcDbEntity
  8
V0-OBRYS
  6
CONTINUOUS
 62
    90
100
AcDbLine
 10
26.0
 20
-250.065594
 30
0.0
 11
0.0
 21
-250.065594
 31
0.0
  0
ELLIPSE
  5
3A80
100
AcDbEntity
  8
V0-OBRYS
  6
CONTINUOUS
 62
    90
100
AcDbEllipse
 10
30.941431
 20
-209.195285
 30
0.0
 11
0.000000000000175
 21
7.733987451117044
 31
0.0
210
0.0
220
0.0
230
-1.0
 40
0.587871
 41
1.00705969154027
 42
2.356660097223449
  0
LINE
  5
3A81
100
AcDbEntity
  8
V0-OBRYS
  6
CONTINUOUS
 62
    90
100
AcDbLine
 10
34.154856
 20
-214.666585
 30
0.0
 11
27.950917
 21
-220.462792
 31
0.0
  0
ELLIPSE
  5
3A82
100
AcDbEntity
  8
V0-VYPLNE
  6
DASHED
 62
    56
 48
2.0
100
AcDbEllipse
 10
21.141233
 20
-176.310827
 30
0.0
 11
-0.0000000000002938
 21
2.19235423648547
 31
0.0
210
0.0
220
0.0
230
-1.0
 40
0.587871
 41
0.0000000000000513
 42
6.283185307179637
  0
ELLIPSE
  5
3A83
100
AcDbEntity
  8
V0-VYPLNE
  6
DASHED
 62
    56
 48
2.0
100
AcDbEllipse
 10
21.141233
 20
-176.310827
 30
0.0
 11
-0.0000000000002938
 21
2.19235423648547
 31
0.0
210
0.0
220
0.0
230
-1.0
 40
0.587871
 41
0.0000000000000513
 42
6.283185307179637
  0
LINE
  5
3A84
100
AcDbEntity
  8
V0-VYPLNE
  6
DASHED
 62
    56
 48
2.0
100
AcDbLine
 10
19.573263
 20
-171.648211
 30
0.0
 11
24.891087
 21
-185.957568
 31
0.0
  0
LINE
  5
3A85
100
AcDbEntity
  8
V0-VYPLNE
  6
DASHED
 62
    56
 48
2.0
100
AcDbLine
 10
18.081041
 20
-169.202331
 30
0.0
 11
13.717993
 21
-169.202331
 31
0.0
  0
LINE
  5
3A86
100
AcDbEntity
  8
V0-OBRYS
  6
CONTINUOUS
 62
    90
100
AcDbLine
 10
34.154856
 20
-165.684665
 30
0.0
 11
27.950917
 21
-171.480872
 31
0.0
  0
ELLIPSE
  5
3A87
100
AcDbEntity
  8
V0-OBRYS
  6
CONTINUOUS
 62
    90
100
AcDbEllipse
 10
30.941431
 20
-160.213364
 30
0.0
 11
0.0000000000000446
 21
7.733987451117027
 31
0.0
210
0.0
220
0.0
230
-1.0
 40
0.587871
 41
1.007059691540279
 42
2.356660097223441
  0
LINE
  5
3A88
100
AcDbEntity
  8
V0-OBRYS
  6
CONTINUOUS
 62
    90
100
AcDbLine
 10
26.181369
 20
-91.465656
 30
0.0
 11
34.784498
 21
-107.0988
 31
0.0
  0
LINE
  5
3A89
100
AcDbEntity
  8
V0-VYPLNE
  6
DASHED
 62
    56
 48
2.0
100
AcDbLine
 10
19.573263
 20
-122.66629
 30
0.0
 11
24.891087
 21
-136.975647
 31
0.0
  0
ELLIPSE
  5
3A8A
100
AcDbEntity
  8
V0-VYPLNE
  6
DASHED
 62
    56
 48
2.0
100
AcDbEllipse
 10
21.141233
 20
-127.328906
 30
0.0
 11
-0.0000000000001861
 21
2.19235423648547
 31
0.0
210
0.0
220
0.0
230
-1.0
 40
0.587871
 41
0.0000000000000562
 42
6.283185307179642
  0
LINE
  5
3A8B
100
AcDbEntity
  8
V0-VYPLNE
  6
DASHED
 62
    56
 48
2.0
100
AcDbLine
 10
18.081041
 20
-120.22041
 30
0.0
 11
13.717993
 21
-120.22041
 31
0.0
  0
LINE
  5
3A8C
100
AcDbEntity
  8
V0-OBRYS
  6
CONTINUOUS
 62
    90
100
AcDbLine
 10
34.154856
 20
-116.702744
 30
0.0
 11
27.950917
 21
-122.498951
 31
0.0
  0
ELLIPSE
  5
3A8D
100
AcDbEntity
  8
V0-OBRYS
  6
CONTINUOUS
 62
    90
100
AcDbEllipse
 10
30.941431
 20
-111.231444
 30
0.0
 11
0.0000000000002214
 21
7.733987451116851
 31
0.0
210
0.0
220
0.0
230
-1.0
 40
0.587871
 41
1.00705969154026
 42
2.35666009722344
  0
LINE
  5
3A8E
100
AcDbEntity
  8
V0-OBRYS
  6
CONTINUOUS
 62
    90
100
AcDbLine
 10
34.154856
 20
-67.720824
 30
0.0
 11
27.950917
 21
-73.517031
 31
0.0
  0
ELLIPSE
  5
3A8F
100
AcDbEntity
  8
V0-VYPLNE
  6
DASHED
 62
    56
 48
2.0
100
AcDbEllipse
 10
21.141233
 20
-78.346986
 30
0.0
 11
-0.00000000000017
 21
2.192354236485413
 31
0.0
210
0.0
220
0.0
230
-1.0
 40
0.587871
 41
-0.0000000000000004
 42
6.283185307179586
  0
LINE
  5
3A90
100
AcDbEntity
  8
V0-VYPLNE
  6
DASHED
 62
    56
 48
2.0
100
AcDbLine
 10
19.573263
 20
-73.68437
 30
0.0
 11
24.891087
 21
-87.993727
 31
0.0
  0
LINE
  5
3A91
100
AcDbEntity
  8
V0-VYPLNE
  6
DASHED
 62
    56
 48
2.0
100
AcDbLine
 10
18.081041
 20
-71.23849
 30
0.0
 11
13.717993
 21
-71.23849
 31
0.0
  0
ELLIPSE
  5
3A92
100
AcDbEntity
  8
V0-OBRYS
  6
CONTINUOUS
 62
    90
100
AcDbEllipse
 10
30.941431
 20
-62.249523
 30
0.0
 11
0.0000000000001505
 21
7.73398745111711
 31
0.0
210
0.0
220
0.0
230
-1.0
 40
0.587871
 41
1.007059691540295
 42
2.356660097223441
  0
LINE
  5
3A93
100
AcDbEntity
  8
V0-VYPLNE
  6
CONTINUOUS
 62
    52
100
AcDbLine
 10
-34.063336
 20
-13.993321
 30
0.0
 11
-16.063336
 21
-0.913321
 31
0.0
  0
LINE
  5
3A94
100
AcDbEntity
  8
V0-VYPLNE
  6
CONTINUOUS
 62
    52
100
AcDbLine
 10
-16.063336
 20
-0.913321
 30
0.0
 11
-34.063336
 21
12.166679
 31
0.0
  0
LINE
  5
3A95
100
AcDbEntity
  8
V0-VYPLNE
  6
DASHDOT
 62
    63
 48
2.0
100
AcDbLine
 10
-36.15
 20
0.0
 30
0.0
 11
26.0
 21
0.0
 31
0.0
  0
LINE
  5
3A96
100
AcDbEntity
  8
V0-VYPLNE
  6
CONTINUOUS
 62
    52
100
AcDbLine
 10
-34.063336
 20
12.166679
 30
0.0
 11
-34.063336
 21
-13.993321
 31
0.0
  0
LINE
  5
3A97
100
AcDbEntity
  8
V0-VYPLNE
  6
DASHED
 62
    56
 48
2.0
100
AcDbLine
 10
19.573263
 20
73.261392
 30
0.0
 11
24.891087
 21
58.952035
 31
0.0
  0
POINT
  5
3A98
100
AcDbEntity
  8
V0-VYPLNE
  6
CONTINUOUS
 62
    52
100
AcDbPoint
 10
0.0
 20
0.0
 30
0.0
  0
POINT
  5
3A99
100
AcDbEntity
  8
V0-VYPLNE
  6
CONTINUOUS
 62
    41
100
AcDbPoint
 10
0.0
 20
0.0
 30
0.0
  0
ELLIPSE
  5
3A9A
100
AcDbEntity
  8
V0-OBRYS
  6
CONTINUOUS
 62
    90
100
AcDbEllipse
 10
30.941431
 20
-13.267603
 30
0.0
 11
0.0000000000001415
 21
7.733987451116912
 31
0.0
210
0.0
220
0.0
230
-1.0
 40
0.587871
 41
1.00705969154028
 42
2.356660097223437
  0
ELLIPSE
  5
3A9B
100
AcDbEntity
  8
V0-VYPLNE
  6
DASHED
 62
    56
 48
2.0
100
AcDbEllipse
 10
21.141233
 20
-29.365065
 30
0.0
 11
-0.0000000000001162
 21
2.192354236485414
 31
0.0
210
0.0
220
0.0
230
-1.0
 40
0.587871
 41
-0.0000000000000862
 42
6.2831853071795
  0
LINE
  5
3A9C
100
AcDbEntity
  8
V0-VYPLNE
  6
DASHED
 62
    56
 48
2.0
100
AcDbLine
 10
19.573263
 20
-24.702449
 30
0.0
 11
24.891087
 21
-39.011806
 31
0.0
  0
LINE
  5
3A9D
100
AcDbEntity
  8
V0-VYPLNE
  6
DASHED
 62
    56
 48
2.0
100
AcDbLine
 10
18.081041
 20
-22.256569
 30
0.0
 11
13.717993
 21
-22.256569
 31
0.0
  0
LINE
  5
3A9E
100
AcDbEntity
  8
V0-OBRYS
  6
CONTINUOUS
 62
    90
100
AcDbLine
 10
34.154856
 20
-18.738903
 30
0.0
 11
27.950917
 21
-24.53511
 31
0.0
  0
LINE
  5
3A9F
100
AcDbEntity
  8
V0-OBRYS
  6
CONTINUOUS
 62
    90
100
AcDbLine
 10
26.181369
 20
6.498185
 30
0.0
 11
34.784498
 21
-9.134959
 31
0.0
  0
ELLIPSE
  5
3AA0
100
AcDbEntity
  8
V0-OBRYS
  6
CONTINUOUS
 62
    90
100
AcDbEllipse
 10
30.941431
 20
35.714318
 30
0.0
 11
0.0000000000001655
 21
7.733987451116954
 31
0.0
210
0.0
220
0.0
230
-1.0
 40
0.587871
 41
1.007059691540272
 42
2.356660097223452
  0
ELLIPSE
  5
3AA1
100
AcDbEntity
  8
V0-VYPLNE
  6
DASHED
 62
    56
 48
2.0
100
AcDbEllipse
 10
21.141233
 20
19.616855
 30
0.0
 11
-0.0000000000000794
 21
2.19235423648547
 31
0.0
210
0.0
220
0.0
230
-1.0
 40
0.587871
 41
-0.000000000000159
 42
6.283185307179427
  0
LINE
  5
3AA2
100
AcDbEntity
  8
V0-VYPLNE
  6
DASHED
 62
    56
 48
2.0
100
AcDbLine
 10
19.573263
 20
24.279472
 30
0.0
 11
24.891087
 21
9.970114
 31
0.0
  0
LINE
  5
3AA3
100
AcDbEntity
  8
V0-VYPLNE
  6
DASHED
 62
    56
 48
2.0
100
AcDbLine
 10
18.081041
 20
26.725351
 30
0.0
 11
13.717993
 21
26.725351
 31
0.0
  0
LINE
  5
3AA4
100
AcDbEntity
  8
V0-OBRYS
  6
CONTINUOUS
 62
    90
100
AcDbLine
 10
34.154856
 20
30.243017
 30
0.0
 11
27.950917
 21
24.44681
 31
0.0
  0
LINE
  5
3AA5
100
AcDbEntity
  8
V0-OBRYS
  6
CONTINUOUS
 62
    90
100
AcDbLine
 10
26.181369
 20
55.480105
 30
0.0
 11
34.784498
 21
39.846961
 31
0.0
  0
ELLIPSE
  5
3AA6
100
AcDbEntity
  8
V0-VYPLNE
  6
DASHED
 62
    56
 48
2.0
100
AcDbEllipse
 10
21.141233
 20
117.580696
 30
0.0
 11
-0.00000000000017
 21
2.192354236485413
 31
0.0
210
0.0
220
0.0
230
-1.0
 40
0.587871
 41
-0.0000000000000004
 42
6.283185307179586
  0
LINE
  5
3AA7
100
AcDbEntity
  8
V0-VYPLNE
  6
DASHED
 62
    56
 48
2.0
100
AcDbLine
 10
19.573263
 20
122.243313
 30
0.0
 11
24.891087
 21
107.933955
 31
0.0
  0
LINE
  5
3AA8
100
AcDbEntity
  8
V0-OBRYS
  6
CONTINUOUS
 62
    90
100
AcDbLine
 10
26.181369
 20
104.462026
 30
0.0
 11
34.784498
 21
88.828882
 31
0.0
  0
ELLIPSE
  5
3AA9
100
AcDbEntity
  8
V0-VYPLNE
  6
DASHED
 62
    56
 48
2.0
100
AcDbEllipse
 10
21.141233
 20
68.598776
 30
0.0
 11
-0.0000000000001333
 21
2.19235423648547
 31
0.0
210
0.0
220
0.0
230
-1.0
 40
0.587871
 41
-0.0000000000000286
 42
6.283185307179557
  0
LINE
  5
3AAA
100
AcDbEntity
  8
V0-VYPLNE
  6
DASHED
 62
    56
 48
2.0
100
AcDbLine
 10
18.081041
 20
75.707272
 30
0.0
 11
13.717993
 21
75.707272
 31
0.0
  0
ELLIPSE
  5
3AAB
100
AcDbEntity
  8
V0-OBRYS
  6
CONTINUOUS
 62
    90
100
AcDbEllipse
 10
30.941431
 20
84.696238
 30
0.0
 11
0.000000000000176
 21
7.733987451117056
 31
0.0
210
0.0
220
0.0
230
-1.0
 40
0.587871
 41
1.007059691540289
 42
2.356660097223437
  0
LINE
  5
3AAC
100
AcDbEntity
  8
V0-OBRYS
  6
CONTINUOUS
 62
    90
100
AcDbLine
 10
34.154856
 20
79.224938
 30
0.0
 11
27.950917
 21
73.428731
 31
0.0
  0
LINE
  5
3AAD
100
AcDbEntity
  8
V0-OBRYS
  6
CONTINUOUS
 62
    90
100
AcDbLine
 10
26.181369
 20
153.443946
 30
0.0
 11
34.784498
 21
137.810802
 31
0.0
  0
LINE
  5
3AAE
100
AcDbEntity
  8
V0-VYPLNE
  6
DASHED
 62
    56
 48
2.0
100
AcDbLine
 10
18.081041
 20
124.689192
 30
0.0
 11
13.717993
 21
124.689192
 31
0.0
  0
ELLIPSE
  5
3AAF
100
AcDbEntity
  8
V0-OBRYS
  6
CONTINUOUS
 62
    90
100
AcDbEllipse
 10
30.941431
 20
133.678159
 30
0.0
 11
0.0000000000000731
 21
7.733987451117108
 31
0.0
210
0.0
220
0.0
230
-1.0
 40
0.587871
 41
1.007059691540275
 42
2.356660097223433
  0
LINE
  5
3AB0
100
AcDbEntity
  8
V0-OBRYS
  6
CONTINUOUS
 62
    90
100
AcDbLine
 10
34.154856
 20
128.206858
 30
0.0
 11
27.950917
 21
122.410651
 31
0.0
  0
ELLIPSE
  5
3AB1
100
AcDbEntity
  8
V0-VYPLNE
  6
DASHED
 62
    56
 48
2.0
100
AcDbEllipse
 10
21.141233
 20
166.562617
 30
0.0
 11
-0.0000000000001613
 21
2.192354236485385
 31
0.0
210
0.0
220
0.0
230
-1.0
 40
0.587871
 41
-0.0000000000000073
 42
6.283185307179579
  0
LINE
  5
3AB2
100
AcDbEntity
  8
V0-OBRYS
  6
CONTINUOUS
 62
    90
100
AcDbLine
 10
0.0
 20
221.13702
 30
0.0
 11
-36.15
 21
221.13702
 31
0.0
  0
LINE
  5
3AB3
100
AcDbEntity
  8
V0-OBRYS
  6
CONTINUOUS
 62
    90
100
AcDbLine
 10
26.181369
 20
202.425867
 30
0.0
 11
34.784498
 21
186.792723
 31
0.0
  0
LINE
  5
3AB4
100
AcDbEntity
  8
V0-VYPLNE
  6
DASHED
 62
    56
 48
2.0
100
AcDbLine
 10
18.081041
 20
173.671113
 30
0.0
 11
13.717993
 21
173.671113
 31
0.0
  0
LINE
  5
3AB5
100
AcDbEntity
  8
V0-OBRYS
  6
CONTINUOUS
 62
    90
100
AcDbLine
 10
34.154856
 20
177.188779
 30
0.0
 11
27.950917
 21
171.392572
 31
0.0
  0
ELLIPSE
  5
3AB6
100
AcDbEntity
  8
V0-OBRYS
  6
CONTINUOUS
 62
    90
100
AcDbEllipse
 10
30.941431
 20
182.660079
 30
0.0
 11
0.0000000000000536
 21
7.733987451117087
 31
0.0
210
0.0
220
0.0
230
-1.0
 40
0.587871
 41
1.007059691540279
 42
2.356660097223437
  0
ELLIPSE
  5
3AB7
100
AcDbEntity
  8
V0-VYPLNE
  6
DASHED
 62
    56
 48
2.0
100
AcDbEllipse
 10
21.141233
 20
215.544537
 30
0.0
 11
-0.0000000000001347
 21
2.192354236485385
 31
0.0
210
0.0
220
0.0
230
-1.0
 40
0.587871
 41
-0.0000000000000275
 42
6.283185307179558
  0
LINE
  5
3AB8
100
AcDbEntity
  8
V0-VYPLNE
  6
DASHED
 62
    56
 48
2.0
100
AcDbLine
 10
19.573263
 20
220.207154
 30
0.0
 11
24.891087
 21
205.897796
 31
0.0
  0
LINE
  5
3AB9
100
AcDbEntity
  8
V0-VYPLNE
  6
DASHED
 62
    56
 48
2.0
100
AcDbLine
 10
18.081041
 20
222.653033
 30
0.0
 11
13.717993
 21
222.653033
 31
0.0
  0
LINE
  5
3ABA
100
AcDbEntity
  8
V0-OBRYS
  6
CONTINUOUS
 62
    90
100
AcDbLine
 10
26.0
 20
250.065594
 30
0.0
 11
0.0
 21
250.065594
 31
0.0
  0
ENDBLK
  5
3ABB
100
AcDbEntity
  8
0
 48
2.0
100
AcDbBlockEnd
  0
BLOCK
  5
3ABD
100
AcDbEntity
  8
0
 48
2.0
100
AcDbBlockBegin
  2
*D15
 70
     1
 10
0.0
 20
0.0
 30
0.0
  3
*D15
  1

  0
LINE
  5
3ABE
100
AcDbEntity
  8
0
  6
BYBLOCK
 62
     0
 48
2.0
100
AcDbLine
 10
-310.27245
 20
-605.988748
 30
0.0
 11
-310.27245
 21
-694.353505
 31
0.0
  0
LINE
  5
3ABF
100
AcDbEntity
  8
0
  6
BYBLOCK
 62
     0
 48
2.0
100
AcDbLine
 10
-274.855985
 20
-605.988748
 30
0.0
 11
-274.855985
 21
-694.353505
 31
0.0
  0
LINE
  5
3AC0
100
AcDbEntity
  8
0
  6
BYBLOCK
 62
     0
 48
2.0
100
AcDbLine
 10
-330.27245
 20
-694.173505
 30
0.0
 11
-350.27245
 21
-694.173505
 31
0.0
  0
LINE
  5
3AC1
100
AcDbEntity
  8
0
  6
BYBLOCK
 62
     0
 48
2.0
100
AcDbLine
 10
-254.855985
 20
-694.173505
 30
0.0
 11
-234.855985
 21
-694.173505
 31
0.0
  0
INSERT
  5
3AC2
100
AcDbEntity
  8
0
  6
BYBLOCK
 62
     0
 48
2.0
100
AcDbBlockReference
  2
_OPEN
 10
-310.27245
 20
-694.173505
 30
0.0
 41
20.0
 42
20.0
 43
20.0
  0
INSERT
  5
3AC3
100
AcDbEntity
  8
0
  6
BYBLOCK
 62
     0
 48
2.0
100
AcDbBlockReference
  2
_OPEN
 10
-274.855985
 20
-694.173505
 30
0.0
 41
20.0
 42
20.0
 43
20.0
 50
180.0
  0
MTEXT
  5
3AC4
100
AcDbEntity
  8
0
  6
BYBLOCK
 62
     0
 48
2.0
100
AcDbMText
 10
-292.564217
 20
-683.546536
 30
0.0
 40
20.0
 41
0.0
 71
     5
 72
     1
  1
\A1;42
  0
POINT
  5
3AC5
100
AcDbEntity
  8
DEFPOINTS
  6
BYBLOCK
 62
     0
 48
2.0
100
AcDbPoint
 10
-310.27245
 20
-605.926248
 30
0.0
  0
POINT
  5
3AC6
100
AcDbEntity
  8
DEFPOINTS
  6
BYBLOCK
 62
     0
 48
2.0
100
AcDbPoint
 10
-274.855985
 20
-605.926248
 30
0.0
  0
POINT
  5
3AC7
100
AcDbEntity
  8
DEFPOINTS
  6
BYBLOCK
 62
     0
 48
2.0
100
AcDbPoint
 10
-274.855985
 20
-694.173505
 30
0.0
  0
ENDBLK
  5
3AC8
100
AcDbEntity
  8
0
 48
2.0
100
AcDbBlockEnd
  0
BLOCK
  5
3ACA
100
AcDbEntity
  8
0
 48
2.0
100
AcDbBlockBegin
  2
*D16
 70
     1
 10
0.0
 20
0.0
 30
0.0
  3
*D16
  1

  0
LINE
  5
3ACB
100
AcDbEntity
  8
0
  6
BYBLOCK
 62
     0
 48
2.0
100
AcDbLine
 10
-310.27245
 20
-605.988748
 30
0.0
 11
-310.27245
 21
-660.823469
 31
0.0
  0
LINE
  5
3ACC
100
AcDbEntity
  8
0
  6
BYBLOCK
 62
     0
 48
2.0
100
AcDbLine
 10
-284.27245
 20
-605.988748
 30
0.0
 11
-284.27245
 21
-660.823469
 31
0.0
  0
LINE
  5
3ACD
100
AcDbEntity
  8
0
  6
BYBLOCK
 62
     0
 48
2.0
100
AcDbLine
 10
-330.27245
 20
-660.643469
 30
0.0
 11
-350.27245
 21
-660.643469
 31
0.0
  0
LINE
  5
3ACE
100
AcDbEntity
  8
0
  6
BYBLOCK
 62
     0
 48
2.0
100
AcDbLine
 10
-264.27245
 20
-660.643469
 30
0.0
 11
-219.52245
 21
-660.643469
 31
0.0
  0
INSERT
  5
3ACF
100
AcDbEntity
  8
0
  6
BYBLOCK
 62
     0
 48
2.0
100
AcDbBlockReference
  2
_OPEN
 10
-310.27245
 20
-660.643469
 30
0.0
 41
20.0
 42
20.0
 43
20.0
  0
INSERT
  5
3AD0
100
AcDbEntity
  8
0
  6
BYBLOCK
 62
     0
 48
2.0
100
AcDbBlockReference
  2
_OPEN
 10
-284.27245
 20
-660.643469
 30
0.0
 41
20.0
 42
20.0
 43
20.0
 50
180.0
  0
MTEXT
  5
3AD1
100
AcDbEntity
  8
0
  6
BYBLOCK
 62
     0
 48
2.0
100
AcDbMText
 10
-231.89745
 20
-650.016501
 30
0.0
 40
20.0
 41
0.0
 71
     5
 72
     1
  1
\A1;26
  0
POINT
  5
3AD2
100
AcDbEntity
  8
DEFPOINTS
  6
BYBLOCK
 62
     0
 48
2.0
100
AcDbPoint
 10
-310.27245
 20
-605.926248
 30
0.0
  0
POINT
  5
3AD3
100
AcDbEntity
  8
DEFPOINTS
  6
BYBLOCK
 62
     0
 48
2.0
100
AcDbPoint
 10
-284.27245
 20
-605.926248
 30
0.0
  0
POINT
  5
3AD4
100
AcDbEntity
  8
DEFPOINTS
  6
BYBLOCK
 62
     0
 48
2.0
100
AcDbPoint
 10
-284.27245
 20
-660.643469
 30
0.0
  0
ENDBLK
  5
3AD5
100
AcDbEntity
  8
0
 48
2.0
100
AcDbBlockEnd
  0
BLOCK
  5
3AD7
100
AcDbEntity
  8
0
 48
2.0
100
AcDbBlockBegin
  2
PAR-450W-P
 70
     0
 10
0.0
 20
0.0
 30
0.0
  3
PAR-450W-P
  1

  0
LINE
  5
3AD8
100
AcDbEntity
  8
V0-OBRYS
  6
CONTINUOUS
 62
    90
100
AcDbLine
 10
-250.065594
 20
-26.0
 30
0.0
 11
250.065594
 21
-26.0
 31
0.0
  0
LINE
  5
3AD9
100
AcDbEntity
  8
V0-OBRYS
  6
CONTINUOUS
 62
    90
100
AcDbLine
 10
226.863632
 20
-39.403741
 30
0.0
 11
0.0
 21
-39.403741
 31
0.0
  0
LINE
  5
3ADA
100
AcDbEntity
  8
V0-OBRYS
  6
CONTINUOUS
 62
    90
100
AcDbLine
 10
0.0
 20
0.0
 30
0.0
 11
250.065594
 21
0.0
 31
0.0
  0
LINE
  5
3ADB
100
AcDbEntity
  8
V0-OBRYS
  6
CONTINUOUS
 62
    90
100
AcDbLine
 10
230.0
 20
35.0
 30
0.0
 11
-230.0
 21
35.0
 31
0.0
  0
TEXT
  5
3ADC
100
AcDbEntity
  8
V0-NAZVY
  6
CONTINUOUS
 62
   210
100
AcDbText
 10
-104.200826
 20
45.0
 30
0.0
 40
32.061793
  1
PAR-450W
 72
     1
 11
0.0
 21
45.0
 31
0.0
100
AcDbText
  0
LINE
  5
3ADD
100
AcDbEntity
  8
V0-OBRYS
  6
CONTINUOUS
 62
    90
100
AcDbLine
 10
-226.863632
 20
-39.403741
 30
0.0
 11
0.0
 21
-39.403741
 31
0.0
  0
LINE
  5
3ADE
100
AcDbEntity
  8
V0-OBRYS
  6
CONTINUOUS
 62
    90
100
AcDbLine
 10
0.0
 20
0.0
 30
0.0
 11
-250.065594
 21
0.0
 31
0.0
  0
LINE
  5
3ADF
100
AcDbEntity
  8
V0-OBRYS
  6
CONTINUOUS
 62
    90
100
AcDbLine
 10
-250.065594
 20
-26.0
 30
0.0
 11
-250.065594
 21
0.0
 31
0.0
  0
LINE
  5
3AE0
100
AcDbEntity
  8
V0-OBRYS
  6
CONTINUOUS
 62
    90
100
AcDbLine
 10
-226.863632
 20
-26.0
 30
0.0
 11
-226.863632
 21
-39.403741
 31
0.0
  0
LINE
  5
3AE1
100
AcDbEntity
  8
V0-OBRYS
  6
CONTINUOUS
 62
    90
100
AcDbLine
 10
-230.0
 20
0.0
 30
0.0
 11
-230.0
 21
35.478209
 31
0.0
  0
LINE
  5
3AE2
100
AcDbEntity
  8
V0-VYPLNE
  6
CONTINUOUS
 62
    41
100
AcDbLine
 10
0.0
 20
-36.753415
 30
0.0
 11
23.201962
 21
-18.567073
 31
0.0
  0
LINE
  5
3AE3
100
AcDbEntity
  8
V0-VYPLNE
  6
CONTINUOUS
 62
    41
100
AcDbLine
 10
0.0
 20
-36.753415
 30
0.0
 11
-23.201962
 21
-18.567073
 31
0.0
  0
LINE
  5
3AE4
100
AcDbEntity
  8
V0-VYPLNE
  6
DASHDOT
 62
    63
 48
2.0
100
AcDbLine
 10
0.0
 20
18.910412
 30
0.0
 11
0.0
 21
-45.111992
 31
0.0
  0
LINE
  5
3AE5
100
AcDbEntity
  8
V0-VYPLNE
  6
CONTINUOUS
 62
    41
100
AcDbLine
 10
-23.201962
 20
-18.567073
 30
0.0
 11
0.0
 21
-18.567073
 31
0.0
  0
LINE
  5
3AE6
100
AcDbEntity
  8
V0-VYPLNE
  6
CONTINUOUS
 62
    52
100
AcDbLine
 10
23.201962
 20
-18.567073
 30
0.0
 11
0.0
 21
-18.567073
 31
0.0
  0
POINT
  5
3AE7
100
AcDbEntity
  8
V0-VYPLNE
  6
CONTINUOUS
 62
    41
100
AcDbPoint
 10
0.0
 20
0.0
 30
0.0
  0
LINE
  5
3AE8
100
AcDbEntity
  8
V0-OBRYS
  6
CONTINUOUS
 62
    90
100
AcDbLine
 10
250.065594
 20
-26.0
 30
0.0
 11
250.065594
 21
0.0
 31
0.0
  0
LINE
  5
3AE9
100
AcDbEntity
  8
V0-OBRYS
  6
CONTINUOUS
 62
    90
100
AcDbLine
 10
226.863632
 20
-26.0
 30
0.0
 11
226.863632
 21
-39.403741
 31
0.0
  0
LINE
  5
3AEA
100
AcDbEntity
  8
V0-OBRYS
  6
CONTINUOUS
 62
    90
100
AcDbLine
 10
230.0
 20
-0.478209
 30
0.0
 11
230.0
 21
35.0
 31
0.0
  0
ENDBLK
  5
3AEB
100
AcDbEntity
  8
0
 48
2.0
100
AcDbBlockEnd
  0
ENDSEC
  0
SECTION
  2
ENTITIES
  0
LINE
  5
3172
100
AcDbEntity
  8
V0-OBRYS
  6
CONTINUOUS
 62
    90
100
AcDbLine
 10
-1010.92795
 20
-330.104347
 30
0.0
 11
-779.44339
 21
-330.104347
 31
0.0
  0
MTEXT
  5
3174
102
{ACAD_REACTORS
330
3175
102
}
100
AcDbEntity
  8
V0-VYPLNE
  6
CONTINUOUS
 62
    41
100
AcDbMText
 10
-823.373148
 20
-57.194099
 30
0.0
 40
25.756307
 41
0.0
 71
     4
 72
     1
  1
%%c5
  0
LEADER
  5
3175
100
AcDbEntity
  8
V0-VYPLNE
  6
CONTINUOUS
 62
    41
100
AcDbLeader
  3
STANDARD
 73
     0
 74
     0
 75
     1
 40
25.756307
 41
34.55006
 76
     3
 10
-974.38118
 20
-155.409683
 30
0.0
 10
-833.998148
 20
-70.697252
 30
0.0
 10
-823.998148
 20
-70.697252
 30
0.0
 77
    41
340
3174
1001
ACAD
1000
DSTYLE
1002
{
1070
   140
1040
10.0
1070
    40
1040
1.0
1070
    41
1040
10.0
1002
}
  0
LINE
  5
3176
100
AcDbEntity
  8
V0-OBRYS
  6
CONTINUOUS
 62
    90
100
AcDbLine
 10
-1034.108626
 20
-105.360654
 30
0.0
 11
-784.27245
 21
-105.360654
 31
0.0
  0
LINE
  5
3177
100
AcDbEntity
  8
V0-OBRYS
  6
CONTINUOUS
 62
    90
100
AcDbLine
 10
-784.27245
 20
-125.860654
 30
0.0
 11
-1009.27245
 21
-125.860654
 31
0.0
  0
LINE
  5
3178
100
AcDbEntity
  8
V0-OBRYS
  6
CONTINUOUS
 62
    90
100
AcDbLine
 10
-784.27245
 20
-585.860654
 30
0.0
 11
-1009.27245
 21
-585.860654
 31
0.0
  0
LINE
  5
3179
100
AcDbEntity
  8
V0-OBRYS
  6
CONTINUOUS
 62
    90
100
AcDbLine
 10
-1034.108626
 20
-606.360654
 30
0.0
 11
-784.27245
 21
-606.360654
 31
0.0
  0
LINE
  5
317A
100
AcDbEntity
  8
V0-VYPLNE
  6
DASHDOT
 62
    63
 48
2.0
100
AcDbLine
 10
-1057.701267
 20
-355.860654
 30
0.0
 11
-525.989679
 21
-355.860654
 31
0.0
  0
LINE
  5
317B
100
AcDbEntity
  8
V0-OBRYS
  6
CONTINUOUS
 62
    90
100
AcDbLine
 10
-1014.27245
 20
-525.852279
 30
0.0
 11
-554.27245
 21
-525.852279
 31
0.0
  0
LINE
  5
317C
100
AcDbEntity
  8
V0-OBRYS
  6
CONTINUOUS
 62
    90
100
AcDbLine
 10
-1014.27245
 20
-476.915296
 30
0.0
 11
-554.27245
 21
-476.915296
 31
0.0
  0
LINE
  5
317D
100
AcDbEntity
  8
V0-OBRYS
  6
CONTINUOUS
 62
    90
100
AcDbLine
 10
-1014.27245
 20
-427.978313
 30
0.0
 11
-554.27245
 21
-427.978313
 31
0.0
  0
LINE
  5
317E
100
AcDbEntity
  8
V0-OBRYS
  6
CONTINUOUS
 62
    90
100
AcDbLine
 10
-1014.27245
 20
-379.04133
 30
0.0
 11
-554.27245
 21
-379.04133
 31
0.0
  0
LINE
  5
317F
100
AcDbEntity
  8
V0-OBRYS
  6
CONTINUOUS
 62
    90
100
AcDbLine
 10
-1010.92795
 20
-281.167364
 30
0.0
 11
-902.751461
 21
-281.167364
 31
0.0
  0
LINE
  5
3180
100
AcDbEntity
  8
V0-OBRYS
  6
CONTINUOUS
 62
    90
100
AcDbLine
 10
-1014.27245
 20
-232.230381
 30
0.0
 11
-554.27245
 21
-232.230381
 31
0.0
  0
LINE
  5
3181
100
AcDbEntity
  8
V0-OBRYS
  6
CONTINUOUS
 62
    90
100
AcDbLine
 10
-1014.27245
 20
-183.293398
 30
0.0
 11
-554.27245
 21
-183.293398
 31
0.0
  0
LINE
  5
3182
100
AcDbEntity
  8
V0-OBRYS
  6
CONTINUOUS
 62
    90
100
AcDbLine
 10
-1014.27245
 20
-355.860654
 30
0.0
 11
-1014.27245
 21
-580.860654
 31
0.0
  0
LINE
  5
3183
100
AcDbEntity
  8
V0-OBRYS
  6
CONTINUOUS
 62
    90
100
AcDbLine
 10
-1034.77245
 20
-355.860654
 30
0.0
 11
-1034.77245
 21
-605.69683
 31
0.0
  0
LINE
  5
3184
100
AcDbEntity
  8
V0-OBRYS
  6
CONTINUOUS
 62
    90
100
AcDbLine
 10
-981.756973
 20
-566.223331
 30
0.0
 11
-981.756973
 21
-543.042655
 31
0.0
  0
CIRCLE
  5
3185
100
AcDbEntity
  8
V0-OBRYS
  6
CONTINUOUS
 62
    90
100
AcDbCircle
 10
-981.756973
 20
-553.345177
 30
0.0
 40
6.439077
  0
LINE
  5
3186
100
AcDbEntity
  8
V0-OBRYS
  6
CONTINUOUS
 62
    90
100
AcDbLine
 10
-999.786388
 20
-553.345177
 30
0.0
 11
-966.303189
 21
-553.345177
 31
0.0
  0
LINE
  5
3187
100
AcDbEntity
  8
V0-OBRYS
  6
CONTINUOUS
 62
    90
100
AcDbLine
 10
-1034.77245
 20
-355.860654
 30
0.0
 11
-1034.77245
 21
-106.024478
 31
0.0
  0
LINE
  5
3188
100
AcDbEntity
  8
V0-OBRYS
  6
CONTINUOUS
 62
    90
100
AcDbLine
 10
-1014.27245
 20
-355.860654
 30
0.0
 11
-1014.27245
 21
-130.860654
 31
0.0
  0
CIRCLE
  5
3189
100
AcDbEntity
  8
V0-OBRYS
  6
CONTINUOUS
 62
    90
100
AcDbCircle
 10
-981.756973
 20
-158.37613
 30
0.0
 40
6.439077
  0
LINE
  5
318A
100
AcDbEntity
  8
V0-OBRYS
  6
CONTINUOUS
 62
    90
100
AcDbLine
 10
-999.786388
 20
-158.37613
 30
0.0
 11
-966.303189
 21
-158.37613
 31
0.0
  0
LINE
  5
318B
100
AcDbEntity
  8
V0-OBRYS
  6
CONTINUOUS
 62
    90
100
AcDbLine
 10
-981.756973
 20
-151.641646
 30
0.0
 11
-981.756973
 21
-174.822322
 31
0.0
  0
LINE
  5
318E
100
AcDbEntity
  8
V0-OBRYS
  6
CONTINUOUS
 62
    90
100
AcDbLine
 10
-554.27245
 20
-355.860654
 30
0.0
 11
-554.27245
 21
-580.860654
 31
0.0
  0
LINE
  5
318F
100
AcDbEntity
  8
V0-OBRYS
  6
CONTINUOUS
 62
    90
100
AcDbLine
 10
-533.77245
 20
-355.860654
 30
0.0
 11
-533.77245
 21
-605.69683
 31
0.0
  0
LINE
  5
3191
100
AcDbEntity
  8
V0-VYPLNE
  6
DASHDOT
 62
    63
 48
2.0
100
AcDbLine
 10
-784.27245
 20
-314.650563
 30
0.0
 11
-784.27245
 21
-595.271624
 31
0.0
  0
LINE
  5
3192
100
AcDbEntity
  8
V0-OBRYS
  6
CONTINUOUS
 62
    90
100
AcDbLine
 10
-784.27245
 20
-585.860654
 30
0.0
 11
-559.27245
 21
-585.860654
 31
0.0
  0
LINE
  5
3193
100
AcDbEntity
  8
V0-OBRYS
  6
CONTINUOUS
 62
    90
100
AcDbLine
 10
-534.436273
 20
-606.360654
 30
0.0
 11
-784.27245
 21
-606.360654
 31
0.0
  0
LINE
  5
3194
100
AcDbEntity
  8
V0-OBRYS
  6
CONTINUOUS
 62
    90
100
AcDbLine
 10
-568.758511
 20
-553.345177
 30
0.0
 11
-602.24171
 21
-553.345177
 31
0.0
  0
CIRCLE
  5
3195
100
AcDbEntity
  8
V0-OBRYS
  6
CONTINUOUS
 62
    90
100
AcDbCircle
 10
-586.787926
 20
-553.345177
 30
0.0
 40
6.439077
  0
LINE
  5
3196
100
AcDbEntity
  8
V0-OBRYS
  6
CONTINUOUS
 62
    90
100
AcDbLine
 10
-586.787926
 20
-566.223331
 30
0.0
 11
-586.787926
 21
-543.042655
 31
0.0
  0
LINE
  5
3197
100
AcDbEntity
  8
V0-OBRYS
  6
CONTINUOUS
 62
    90
100
AcDbLine
 10
-554.27245
 20
-355.860654
 30
0.0
 11
-554.27245
 21
-130.860654
 31
0.0
  0
LINE
  5
3199
100
AcDbEntity
  8
V0-OBRYS
  6
CONTINUOUS
 62
    90
100
AcDbLine
 10
-533.77245
 20
-355.860654
 30
0.0
 11
-533.77245
 21
-106.024478
 31
0.0
  0
LINE
  5
319A
100
AcDbEntity
  8
V0-VYPLNE
  6
DASHDOT
 62
    63
 48
2.0
100
AcDbLine
 10
-784.27245
 20
-92.288153
 30
0.0
 11
-784.27245
 21
-245.108534
 31
0.0
  0
TEXT
  5
319B
100
AcDbEntity
  8
V0-NAZVY
  6
CONTINUOUS
 62
   210
100
AcDbText
 10
-888.473276
 20
-304.561785
 30
0.0
 40
32.061793
  1
PAR-450W
 72
     1
 11
-784.27245
 21
-304.561785
 31
0.0
100
AcDbText
  0
LINE
  5
319C
100
AcDbEntity
  8
V0-OBRYS
  6
CONTINUOUS
 62
    90
100
AcDbLine
 10
-667.34839
 20
-330.104347
 30
0.0
 11
-554.27245
 21
-330.104347
 31
0.0
  0
LINE
  5
319D
100
AcDbEntity
  8
V0-OBRYS
  6
CONTINUOUS
 62
    90
100
AcDbLine
 10
-668.369069
 20
-281.167364
 30
0.0
 11
-554.27245
 21
-281.167364
 31
0.0
  0
LINE
  5
319E
100
AcDbEntity
  8
V0-OBRYS
  6
CONTINUOUS
 62
    90
100
AcDbLine
 10
-784.27245
 20
-125.860654
 30
0.0
 11
-559.27245
 21
-125.860654
 31
0.0
  0
LINE
  5
319F
100
AcDbEntity
  8
V0-OBRYS
  6
CONTINUOUS
 62
    90
100
AcDbLine
 10
-534.436273
 20
-105.360654
 30
0.0
 11
-784.27245
 21
-105.360654
 31
0.0
  0
LINE
  5
31A0
100
AcDbEntity
  8
V0-OBRYS
  6
CONTINUOUS
 62
    90
100
AcDbLine
 10
-568.758511
 20
-158.37613
 30
0.0
 11
-602.24171
 21
-158.37613
 31
0.0
  0
CIRCLE
  5
31A1
100
AcDbEntity
  8
V0-OBRYS
  6
CONTINUOUS
 62
    90
100
AcDbCircle
 10
-586.787926
 20
-158.37613
 30
0.0
 40
6.439077
  0
LINE
  5
31A2
100
AcDbEntity
  8
V0-OBRYS
  6
CONTINUOUS
 62
    90
100
AcDbLine
 10
-586.787926
 20
-151.641646
 30
0.0
 11
-586.787926
 21
-174.822322
 31
0.0
  0
POINT
  5
31A3
100
AcDbEntity
  8
V0-VYPLNE
  6
CONTINUOUS
 62
    41
100
AcDbPoint
 10
-784.27245
 20
-355.860654
 30
0.0
  0
DIMENSION
  5
370D
100
AcDbEntity
  8
V0-VYPLNE
  6
CONTINUOUS
 62
    41
100
AcDbDimension
  2
*D12
 10
-586.787926
 20
-641.526111
 30
0.0
 11
-784.27245
 21
-630.901111
 31
0.0
 70
    32
  3
STANDARD
100
AcDbAlignedDimension
 13
-981.756973
 23
-566.223331
 33
0.0
 14
-586.787926
 24
-566.223331
 34
0.0
100
AcDbRotatedDimension
1001
ACAD
1000
DSTYLE
1002
{
1070
   140
1040
20.0
1070
    40
1040
1.0
1070
    41
1040
20.0
1002
}
  0
ARC
  5
370E
100
AcDbEntity
  8
V0-OBRYS
  6
CONTINUOUS
 62
    90
100
AcDbCircle
 10
-1009.27245
 20
-130.860654
 30
0.0
 40
5.0
100
AcDbArc
 50
90.0
 51
180.0
  0
ARC
  5
370F
100
AcDbEntity
  8
V0-OBRYS
  6
CONTINUOUS
 62
    90
100
AcDbCircle
 10
-559.27245
 20
-130.860654
 30
0.0
 40
5.0
100
AcDbArc
 50
0.0
 51
90.0
  0
ARC
  5
3710
100
AcDbEntity
  8
V0-OBRYS
  6
CONTINUOUS
 62
    90
100
AcDbCircle
 10
-559.27245
 20
-580.860654
 30
0.0
 40
5.0
100
AcDbArc
 50
270.0
 51
0.0
  0
ARC
  5
3711
100
AcDbEntity
  8
V0-OBRYS
  6
CONTINUOUS
 62
    90
100
AcDbCircle
 10
-1009.27245
 20
-580.860654
 30
0.0
 40
5.0
100
AcDbArc
 50
180.0
 51
270.0
  0
DIMENSION
  5
375C
100
AcDbEntity
  8
V0-VYPLNE
  6
CONTINUOUS
 62
    41
100
AcDbDimension
  2
*D13
 10
-533.77245
 20
-678.597274
 30
0.0
 11
-784.27245
 21
-667.972274
 31
0.0
 70
    32
  3
STANDARD
100
AcDbAlignedDimension
 13
-1034.77245
 23
-605.69683
 33
0.0
 14
-533.77245
 24
-605.69683
 34
0.0
100
AcDbRotatedDimension
1001
ACAD
1000
DSTYLE
1002
{
1070
   140
1040
20.0
1070
    40
1040
1.0
1070
    41
1040
20.0
1002
}
  0
DIMENSION
  5
3769
100
AcDbEntity
  8
V0-VYPLNE
  6
CONTINUOUS
 62
    41
100
AcDbDimension
  2
*D9
 10
-460.530121
 20
-606.360654
 30
0.0
 11
-471.155121
 21
-355.860654
 31
0.0
 70
    32
  3
STANDARD
100
AcDbAlignedDimension
 13
-534.436273
 23
-105.360654
 33
0.0
 14
-534.436273
 24
-606.360654
 34
0.0
 50
90.0
100
AcDbRotatedDimension
1001
ACAD
1000
DSTYLE
1002
{
1070
   140
1040
20.0
1070
    40
1040
1.0
1070
    41
1040
20.0
1002
}
  0
DIMENSION
  5
3783
100
AcDbEntity
  8
V0-VYPLNE
  6
CONTINUOUS
 62
    41
100
AcDbDimension
  2
*D10
 10
-497.64183
 20
-553.345177
 30
0.0
 11
-508.26683
 21
-355.860654
 31
0.0
 70
    32
  3
STANDARD
100
AcDbAlignedDimension
 13
-568.758511
 23
-158.37613
 33
0.0
 14
-568.758511
 24
-553.345177
 34
0.0
 50
90.0
100
AcDbRotatedDimension
1001
ACAD
1000
DSTYLE
1002
{
1070
   140
1040
20.0
1070
    40
1040
1.0
1070
    41
1040
20.0
1002
}
  0
CIRCLE
  5
378F
100
AcDbEntity
  8
V0-VYPLNE
  6
DASHED
 62
    56
 48
2.0
100
AcDbCircle
 10
-784.27245
 20
-355.860654
 30
0.0
 40
230.0
  0
DIMENSION
  5
37AB
100
AcDbEntity
  8
V0-VYPLNE
  6
CONTINUOUS
 62
    41
 48
2.0
100
AcDbDimension
  2
*D11
 10
-1011.349551
 20
-392.411854
 30
0.0
 11
-720.312096
 21
-345.56535
 31
0.0
 70
   163
  3
STANDARD
100
AcDbDiametricDimension
 15
-557.195349
 25
-319.309454
 35
0.0
 40
0.0
1001
ACAD
1000
DSTYLE
1002
{
1070
   140
1040
20.0
1070
    40
1040
1.0
1070
    41
1040
20.0
1002
}
  0
LINE
  5
383C
100
AcDbEntity
  8
V0-OBRYS
  6
CONTINUOUS
 62
    90
100
AcDbLine
 10
-1034.338044
 20
-831.860654
 30
0.0
 11
-534.206855
 21
-831.860654
 31
0.0
  0
LINE
  5
383D
100
AcDbEntity
  8
V0-OBRYS
  6
CONTINUOUS
 62
    90
100
AcDbLine
 10
-1011.136082
 20
-845.264395
 30
0.0
 11
-784.27245
 21
-845.264395
 31
0.0
  0
LINE
  5
383E
100
AcDbEntity
  8
V0-OBRYS
  6
CONTINUOUS
 62
    90
100
AcDbLine
 10
-784.27245
 20
-805.860654
 30
0.0
 11
-1034.338044
 21
-805.860654
 31
0.0
  0
LINE
  5
383F
100
AcDbEntity
  8
V0-OBRYS
  6
CONTINUOUS
 62
    90
100
AcDbLine
 10
-1014.27245
 20
-805.860654
 30
0.0
 11
-1014.27245
 21
-770.382445
 31
0.0
  0
LINE
  5
3840
100
AcDbEntity
  8
V0-OBRYS
  6
CONTINUOUS
 62
    90
100
AcDbLine
 10
-1034.338044
 20
-831.860654
 30
0.0
 11
-1034.338044
 21
-805.860654
 31
0.0
  0
LINE
  5
3841
100
AcDbEntity
  8
V0-OBRYS
  6
CONTINUOUS
 62
    90
100
AcDbLine
 10
-1011.136082
 20
-831.860654
 30
0.0
 11
-1011.136082
 21
-845.264395
 31
0.0
  0
LINE
  5
3842
100
AcDbEntity
  8
V0-OBRYS
  6
CONTINUOUS
 62
    90
100
AcDbLine
 10
-554.27245
 20
-770.860654
 30
0.0
 11
-1014.27245
 21
-770.860654
 31
0.0
  0
LINE
  5
3843
100
AcDbEntity
  8
V0-OBRYS
  6
CONTINUOUS
 62
    90
100
AcDbLine
 10
-557.408818
 20
-845.264395
 30
0.0
 11
-784.27245
 21
-845.264395
 31
0.0
  0
LINE
  5
3844
100
AcDbEntity
  8
V0-OBRYS
  6
CONTINUOUS
 62
    90
100
AcDbLine
 10
-784.27245
 20
-805.860654
 30
0.0
 11
-534.206855
 21
-805.860654
 31
0.0
  0
LINE
  5
3845
100
AcDbEntity
  8
V0-VYPLNE
  6
DASHDOT
 62
    63
 48
2.0
100
AcDbLine
 10
-784.27245
 20
-786.950242
 30
0.0
 11
-784.27245
 21
-850.972646
 31
0.0
  0
LINE
  5
3847
100
AcDbEntity
  8
V0-VYPLNE
  6
CONTINUOUS
 62
    41
100
AcDbLine
 10
-784.27245
 20
-842.614068
 30
0.0
 11
-761.070487
 21
-824.427726
 31
0.0
  0
LINE
  5
3848
100
AcDbEntity
  8
V0-VYPLNE
  6
CONTINUOUS
 62
    52
100
AcDbLine
 10
-761.070487
 20
-824.427726
 30
0.0
 11
-784.27245
 21
-824.427726
 31
0.0
  0
LINE
  5
3849
100
AcDbEntity
  8
V0-VYPLNE
  6
CONTINUOUS
 62
    41
100
AcDbLine
 10
-784.27245
 20
-842.614068
 30
0.0
 11
-807.474412
 21
-824.427726
 31
0.0
  0
LINE
  5
384A
100
AcDbEntity
  8
V0-VYPLNE
  6
CONTINUOUS
 62
    41
100
AcDbLine
 10
-807.474412
 20
-824.427726
 30
0.0
 11
-784.27245
 21
-824.427726
 31
0.0
  0
LINE
  5
384C
100
AcDbEntity
  8
V0-OBRYS
  6
CONTINUOUS
 62
    90
100
AcDbLine
 10
-554.27245
 20
-806.338863
 30
0.0
 11
-554.27245
 21
-770.860654
 31
0.0
  0
LINE
  5
384D
100
AcDbEntity
  8
V0-OBRYS
  6
CONTINUOUS
 62
    90
100
AcDbLine
 10
-557.408818
 20
-831.860654
 30
0.0
 11
-557.408818
 21
-845.264395
 31
0.0
  0
LINE
  5
384E
100
AcDbEntity
  8
V0-OBRYS
  6
CONTINUOUS
 62
    90
100
AcDbLine
 10
-534.206855
 20
-831.860654
 30
0.0
 11
-534.206855
 21
-805.860654
 31
0.0
  0
LINE
  5
384F
100
AcDbEntity
  8
V0-OBRYS
  6
CONTINUOUS
 62
    90
100
AcDbLine
 10
-284.27245
 20
-105.79506
 30
0.0
 11
-284.27245
 21
-605.926248
 31
0.0
  0
LINE
  5
3850
100
AcDbEntity
  8
V0-VYPLNE
  6
DASHED
 62
    56
 48
2.0
100
AcDbLine
 10
-296.683229
 20
-131.887441
 30
0.0
 11
-296.683229
 21
-619.898754
 31
0.0
  0
LINE
  5
3851
100
AcDbEntity
  8
V0-OBRYS
  6
CONTINUOUS
 62
    90
100
AcDbLine
 10
-346.42245
 20
-134.723634
 30
0.0
 11
-346.42245
 21
-355.860654
 31
0.0
  0
LINE
  5
3852
100
AcDbEntity
  8
V0-OBRYS
  6
CONTINUOUS
 62
    90
100
AcDbLine
 10
-310.27245
 20
-355.860654
 30
0.0
 11
-310.27245
 21
-105.79506
 31
0.0
  0
LINE
  5
3853
100
AcDbEntity
  8
V0-VYPLNE
  6
DASHED
 62
    56
 48
2.0
100
AcDbLine
 10
-290.699187
 20
-184.635421
 30
0.0
 11
-285.381363
 21
-198.944778
 31
0.0
  0
DIMENSION
  5
3861
100
AcDbEntity
  8
V0-VYPLNE
  6
CONTINUOUS
 62
    41
100
AcDbDimension
  2
*D15
 10
-274.855985
 20
-694.173505
 30
0.0
 11
-292.564217
 21
-694.173505
 31
0.0
 70
   160
  1
42
  3
STANDARD
100
AcDbAlignedDimension
 13
-310.27245
 23
-605.926248
 33
0.0
 14
-274.855985
 24
-605.926248
 34
0.0
100
AcDbRotatedDimension
1001
ACAD
1000
DSTYLE
1002
{
1070
   140
1040
20.0
1070
    40
1040
1.0
1070
    41
1040
20.0
1002
}
  0
LINE
  5
3863
100
AcDbEntity
  8
V0-OBRYS
  6
CONTINUOUS
 62
    90
100
AcDbLine
 10
-346.42245
 20
-585.860654
 30
0.0
 11
-346.42245
 21
-355.860654
 31
0.0
  0
LINE
  5
3864
100
AcDbEntity
  8
V0-OBRYS
  6
CONTINUOUS
 62
    90
100
AcDbLine
 10
-310.27245
 20
-355.860654
 30
0.0
 11
-310.27245
 21
-605.926248
 31
0.0
  0
LINE
  5
3866
100
AcDbEntity
  8
V0-VYPLNE
  6
DASHED
 62
    56
 48
2.0
100
AcDbLine
 10
-290.699187
 20
-429.545023
 30
0.0
 11
-285.381363
 21
-443.854381
 31
0.0
  0
LINE
  5
3867
100
AcDbEntity
  8
V0-OBRYS
  6
CONTINUOUS
 62
    90
100
AcDbLine
 10
-284.091081
 20
-545.290151
 30
0.0
 11
-275.487952
 21
-560.923295
 31
0.0
  0
LINE
  5
3868
100
AcDbEntity
  8
V0-OBRYS
  6
CONTINUOUS
 62
    90
100
AcDbLine
 10
-284.27245
 20
-605.926248
 30
0.0
 11
-310.27245
 21
-605.926248
 31
0.0
  0
LINE
  5
3869
100
AcDbEntity
  8
V0-VYPLNE
  6
CONTINUOUS
 62
    41
100
AcDbLine
 10
-284.27245
 20
-660.577574
 30
0.0
 11
-319.177537
 21
-660.577574
 31
0.0
  0
DIMENSION
  5
3877
100
AcDbEntity
  8
V0-VYPLNE
  6
CONTINUOUS
 62
    41
100
AcDbDimension
  2
*D16
 10
-284.27245
 20
-660.643469
 30
0.0
 11
-231.89745
 21
-660.643469
 31
0.0
 70
   160
  3
STANDARD
100
AcDbAlignedDimension
 13
-310.27245
 23
-605.926248
 33
0.0
 14
-284.27245
 24
-605.926248
 34
0.0
100
AcDbRotatedDimension
1001
ACAD
1000
DSTYLE
1002
{
1070
   140
1040
20.0
1070
    40
1040
1.0
1070
    41
1040
20.0
1002
}
  0
LINE
  5
3878
100
AcDbEntity
  8
V0-OBRYS
  6
CONTINUOUS
 62
    90
100
AcDbLine
 10
-310.27245
 20
-585.860654
 30
0.0
 11
-346.42245
 21
-585.860654
 31
0.0
  0
LINE
  5
3879
100
AcDbEntity
  8
V0-OBRYS
  6
CONTINUOUS
 62
    90
100
AcDbLine
 10
-276.117594
 20
-570.527239
 30
0.0
 11
-282.321532
 21
-576.323446
 31
0.0
  0
ELLIPSE
  5
387A
100
AcDbEntity
  8
V0-OBRYS
  6
CONTINUOUS
 62
    90
100
AcDbEllipse
 10
-279.331018
 20
-565.055939
 30
0.0
 11
0.000000000000175
 21
7.733987451117044
 31
0.0
210
0.0
220
0.0
230
-1.0
 40
0.587871
 41
1.00705969154027
 42
2.356660097223449
  0
LINE
  5
387B
100
AcDbEntity
  8
V0-VYPLNE
  6
DASHED
 62
    56
 48
2.0
100
AcDbLine
 10
-290.699187
 20
-527.508864
 30
0.0
 11
-285.381363
 21
-541.818222
 31
0.0
  0
ELLIPSE
  5
387C
100
AcDbEntity
  8
V0-VYPLNE
  6
DASHED
 62
    56
 48
2.0
100
AcDbEllipse
 10
-289.131216
 20
-532.171481
 30
0.0
 11
-0.0000000000002938
 21
2.19235423648547
 31
0.0
210
0.0
220
0.0
230
-1.0
 40
0.587871
 41
0.0000000000000513
 42
6.283185307179637
  0
ELLIPSE
  5
387D
100
AcDbEntity
  8
V0-VYPLNE
  6
DASHED
 62
    56
 48
2.0
100
AcDbEllipse
 10
-289.131216
 20
-532.171481
 30
0.0
 11
-0.0000000000002938
 21
2.19235423648547
 31
0.0
210
0.0
220
0.0
230
-1.0
 40
0.587871
 41
0.0000000000000513
 42
6.283185307179637
  0
LINE
  5
387E
100
AcDbEntity
  8
V0-VYPLNE
  6
DASHED
 62
    56
 48
2.0
100
AcDbLine
 10
-292.191409
 20
-525.062985
 30
0.0
 11
-296.554457
 21
-525.062985
 31
0.0
  0
LINE
  5
387F
100
AcDbEntity
  8
V0-VYPLNE
  6
DASHED
 62
    56
 48
2.0
100
AcDbLine
 10
-290.699187
 20
-478.526944
 30
0.0
 11
-285.381363
 21
-492.836301
 31
0.0
  0
ELLIPSE
  5
3880
100
AcDbEntity
  8
V0-VYPLNE
  6
DASHED
 62
    56
 48
2.0
100
AcDbEllipse
 10
-289.131216
 20
-483.18956
 30
0.0
 11
-0.0000000000001861
 21
2.19235423648547
 31
0.0
210
0.0
220
0.0
230
-1.0
 40
0.587871
 41
0.0000000000000562
 42
6.283185307179642
  0
LINE
  5
3881
100
AcDbEntity
  8
V0-VYPLNE
  6
DASHED
 62
    56
 48
2.0
100
AcDbLine
 10
-292.191409
 20
-476.081064
 30
0.0
 11
-296.554457
 21
-476.081064
 31
0.0
  0
LINE
  5
3882
100
AcDbEntity
  8
V0-OBRYS
  6
CONTINUOUS
 62
    90
100
AcDbLine
 10
-284.091081
 20
-496.308231
 30
0.0
 11
-275.487952
 21
-511.941375
 31
0.0
  0
LINE
  5
3883
100
AcDbEntity
  8
V0-OBRYS
  6
CONTINUOUS
 62
    90
100
AcDbLine
 10
-276.117594
 20
-521.545319
 30
0.0
 11
-282.321532
 21
-527.341526
 31
0.0
  0
ELLIPSE
  5
3884
100
AcDbEntity
  8
V0-OBRYS
  6
CONTINUOUS
 62
    90
100
AcDbEllipse
 10
-279.331018
 20
-516.074018
 30
0.0
 11
0.0000000000000446
 21
7.733987451117027
 31
0.0
210
0.0
220
0.0
230
-1.0
 40
0.587871
 41
1.007059691540279
 42
2.356660097223441
  0
ELLIPSE
  5
3885
100
AcDbEntity
  8
V0-OBRYS
  6
CONTINUOUS
 62
    90
100
AcDbEllipse
 10
-279.331018
 20
-467.092098
 30
0.0
 11
0.0000000000002214
 21
7.733987451116851
 31
0.0
210
0.0
220
0.0
230
-1.0
 40
0.587871
 41
1.00705969154026
 42
2.35666009722344
  0
LINE
  5
3886
100
AcDbEntity
  8
V0-OBRYS
  6
CONTINUOUS
 62
    90
100
AcDbLine
 10
-276.117594
 20
-472.563398
 30
0.0
 11
-282.321532
 21
-478.359605
 31
0.0
  0
LINE
  5
3887
100
AcDbEntity
  8
V0-OBRYS
  6
CONTINUOUS
 62
    90
100
AcDbLine
 10
-284.091081
 20
-447.32631
 30
0.0
 11
-275.487952
 21
-462.959454
 31
0.0
  0
ELLIPSE
  5
3888
100
AcDbEntity
  8
V0-OBRYS
  6
CONTINUOUS
 62
    90
100
AcDbEllipse
 10
-279.331018
 20
-320.146336
 30
0.0
 11
0.0000000000001655
 21
7.733987451116954
 31
0.0
210
0.0
220
0.0
230
-1.0
 40
0.587871
 41
1.007059691540272
 42
2.356660097223452
  0
LINE
  5
3889
100
AcDbEntity
  8
V0-VYPLNE
  6
DASHDOT
 62
    63
 48
2.0
100
AcDbLine
 10
-346.42245
 20
-355.860654
 30
0.0
 11
-284.27245
 21
-355.860654
 31
0.0
  0
ELLIPSE
  5
388A
100
AcDbEntity
  8
V0-VYPLNE
  6
DASHED
 62
    56
 48
2.0
100
AcDbEllipse
 10
-289.131216
 20
-434.20764
 30
0.0
 11
-0.00000000000017
 21
2.192354236485413
 31
0.0
210
0.0
220
0.0
230
-1.0
 40
0.587871
 41
-0.0000000000000004
 42
6.283185307179586
  0
LINE
  5
388B
100
AcDbEntity
  8
V0-VYPLNE
  6
DASHED
 62
    56
 48
2.0
100
AcDbLine
 10
-292.191409
 20
-427.099144
 30
0.0
 11
-296.554457
 21
-427.099144
 31
0.0
  0
LINE
  5
388C
100
AcDbEntity
  8
V0-VYPLNE
  6
DASHED
 62
    56
 48
2.0
100
AcDbLine
 10
-290.699187
 20
-380.563103
 30
0.0
 11
-285.381363
 21
-394.87246
 31
0.0
  0
ELLIPSE
  5
388D
100
AcDbEntity
  8
V0-VYPLNE
  6
DASHED
 62
    56
 48
2.0
100
AcDbEllipse
 10
-289.131216
 20
-385.225719
 30
0.0
 11
-0.0000000000001162
 21
2.192354236485414
 31
0.0
210
0.0
220
0.0
230
-1.0
 40
0.587871
 41
-0.0000000000000862
 42
6.2831853071795
  0
LINE
  5
388E
100
AcDbEntity
  8
V0-VYPLNE
  6
DASHED
 62
    56
 48
2.0
100
AcDbLine
 10
-292.191409
 20
-378.117223
 30
0.0
 11
-296.554457
 21
-378.117223
 31
0.0
  0
LINE
  5
3890
100
AcDbEntity
  8
V0-VYPLNE
  6
DASHED
 62
    56
 48
2.0
100
AcDbLine
 10
-290.699187
 20
-331.581182
 30
0.0
 11
-285.381363
 21
-345.89054
 31
0.0
  0
ELLIPSE
  5
3891
100
AcDbEntity
  8
V0-VYPLNE
  6
DASHED
 62
    56
 48
2.0
100
AcDbEllipse
 10
-289.131216
 20
-336.243799
 30
0.0
 11
-0.0000000000000794
 21
2.19235423648547
 31
0.0
210
0.0
220
0.0
230
-1.0
 40
0.587871
 41
-0.000000000000159
 42
6.283185307179427
  0
LINE
  5
3892
100
AcDbEntity
  8
V0-VYPLNE
  6
DASHED
 62
    56
 48
2.0
100
AcDbLine
 10
-292.191409
 20
-329.135303
 30
0.0
 11
-296.554457
 21
-329.135303
 31
0.0
  0
LINE
  5
3893
100
AcDbEntity
  8
V0-OBRYS
  6
CONTINUOUS
 62
    90
100
AcDbLine
 10
-276.117594
 20
-374.599557
 30
0.0
 11
-282.321532
 21
-380.395764
 31
0.0
  0
LINE
  5
3894
100
AcDbEntity
  8
V0-OBRYS
  6
CONTINUOUS
 62
    90
100
AcDbLine
 10
-284.091081
 20
-398.34439
 30
0.0
 11
-275.487952
 21
-413.977534
 31
0.0
  0
ELLIPSE
  5
3895
100
AcDbEntity
  8
V0-OBRYS
  6
CONTINUOUS
 62
    90
100
AcDbEllipse
 10
-279.331018
 20
-418.110177
 30
0.0
 11
0.0000000000001505
 21
7.73398745111711
 31
0.0
210
0.0
220
0.0
230
-1.0
 40
0.587871
 41
1.007059691540295
 42
2.356660097223441
  0
LINE
  5
3896
100
AcDbEntity
  8
V0-OBRYS
  6
CONTINUOUS
 62
    90
100
AcDbLine
 10
-276.117594
 20
-423.581478
 30
0.0
 11
-282.321532
 21
-429.377684
 31
0.0
  0
LINE
  5
3897
100
AcDbEntity
  8
V0-OBRYS
  6
CONTINUOUS
 62
    90
100
AcDbLine
 10
-284.091081
 20
-349.362469
 30
0.0
 11
-275.487952
 21
-364.995613
 31
0.0
  0
ELLIPSE
  5
3898
100
AcDbEntity
  8
V0-OBRYS
  6
CONTINUOUS
 62
    90
100
AcDbEllipse
 10
-279.331018
 20
-369.128257
 30
0.0
 11
0.0000000000001415
 21
7.733987451116912
 31
0.0
210
0.0
220
0.0
230
-1.0
 40
0.587871
 41
1.00705969154028
 42
2.356660097223437
  0
LINE
  5
3899
100
AcDbEntity
  8
V0-OBRYS
  6
CONTINUOUS
 62
    90
100
AcDbLine
 10
-276.117594
 20
-325.617637
 30
0.0
 11
-282.321532
 21
-331.413843
 31
0.0
  0
LINE
  5
389A
100
AcDbEntity
  8
V0-VYPLNE
  6
DASHED
 62
    56
 48
2.0
100
AcDbLine
 10
-290.699187
 20
-282.599262
 30
0.0
 11
-285.381363
 21
-296.908619
 31
0.0
  0
ELLIPSE
  5
389B
100
AcDbEntity
  8
V0-VYPLNE
  6
DASHED
 62
    56
 48
2.0
100
AcDbEllipse
 10
-289.131216
 20
-287.261878
 30
0.0
 11
-0.0000000000001333
 21
2.19235423648547
 31
0.0
210
0.0
220
0.0
230
-1.0
 40
0.587871
 41
-0.0000000000000286
 42
6.283185307179557
  0
LINE
  5
389C
100
AcDbEntity
  8
V0-VYPLNE
  6
DASHED
 62
    56
 48
2.0
100
AcDbLine
 10
-292.191409
 20
-280.153382
 30
0.0
 11
-296.554457
 21
-280.153382
 31
0.0
  0
LINE
  5
389D
100
AcDbEntity
  8
V0-VYPLNE
  6
DASHED
 62
    56
 48
2.0
100
AcDbLine
 10
-290.699187
 20
-233.617341
 30
0.0
 11
-285.381363
 21
-247.926699
 31
0.0
  0
ELLIPSE
  5
389E
100
AcDbEntity
  8
V0-VYPLNE
  6
DASHED
 62
    56
 48
2.0
100
AcDbEllipse
 10
-289.131216
 20
-238.279958
 30
0.0
 11
-0.00000000000017
 21
2.192354236485413
 31
0.0
210
0.0
220
0.0
230
-1.0
 40
0.587871
 41
-0.0000000000000004
 42
6.283185307179586
  0
LINE
  5
389F
100
AcDbEntity
  8
V0-VYPLNE
  6
DASHED
 62
    56
 48
2.0
100
AcDbLine
 10
-292.191409
 20
-231.171461
 30
0.0
 11
-296.554457
 21
-231.171461
 31
0.0
  0
LINE
  5
38A0
100
AcDbEntity
  8
V0-OBRYS
  6
CONTINUOUS
 62
    90
100
AcDbLine
 10
-284.091081
 20
-251.398628
 30
0.0
 11
-275.487952
 21
-267.031772
 31
0.0
  0
LINE
  5
38A1
100
AcDbEntity
  8
V0-OBRYS
  6
CONTINUOUS
 62
    90
100
AcDbLine
 10
-284.091081
 20
-300.380549
 30
0.0
 11
-275.487952
 21
-316.013692
 31
0.0
  0
ELLIPSE
  5
38A2
100
AcDbEntity
  8
V0-OBRYS
  6
CONTINUOUS
 62
    90
100
AcDbEllipse
 10
-279.331018
 20
-271.164415
 30
0.0
 11
0.000000000000176
 21
7.733987451117056
 31
0.0
210
0.0
220
0.0
230
-1.0
 40
0.587871
 41
1.007059691540289
 42
2.356660097223437
  0
LINE
  5
38A3
100
AcDbEntity
  8
V0-OBRYS
  6
CONTINUOUS
 62
    90
100
AcDbLine
 10
-276.117594
 20
-276.635716
 30
0.0
 11
-282.321532
 21
-282.431923
 31
0.0
  0
ELLIPSE
  5
38A4
100
AcDbEntity
  8
V0-OBRYS
  6
CONTINUOUS
 62
    90
100
AcDbEllipse
 10
-279.331018
 20
-222.182495
 30
0.0
 11
0.0000000000000731
 21
7.733987451117108
 31
0.0
210
0.0
220
0.0
230
-1.0
 40
0.587871
 41
1.007059691540275
 42
2.356660097223433
  0
LINE
  5
38A5
100
AcDbEntity
  8
V0-OBRYS
  6
CONTINUOUS
 62
    90
100
AcDbLine
 10
-276.117594
 20
-227.653796
 30
0.0
 11
-282.321532
 21
-233.450002
 31
0.0
  0
LINE
  5
38A6
100
AcDbEntity
  8
V0-OBRYS
  6
CONTINUOUS
 62
    90
100
AcDbLine
 10
-284.091081
 20
-202.416708
 30
0.0
 11
-275.487952
 21
-218.049851
 31
0.0
  0
LINE
  5
38A7
100
AcDbEntity
  8
V0-OBRYS
  6
CONTINUOUS
 62
    90
100
AcDbLine
 10
-284.27245
 20
-105.79506
 30
0.0
 11
-310.27245
 21
-105.79506
 31
0.0
  0
LINE
  5
38A8
100
AcDbEntity
  8
V0-VYPLNE
  6
DASHED
 62
    56
 48
2.0
100
AcDbLine
 10
-290.699187
 20
-135.6535
 30
0.0
 11
-285.381363
 21
-149.962858
 31
0.0
  0
ELLIPSE
  5
38A9
100
AcDbEntity
  8
V0-VYPLNE
  6
DASHED
 62
    56
 48
2.0
100
AcDbEllipse
 10
-289.131216
 20
-189.298037
 30
0.0
 11
-0.0000000000001613
 21
2.192354236485385
 31
0.0
210
0.0
220
0.0
230
-1.0
 40
0.587871
 41
-0.0000000000000073
 42
6.283185307179579
  0
LINE
  5
38AA
100
AcDbEntity
  8
V0-VYPLNE
  6
DASHED
 62
    56
 48
2.0
100
AcDbLine
 10
-292.191409
 20
-182.189541
 30
0.0
 11
-296.554457
 21
-182.189541
 31
0.0
  0
ELLIPSE
  5
38AB
100
AcDbEntity
  8
V0-VYPLNE
  6
DASHED
 62
    56
 48
2.0
100
AcDbEllipse
 10
-289.131216
 20
-140.316117
 30
0.0
 11
-0.0000000000001347
 21
2.192354236485385
 31
0.0
210
0.0
220
0.0
230
-1.0
 40
0.587871
 41
-0.0000000000000275
 42
6.283185307179558
  0
LINE
  5
38AC
100
AcDbEntity
  8
V0-OBRYS
  6
CONTINUOUS
 62
    90
100
AcDbLine
 10
-310.27245
 20
-134.723634
 30
0.0
 11
-346.42245
 21
-134.723634
 31
0.0
  0
LINE
  5
38AD
100
AcDbEntity
  8
V0-VYPLNE
  6
DASHED
 62
    56
 48
2.0
100
AcDbLine
 10
-292.191409
 20
-133.20762
 30
0.0
 11
-296.554457
 21
-133.20762
 31
0.0
  0
LINE
  5
38AE
100
AcDbEntity
  8
V0-OBRYS
  6
CONTINUOUS
 62
    90
100
AcDbLine
 10
-284.091081
 20
-153.434787
 30
0.0
 11
-275.487952
 21
-169.067931
 31
0.0
  0
ELLIPSE
  5
38AF
100
AcDbEntity
  8
V0-OBRYS
  6
CONTINUOUS
 62
    90
100
AcDbEllipse
 10
-279.331018
 20
-173.200574
 30
0.0
 11
0.0000000000000536
 21
7.733987451117087
 31
0.0
210
0.0
220
0.0
230
-1.0
 40
0.587871
 41
1.007059691540279
 42
2.356660097223437
  0
LINE
  5
38B0
100
AcDbEntity
  8
V0-OBRYS
  6
CONTINUOUS
 62
    90
100
AcDbLine
 10
-276.117594
 20
-178.671875
 30
0.0
 11
-282.321532
 21
-184.468082
 31
0.0
  0
POINT
  5
38CB
100
AcDbEntity
  8
V0-VYPLNE
  6
CONTINUOUS
 62
    41
100
AcDbPoint
 10
-784.27245
 20
-805.860654
 30
0.0
  0
POINT
  5
38CD
100
AcDbEntity
  8
V0-VYPLNE
  6
CONTINUOUS
 62
    52
100
AcDbPoint
 10
-310.27245
 20
-355.860654
 30
0.0
  0
POINT
  5
38CE
100
AcDbEntity
  8
V0-VYPLNE
  6
CONTINUOUS
 62
    41
100
AcDbPoint
 10
-310.27245
 20
-355.860654
 30
0.0
  0
TEXT
  5
38CF
100
AcDbEntity
  8
V0-NAZVY
  6
CONTINUOUS
 62
   210
100
AcDbText
 10
-888.473276
 20
-760.860654
 30
0.0
 40
32.061793
  1
PAR-450W
 72
     1
 11
-784.27245
 21
-760.860654
 31
0.0
100
AcDbText
  0
TEXT
  5
38D0
100
AcDbEntity
  8
V0-NAZVY
  6
CONTINUOUS
 62
   210
100
AcDbText
 10
-220.571318
 20
-460.06148
 30
0.0
 40
32.061793
  1
PAR-450W
 50
90.0
 72
     1
 11
-220.571318
 21
-355.860654
 31
0.0
100
AcDbText
  0
TEXT
  5
38DC
100
AcDbEntity
  8
V0-NAZVY
  6
CONTINUOUS
 62
   210
100
AcDbText
 10
-439.77245
 20
-773.189768
 30
0.0
 40
30.0
  1
PAR-450W
 72
     1
 11
-342.27245
 21
-773.189768
 31
0.0
100
AcDbText
  0
LINE
  5
39F2
100
AcDbEntity
  8
V0-VYPLNE
  6
CONTINUOUS
 62
    52
100
AcDbLine
 10
-344.335786
 20
-343.693975
 30
0.0
 11
-344.335786
 21
-369.853975
 31
0.0
  0
LINE
  5
39F3
100
AcDbEntity
  8
V0-VYPLNE
  6
CONTINUOUS
 62
    52
100
AcDbLine
 10
-344.335786
 20
-369.853975
 30
0.0
 11
-326.335786
 21
-356.773975
 31
0.0
  0
LINE
  5
39F4
100
AcDbEntity
  8
V0-VYPLNE
  6
CONTINUOUS
 62
    52
100
AcDbLine
 10
-326.335786
 20
-356.773975
 30
0.0
 11
-344.335786
 21
-343.693975
 31
0.0
  0
MTEXT
  5
39F7
100
AcDbEntity
  8
V0-ZBYTEK
 62
   130
 48
2.0
100
AcDbMText
 10
-478.27245
 20
-783.860654
 30
0.0
 40
22.5
 41
327.0
 71
     1
 72
     5
  1
ZALUZIOVA KLAPKA
  0
MTEXT
  5
39F9
100
AcDbEntity
  8
V0-ZBYTEK
 48
2.0
100
AcDbMText
 10
-451.27245
 20
-820.860654
 30
0.0
 40
15.0
 41
386.0
 71
     1
 72
     5
  1
ELEKTRICKY OVLADANA
  0
VIEWPORT
  5
22
100
AcDbEntity
 67
     1
  8
0
100
AcDbViewport
 10
261.517699
 20
165.390006
 30
0.0
 40
523.035398
 41
330.780011
 68
    -1
 69
     1
1001
ACAD
1000
MVIEW
1002
{
1070
    16
1010
0.0
1020
0.0
1030
0.0
1010
0.0
1020
0.0
1030
1.0
1040
0.0
1040
330.780011
1040
261.517699
1040
165.390006
1040
50.0
1040
0.0
1040
0.0
1070
     0
1070
   100
1070
     1
1070
     0
1070
     0
1070
     0
1070
     0
1070
     0
1040
0.0
1040
0.0
1040
0.0
1040
1.0
1040
1.0
1040
10.0
1040
10.0
1070
     0
1002
{
1002
}
1002
}
  0
ENDSEC
  0
SECTION
  2
OBJECTS
  0
DICTIONARY
  5
C
100
AcDbDictionary
  3
ACAD_GROUP
350
D
  3
ACAD_MLINESTYLE
350
E
  3
ACDBVARIABLEDICTIONARY
350
86C
  3
CONTENTDICTIONARY
350
905
  0
DICTIONARY
  5
D
102
{ACAD_REACTORS
330
C
102
}
100
AcDbDictionary
  0
DICTIONARY
  5
E
102
{ACAD_REACTORS
330
C
102
}
100
AcDbDictionary
  3
STANDARD
350
13
  0
DICTIONARY
  5
86C
102
{ACAD_REACTORS
330
C
102
}
100
AcDbDictionary
  3
SORTENTS
350
86D
  0
DICTIONARY
  5
905
102
{ACAD_REACTORS
330
C
102
}
100
AcDbDictionary
  0
MLINESTYLE
  5
13
102
{ACAD_REACTORS
330
E
102
}
100
AcDbMlineStyle
  2
STANDARD
 70
     0
  3

 62
     0
 51
90.0
 52
90.0
 71
     2
 49
0.5
 62
   256
  6
BYLAYER
 49
-0.5
 62
   256
  6
BYLAYER
  0
DICTIONARYVAR
  5
86D
102
{ACAD_REACTORS
330
86C
102
}
100
DictionaryVariables
280
     0
  1
96
  0
ENDSEC
  0
EOF
