  0
SECTION
  2
HEADER
  9
$ACADVER
  1
AC1014
  9
$ACADMAINTVER
 70
     0
  9
$DWGCODEPAGE
  3
ANSI_1250
  9
$INSBASE
 10
0.0
 20
0.0
 30
0.0
  9
$EXTMIN
 10
-794.6663
 20
-647.776454
 30
0.0
  9
$EXTMAX
 10
-292.675
 20
-204.35986
 30
0.0
  9
$LIMMIN
 10
-1040.805314
 20
-347.068924
  9
$LIMMAX
 10
643.686187
 20
495.293187
  9
$ORTHOMODE
 70
     0
  9
$REGENMODE
 70
     1
  9
$FILLMODE
 70
     1
  9
$QTEXTMODE
 70
     0
  9
$MIRRTEXT
 70
     1
  9
$DRAGMODE
 70
     2
  9
$LTSCALE
 40
15.0
  9
$OSMODE
 70
  1023
  9
$ATTMODE
 70
     1
  9
$TEXTSIZE
 40
15.0
  9
$TRACEWID
 40
5.0
  9
$TEXTSTYLE
  7
STANDARD
  9
$CLAYER
  8
0
  9
$CELTYPE
  6
BYLAYER
  9
$CECOLOR
 62
   256
  9
$CELTSCALE
 40
2.0
  9
$DELOBJ
 70
     1
  9
$DISPSILH
 70
     0
  9
$DIMSCALE
 40
1.0
  9
$DIMASZ
 40
10.0
  9
$DIMEXO
 40
0.0625
  9
$DIMDLI
 40
0.38
  9
$DIMRND
 40
0.0
  9
$DIMDLE
 40
0.0
  9
$DIMEXE
 40
0.18
  9
$DIMTP
 40
0.0
  9
$DIMTM
 40
0.0
  9
$DIMTXT
 40
10.0
  9
$DIMCEN
 40
0.0
  9
$DIMTSZ
 40
0.0
  9
$DIMTOL
 70
     0
  9
$DIMLIM
 70
     0
  9
$DIMTIH
 70
     0
  9
$DIMTOH
 70
     0
  9
$DIMSE1
 70
     0
  9
$DIMSE2
 70
     0
  9
$DIMTAD
 70
     1
  9
$DIMZIN
 70
     0
  9
$DIMBLK
  1

  9
$DIMASO
 70
     1
  9
$DIMSHO
 70
     1
  9
$DIMPOST
  1

  9
$DIMAPOST
  1

  9
$DIMALT
 70
     0
  9
$DIMALTD
 70
     2
  9
$DIMALTF
 40
25.4
  9
$DIMLFAC
 40
1.0
  9
$DIMTOFL
 70
     0
  9
$DIMTVP
 40
0.0
  9
$DIMTIX
 70
     0
  9
$DIMSOXD
 70
     0
  9
$DIMSAH
 70
     1
  9
$DIMBLK1
  1
_OPEN
  9
$DIMBLK2
  1
_OPEN
  9
$DIMSTYLE
  2
STANDARD
  9
$DIMCLRD
 70
     0
  9
$DIMCLRE
 70
     0
  9
$DIMCLRT
 70
     0
  9
$DIMTFAC
 40
1.0
  9
$DIMGAP
 40
0.625
  9
$DIMJUST
 70
     0
  9
$DIMSD1
 70
     0
  9
$DIMSD2
 70
     0
  9
$DIMTOLJ
 70
     1
  9
$DIMTZIN
 70
     0
  9
$DIMALTZ
 70
     0
  9
$DIMALTTZ
 70
     0
  9
$DIMFIT
 70
     0
  9
$DIMUPT
 70
     0
  9
$DIMUNIT
 70
     2
  9
$DIMDEC
 70
     0
  9
$DIMTDEC
 70
     4
  9
$DIMALTU
 70
     2
  9
$DIMALTTD
 70
     2
  9
$DIMTXSTY
  7
STANDARD
  9
$DIMAUNIT
 70
     0
  9
$LUNITS
 70
     2
  9
$LUPREC
 70
     4
  9
$SKETCHINC
 40
1.0
  9
$FILLETRAD
 40
3.0
  9
$AUNITS
 70
     0
  9
$AUPREC
 70
     0
  9
$MENU
  1
.
  9
$ELEVATION
 40
0.0
  9
$PELEVATION
 40
0.0
  9
$THICKNESS
 40
0.0
  9
$LIMCHECK
 70
     0
  9
$BLIPMODE
 70
     1
  9
$CHAMFERA
 40
10.0
  9
$CHAMFERB
 40
10.0
  9
$CHAMFERC
 40
20.0
  9
$CHAMFERD
 40
0.0
  9
$SKPOLY
 70
     0
  9
$TDCREATE
 40
2450763.421427893
  9
$TDUPDATE
 40
2453315.714466712
  9
$TDINDWG
 40
1.4071104861
  9
$TDUSRTIMER
 40
1.4071104861
  9
$USRTIMER
 70
     1
  9
$ANGBASE
 50
0.0
  9
$ANGDIR
 70
     0
  9
$PDMODE
 70
     3
  9
$PDSIZE
 40
0.0
  9
$PLINEWID
 40
0.0
  9
$COORDS
 70
     2
  9
$SPLFRAME
 70
     0
  9
$SPLINETYPE
 70
     6
  9
$SPLINESEGS
 70
     8
  9
$ATTDIA
 70
     0
  9
$ATTREQ
 70
     1
  9
$HANDLING
 70
     1
  9
$HANDSEED
  5
2E6F
  9
$SURFTAB1
 70
     6
  9
$SURFTAB2
 70
     6
  9
$SURFTYPE
 70
     6
  9
$SURFU
 70
     6
  9
$SURFV
 70
     6
  9
$UCSNAME
  2

  9
$UCSORG
 10
-645.0
 20
-355.8606538708551
 30
0.0
  9
$UCSXDIR
 10
1.0
 20
0.0
 30
0.0
  9
$UCSYDIR
 10
0.0
 20
1.0
 30
0.0
  9
$PUCSNAME
  2

  9
$PUCSORG
 10
0.0
 20
0.0
 30
0.0
  9
$PUCSXDIR
 10
1.0
 20
0.0
 30
0.0
  9
$PUCSYDIR
 10
0.0
 20
1.0
 30
0.0
  9
$USERI1
 70
     0
  9
$USERI2
 70
     0
  9
$USERI3
 70
     0
  9
$USERI4
 70
     0
  9
$USERI5
 70
     0
  9
$USERR1
 40
0.0
  9
$USERR2
 40
0.0
  9
$USERR3
 40
0.0
  9
$USERR4
 40
0.0
  9
$USERR5
 40
0.0
  9
$WORLDVIEW
 70
     1
  9
$SHADEDGE
 70
     3
  9
$SHADEDIF
 70
    70
  9
$TILEMODE
 70
     1
  9
$MAXACTVP
 70
    16
  9
$PINSBASE
 10
0.0
 20
0.0
 30
0.0
  9
$PLIMCHECK
 70
     0
  9
$PEXTMIN
 10
131.177948
 20
159.528081
 30
0.0
  9
$PEXTMAX
 10
254.393018
 20
159.528081
 30
0.0
  9
$PLIMMIN
 10
0.0
 20
0.0
  9
$PLIMMAX
 10
420.0
 20
297.0
  9
$UNITMODE
 70
     0
  9
$VISRETAIN
 70
     0
  9
$PLINEGEN
 70
     0
  9
$PSLTSCALE
 70
     0
  9
$TREEDEPTH
 70
  3020
  9
$PICKSTYLE
 70
     1
  9
$CMLSTYLE
  2
STANDARD
  9
$CMLJUST
 70
     0
  9
$CMLSCALE
 40
1.0
  9
$PROXYGRAPHICS
 70
     1
  9
$MEASUREMENT
 70
     1
  0
ENDSEC
  0
SECTION
  2
CLASSES
  0
CLASS
  1
LWPOLYLINE
  2
AcDbPolyline
  3
"AutoCAD"
 90
        0
280
     0
281
     1
  0
CLASS
  1
DICTIONARYVAR
  2
AcDbDictionaryVar
  3
"AutoCAD"
 90
        0
280
     0
281
     0
  0
CLASS
  1
HATCH
  2
AcDbHatch
  3
"ACAD_SEDONA"
 90
        0
280
     0
281
     1
  0
ENDSEC
  0
SECTION
  2
TABLES
  0
TABLE
  2
VPORT
  5
8
100
AcDbSymbolTable
 70
     2
  0
VPORT
  5
2E6E
100
AcDbSymbolTableRecord
100
AcDbViewportTableRecord
  2
*ACTIVE
 70
     0
 10
0.0
 20
0.0
 11
1.0
 21
1.0
 12
-536.947168
 22
-419.307124
 13
0.0
 23
0.0
 14
1.0
 24
1.0
 15
50.0
 25
50.0
 16
0.0
 26
0.0
 36
1.0
 17
0.0
 27
0.0
 37
0.0
 40
507.897514
 41
1.523346
 42
50.0
 43
0.0
 44
0.0
 50
0.0
 51
0.0
 71
     0
 72
   100
 73
     1
 74
     0
 75
     0
 76
     0
 77
     0
 78
     0
  0
ENDTAB
  0
TABLE
  2
LTYPE
  5
5
100
AcDbSymbolTable
 70
     5
  0
LTYPE
  5
14
100
AcDbSymbolTableRecord
100
AcDbLinetypeTableRecord
  2
BYBLOCK
 70
     0
  3

 72
    65
 73
     0
 40
0.0
  0
LTYPE
  5
15
100
AcDbSymbolTableRecord
100
AcDbLinetypeTableRecord
  2
BYLAYER
 70
     0
  3

 72
    65
 73
     0
 40
0.0
  0
LTYPE
  5
16
100
AcDbSymbolTableRecord
100
AcDbLinetypeTableRecord
  2
CONTINUOUS
 70
     0
  3
Solid line
 72
    65
 73
     0
 40
0.0
  0
LTYPE
  5
1D2
100
AcDbSymbolTableRecord
100
AcDbLinetypeTableRecord
  2
DOT2
 70
     0
  3
...............................................
 72
    65
 73
     2
 40
0.125
 49
0.0
 74
     0
 49
-0.125
 74
     0
  0
LTYPE
  5
1D7
100
AcDbSymbolTableRecord
100
AcDbLinetypeTableRecord
  2
DASHED
 70
     0
  3
__ __ __ __ __ __ __ __ __ __ __ __ __ __ __ __
 72
    65
 73
     2
 40
0.75
 49
0.5
 74
     0
 49
-0.25
 74
     0
  0
LTYPE
  5
492
100
AcDbSymbolTableRecord
100
AcDbLinetypeTableRecord
  2
DASHDOT
 70
     0
  3
__ . __ . __ . __ . __ . __ . __ . __ . __ . __
 72
    65
 73
     4
 40
1.0
 49
0.5
 74
     0
 49
-0.25
 74
     0
 49
0.0
 74
     0
 49
-0.25
 74
     0
  0
LTYPE
  5
2D62
100
AcDbSymbolTableRecord
100
AcDbLinetypeTableRecord
  2
DOT
 70
     0
  3
Dot . . . . . . . . . . . . . . . . . . . . . .
 72
    65
 73
     2
 40
6.35
 49
0.0
 74
     0
 49
-6.35
 74
     0
  0
ENDTAB
  0
TABLE
  2
LAYER
  5
2
100
AcDbSymbolTable
 70
    13
  0
LAYER
  5
F
100
AcDbSymbolTableRecord
100
AcDbLayerTableRecord
  2
0
 70
     0
 62
     7
  6
CONTINUOUS
  0
LAYER
  5
493
100
AcDbSymbolTableRecord
100
AcDbLayerTableRecord
  2
OSY
 70
     0
 62
    63
  6
DASHDOT
  0
LAYER
  5
1538
100
AcDbSymbolTableRecord
100
AcDbLayerTableRecord
  2
KOTY
 70
     0
 62
    41
  6
CONTINUOUS
  0
LAYER
  5
1A22
100
AcDbSymbolTableRecord
100
AcDbLayerTableRecord
  2
DEFPOINTS
 70
     0
 62
     7
  6
CONTINUOUS
  0
LAYER
  5
1B9F
100
AcDbSymbolTableRecord
100
AcDbLayerTableRecord
  2
VYPLN2
 70
     0
 62
    56
  6
DASHED
  0
LAYER
  5
1BA1
100
AcDbSymbolTableRecord
100
AcDbLayerTableRecord
  2
POPIS_VEDL_2RADY
 70
     0
 62
   130
  6
CONTINUOUS
  0
LAYER
  5
1BA2
100
AcDbSymbolTableRecord
100
AcDbLayerTableRecord
  2
POPIS_NAZVY
 70
     0
 62
   210
  6
CONTINUOUS
  0
LAYER
  5
1BA3
100
AcDbSymbolTableRecord
100
AcDbLayerTableRecord
  2
POPIS_DOPLNUJICI
 70
     0
 62
    51
  6
CONTINUOUS
  0
LAYER
  5
2413
100
AcDbSymbolTableRecord
100
AcDbLayerTableRecord
  2
VENTILATORY
 70
     0
 62
    90
  6
CONTINUOUS
  0
LAYER
  5
2D63
100
AcDbSymbolTableRecord
100
AcDbLayerTableRecord
  2
V0-OBRYS
 70
     0
 62
    90
  6
CONTINUOUS
  0
LAYER
  5
2D64
100
AcDbSymbolTableRecord
100
AcDbLayerTableRecord
  2
V0-VYPLNE
 70
     0
 62
    52
  6
CONTINUOUS
  0
LAYER
  5
2D65
100
AcDbSymbolTableRecord
100
AcDbLayerTableRecord
  2
V0-NAZVY
 70
     0
 62
   210
  6
CONTINUOUS
  0
LAYER
  5
2D66
100
AcDbSymbolTableRecord
100
AcDbLayerTableRecord
  2
V0-ZBYTEK
 70
     0
 62
    51
  6
CONTINUOUS
  0
ENDTAB
  0
TABLE
  2
STYLE
  5
3
100
AcDbSymbolTable
 70
     7
  0
STYLE
  5
10
100
AcDbSymbolTableRecord
100
AcDbTextStyleTableRecord
  2
STANDARD
 70
     0
 40
0.0
 41
1.0
 50
0.0
 71
     0
 42
15.0
  3
ISOCP.shx
  4

  0
STYLE
  5
2414
100
AcDbSymbolTableRecord
100
AcDbTextStyleTableRecord
  2

 70
     1
 40
0.0
 41
1.0
 50
0.0
 71
     0
 42
4.0
  3
ltypeshp.shx
  4

  0
STYLE
  5
2D67
100
AcDbSymbolTableRecord
100
AcDbTextStyleTableRecord
  2
ED
 70
     0
 40
20.0
 41
1.0
 50
0.0
 71
     0
 42
2.5
  3
ISOCP.shx
  4

  0
STYLE
  5
2D68
100
AcDbSymbolTableRecord
100
AcDbTextStyleTableRecord
  2
EDVENT
 70
     0
 40
10.0
 41
1.0
 50
0.0
 71
     0
 42
2.5
  3
ISOCP.shx
  4

  0
STYLE
  5
2D69
100
AcDbSymbolTableRecord
100
AcDbTextStyleTableRecord
  2
E
 70
     0
 40
25.0
 41
1.0
 50
0.0
 71
     0
 42
2.5
  3
ISOCP.shx
  4

  0
STYLE
  5
2D6A
100
AcDbSymbolTableRecord
100
AcDbTextStyleTableRecord
  2
ED-VENT
 70
     0
 40
25.0
 41
1.0
 50
0.0
 71
     0
 42
2.5
  3
ISOCP.shx
  4

  0
STYLE
  5
2D6B
100
AcDbSymbolTableRecord
100
AcDbTextStyleTableRecord
  2
ED2
 70
     0
 40
25.0
 41
1.0
 50
0.0
 71
     0
 42
2.5
  3
ISOCP.shx
  4

  0
ENDTAB
  0
TABLE
  2
VIEW
  5
6
100
AcDbSymbolTable
 70
     0
  0
ENDTAB
  0
TABLE
  2
UCS
  5
7
100
AcDbSymbolTable
 70
     0
  0
ENDTAB
  0
TABLE
  2
APPID
  5
9
100
AcDbSymbolTable
 70
     4
  0
APPID
  5
11
100
AcDbSymbolTableRecord
100
AcDbRegAppTableRecord
  2
ACAD
 70
     0
  0
APPID
  5
906
100
AcDbSymbolTableRecord
100
AcDbRegAppTableRecord
  2
CONTENTTABDATA
 70
     0
  0
APPID
  5
907
100
AcDbSymbolTableRecord
100
AcDbRegAppTableRecord
  2
CONTENTCURRENTTAB
 70
     0
  0
APPID
  5
908
100
AcDbSymbolTableRecord
100
AcDbRegAppTableRecord
  2
CONTENTBLOCKDESCRIPTION
 70
     0
  0
ENDTAB
  0
TABLE
  2
DIMSTYLE
  5
A
100
AcDbSymbolTable
 70
     3
  0
DIMSTYLE
105
1D
102
{ACAD_REACTORS
330
2D41
330
2AE5
330
2AF2
330
2AD8
330
2ACB
330
2C2F
330
2B1D
102
}
100
AcDbSymbolTableRecord
100
AcDbDimStyleTableRecord
  2
STANDARD
 70
     0
  3

  4

  5

  6
_OPEN
  7
_OPEN
 40
5.0
 41
3.5
 42
0.0625
 43
0.38
 44
0.18
 45
0.0
 46
0.0
 47
0.0
 48
0.0
140
3.5
141
0.0
142
0.0
143
25.4
144
1.0
145
0.0
146
1.0
147
0.625
 71
     0
 72
     0
 73
     0
 74
     0
 75
     0
 76
     0
 77
     1
 78
     0
170
     0
171
     2
172
     0
173
     1
174
     0
175
     0
176
     0
177
     0
178
     0
270
     2
271
     0
272
     4
273
     2
274
     2
340
10
275
     0
280
     0
281
     0
282
     0
283
     1
284
     0
285
     0
286
     0
287
     0
288
     0
  0
DIMSTYLE
105
2D6C
100
AcDbSymbolTableRecord
100
AcDbDimStyleTableRecord
  2
ED
 70
     0
  3

  4

  5

  6
_OPEN
  7
_OPEN
 40
0.0
 41
15.0
 42
0.625
 43
3.75
 44
1.25
 45
0.0
 46
0.0
 47
0.0
 48
0.0
140
15.0
141
2.5
142
0.0
143
0.0394
144
1.0
145
0.0
146
1.0
147
3.0
 71
     0
 72
     0
 73
     0
 74
     0
 75
     0
 76
     0
 77
     1
 78
     8
170
     0
171
     4
172
     1
173
     1
174
     0
175
     0
176
     0
177
     0
178
     0
270
     2
271
     0
272
     1
273
     8
274
     4
340
2D67
275
     0
280
     0
281
     0
282
     0
283
     1
284
     8
285
     0
286
     0
287
     3
288
     0
  0
DIMSTYLE
105
2D6D
100
AcDbSymbolTableRecord
100
AcDbDimStyleTableRecord
  2
ED2
 70
     0
  3

  4

  5

  6
_OPEN
  7
_OPEN
 40
0.0
 41
25.0
 42
0.625
 43
3.75
 44
1.25
 45
0.0
 46
0.0
 47
0.0
 48
0.0
140
30.0
141
2.5
142
0.0
143
0.0394
144
1.0
145
0.0
146
1.0
147
5.0
 71
     0
 72
     0
 73
     0
 74
     0
 75
     0
 76
     0
 77
     1
 78
     8
170
     0
171
     4
172
     1
173
     1
174
     0
175
     0
176
     0
177
     0
178
     0
270
     2
271
     0
272
     1
273
     8
274
     4
340
2D67
275
     0
280
     0
281
     0
282
     0
283
     1
284
     8
285
     0
286
     0
287
     3
288
     0
  0
ENDTAB
  0
TABLE
  2
BLOCK_RECORD
  5
1
100
AcDbSymbolTable
 70
    15
  0
BLOCK_RECORD
  5
1A
100
AcDbSymbolTableRecord
100
AcDbBlockTableRecord
  2
*MODEL_SPACE
  0
BLOCK_RECORD
  5
17
100
AcDbSymbolTableRecord
100
AcDbBlockTableRecord
  2
*PAPER_SPACE
  0
BLOCK_RECORD
  5
1A05
100
AcDbSymbolTableRecord
100
AcDbBlockTableRecord
  2
_OPEN
  0
BLOCK_RECORD
  5
2DAF
100
AcDbSymbolTableRecord
100
AcDbBlockTableRecord
  2
*D8
  0
BLOCK_RECORD
  5
2DB8
100
AcDbSymbolTableRecord
100
AcDbBlockTableRecord
  2
*D9
  0
BLOCK_RECORD
  5
2DC4
100
AcDbSymbolTableRecord
100
AcDbBlockTableRecord
  2
*D10
  0
BLOCK_RECORD
  5
2DD0
100
AcDbSymbolTableRecord
100
AcDbBlockTableRecord
  2
*D11
  0
BLOCK_RECORD
  5
2DDC
100
AcDbSymbolTableRecord
100
AcDbBlockTableRecord
  2
*D12
  0
BLOCK_RECORD
  5
2E37
100
AcDbSymbolTableRecord
100
AcDbBlockTableRecord
  2
*D13
  0
BLOCK_RECORD
  5
2E43
100
AcDbSymbolTableRecord
100
AcDbBlockTableRecord
  2
*D14
  0
ENDTAB
  0
ENDSEC
  0
SECTION
  2
BLOCKS
  0
BLOCK
  5
1B
100
AcDbEntity
  8
0
100
AcDbBlockBegin
  2
*MODEL_SPACE
 70
     0
 10
0.0
 20
0.0
 30
0.0
  3
*MODEL_SPACE
  1

  0
ENDBLK
  5
1C
100
AcDbEntity
  8
0
100
AcDbBlockEnd
  0
BLOCK
  5
18
100
AcDbEntity
 67
     1
  8
0
100
AcDbBlockBegin
  2
*PAPER_SPACE
 70
     0
 10
0.0
 20
0.0
 30
0.0
  3
*PAPER_SPACE
  1

  0
ENDBLK
  5
19
100
AcDbEntity
 67
     1
  8
0
100
AcDbBlockEnd
  0
BLOCK
  5
1A09
100
AcDbEntity
  8
0
100
AcDbBlockBegin
  2
_OPEN
 70
     0
 10
0.0
 20
0.0
 30
0.0
  3
_OPEN
  1

  0
LINE
  5
1A06
100
AcDbEntity
  8
0
  6
BYBLOCK
 62
     0
100
AcDbLine
 10
-1.0
 20
0.166667
 30
0.0
 11
0.0
 21
0.0
 31
0.0
  0
LINE
  5
1A07
100
AcDbEntity
  8
0
  6
BYBLOCK
 62
     0
100
AcDbLine
 10
0.0
 20
0.0
 30
0.0
 11
-1.0
 21
-0.166667
 31
0.0
  0
LINE
  5
1A08
100
AcDbEntity
  8
0
  6
BYBLOCK
 62
     0
100
AcDbLine
 10
0.0
 20
0.0
 30
0.0
 11
-1.0
 21
0.0
 31
0.0
  0
ENDBLK
  5
1A0A
100
AcDbEntity
  8
0
100
AcDbBlockEnd
  0
BLOCK
  5
2DB0
100
AcDbEntity
  8
0
 48
2.0
100
AcDbBlockBegin
  2
*D8
 70
     1
 10
0.0
 20
0.0
 30
0.0
  3
*D8
  1

  0
LINE
  5
2DB1
100
AcDbEntity
  8
0
  6
BYBLOCK
 62
     0
 48
2.0
100
AcDbLine
 10
-738.417736
 20
-373.126998
 30
0.0
 11
-551.582264
 21
-338.59431
 31
0.0
  0
INSERT
  5
2DB2
100
AcDbEntity
  8
0
  6
BYBLOCK
 62
     0
 48
2.0
100
AcDbBlockReference
  2
_OPEN
 10
-748.251182
 20
-374.944508
 30
0.0
 41
10.0
 42
10.0
 43
10.0
 50
190.471767
  0
INSERT
  5
2DB3
100
AcDbEntity
  8
0
  6
BYBLOCK
 62
     0
 48
2.0
100
AcDbBlockReference
  2
_OPEN
 10
-541.748818
 20
-336.7768
 30
0.0
 41
10.0
 42
10.0
 43
10.0
 50
10.471767
  0
MTEXT
  5
2DB4
100
AcDbEntity
  8
0
  6
BYBLOCK
 62
     0
 48
2.0
100
AcDbMText
 10
-604.250865
 20
-342.607741
 30
0.0
 40
10.0
 41
0.0
 71
     5
 72
     1
  1
\A1;\U+2205210
 11
0.983345
 21
0.181751
 31
0.0
  0
POINT
  5
2DB5
100
AcDbEntity
  8
DEFPOINTS
  6
BYBLOCK
 62
     0
 48
2.0
100
AcDbPoint
 10
-541.748818
 20
-336.7768
 30
0.0
  0
POINT
  5
2DB6
100
AcDbEntity
  8
DEFPOINTS
  6
BYBLOCK
 62
     0
 48
2.0
100
AcDbPoint
 10
-748.251182
 20
-374.944508
 30
0.0
  0
ENDBLK
  5
2DB7
100
AcDbEntity
  8
0
 48
2.0
100
AcDbBlockEnd
  0
BLOCK
  5
2DB9
100
AcDbEntity
  8
0
 48
2.0
100
AcDbBlockBegin
  2
*D9
 70
     1
 10
0.0
 20
0.0
 30
0.0
  3
*D9
  1

  0
LINE
  5
2DBA
100
AcDbEntity
  8
0
  6
BYBLOCK
 62
     0
 48
2.0
100
AcDbLine
 10
-766.9969
 20
-477.920054
 30
0.0
 11
-766.9969
 21
-530.498945
 31
0.0
  0
LINE
  5
2DBB
100
AcDbEntity
  8
0
  6
BYBLOCK
 62
     0
 48
2.0
100
AcDbLine
 10
-523.0031
 20
-477.920054
 30
0.0
 11
-523.0031
 21
-530.498945
 31
0.0
  0
LINE
  5
2DBC
100
AcDbEntity
  8
0
  6
BYBLOCK
 62
     0
 48
2.0
100
AcDbLine
 10
-756.9969
 20
-530.318945
 30
0.0
 11
-533.0031
 21
-530.318945
 31
0.0
  0
INSERT
  5
2DBD
100
AcDbEntity
  8
0
  6
BYBLOCK
 62
     0
 48
2.0
100
AcDbBlockReference
  2
_OPEN
 10
-766.9969
 20
-530.318945
 30
0.0
 41
10.0
 42
10.0
 43
10.0
 50
180.0
  0
INSERT
  5
2DBE
100
AcDbEntity
  8
0
  6
BYBLOCK
 62
     0
 48
2.0
100
AcDbBlockReference
  2
_OPEN
 10
-523.0031
 20
-530.318945
 30
0.0
 41
10.0
 42
10.0
 43
10.0
  0
MTEXT
  5
2DBF
100
AcDbEntity
  8
0
  6
BYBLOCK
 62
     0
 48
2.0
100
AcDbMText
 10
-645.0
 20
-524.69296
 30
0.0
 40
10.0
 41
0.0
 71
     5
 72
     1
  1
\A1;244
  0
POINT
  5
2DC0
100
AcDbEntity
  8
DEFPOINTS
  6
BYBLOCK
 62
     0
 48
2.0
100
AcDbPoint
 10
-766.9969
 20
-477.857554
 30
0.0
  0
POINT
  5
2DC1
100
AcDbEntity
  8
DEFPOINTS
  6
BYBLOCK
 62
     0
 48
2.0
100
AcDbPoint
 10
-523.0031
 20
-477.857554
 30
0.0
  0
POINT
  5
2DC2
100
AcDbEntity
  8
DEFPOINTS
  6
BYBLOCK
 62
     0
 48
2.0
100
AcDbPoint
 10
-523.0031
 20
-530.318945
 30
0.0
  0
ENDBLK
  5
2DC3
100
AcDbEntity
  8
0
 48
2.0
100
AcDbBlockEnd
  0
BLOCK
  5
2DC5
100
AcDbEntity
  8
0
 48
2.0
100
AcDbBlockBegin
  2
*D10
 70
     1
 10
0.0
 20
0.0
 30
0.0
  3
*D10
  1

  0
LINE
  5
2DC6
100
AcDbEntity
  8
0
  6
BYBLOCK
 62
     0
 48
2.0
100
AcDbLine
 10
-736.039
 20
-453.250654
 30
0.0
 11
-736.039
 21
-505.692005
 31
0.0
  0
LINE
  5
2DC7
100
AcDbEntity
  8
0
  6
BYBLOCK
 62
     0
 48
2.0
100
AcDbLine
 10
-553.961
 20
-453.250654
 30
0.0
 11
-553.961
 21
-505.692005
 31
0.0
  0
LINE
  5
2DC8
100
AcDbEntity
  8
0
  6
BYBLOCK
 62
     0
 48
2.0
100
AcDbLine
 10
-726.039
 20
-505.512005
 30
0.0
 11
-563.961
 21
-505.512005
 31
0.0
  0
INSERT
  5
2DC9
100
AcDbEntity
  8
0
  6
BYBLOCK
 62
     0
 48
2.0
100
AcDbBlockReference
  2
_OPEN
 10
-736.039
 20
-505.512005
 30
0.0
 41
10.0
 42
10.0
 43
10.0
 50
180.0
  0
INSERT
  5
2DCA
100
AcDbEntity
  8
0
  6
BYBLOCK
 62
     0
 48
2.0
100
AcDbBlockReference
  2
_OPEN
 10
-553.961
 20
-505.512005
 30
0.0
 41
10.0
 42
10.0
 43
10.0
  0
MTEXT
  5
2DCB
100
AcDbEntity
  8
0
  6
BYBLOCK
 62
     0
 48
2.0
100
AcDbMText
 10
-645.0
 20
-499.886021
 30
0.0
 40
10.0
 41
0.0
 71
     5
 72
     1
  1
\A1;182
  0
POINT
  5
2DCC
100
AcDbEntity
  8
DEFPOINTS
  6
BYBLOCK
 62
     0
 48
2.0
100
AcDbPoint
 10
-736.039
 20
-453.188154
 30
0.0
  0
POINT
  5
2DCD
100
AcDbEntity
  8
DEFPOINTS
  6
BYBLOCK
 62
     0
 48
2.0
100
AcDbPoint
 10
-553.961
 20
-453.188154
 30
0.0
  0
POINT
  5
2DCE
100
AcDbEntity
  8
DEFPOINTS
  6
BYBLOCK
 62
     0
 48
2.0
100
AcDbPoint
 10
-553.961
 20
-505.512005
 30
0.0
  0
ENDBLK
  5
2DCF
100
AcDbEntity
  8
0
 48
2.0
100
AcDbBlockEnd
  0
BLOCK
  5
2DD1
100
AcDbEntity
  8
0
 48
2.0
100
AcDbBlockBegin
  2
*D11
 70
     1
 10
0.0
 20
0.0
 30
0.0
  3
*D11
  1

  0
LINE
  5
2DD2
100
AcDbEntity
  8
0
  6
BYBLOCK
 62
     0
 48
2.0
100
AcDbLine
 10
-545.0946
 20
-264.821654
 30
0.0
 11
-497.841329
 21
-264.821654
 31
0.0
  0
LINE
  5
2DD3
100
AcDbEntity
  8
0
  6
BYBLOCK
 62
     0
 48
2.0
100
AcDbLine
 10
-545.0946
 20
-446.899654
 30
0.0
 11
-497.841329
 21
-446.899654
 31
0.0
  0
LINE
  5
2DD4
100
AcDbEntity
  8
0
  6
BYBLOCK
 62
     0
 48
2.0
100
AcDbLine
 10
-498.021329
 20
-274.821654
 30
0.0
 11
-498.021329
 21
-436.899654
 31
0.0
  0
INSERT
  5
2DD5
100
AcDbEntity
  8
0
  6
BYBLOCK
 62
     0
 48
2.0
100
AcDbBlockReference
  2
_OPEN
 10
-498.021329
 20
-264.821654
 30
0.0
 41
10.0
 42
10.0
 43
10.0
 50
90.0
  0
INSERT
  5
2DD6
100
AcDbEntity
  8
0
  6
BYBLOCK
 62
     0
 48
2.0
100
AcDbBlockReference
  2
_OPEN
 10
-498.021329
 20
-446.899654
 30
0.0
 41
10.0
 42
10.0
 43
10.0
 50
270.0
  0
MTEXT
  5
2DD7
100
AcDbEntity
  8
0
  6
BYBLOCK
 62
     0
 48
2.0
100
AcDbMText
 10
-503.647313
 20
-355.860654
 30
0.0
 40
10.0
 41
0.0
 71
     5
 72
     1
  1
\A1;182
 11
0.0
 21
1.0
 31
0.0
  0
POINT
  5
2DD8
100
AcDbEntity
  8
DEFPOINTS
  6
BYBLOCK
 62
     0
 48
2.0
100
AcDbPoint
 10
-545.1571
 20
-264.821654
 30
0.0
  0
POINT
  5
2DD9
100
AcDbEntity
  8
DEFPOINTS
  6
BYBLOCK
 62
     0
 48
2.0
100
AcDbPoint
 10
-545.1571
 20
-446.899654
 30
0.0
  0
POINT
  5
2DDA
100
AcDbEntity
  8
DEFPOINTS
  6
BYBLOCK
 62
     0
 48
2.0
100
AcDbPoint
 10
-498.021329
 20
-446.899654
 30
0.0
  0
ENDBLK
  5
2DDB
100
AcDbEntity
  8
0
 48
2.0
100
AcDbBlockEnd
  0
BLOCK
  5
2DDD
100
AcDbEntity
  8
0
 48
2.0
100
AcDbBlockBegin
  2
*D12
 70
     1
 10
0.0
 20
0.0
 30
0.0
  3
*D12
  1

  0
LINE
  5
2DDE
100
AcDbEntity
  8
0
  6
BYBLOCK
 62
     0
 48
2.0
100
AcDbLine
 10
-522.9406
 20
-233.863754
 30
0.0
 11
-472.018082
 21
-233.863754
 31
0.0
  0
LINE
  5
2DDF
100
AcDbEntity
  8
0
  6
BYBLOCK
 62
     0
 48
2.0
100
AcDbLine
 10
-522.9406
 20
-477.857554
 30
0.0
 11
-472.018082
 21
-477.857554
 31
0.0
  0
LINE
  5
2DE0
100
AcDbEntity
  8
0
  6
BYBLOCK
 62
     0
 48
2.0
100
AcDbLine
 10
-472.198082
 20
-243.863754
 30
0.0
 11
-472.198082
 21
-467.857554
 31
0.0
  0
INSERT
  5
2DE1
100
AcDbEntity
  8
0
  6
BYBLOCK
 62
     0
 48
2.0
100
AcDbBlockReference
  2
_OPEN
 10
-472.198082
 20
-233.863754
 30
0.0
 41
10.0
 42
10.0
 43
10.0
 50
90.0
  0
INSERT
  5
2DE2
100
AcDbEntity
  8
0
  6
BYBLOCK
 62
     0
 48
2.0
100
AcDbBlockReference
  2
_OPEN
 10
-472.198082
 20
-477.857554
 30
0.0
 41
10.0
 42
10.0
 43
10.0
 50
270.0
  0
MTEXT
  5
2DE3
100
AcDbEntity
  8
0
  6
BYBLOCK
 62
     0
 48
2.0
100
AcDbMText
 10
-477.824066
 20
-355.860654
 30
0.0
 40
10.0
 41
0.0
 71
     5
 72
     1
  1
\A1;244
 11
0.0
 21
1.0
 31
0.0
  0
POINT
  5
2DE4
100
AcDbEntity
  8
DEFPOINTS
  6
BYBLOCK
 62
     0
 48
2.0
100
AcDbPoint
 10
-523.0031
 20
-233.863754
 30
0.0
  0
POINT
  5
2DE5
100
AcDbEntity
  8
DEFPOINTS
  6
BYBLOCK
 62
     0
 48
2.0
100
AcDbPoint
 10
-523.0031
 20
-477.857554
 30
0.0
  0
POINT
  5
2DE6
100
AcDbEntity
  8
DEFPOINTS
  6
BYBLOCK
 62
     0
 48
2.0
100
AcDbPoint
 10
-472.198082
 20
-477.857554
 30
0.0
  0
ENDBLK
  5
2DE7
100
AcDbEntity
  8
0
 48
2.0
100
AcDbBlockEnd
  0
BLOCK
  5
2E38
100
AcDbEntity
  8
0
 48
2.0
100
AcDbBlockBegin
  2
*D13
 70
     1
 10
0.0
 20
0.0
 30
0.0
  3
*D13
  1

  0
LINE
  5
2E39
100
AcDbEntity
  8
0
  6
BYBLOCK
 62
     0
 48
2.0
100
AcDbLine
 10
-354.0
 20
-477.920054
 30
0.0
 11
-354.0
 21
-521.643417
 31
0.0
  0
LINE
  5
2E3A
100
AcDbEntity
  8
0
  6
BYBLOCK
 62
     0
 48
2.0
100
AcDbLine
 10
-326.503633
 20
-477.920054
 30
0.0
 11
-326.503633
 21
-521.643417
 31
0.0
  0
LINE
  5
2E3B
100
AcDbEntity
  8
0
  6
BYBLOCK
 62
     0
 48
2.0
100
AcDbLine
 10
-344.0
 20
-521.463417
 30
0.0
 11
-336.503633
 21
-521.463417
 31
0.0
  0
INSERT
  5
2E3C
100
AcDbEntity
  8
0
  6
BYBLOCK
 62
     0
 48
2.0
100
AcDbBlockReference
  2
_OPEN
 10
-354.0
 20
-521.463417
 30
0.0
 41
10.0
 42
10.0
 43
10.0
 50
180.0
  0
INSERT
  5
2E3D
100
AcDbEntity
  8
0
  6
BYBLOCK
 62
     0
 48
2.0
100
AcDbBlockReference
  2
_OPEN
 10
-326.503633
 20
-521.463417
 30
0.0
 41
10.0
 42
10.0
 43
10.0
  0
MTEXT
  5
2E3E
100
AcDbEntity
  8
0
  6
BYBLOCK
 62
     0
 48
2.0
100
AcDbMText
 10
-340.251817
 20
-515.838417
 30
0.0
 40
10.0
 41
0.0
 71
     5
 72
     1
  1
\A1;36
  0
POINT
  5
2E3F
100
AcDbEntity
  8
DEFPOINTS
  6
BYBLOCK
 62
     0
 48
2.0
100
AcDbPoint
 10
-354.0
 20
-477.857554
 30
0.0
  0
POINT
  5
2E40
100
AcDbEntity
  8
DEFPOINTS
  6
BYBLOCK
 62
     0
 48
2.0
100
AcDbPoint
 10
-326.503633
 20
-477.857554
 30
0.0
  0
POINT
  5
2E41
100
AcDbEntity
  8
DEFPOINTS
  6
BYBLOCK
 62
     0
 48
2.0
100
AcDbPoint
 10
-326.503633
 20
-521.463417
 30
0.0
  0
ENDBLK
  5
2E42
100
AcDbEntity
  8
0
 48
2.0
100
AcDbBlockEnd
  0
BLOCK
  5
2E44
100
AcDbEntity
  8
0
 48
2.0
100
AcDbBlockBegin
  2
*D14
 70
     1
 10
0.0
 20
0.0
 30
0.0
  3
*D14
  1

  0
LINE
  5
2E45
100
AcDbEntity
  8
0
  6
BYBLOCK
 62
     0
 48
2.0
100
AcDbLine
 10
-354.0
 20
-477.920054
 30
0.0
 11
-354.0
 21
-504.699728
 31
0.0
  0
LINE
  5
2E46
100
AcDbEntity
  8
0
  6
BYBLOCK
 62
     0
 48
2.0
100
AcDbLine
 10
-332.0
 20
-477.920054
 30
0.0
 11
-332.0
 21
-504.699728
 31
0.0
  0
LINE
  5
2E47
100
AcDbEntity
  8
0
  6
BYBLOCK
 62
     0
 48
2.0
100
AcDbLine
 10
-344.0
 20
-504.519728
 30
0.0
 11
-342.0
 21
-504.519728
 31
0.0
  0
INSERT
  5
2E48
100
AcDbEntity
  8
0
  6
BYBLOCK
 62
     0
 48
2.0
100
AcDbBlockReference
  2
_OPEN
 10
-354.0
 20
-504.519728
 30
0.0
 41
10.0
 42
10.0
 43
10.0
 50
180.0
  0
INSERT
  5
2E49
100
AcDbEntity
  8
0
  6
BYBLOCK
 62
     0
 48
2.0
100
AcDbBlockReference
  2
_OPEN
 10
-332.0
 20
-504.519728
 30
0.0
 41
10.0
 42
10.0
 43
10.0
  0
MTEXT
  5
2E4A
100
AcDbEntity
  8
0
  6
BYBLOCK
 62
     0
 48
2.0
100
AcDbMText
 10
-343.0
 20
-498.893743
 30
0.0
 40
10.0
 41
0.0
 71
     5
 72
     1
  1
\A1;22
  0
POINT
  5
2E4B
100
AcDbEntity
  8
DEFPOINTS
  6
BYBLOCK
 62
     0
 48
2.0
100
AcDbPoint
 10
-354.0
 20
-477.857554
 30
0.0
  0
POINT
  5
2E4C
100
AcDbEntity
  8
DEFPOINTS
  6
BYBLOCK
 62
     0
 48
2.0
100
AcDbPoint
 10
-332.0
 20
-477.857554
 30
0.0
  0
POINT
  5
2E4D
100
AcDbEntity
  8
DEFPOINTS
  6
BYBLOCK
 62
     0
 48
2.0
100
AcDbPoint
 10
-332.0
 20
-504.519728
 30
0.0
  0
ENDBLK
  5
2E4E
100
AcDbEntity
  8
0
 48
2.0
100
AcDbBlockEnd
  0
ENDSEC
  0
SECTION
  2
ENTITIES
  0
LINE
  5
29FD
100
AcDbEntity
  8
V0-OBRYS
  6
CONTINUOUS
 62
    90
100
AcDbLine
 10
-766.9969
 20
-355.860654
 30
0.0
 11
-766.9969
 21
-233.863754
 31
0.0
  0
LINE
  5
29FE
100
AcDbEntity
  8
V0-OBRYS
  6
CONTINUOUS
 62
    90
100
AcDbLine
 10
-766.9969
 20
-233.863754
 30
0.0
 11
-645.0
 21
-233.863754
 31
0.0
  0
LINE
  5
29FF
100
AcDbEntity
  8
V0-VYPLNE
  6
DASHDOT
 62
    63
 48
2.0
100
AcDbLine
 10
-736.039
 20
-261.533154
 30
0.0
 11
-736.039
 21
-272.852454
 31
0.0
  0
LINE
  5
2A00
100
AcDbEntity
  8
V0-VYPLNE
  6
DASHDOT
 62
    63
 48
2.0
100
AcDbLine
 10
-744.8429
 20
-264.821654
 30
0.0
 11
-728.4928
 21
-264.821654
 31
0.0
  0
CIRCLE
  5
2A01
100
AcDbEntity
  8
V0-OBRYS
  6
CONTINUOUS
 62
    90
100
AcDbCircle
 10
-736.039
 20
-264.821654
 30
0.0
 40
3.14425
  0
LINE
  5
2A02
100
AcDbEntity
  8
V0-OBRYS
  6
CONTINUOUS
 62
    90
100
AcDbLine
 10
-754.4199
 20
-355.860654
 30
0.0
 11
-754.4199
 21
-246.440754
 31
0.0
  0
LINE
  5
2A13
100
AcDbEntity
  8
V0-OBRYS
  6
CONTINUOUS
 62
    90
100
AcDbLine
 10
-535.5801
 20
-355.860654
 30
0.0
 11
-535.5801
 21
-246.440754
 31
0.0
  0
LINE
  5
2A14
100
AcDbEntity
  8
V0-OBRYS
  6
CONTINUOUS
 62
    90
100
AcDbLine
 10
-645.0
 20
-246.440754
 30
0.0
 11
-754.4199
 21
-246.440754
 31
0.0
  0
LINE
  5
2A15
100
AcDbEntity
  8
V0-OBRYS
  6
CONTINUOUS
 62
    90
100
AcDbLine
 10
-645.0
 20
-246.440754
 30
0.0
 11
-535.5801
 21
-246.440754
 31
0.0
  0
LINE
  5
2A16
100
AcDbEntity
  8
V0-OBRYS
  6
CONTINUOUS
 62
    90
100
AcDbLine
 10
-332.0
 20
-233.863754
 30
0.0
 11
-354.0
 21
-233.863754
 31
0.0
  0
LINE
  5
2A17
100
AcDbEntity
  8
V0-OBRYS
  6
CONTINUOUS
 62
    90
100
AcDbLine
 10
-535.5801
 20
-355.860654
 30
0.0
 11
-535.5801
 21
-246.440754
 31
0.0
  0
LINE
  5
2A18
100
AcDbEntity
  8
V0-OBRYS
  6
CONTINUOUS
 62
    90
100
AcDbLine
 10
-523.0031
 20
-355.860654
 30
0.0
 11
-523.0031
 21
-233.863754
 31
0.0
  0
LINE
  5
2A19
100
AcDbEntity
  8
V0-VYPLNE
  6
DASHDOT
 62
    63
 48
2.0
100
AcDbLine
 10
-553.961
 20
-261.533154
 30
0.0
 11
-553.961
 21
-272.852454
 31
0.0
  0
CIRCLE
  5
2A1A
100
AcDbEntity
  8
V0-OBRYS
  6
CONTINUOUS
 62
    90
100
AcDbCircle
 10
-553.961
 20
-264.821654
 30
0.0
 40
3.14425
  0
LINE
  5
2A1B
100
AcDbEntity
  8
V0-VYPLNE
  6
DASHDOT
 62
    63
 48
2.0
100
AcDbLine
 10
-545.1571
 20
-264.821654
 30
0.0
 11
-561.5072
 21
-264.821654
 31
0.0
  0
LINE
  5
2A1C
100
AcDbEntity
  8
V0-OBRYS
  6
CONTINUOUS
 62
    90
100
AcDbLine
 10
-645.0
 20
-465.280554
 30
0.0
 11
-754.4199
 21
-465.280554
 31
0.0
  0
LINE
  5
2A1D
100
AcDbEntity
  8
V0-OBRYS
  6
CONTINUOUS
 62
    90
100
AcDbLine
 10
-766.9969
 20
-477.857554
 30
0.0
 11
-645.0
 21
-477.857554
 31
0.0
  0
LINE
  5
2A1E
100
AcDbEntity
  8
V0-OBRYS
  6
CONTINUOUS
 62
    90
100
AcDbLine
 10
-754.4199
 20
-355.860654
 30
0.0
 11
-754.4199
 21
-465.280554
 31
0.0
  0
LINE
  5
2A1F
100
AcDbEntity
  8
V0-OBRYS
  6
CONTINUOUS
 62
    90
100
AcDbLine
 10
-766.9969
 20
-355.860654
 30
0.0
 11
-766.9969
 21
-477.857554
 31
0.0
  0
LINE
  5
2A21
100
AcDbEntity
  8
V0-OBRYS
  6
CONTINUOUS
 62
    90
100
AcDbLine
 10
-332.0
 20
-477.857554
 30
0.0
 11
-354.0
 21
-477.857554
 31
0.0
  0
LINE
  5
2A22
100
AcDbEntity
  8
V0-OBRYS
  6
CONTINUOUS
 62
    90
100
AcDbLine
 10
-645.0
 20
-465.280554
 30
0.0
 11
-535.5801
 21
-465.280554
 31
0.0
  0
LINE
  5
2A23
100
AcDbEntity
  8
V0-VYPLNE
  6
DASHDOT
 62
    63
 48
2.0
100
AcDbLine
 10
-736.039
 20
-453.188154
 30
0.0
 11
-736.039
 21
-441.868854
 31
0.0
  0
CIRCLE
  5
2A24
100
AcDbEntity
  8
V0-OBRYS
  6
CONTINUOUS
 62
    90
100
AcDbCircle
 10
-736.039
 20
-446.899654
 30
0.0
 40
3.14425
  0
LINE
  5
2A25
100
AcDbEntity
  8
V0-VYPLNE
  6
DASHDOT
 62
    63
 48
2.0
100
AcDbLine
 10
-744.8429
 20
-446.899654
 30
0.0
 11
-728.4928
 21
-446.899654
 31
0.0
  0
LINE
  5
2A26
100
AcDbEntity
  8
V0-OBRYS
  6
CONTINUOUS
 62
    90
100
AcDbLine
 10
-535.5801
 20
-355.860654
 30
0.0
 11
-535.5801
 21
-465.280554
 31
0.0
  0
LINE
  5
2A27
100
AcDbEntity
  8
V0-OBRYS
  6
CONTINUOUS
 62
    90
100
AcDbLine
 10
-523.0031
 20
-355.860654
 30
0.0
 11
-523.0031
 21
-477.857554
 31
0.0
  0
LINE
  5
2A28
100
AcDbEntity
  8
V0-OBRYS
  6
CONTINUOUS
 62
    90
100
AcDbLine
 10
-535.5801
 20
-355.860654
 30
0.0
 11
-535.5801
 21
-465.280554
 31
0.0
  0
CIRCLE
  5
2A29
100
AcDbEntity
  8
V0-OBRYS
  6
CONTINUOUS
 62
    90
100
AcDbCircle
 10
-553.961
 20
-446.899654
 30
0.0
 40
3.14425
  0
LINE
  5
2A2A
100
AcDbEntity
  8
V0-VYPLNE
  6
DASHDOT
 62
    63
 48
2.0
100
AcDbLine
 10
-553.961
 20
-453.188154
 30
0.0
 11
-553.961
 21
-441.868854
 31
0.0
  0
LINE
  5
2A2B
100
AcDbEntity
  8
V0-VYPLNE
  6
DASHDOT
 62
    63
 48
2.0
100
AcDbLine
 10
-545.1571
 20
-446.899654
 30
0.0
 11
-561.5072
 21
-446.899654
 31
0.0
  0
LINE
  5
2A2D
100
AcDbEntity
  8
V0-VYPLNE
  6
DASHDOT
 62
    63
 48
2.0
100
AcDbLine
 10
-794.6663
 20
-355.860654
 30
0.0
 11
-518.878564
 21
-355.860654
 31
0.0
  0
LINE
  5
2A2F
100
AcDbEntity
  8
V0-VYPLNE
  6
DASHDOT
 62
    63
 48
2.0
100
AcDbLine
 10
-645.0
 20
-217.513654
 30
0.0
 11
-645.0
 21
-301.779554
 31
0.0
  0
LINE
  5
2A3E
100
AcDbEntity
  8
V0-OBRYS
  6
CONTINUOUS
 62
    90
100
AcDbLine
 10
-755.6776
 20
-438.868854
 30
0.0
 11
-535.5801
 21
-438.868854
 31
0.0
  0
LINE
  5
2A3F
100
AcDbEntity
  8
V0-OBRYS
  6
CONTINUOUS
 62
    90
100
AcDbLine
 10
-755.6776
 20
-414.972554
 30
0.0
 11
-535.5801
 21
-414.972554
 31
0.0
  0
LINE
  5
2A40
100
AcDbEntity
  8
V0-OBRYS
  6
CONTINUOUS
 62
    90
100
AcDbLine
 10
-755.6776
 20
-391.076254
 30
0.0
 11
-535.5801
 21
-391.076254
 31
0.0
  0
LINE
  5
2A41
100
AcDbEntity
  8
V0-OBRYS
  6
CONTINUOUS
 62
    90
100
AcDbLine
 10
-755.6776
 20
-367.179954
 30
0.0
 11
-535.5801
 21
-367.179954
 31
0.0
  0
LINE
  5
2A42
100
AcDbEntity
  8
V0-OBRYS
  6
CONTINUOUS
 62
    90
100
AcDbLine
 10
-755.6776
 20
-343.283654
 30
0.0
 11
-625.044114
 21
-343.283654
 31
0.0
  0
LINE
  5
2A43
100
AcDbEntity
  8
V0-OBRYS
  6
CONTINUOUS
 62
    90
100
AcDbLine
 10
-755.6776
 20
-319.387354
 30
0.0
 11
-702.8542
 21
-319.387354
 31
0.0
  0
LINE
  5
2A44
100
AcDbEntity
  8
V0-OBRYS
  6
CONTINUOUS
 62
    90
100
AcDbLine
 10
-755.6776
 20
-295.491054
 30
0.0
 11
-535.5801
 21
-295.491054
 31
0.0
  0
LINE
  5
2A45
100
AcDbEntity
  8
V0-OBRYS
  6
CONTINUOUS
 62
    90
100
AcDbLine
 10
-755.6776
 20
-271.594754
 30
0.0
 11
-535.5801
 21
-271.594754
 31
0.0
  0
LINE
  5
2A48
100
AcDbEntity
  8
V0-OBRYS
  6
CONTINUOUS
 62
    90
100
AcDbLine
 10
-332.0
 20
-233.863754
 30
0.0
 11
-332.0
 21
-477.857554
 31
0.0
  0
LINE
  5
2A49
100
AcDbEntity
  8
V0-OBRYS
  6
CONTINUOUS
 62
    90
100
AcDbLine
 10
-354.0
 20
-355.860654
 30
0.0
 11
-354.0
 21
-233.863754
 31
0.0
  0
LINE
  5
2A4B
100
AcDbEntity
  8
V0-OBRYS
  6
CONTINUOUS
 62
    90
100
AcDbLine
 10
-354.0
 20
-355.860654
 30
0.0
 11
-354.0
 21
-477.857554
 31
0.0
  0
LINE
  5
2A4C
100
AcDbEntity
  8
V0-OBRYS
  6
CONTINUOUS
 62
    90
100
AcDbLine
 10
-523.0031
 20
-233.863754
 30
0.0
 11
-645.0
 21
-233.863754
 31
0.0
  0
LINE
  5
2A52
100
AcDbEntity
  8
V0-VYPLNE
  6
CONTINUOUS
 62
    52
100
AcDbLine
 10
-390.523748
 20
-355.856106
 30
0.0
 11
-380.708065
 21
-355.856106
 31
0.0
  0
LINE
  5
2A56
100
AcDbEntity
  8
V0-OBRYS
  6
CONTINUOUS
 62
    90
100
AcDbLine
 10
-523.0031
 20
-477.857554
 30
0.0
 11
-645.0
 21
-477.857554
 31
0.0
  0
LINE
  5
2A58
100
AcDbEntity
  8
V0-VYPLNE
  6
DASHED
 62
    56
 48
2.0
100
AcDbLine
 10
-337.333392
 20
-272.326781
 30
0.0
 11
-332.92026
 21
-279.307738
 31
0.0
  0
LINE
  5
2A59
100
AcDbEntity
  8
V0-OBRYS
  6
CONTINUOUS
 62
    90
100
AcDbLine
 10
-327.550612
 20
-293.313708
 30
0.0
 11
-330.380981
 21
-296.141443
 31
0.0
  0
ARC
  5
2A5A
100
AcDbEntity
  8
V0-OBRYS
  6
CONTINUOUS
 62
    90
100
AcDbCircle
 10
-330.217354
 20
-290.644481
 30
0.0
 40
3.7731
100
AcDbArc
 50
314.973323
 51
32.29973
  0
CIRCLE
  5
2A5B
100
AcDbEntity
  8
V0-VYPLNE
  6
DASHED
 62
    56
 48
2.0
100
AcDbCircle
 10
-336.032171
 20
-274.601483
 30
0.0
 40
1.069561
  0
LINE
  5
2A5F
100
AcDbEntity
  8
V0-VYPLNE
  6
DASHED
 62
    56
 48
2.0
100
AcDbLine
 10
-342.299402
 20
-246.593172
 30
0.0
 11
-342.299402
 21
-484.674175
 31
0.0
  0
CIRCLE
  5
2A74
100
AcDbEntity
  8
V0-VYPLNE
  6
DASHED
 62
    56
 48
2.0
100
AcDbCircle
 10
-336.032171
 20
-441.875583
 30
0.0
 40
1.069561
  0
LINE
  5
2A87
100
AcDbEntity
  8
V0-OBRYS
  6
CONTINUOUS
 62
    90
100
AcDbLine
 10
-331.849486
 20
-281.001552
 30
0.0
 11
-327.028087
 21
-288.628331
 31
0.0
  0
LINE
  5
2A88
100
AcDbEntity
  8
V0-VYPLNE
  6
DASHED
 62
    56
 48
2.0
100
AcDbLine
 10
-338.57175
 20
-271.133535
 30
0.0
 11
-342.192537
 21
-271.133535
 31
0.0
  0
CIRCLE
  5
2A89
100
AcDbEntity
  8
V0-VYPLNE
  6
DASHED
 62
    56
 48
2.0
100
AcDbCircle
 10
-336.032171
 20
-298.497783
 30
0.0
 40
1.069561
  0
LINE
  5
2A8A
100
AcDbEntity
  8
V0-VYPLNE
  6
DASHED
 62
    56
 48
2.0
100
AcDbLine
 10
-337.333392
 20
-296.223081
 30
0.0
 11
-332.92026
 21
-303.204038
 31
0.0
  0
LINE
  5
2A8B
100
AcDbEntity
  8
V0-VYPLNE
  6
DASHED
 62
    56
 48
2.0
100
AcDbLine
 10
-338.57175
 20
-295.029835
 30
0.0
 11
-342.192537
 21
-295.029835
 31
0.0
  0
LINE
  5
2A8E
100
AcDbEntity
  8
V0-VYPLNE
  6
DASHED
 62
    56
 48
2.0
100
AcDbLine
 10
-337.333392
 20
-344.015681
 30
0.0
 11
-332.92026
 21
-350.996638
 31
0.0
  0
CIRCLE
  5
2A8F
100
AcDbEntity
  8
V0-VYPLNE
  6
DASHED
 62
    56
 48
2.0
100
AcDbCircle
 10
-336.032171
 20
-322.394083
 30
0.0
 40
1.069561
  0
LINE
  5
2A90
100
AcDbEntity
  8
V0-VYPLNE
  6
DASHED
 62
    56
 48
2.0
100
AcDbLine
 10
-337.333392
 20
-320.119381
 30
0.0
 11
-332.92026
 21
-327.100338
 31
0.0
  0
LINE
  5
2A91
100
AcDbEntity
  8
V0-VYPLNE
  6
DASHED
 62
    56
 48
2.0
100
AcDbLine
 10
-338.57175
 20
-342.822435
 30
0.0
 11
-342.192537
 21
-342.822435
 31
0.0
  0
CIRCLE
  5
2A92
100
AcDbEntity
  8
V0-VYPLNE
  6
DASHED
 62
    56
 48
2.0
100
AcDbCircle
 10
-336.032171
 20
-346.290383
 30
0.0
 40
1.069561
  0
LINE
  5
2A93
100
AcDbEntity
  8
V0-VYPLNE
  6
DASHED
 62
    56
 48
2.0
100
AcDbLine
 10
-338.57175
 20
-318.926135
 30
0.0
 11
-342.192537
 21
-318.926135
 31
0.0
  0
LINE
  5
2A94
100
AcDbEntity
  8
V0-VYPLNE
  6
DASHED
 62
    56
 48
2.0
100
AcDbLine
 10
-337.333392
 20
-391.808281
 30
0.0
 11
-332.92026
 21
-398.789238
 31
0.0
  0
CIRCLE
  5
2A95
100
AcDbEntity
  8
V0-VYPLNE
  6
DASHED
 62
    56
 48
2.0
100
AcDbCircle
 10
-336.032171
 20
-441.875583
 30
0.0
 40
1.069561
  0
LINE
  5
2A96
100
AcDbEntity
  8
V0-VYPLNE
  6
DASHED
 62
    56
 48
2.0
100
AcDbLine
 10
-338.57175
 20
-438.407635
 30
0.0
 11
-342.192537
 21
-438.407635
 31
0.0
  0
LINE
  5
2A97
100
AcDbEntity
  8
V0-VYPLNE
  6
DASHED
 62
    56
 48
2.0
100
AcDbLine
 10
-337.333392
 20
-439.600881
 30
0.0
 11
-332.92026
 21
-446.581838
 31
0.0
  0
LINE
  5
2A98
100
AcDbEntity
  8
V0-VYPLNE
  6
DASHED
 62
    56
 48
2.0
100
AcDbLine
 10
-338.57175
 20
-414.511335
 30
0.0
 11
-342.192537
 21
-414.511335
 31
0.0
  0
LINE
  5
2A99
100
AcDbEntity
  8
V0-VYPLNE
  6
DASHED
 62
    56
 48
2.0
100
AcDbLine
 10
-337.333392
 20
-415.704581
 30
0.0
 11
-332.92026
 21
-422.685538
 31
0.0
  0
CIRCLE
  5
2A9A
100
AcDbEntity
  8
V0-VYPLNE
  6
DASHED
 62
    56
 48
2.0
100
AcDbCircle
 10
-336.032171
 20
-417.979283
 30
0.0
 40
1.069561
  0
CIRCLE
  5
2A9B
100
AcDbEntity
  8
V0-VYPLNE
  6
DASHED
 62
    56
 48
2.0
100
AcDbCircle
 10
-336.032171
 20
-370.186683
 30
0.0
 40
1.069561
  0
LINE
  5
2A9C
100
AcDbEntity
  8
V0-VYPLNE
  6
DASHED
 62
    56
 48
2.0
100
AcDbLine
 10
-337.333392
 20
-367.911981
 30
0.0
 11
-332.92026
 21
-374.892938
 31
0.0
  0
LINE
  5
2A9D
100
AcDbEntity
  8
V0-VYPLNE
  6
DASHED
 62
    56
 48
2.0
100
AcDbLine
 10
-338.57175
 20
-390.615035
 30
0.0
 11
-342.192537
 21
-390.615035
 31
0.0
  0
CIRCLE
  5
2A9E
100
AcDbEntity
  8
V0-VYPLNE
  6
DASHED
 62
    56
 48
2.0
100
AcDbCircle
 10
-336.032171
 20
-394.082983
 30
0.0
 40
1.069561
  0
LINE
  5
2A9F
100
AcDbEntity
  8
V0-VYPLNE
  6
DASHED
 62
    56
 48
2.0
100
AcDbLine
 10
-338.57175
 20
-366.718735
 30
0.0
 11
-342.192537
 21
-366.718735
 31
0.0
  0
LINE
  5
2AA0
100
AcDbEntity
  8
V0-OBRYS
  6
CONTINUOUS
 62
    90
100
AcDbLine
 10
-331.849486
 20
-304.897852
 30
0.0
 11
-327.028087
 21
-312.524631
 31
0.0
  0
LINE
  5
2AA1
100
AcDbEntity
  8
V0-OBRYS
  6
CONTINUOUS
 62
    90
100
AcDbLine
 10
-327.550612
 20
-317.210008
 30
0.0
 11
-330.380981
 21
-320.037743
 31
0.0
  0
ARC
  5
2AA2
100
AcDbEntity
  8
V0-OBRYS
  6
CONTINUOUS
 62
    90
100
AcDbCircle
 10
-330.217354
 20
-314.540781
 30
0.0
 40
3.7731
100
AcDbArc
 50
314.973323
 51
32.29973
  0
LINE
  5
2AA3
100
AcDbEntity
  8
V0-OBRYS
  6
CONTINUOUS
 62
    90
100
AcDbLine
 10
-327.550612
 20
-365.002608
 30
0.0
 11
-330.380981
 21
-367.830343
 31
0.0
  0
LINE
  5
2AA4
100
AcDbEntity
  8
V0-OBRYS
  6
CONTINUOUS
 62
    90
100
AcDbLine
 10
-331.849486
 20
-352.690452
 30
0.0
 11
-327.028087
 21
-360.317231
 31
0.0
  0
LINE
  5
2AA5
100
AcDbEntity
  8
V0-OBRYS
  6
CONTINUOUS
 62
    90
100
AcDbLine
 10
-331.849486
 20
-328.794152
 30
0.0
 11
-327.028087
 21
-336.420931
 31
0.0
  0
LINE
  5
2AA6
100
AcDbEntity
  8
V0-OBRYS
  6
CONTINUOUS
 62
    90
100
AcDbLine
 10
-327.550612
 20
-341.106308
 30
0.0
 11
-330.380981
 21
-343.934043
 31
0.0
  0
ARC
  5
2AA7
100
AcDbEntity
  8
V0-OBRYS
  6
CONTINUOUS
 62
    90
100
AcDbCircle
 10
-330.217354
 20
-362.333381
 30
0.0
 40
3.7731
100
AcDbArc
 50
314.973323
 51
32.29973
  0
ARC
  5
2AA8
100
AcDbEntity
  8
V0-OBRYS
  6
CONTINUOUS
 62
    90
100
AcDbCircle
 10
-330.217354
 20
-338.437081
 30
0.0
 40
3.7731
100
AcDbArc
 50
314.973323
 51
32.29973
  0
LINE
  5
2AA9
100
AcDbEntity
  8
V0-OBRYS
  6
CONTINUOUS
 62
    90
100
AcDbLine
 10
-327.550612
 20
-436.691508
 30
0.0
 11
-330.380981
 21
-439.519243
 31
0.0
  0
LINE
  5
2AAA
100
AcDbEntity
  8
V0-OBRYS
  6
CONTINUOUS
 62
    90
100
AcDbLine
 10
-331.849486
 20
-424.379352
 30
0.0
 11
-327.028087
 21
-432.006131
 31
0.0
  0
LINE
  5
2AAB
100
AcDbEntity
  8
V0-OBRYS
  6
CONTINUOUS
 62
    90
100
AcDbLine
 10
-331.849486
 20
-448.275652
 30
0.0
 11
-327.028087
 21
-455.902431
 31
0.0
  0
LINE
  5
2AAC
100
AcDbEntity
  8
V0-OBRYS
  6
CONTINUOUS
 62
    90
100
AcDbLine
 10
-327.550612
 20
-460.587808
 30
0.0
 11
-330.380981
 21
-463.415543
 31
0.0
  0
LINE
  5
2AAD
100
AcDbEntity
  8
V0-OBRYS
  6
CONTINUOUS
 62
    90
100
AcDbLine
 10
-327.550612
 20
-412.795208
 30
0.0
 11
-330.380981
 21
-415.622943
 31
0.0
  0
LINE
  5
2AAE
100
AcDbEntity
  8
V0-OBRYS
  6
CONTINUOUS
 62
    90
100
AcDbLine
 10
-331.849486
 20
-400.483052
 30
0.0
 11
-327.028087
 21
-408.109831
 31
0.0
  0
LINE
  5
2AAF
100
AcDbEntity
  8
V0-OBRYS
  6
CONTINUOUS
 62
    90
100
AcDbLine
 10
-331.849486
 20
-376.586752
 30
0.0
 11
-327.028087
 21
-384.213531
 31
0.0
  0
LINE
  5
2AB0
100
AcDbEntity
  8
V0-OBRYS
  6
CONTINUOUS
 62
    90
100
AcDbLine
 10
-327.550612
 20
-388.898908
 30
0.0
 11
-330.380981
 21
-391.726643
 31
0.0
  0
ARC
  5
2AB1
100
AcDbEntity
  8
V0-OBRYS
  6
CONTINUOUS
 62
    90
100
AcDbCircle
 10
-330.217354
 20
-457.918581
 30
0.0
 40
3.7731
100
AcDbArc
 50
314.973323
 51
32.29973
  0
ARC
  5
2AB2
100
AcDbEntity
  8
V0-OBRYS
  6
CONTINUOUS
 62
    90
100
AcDbCircle
 10
-330.217354
 20
-434.022281
 30
0.0
 40
3.7731
100
AcDbArc
 50
314.973323
 51
32.29973
  0
ARC
  5
2AB3
100
AcDbEntity
  8
V0-OBRYS
  6
CONTINUOUS
 62
    90
100
AcDbCircle
 10
-330.217354
 20
-410.125981
 30
0.0
 40
3.7731
100
AcDbArc
 50
314.973323
 51
32.29973
  0
ARC
  5
2AB4
100
AcDbEntity
  8
V0-OBRYS
  6
CONTINUOUS
 62
    90
100
AcDbCircle
 10
-330.217354
 20
-386.229681
 30
0.0
 40
3.7731
100
AcDbArc
 50
314.973323
 51
32.29973
  0
LINE
  5
2AB5
100
AcDbEntity
  8
V0-OBRYS
  6
CONTINUOUS
 62
    90
100
AcDbLine
 10
-331.849486
 20
-257.105252
 30
0.0
 11
-327.028087
 21
-264.732031
 31
0.0
  0
LINE
  5
2AB6
100
AcDbEntity
  8
V0-OBRYS
  6
CONTINUOUS
 62
    90
100
AcDbLine
 10
-327.550612
 20
-269.417408
 30
0.0
 11
-330.380981
 21
-272.245143
 31
0.0
  0
CIRCLE
  5
2AB7
100
AcDbEntity
  8
V0-VYPLNE
  6
DASHED
 62
    56
 48
2.0
100
AcDbCircle
 10
-336.032171
 20
-250.705183
 30
0.0
 40
1.069561
  0
LINE
  5
2AB8
100
AcDbEntity
  8
V0-VYPLNE
  6
DASHED
 62
    56
 48
2.0
100
AcDbLine
 10
-337.333392
 20
-248.430481
 30
0.0
 11
-332.92026
 21
-255.411438
 31
0.0
  0
ARC
  5
2AB9
100
AcDbEntity
  8
V0-OBRYS
  6
CONTINUOUS
 62
    90
100
AcDbCircle
 10
-330.217354
 20
-266.748181
 30
0.0
 40
3.7731
100
AcDbArc
 50
314.973323
 51
32.29973
  0
LINE
  5
2ABA
100
AcDbEntity
  8
V0-VYPLNE
  6
DASHED
 62
    56
 48
2.0
100
AcDbLine
 10
-338.57175
 20
-247.237235
 30
0.0
 11
-342.192537
 21
-247.237235
 31
0.0
  0
DIMENSION
  5
2ACB
100
AcDbEntity
  8
V0-VYPLNE
  6
CONTINUOUS
 62
    41
 48
2.0
100
AcDbDimension
  2
*D12
 10
-472.198082
 20
-477.857554
 30
0.0
 11
-477.824066
 21
-355.860654
 31
0.0
 70
    32
  3
STANDARD
100
AcDbAlignedDimension
 13
-523.0031
 23
-233.863754
 33
0.0
 14
-523.0031
 24
-477.857554
 34
0.0
 50
90.0
100
AcDbRotatedDimension
1001
ACAD
1000
DSTYLE
1002
{
1070
   140
1040
10.0
1070
    40
1040
1.0
1070
    41
1040
10.0
1002
}
  0
DIMENSION
  5
2AD8
100
AcDbEntity
  8
V0-VYPLNE
  6
CONTINUOUS
 62
    41
 48
2.0
100
AcDbDimension
  2
*D11
 10
-498.021329
 20
-446.899654
 30
0.0
 11
-503.647313
 21
-355.860654
 31
0.0
 70
    32
  3
STANDARD
100
AcDbAlignedDimension
 13
-545.1571
 23
-264.821654
 33
0.0
 14
-545.1571
 24
-446.899654
 34
0.0
 50
90.0
100
AcDbRotatedDimension
1001
ACAD
1000
DSTYLE
1002
{
1070
   140
1040
10.0
1070
    40
1040
1.0
1070
    41
1040
10.0
1002
}
  0
DIMENSION
  5
2AE5
100
AcDbEntity
  8
V0-VYPLNE
  6
CONTINUOUS
 62
    41
 48
2.0
100
AcDbDimension
  2
*D9
 10
-523.0031
 20
-530.318945
 30
0.0
 11
-645.0
 21
-524.69296
 31
0.0
 70
    32
  3
STANDARD
100
AcDbAlignedDimension
 13
-766.9969
 23
-477.857554
 33
0.0
 14
-523.0031
 24
-477.857554
 34
0.0
100
AcDbRotatedDimension
1001
ACAD
1000
DSTYLE
1002
{
1070
   140
1040
10.0
1070
    40
1040
1.0
1070
    41
1040
10.0
1002
}
  0
DIMENSION
  5
2AF2
100
AcDbEntity
  8
V0-VYPLNE
  6
CONTINUOUS
 62
    41
 48
2.0
100
AcDbDimension
  2
*D10
 10
-553.961
 20
-505.512005
 30
0.0
 11
-645.0
 21
-499.886021
 31
0.0
 70
    32
  3
STANDARD
100
AcDbAlignedDimension
 13
-736.039
 23
-453.188154
 33
0.0
 14
-553.961
 24
-453.188154
 34
0.0
100
AcDbRotatedDimension
1001
ACAD
1000
DSTYLE
1002
{
1070
   140
1040
10.0
1070
    40
1040
1.0
1070
    41
1040
10.0
1002
}
  0
LEADER
  5
2AF3
100
AcDbEntity
  8
V0-VYPLNE
  6
CONTINUOUS
 62
    41
 48
2.0
100
AcDbLeader
  3
STANDARD
 73
     0
 74
     0
 75
     1
 40
12.577
 41
16.871056
 76
     3
 10
-732.437344
 20
-263.373115
 30
0.0
 10
-674.718167
 20
-216.93301
 30
0.0
 10
-664.718167
 20
-216.93301
 30
0.0
 77
    41
340
2AF4
1001
ACAD
1000
DSTYLE
1002
{
1070
   140
1040
10.0
1070
    40
1040
1.0
1070
    41
1040
10.0
1002
}
  0
MTEXT
  5
2AF4
102
{ACAD_REACTORS
330
2AF3
102
}
100
AcDbEntity
  8
V0-VYPLNE
  6
CONTINUOUS
 62
    41
 48
2.0
100
AcDbMText
 10
-664.093167
 20
-210.01951
 30
0.0
 40
12.577
 41
0.0
 71
     4
 72
     1
  1
%%c5
  0
DIMENSION
  5
2B1D
100
AcDbEntity
  8
V0-VYPLNE
  6
CONTINUOUS
 62
    41
 48
2.0
100
AcDbDimension
  2
*D14
 10
-332.0
 20
-504.519728
 30
0.0
 11
-343.0
 21
-498.893743
 31
0.0
 70
    32
  3
STANDARD
100
AcDbAlignedDimension
 13
-354.0
 23
-477.857554
 33
0.0
 14
-332.0
 24
-477.857554
 34
0.0
100
AcDbRotatedDimension
1001
ACAD
1000
DSTYLE
1002
{
1070
   140
1040
10.0
1070
    40
1040
1.0
1070
    41
1040
10.0
1002
}
  0
LINE
  5
2B45
100
AcDbEntity
  8
V0-OBRYS
  6
CONTINUOUS
 62
    90
100
AcDbLine
 10
-544.384
 20
-579.860654
 30
0.0
 11
-645.0
 21
-579.860654
 31
0.0
  0
LINE
  5
2B47
100
AcDbEntity
  8
V0-OBRYS
  6
CONTINUOUS
 62
    90
100
AcDbLine
 10
-645.0
 20
-615.076254
 30
0.0
 11
-523.0031
 21
-615.076254
 31
0.0
  0
LINE
  5
2B48
100
AcDbEntity
  8
V0-OBRYS
  6
CONTINUOUS
 62
    90
100
AcDbLine
 10
-766.9969
 20
-637.076254
 30
0.0
 11
-523.0031
 21
-637.076254
 31
0.0
  0
LINE
  5
2B4E
100
AcDbEntity
  8
V0-OBRYS
  6
CONTINUOUS
 62
    90
100
AcDbLine
 10
-523.0031
 20
-637.076254
 30
0.0
 11
-523.0031
 21
-615.076254
 31
0.0
  0
LINE
  5
2B4F
100
AcDbEntity
  8
V0-OBRYS
  6
CONTINUOUS
 62
    90
100
AcDbLine
 10
-544.384
 20
-615.076254
 30
0.0
 11
-544.384
 21
-579.860654
 31
0.0
  0
LINE
  5
2B66
100
AcDbEntity
  8
V0-OBRYS
  6
CONTINUOUS
 62
    90
100
AcDbLine
 10
-745.616
 20
-579.860654
 30
0.0
 11
-645.0
 21
-579.860654
 31
0.0
  0
LINE
  5
2B68
100
AcDbEntity
  8
V0-OBRYS
  6
CONTINUOUS
 62
    90
100
AcDbLine
 10
-645.0
 20
-615.076254
 30
0.0
 11
-766.9969
 21
-615.076254
 31
0.0
  0
LINE
  5
2B6F
100
AcDbEntity
  8
V0-VYPLNE
  6
DASHDOT
 62
    63
 48
2.0
100
AcDbLine
 10
-645.0
 20
-573.05385
 30
0.0
 11
-645.0
 21
-637.076254
 31
0.0
  0
LINE
  5
2B76
100
AcDbEntity
  8
V0-OBRYS
  6
CONTINUOUS
 62
    90
100
AcDbLine
 10
-745.616
 20
-615.076254
 30
0.0
 11
-745.616
 21
-579.860654
 31
0.0
  0
LINE
  5
2B7E
100
AcDbEntity
  8
V0-OBRYS
  6
CONTINUOUS
 62
    90
100
AcDbLine
 10
-766.9969
 20
-637.076254
 30
0.0
 11
-766.9969
 21
-615.076254
 31
0.0
  0
LINE
  5
2B86
100
AcDbEntity
  8
V0-OBRYS
  6
CONTINUOUS
 62
    90
100
AcDbLine
 10
-755.6776
 20
-637.076254
 30
0.0
 11
-755.6776
 21
-647.776454
 31
0.0
  0
LINE
  5
2B87
100
AcDbEntity
  8
V0-OBRYS
  6
CONTINUOUS
 62
    90
100
AcDbLine
 10
-755.6776
 20
-647.776454
 30
0.0
 11
-645.0
 21
-647.776454
 31
0.0
  0
LINE
  5
2B88
100
AcDbEntity
  8
V0-OBRYS
  6
CONTINUOUS
 62
    90
100
AcDbLine
 10
-534.3224
 20
-637.076254
 30
0.0
 11
-534.3224
 21
-647.776454
 31
0.0
  0
LINE
  5
2B89
100
AcDbEntity
  8
V0-OBRYS
  6
CONTINUOUS
 62
    90
100
AcDbLine
 10
-534.3224
 20
-647.776454
 30
0.0
 11
-645.0
 21
-647.776454
 31
0.0
  0
TEXT
  5
2B90
100
AcDbEntity
  8
V0-ZBYTEK
  6
CONTINUOUS
 62
    51
100
AcDbText
 10
-454.225068
 20
-627.493566
 30
0.0
 40
10.0
  1
ELEKTRICKY OVLADANA
 72
     1
 11
-382.675068
 21
-627.493566
 31
0.0
100
AcDbText
  0
TEXT
  5
2B91
100
AcDbEntity
  8
V0-NAZVY
  6
CONTINUOUS
 62
   210
100
AcDbText
 10
-446.0
 20
-566.74673
 30
0.0
 40
20.0
  1
PAR-200W
 72
     1
 11
-382.0
 21
-566.74673
 31
0.0
100
AcDbText
  0
TEXT
  5
2B92
100
AcDbEntity
  8
V0-ZBYTEK
  6
CONTINUOUS
 62
   130
100
AcDbText
 10
-473.575
 20
-597.74673
 30
0.0
 40
15.0
  1
ZALUZIOVA KLAPKA
 72
     1
 11
-382.0
 21
-597.74673
 31
0.0
100
AcDbText
  0
TEXT
  5
2B9C
100
AcDbEntity
  8
V0-NAZVY
  6
CONTINUOUS
 62
   210
100
AcDbText
 10
-705.3696
 20
-325.675854
 30
0.0
 40
18.8655
  1
PAR-200W
 72
     1
 11
-645.0
 21
-325.675854
 31
0.0
100
AcDbText
  0
LINE
  5
2B9D
100
AcDbEntity
  8
V0-OBRYS
  6
CONTINUOUS
 62
    90
100
AcDbLine
 10
-588.4035
 20
-319.387354
 30
0.0
 11
-535.5801
 21
-319.387354
 31
0.0
  0
LINE
  5
2B9E
100
AcDbEntity
  8
V0-VYPLNE
  6
DASHDOT
 62
    63
 48
2.0
100
AcDbLine
 10
-645.0
 20
-335.737454
 30
0.0
 11
-645.0
 21
-472.766847
 31
0.0
  0
TEXT
  5
2B9F
100
AcDbEntity
  8
V0-NAZVY
  6
CONTINUOUS
 62
   210
100
AcDbText
 10
-706.613104
 20
-573.987665
 30
0.0
 40
18.8655
  1
PAR-200W
 72
     1
 11
-646.243504
 21
-573.987665
 31
0.0
100
AcDbText
  0
TEXT
  5
2BA0
100
AcDbEntity
  8
V0-NAZVY
  6
CONTINUOUS
 62
   210
100
AcDbText
 10
-300.58611
 20
-424.222787
 30
0.0
 40
18.8655
  1
PAR-200W
 50
90.0
 72
     1
 11
-300.58611
 21
-363.853187
 31
0.0
100
AcDbText
  0
LINE
  5
2BA1
100
AcDbEntity
  8
V0-VYPLNE
  6
CONTINUOUS
 62
    52
100
AcDbLine
 10
-366.670714
 20
-355.758497
 30
0.0
 11
-381.637344
 21
-367.203567
 31
0.0
  0
LINE
  5
2BA2
100
AcDbEntity
  8
V0-VYPLNE
  6
CONTINUOUS
 62
    52
100
AcDbLine
 10
-381.637344
 20
-367.203567
 30
0.0
 11
-381.637344
 21
-355.758497
 31
0.0
  0
LINE
  5
2BA3
100
AcDbEntity
  8
V0-VYPLNE
  6
CONTINUOUS
 62
    52
100
AcDbLine
 10
-366.670714
 20
-355.758497
 30
0.0
 11
-381.637344
 21
-344.313427
 31
0.0
  0
LINE
  5
2BA4
100
AcDbEntity
  8
V0-VYPLNE
  6
CONTINUOUS
 62
    52
100
AcDbLine
 10
-381.637344
 20
-344.313427
 30
0.0
 11
-381.637344
 21
-355.758497
 31
0.0
  0
LINE
  5
2BA7
100
AcDbEntity
  8
V0-VYPLNE
  6
CONTINUOUS
 62
    52
100
AcDbLine
 10
-645.0
 20
-644.483951
 30
0.0
 11
-633.6807
 21
-629.391551
 31
0.0
  0
LINE
  5
2BA8
100
AcDbEntity
  8
V0-VYPLNE
  6
CONTINUOUS
 62
    52
100
AcDbLine
 10
-633.6807
 20
-629.391551
 30
0.0
 11
-645.0
 21
-629.391551
 31
0.0
  0
LINE
  5
2BA9
100
AcDbEntity
  8
V0-VYPLNE
  6
CONTINUOUS
 62
    52
100
AcDbLine
 10
-645.0
 20
-644.483951
 30
0.0
 11
-656.3193
 21
-629.391551
 31
0.0
  0
LINE
  5
2BAA
100
AcDbEntity
  8
V0-VYPLNE
  6
CONTINUOUS
 62
    52
100
AcDbLine
 10
-656.3193
 20
-629.391551
 30
0.0
 11
-645.0
 21
-629.391551
 31
0.0
  0
LINE
  5
2C10
100
AcDbEntity
  8
V0-OBRYS
  6
CONTINUOUS
 62
    90
100
AcDbLine
 10
-354.0
 20
-264.860654
 30
0.0
 11
-379.0
 21
-264.860654
 31
0.0
  0
LINE
  5
2C11
100
AcDbEntity
  8
V0-OBRYS
  6
CONTINUOUS
 62
    90
100
AcDbLine
 10
-379.0
 20
-264.860654
 30
0.0
 11
-384.0
 21
-264.860654
 31
0.0
  0
LINE
  5
2C12
100
AcDbEntity
  8
V0-OBRYS
  6
CONTINUOUS
 62
    90
100
AcDbLine
 10
-384.0
 20
-264.860654
 30
0.0
 11
-384.0
 21
-355.860654
 31
0.0
  0
LINE
  5
2C13
100
AcDbEntity
  8
V0-OBRYS
  6
CONTINUOUS
 62
    90
100
AcDbLine
 10
-354.0
 20
-446.860654
 30
0.0
 11
-384.0
 21
-446.860654
 31
0.0
  0
LINE
  5
2C14
100
AcDbEntity
  8
V0-OBRYS
  6
CONTINUOUS
 62
    90
100
AcDbLine
 10
-384.0
 20
-446.860654
 30
0.0
 11
-384.0
 21
-355.860654
 31
0.0
  0
LINE
  5
2C15
100
AcDbEntity
  8
V0-VYPLNE
  6
DASHDOT
 62
    63
 48
2.0
100
AcDbLine
 10
-346.0
 20
-355.860654
 30
0.0
 11
-332.0
 21
-355.860654
 31
0.0
  0
DIMENSION
  5
2C2F
100
AcDbEntity
  8
V0-VYPLNE
  6
CONTINUOUS
 62
    41
 48
2.0
100
AcDbDimension
  2
*D13
 10
-326.503633
 20
-521.463417
 30
0.0
 11
-340.251817
 21
-515.838417
 31
0.0
 70
    32
  1
36
  3
STANDARD
100
AcDbAlignedDimension
 13
-354.0
 23
-477.857554
 33
0.0
 14
-326.503633
 24
-477.857554
 34
0.0
100
AcDbRotatedDimension
1001
ACAD
1000
DSTYLE
1002
{
1070
   140
1040
10.0
1070
    40
1040
1.0
1070
    41
1040
10.0
1002
}
  0
CIRCLE
  5
2D37
100
AcDbEntity
  8
V0-VYPLNE
  6
DASHED
 62
    56
 48
2.0
100
AcDbCircle
 10
-645.0
 20
-355.860654
 30
0.0
 40
105.0
  0
DIMENSION
  5
2D41
100
AcDbEntity
  8
V0-VYPLNE
  6
CONTINUOUS
 62
    41
 48
2.0
100
AcDbDimension
  2
*D8
 10
-748.251182
 20
-374.944508
 30
0.0
 11
-603.228337
 21
-348.140023
 31
0.0
 70
   163
  3
STANDARD
100
AcDbDiametricDimension
 15
-541.748818
 25
-336.7768
 35
0.0
 40
0.0
1001
ACAD
1000
DSTYLE
1002
{
1070
   140
1040
10.0
1070
    40
1040
1.0
1070
    41
1040
10.0
1002
}
  0
LINE
  5
2D4A
100
AcDbEntity
  8
V0-OBRYS
  6
CONTINUOUS
 62
    90
100
AcDbLine
 10
-583.836535
 20
-343.283654
 30
0.0
 11
-535.5801
 21
-343.283654
 31
0.0
  0
POINT
  5
2D50
100
AcDbEntity
  8
V0-VYPLNE
  6
CONTINUOUS
 62
    52
100
AcDbPoint
 10
-354.0
 20
-355.860654
 30
0.0
  0
POINT
  5
2D51
100
AcDbEntity
  8
V0-VYPLNE
  6
CONTINUOUS
 62
    52
100
AcDbPoint
 10
-645.0
 20
-615.076254
 30
0.0
  0
POINT
  5
2D52
100
AcDbEntity
  8
V0-VYPLNE
  6
CONTINUOUS
 62
    52
100
AcDbPoint
 10
-645.0
 20
-355.860654
 30
0.0
  0
VIEWPORT
  5
22
100
AcDbEntity
 67
     1
  8
0
100
AcDbViewport
 10
261.517699
 20
165.390006
 30
0.0
 40
523.035398
 41
330.780011
 68
    -1
 69
     1
1001
ACAD
1000
MVIEW
1002
{
1070
    16
1010
0.0
1020
0.0
1030
0.0
1010
0.0
1020
0.0
1030
1.0
1040
0.0
1040
330.780011
1040
261.517699
1040
165.390006
1040
50.0
1040
0.0
1040
0.0
1070
     0
1070
   100
1070
     1
1070
     0
1070
     0
1070
     0
1070
     0
1070
     0
1040
0.0
1040
0.0
1040
0.0
1040
1.0
1040
1.0
1040
10.0
1040
10.0
1070
     0
1002
{
1002
}
1002
}
  0
ENDSEC
  0
SECTION
  2
OBJECTS
  0
DICTIONARY
  5
C
100
AcDbDictionary
  3
ACAD_GROUP
350
D
  3
ACAD_MLINESTYLE
350
E
  3
ACDBVARIABLEDICTIONARY
350
86C
  3
CONTENTDICTIONARY
350
905
  0
DICTIONARY
  5
D
102
{ACAD_REACTORS
330
C
102
}
100
AcDbDictionary
  0
DICTIONARY
  5
E
102
{ACAD_REACTORS
330
C
102
}
100
AcDbDictionary
  3
STANDARD
350
13
  0
DICTIONARY
  5
86C
102
{ACAD_REACTORS
330
C
102
}
100
AcDbDictionary
  3
SORTENTS
350
86D
  0
DICTIONARY
  5
905
102
{ACAD_REACTORS
330
C
102
}
100
AcDbDictionary
  0
MLINESTYLE
  5
13
102
{ACAD_REACTORS
330
E
102
}
100
AcDbMlineStyle
  2
STANDARD
 70
     0
  3

 62
     0
 51
90.0
 52
90.0
 71
     2
 49
0.5
 62
   256
  6
BYLAYER
 49
-0.5
 62
   256
  6
BYLAYER
  0
DICTIONARYVAR
  5
86D
102
{ACAD_REACTORS
330
86C
102
}
100
DictionaryVariables
280
     0
  1
96
  0
ENDSEC
  0
EOF
