  0
SECTION
  2
HEADER
  9
$ACADVER
  1
AC1014
  9
$ACADMAINTVER
 70
     0
  9
$DWGCODEPAGE
  3
ANSI_1250
  9
$INSBASE
 10
0.0
 20
0.0
 30
0.0
  9
$EXTMIN
 10
633.596443
 20
-642.843187
 30
0.0
  9
$EXTMAX
 10
1782.281153
 20
281.393716
 30
0.0
  9
$LIMMIN
 10
0.0
 20
0.0
  9
$LIMMAX
 10
420.0
 20
297.0
  9
$ORTHOMODE
 70
     0
  9
$REGENMODE
 70
     1
  9
$FILLMODE
 70
     1
  9
$QTEXTMODE
 70
     0
  9
$MIRRTEXT
 70
     1
  9
$DRAGMODE
 70
     2
  9
$LTSCALE
 40
1.0
  9
$OSMODE
 70
    15
  9
$ATTMODE
 70
     1
  9
$TEXTSIZE
 40
10.0
  9
$TRACEWID
 40
1.0
  9
$TEXTSTYLE
  7
ED30
  9
$CLAYER
  8
V0-VYPLNE
  9
$CELTYPE
  6
DASHED
  9
$CECOLOR
 62
    52
  9
$CELTSCALE
 40
1.0
  9
$DELOBJ
 70
     1
  9
$DISPSILH
 70
     0
  9
$DIMSCALE
 40
0.0
  9
$DIMASZ
 40
25.0
  9
$DIMEXO
 40
1.0
  9
$DIMDLI
 40
3.75
  9
$DIMRND
 40
0.0
  9
$DIMDLE
 40
0.0
  9
$DIMEXE
 40
1.25
  9
$DIMTP
 40
0.0
  9
$DIMTM
 40
0.0
  9
$DIMTXT
 40
30.0
  9
$DIMCEN
 40
3.0
  9
$DIMTSZ
 40
0.0
  9
$DIMTOL
 70
     0
  9
$DIMLIM
 70
     0
  9
$DIMTIH
 70
     0
  9
$DIMTOH
 70
     0
  9
$DIMSE1
 70
     0
  9
$DIMSE2
 70
     0
  9
$DIMTAD
 70
     1
  9
$DIMZIN
 70
     8
  9
$DIMBLK
  1

  9
$DIMASO
 70
     1
  9
$DIMSHO
 70
     1
  9
$DIMPOST
  1

  9
$DIMAPOST
  1

  9
$DIMALT
 70
     0
  9
$DIMALTD
 70
     4
  9
$DIMALTF
 40
0.0394
  9
$DIMLFAC
 40
1.0
  9
$DIMTOFL
 70
     1
  9
$DIMTVP
 40
0.0
  9
$DIMTIX
 70
     0
  9
$DIMSOXD
 70
     0
  9
$DIMSAH
 70
     1
  9
$DIMBLK1
  1
_OPEN
  9
$DIMBLK2
  1
_OPEN
  9
$DIMSTYLE
  2
ED30
  9
$DIMCLRD
 70
     0
  9
$DIMCLRE
 70
     0
  9
$DIMCLRT
 70
     0
  9
$DIMTFAC
 40
1.0
  9
$DIMGAP
 40
2.0
  9
$DIMJUST
 70
     0
  9
$DIMSD1
 70
     0
  9
$DIMSD2
 70
     0
  9
$DIMTOLJ
 70
     1
  9
$DIMTZIN
 70
     8
  9
$DIMALTZ
 70
     0
  9
$DIMALTTZ
 70
     0
  9
$DIMFIT
 70
     3
  9
$DIMUPT
 70
     0
  9
$DIMUNIT
 70
     2
  9
$DIMDEC
 70
     0
  9
$DIMTDEC
 70
     1
  9
$DIMALTU
 70
     8
  9
$DIMALTTD
 70
     4
  9
$DIMTXSTY
  7
ED30
  9
$DIMAUNIT
 70
     0
  9
$LUNITS
 70
     2
  9
$LUPREC
 70
     4
  9
$SKETCHINC
 40
1.0
  9
$FILLETRAD
 40
5.0
  9
$AUNITS
 70
     0
  9
$AUPREC
 70
     0
  9
$MENU
  1
.
  9
$ELEVATION
 40
0.0
  9
$PELEVATION
 40
0.0
  9
$THICKNESS
 40
0.0
  9
$LIMCHECK
 70
     0
  9
$BLIPMODE
 70
     0
  9
$CHAMFERA
 40
10.0
  9
$CHAMFERB
 40
10.0
  9
$CHAMFERC
 40
20.0
  9
$CHAMFERD
 40
0.0
  9
$SKPOLY
 70
     1
  9
$TDCREATE
 40
2451196.643769328
  9
$TDUPDATE
 40
2453320.506596770
  9
$TDINDWG
 40
0.2854201389
  9
$TDUSRTIMER
 40
0.2854201389
  9
$USRTIMER
 70
     1
  9
$ANGBASE
 50
0.0
  9
$ANGDIR
 70
     0
  9
$PDMODE
 70
     3
  9
$PDSIZE
 40
25.0
  9
$PLINEWID
 40
0.0
  9
$COORDS
 70
     1
  9
$SPLFRAME
 70
     0
  9
$SPLINETYPE
 70
     6
  9
$SPLINESEGS
 70
     8
  9
$ATTDIA
 70
     0
  9
$ATTREQ
 70
     1
  9
$HANDLING
 70
     1
  9
$HANDSEED
  5
1192
  9
$SURFTAB1
 70
     6
  9
$SURFTAB2
 70
     6
  9
$SURFTYPE
 70
     6
  9
$SURFU
 70
     6
  9
$SURFV
 70
     6
  9
$UCSNAME
  2

  9
$UCSORG
 10
727.5522535047794
 20
0.0
 30
0.0
  9
$UCSXDIR
 10
1.0
 20
0.0
 30
0.0
  9
$UCSYDIR
 10
0.0
 20
1.0
 30
0.0
  9
$PUCSNAME
  2

  9
$PUCSORG
 10
0.0
 20
0.0
 30
0.0
  9
$PUCSXDIR
 10
1.0
 20
0.0
 30
0.0
  9
$PUCSYDIR
 10
0.0
 20
1.0
 30
0.0
  9
$USERI1
 70
     0
  9
$USERI2
 70
     0
  9
$USERI3
 70
     2
  9
$USERI4
 70
     2
  9
$USERI5
 70
     6
  9
$USERR1
 40
281.0
  9
$USERR2
 40
321.0
  9
$USERR3
 40
0.0
  9
$USERR4
 40
0.0
  9
$USERR5
 40
0.0
  9
$WORLDVIEW
 70
     1
  9
$SHADEDGE
 70
     3
  9
$SHADEDIF
 70
    70
  9
$TILEMODE
 70
     1
  9
$MAXACTVP
 70
    48
  9
$PINSBASE
 10
0.0
 20
0.0
 30
0.0
  9
$PLIMCHECK
 70
     0
  9
$PEXTMIN
 10
1.000000E+20
 20
1.000000E+20
 30
1.000000E+20
  9
$PEXTMAX
 10
-1.000000E+20
 20
-1.000000E+20
 30
-1.000000E+20
  9
$PLIMMIN
 10
0.0
 20
0.0
  9
$PLIMMAX
 10
420.0
 20
297.0
  9
$UNITMODE
 70
     0
  9
$VISRETAIN
 70
     1
  9
$PLINEGEN
 70
     0
  9
$PSLTSCALE
 70
     0
  9
$TREEDEPTH
 70
  3020
  9
$PICKSTYLE
 70
     1
  9
$CMLSTYLE
  2
STANDARD
  9
$CMLJUST
 70
     0
  9
$CMLSCALE
 40
1.0
  9
$PROXYGRAPHICS
 70
     1
  9
$MEASUREMENT
 70
     1
  0
ENDSEC
  0
SECTION
  2
CLASSES
  0
CLASS
  1
DICTIONARYVAR
  2
AcDbDictionaryVar
  3
"AutoCAD"
 90
        0
280
     0
281
     0
  0
CLASS
  1
LWPOLYLINE
  2
AcDbPolyline
  3
"AutoCAD"
 90
        0
280
     0
281
     1
  0
CLASS
  1
HATCH
  2
AcDbHatch
  3
"ACAD_SEDONA"
 90
        0
280
     0
281
     1
  0
ENDSEC
  0
SECTION
  2
TABLES
  0
TABLE
  2
VPORT
  5
8
100
AcDbSymbolTable
 70
     3
  0
VPORT
  5
1191
100
AcDbSymbolTableRecord
100
AcDbViewportTableRecord
  2
*ACTIVE
 70
     0
 10
0.0
 20
0.0
 11
1.0
 21
1.0
 12
1074.616643
 22
-104.603473
 13
0.0
 23
0.0
 14
10.0
 24
10.0
 15
10.0
 25
10.0
 16
0.0
 26
0.0
 36
1.0
 17
0.0
 27
0.0
 37
0.0
 40
1127.200196
 41
1.585567
 42
50.0
 43
0.0
 44
0.0
 50
0.0
 51
0.0
 71
     0
 72
   100
 73
     1
 74
     1
 75
     0
 76
     0
 77
     0
 78
     0
  0
ENDTAB
  0
TABLE
  2
LTYPE
  5
5
100
AcDbSymbolTable
 70
    46
  0
LTYPE
  5
14
100
AcDbSymbolTableRecord
100
AcDbLinetypeTableRecord
  2
BYBLOCK
 70
     0
  3

 72
    65
 73
     0
 40
0.0
  0
LTYPE
  5
15
100
AcDbSymbolTableRecord
100
AcDbLinetypeTableRecord
  2
BYLAYER
 70
     0
  3

 72
    65
 73
     0
 40
0.0
  0
LTYPE
  5
16
100
AcDbSymbolTableRecord
100
AcDbLinetypeTableRecord
  2
CONTINUOUS
 70
     0
  3
Solid line
 72
    65
 73
     0
 40
0.0
  0
LTYPE
  5
7F
100
AcDbSymbolTableRecord
100
AcDbLinetypeTableRecord
  2
DASHDOT
 70
     0
  3
Dash dot __ . __ . __ . __ . __ . __ . __ . __
 72
    65
 73
     4
 40
25.4
 49
12.7
 74
     0
 49
-6.35
 74
     0
 49
0.0
 74
     0
 49
-6.35
 74
     0
  0
LTYPE
  5
80
100
AcDbSymbolTableRecord
100
AcDbLinetypeTableRecord
  2
DASHED
 70
     0
  3
Dashed __ __ __ __ __ __ __ __ __ __ __ __ __ _
 72
    65
 73
     2
 40
19.05
 49
12.7
 74
     0
 49
-6.35
 74
     0
  0
LTYPE
  5
D91
100
AcDbSymbolTableRecord
100
AcDbLinetypeTableRecord
  2
DOT2
 70
     0
  3
...............................................
 72
    65
 73
     2
 40
0.125
 49
0.0
 74
     0
 49
-0.125
 74
     0
  0
LTYPE
  5
D92
100
AcDbSymbolTableRecord
100
AcDbLinetypeTableRecord
  2
ACAD_ISO02W100
 70
     0
  3
ISO dash __ __ __ __ __ __ __ __ __ __ __ __ __
 72
    65
 73
     2
 40
15.0
 49
12.0
 74
     0
 49
-3.0
 74
     0
  0
LTYPE
  5
D93
100
AcDbSymbolTableRecord
100
AcDbLinetypeTableRecord
  2
ACAD_ISO03W100
 70
     0
  3
ISO dash space __    __    __    __    __    __
 72
    65
 73
     2
 40
30.0
 49
12.0
 74
     0
 49
-18.0
 74
     0
  0
LTYPE
  5
D94
100
AcDbSymbolTableRecord
100
AcDbLinetypeTableRecord
  2
ACAD_ISO04W100
 70
     0
  3
ISO long-dash dot ____ . ____ . ____ . ____ . _
 72
    65
 73
     4
 40
30.5
 49
24.0
 74
     0
 49
-3.0
 74
     0
 49
0.5
 74
     0
 49
-3.0
 74
     0
  0
LTYPE
  5
D95
100
AcDbSymbolTableRecord
100
AcDbLinetypeTableRecord
  2
ACAD_ISO05W100
 70
     0
  3
ISO long-dash double-dot ____ .. ____ .. ____ .
 72
    65
 73
     6
 40
34.0
 49
24.0
 74
     0
 49
-3.0
 74
     0
 49
0.5
 74
     0
 49
-3.0
 74
     0
 49
0.5
 74
     0
 49
-3.0
 74
     0
  0
LTYPE
  5
D96
100
AcDbSymbolTableRecord
100
AcDbLinetypeTableRecord
  2
ACAD_ISO06W100
 70
     0
  3
ISO long-dash triple-dot ____ ... ____ ... ____
 72
    65
 73
     8
 40
37.5
 49
24.0
 74
     0
 49
-3.0
 74
     0
 49
0.5
 74
     0
 49
-3.0
 74
     0
 49
0.5
 74
     0
 49
-3.0
 74
     0
 49
0.5
 74
     0
 49
-3.0
 74
     0
  0
LTYPE
  5
D97
100
AcDbSymbolTableRecord
100
AcDbLinetypeTableRecord
  2
ACAD_ISO07W100
 70
     0
  3
ISO dot . . . . . . . . . . . . . . . . . . . .
 72
    65
 73
     2
 40
3.5
 49
0.5
 74
     0
 49
-3.0
 74
     0
  0
LTYPE
  5
D98
100
AcDbSymbolTableRecord
100
AcDbLinetypeTableRecord
  2
ACAD_ISO08W100
 70
     0
  3
ISO long-dash short-dash ____ __ ____ __ ____ _
 72
    65
 73
     4
 40
36.0
 49
24.0
 74
     0
 49
-3.0
 74
     0
 49
6.0
 74
     0
 49
-3.0
 74
     0
  0
LTYPE
  5
D99
100
AcDbSymbolTableRecord
100
AcDbLinetypeTableRecord
  2
ACAD_ISO09W100
 70
     0
  3
ISO long-dash double-short-dash ____ __ __ ____
 72
    65
 73
     6
 40
45.0
 49
24.0
 74
     0
 49
-3.0
 74
     0
 49
6.0
 74
     0
 49
-3.0
 74
     0
 49
6.0
 74
     0
 49
-3.0
 74
     0
  0
LTYPE
  5
D9A
100
AcDbSymbolTableRecord
100
AcDbLinetypeTableRecord
  2
ACAD_ISO10W100
 70
     0
  3
ISO dash dot __ . __ . __ . __ . __ . __ . __ .
 72
    65
 73
     4
 40
18.5
 49
12.0
 74
     0
 49
-3.0
 74
     0
 49
0.5
 74
     0
 49
-3.0
 74
     0
  0
LTYPE
  5
D9B
100
AcDbSymbolTableRecord
100
AcDbLinetypeTableRecord
  2
ACAD_ISO11W100
 70
     0
  3
ISO double-dash dot __ __ . __ __ . __ __ . __ 
 72
    65
 73
     6
 40
33.5
 49
12.0
 74
     0
 49
-3.0
 74
     0
 49
12.0
 74
     0
 49
-3.0
 74
     0
 49
0.5
 74
     0
 49
-3.0
 74
     0
  0
LTYPE
  5
D9C
100
AcDbSymbolTableRecord
100
AcDbLinetypeTableRecord
  2
ACAD_ISO12W100
 70
     0
  3
ISO dash double-dot __ . . __ . . __ . . __ . .
 72
    65
 73
     6
 40
22.0
 49
12.0
 74
     0
 49
-3.0
 74
     0
 49
0.5
 74
     0
 49
-3.0
 74
     0
 49
0.5
 74
     0
 49
-3.0
 74
     0
  0
LTYPE
  5
D9D
100
AcDbSymbolTableRecord
100
AcDbLinetypeTableRecord
  2
ACAD_ISO13W100
 70
     0
  3
ISO double-dash double-dot __ __ . . __ __ . . 
 72
    65
 73
     8
 40
37.0
 49
12.0
 74
     0
 49
-3.0
 74
     0
 49
12.0
 74
     0
 49
-3.0
 74
     0
 49
0.5
 74
     0
 49
-3.0
 74
     0
 49
0.5
 74
     0
 49
-3.0
 74
     0
  0
LTYPE
  5
D9E
100
AcDbSymbolTableRecord
100
AcDbLinetypeTableRecord
  2
ACAD_ISO14W100
 70
     0
  3
ISO dash triple-dot __ . . . __ . . . __ . . . 
 72
    65
 73
     8
 40
25.5
 49
12.0
 74
     0
 49
-3.0
 74
     0
 49
0.5
 74
     0
 49
-3.0
 74
     0
 49
0.5
 74
     0
 49
-3.0
 74
     0
 49
0.5
 74
     0
 49
-3.0
 74
     0
  0
LTYPE
  5
D9F
100
AcDbSymbolTableRecord
100
AcDbLinetypeTableRecord
  2
ACAD_ISO15W100
 70
     0
  3
ISO double-dash triple-dot __ __ . . . __ __ . 
 72
    65
 73
    10
 40
40.5
 49
12.0
 74
     0
 49
-3.0
 74
     0
 49
12.0
 74
     0
 49
-3.0
 74
     0
 49
0.5
 74
     0
 49
-3.0
 74
     0
 49
0.5
 74
     0
 49
-3.0
 74
     0
 49
0.5
 74
     0
 49
-3.0
 74
     0
  0
LTYPE
  5
DA0
100
AcDbSymbolTableRecord
100
AcDbLinetypeTableRecord
  2
BATTING
 70
     0
  3
Batting SSSSSSSSSSSSSSSSSSSSSSSSSSSSSSSSSSSSSSS
 72
    65
 73
     4
 40
0.4001
 49
0.0001
 74
     0
 49
-0.1
 74
     4
 75
   134
340
DBC
 46
0.1
 50
0.0
 44
-0.1
 45
0.0
 49
-0.2
 74
     4
 75
   134
340
DBC
 46
0.1
 50
180.0
 44
0.1
 45
0.0
 49
-0.1
 74
     0
  0
LTYPE
  5
DA1
100
AcDbSymbolTableRecord
100
AcDbLinetypeTableRecord
  2
BORDER
 70
     0
  3
Border __ __ . __ __ . __ __ . __ __ . __ __ .
 72
    65
 73
     6
 40
1.75
 49
0.5
 74
     0
 49
-0.25
 74
     0
 49
0.5
 74
     0
 49
-0.25
 74
     0
 49
0.0
 74
     0
 49
-0.25
 74
     0
  0
LTYPE
  5
DA2
100
AcDbSymbolTableRecord
100
AcDbLinetypeTableRecord
  2
BORDER2
 70
     0
  3
Border (.5x) __.__.__.__.__.__.__.__.__.__.__.
 72
    65
 73
     6
 40
0.875
 49
0.25
 74
     0
 49
-0.125
 74
     0
 49
0.25
 74
     0
 49
-0.125
 74
     0
 49
0.0
 74
     0
 49
-0.125
 74
     0
  0
LTYPE
  5
DA3
100
AcDbSymbolTableRecord
100
AcDbLinetypeTableRecord
  2
BORDERX2
 70
     0
  3
Border (2x) ____  ____  .  ____  ____  .  ___
 72
    65
 73
     6
 40
3.5
 49
1.0
 74
     0
 49
-0.5
 74
     0
 49
1.0
 74
     0
 49
-0.5
 74
     0
 49
0.0
 74
     0
 49
-0.5
 74
     0
  0
LTYPE
  5
DA4
100
AcDbSymbolTableRecord
100
AcDbLinetypeTableRecord
  2
CENTER
 70
     0
  3
Center ____ _ ____ _ ____ _ ____ _ ____ _ ____
 72
    65
 73
     4
 40
2.0
 49
1.25
 74
     0
 49
-0.25
 74
     0
 49
0.25
 74
     0
 49
-0.25
 74
     0
  0
LTYPE
  5
DA5
100
AcDbSymbolTableRecord
100
AcDbLinetypeTableRecord
  2
CENTER2
 70
     0
  3
Center (.5x) ___ _ ___ _ ___ _ ___ _ ___ _ ___
 72
    65
 73
     4
 40
1.125
 49
0.75
 74
     0
 49
-0.125
 74
     0
 49
0.125
 74
     0
 49
-0.125
 74
     0
  0
LTYPE
  5
DA6
100
AcDbSymbolTableRecord
100
AcDbLinetypeTableRecord
  2
CENTERX2
 70
     0
  3
Center (2x) ________  __  ________  __  _____
 72
    65
 73
     4
 40
4.0
 49
2.5
 74
     0
 49
-0.5
 74
     0
 49
0.5
 74
     0
 49
-0.5
 74
     0
  0
LTYPE
  5
DA7
100
AcDbSymbolTableRecord
100
AcDbLinetypeTableRecord
  2
DASHDOT2
 70
     0
  3
Dash dot (.5x) _._._._._._._._._._._._._._._.
 72
    65
 73
     4
 40
0.5
 49
0.25
 74
     0
 49
-0.125
 74
     0
 49
0.0
 74
     0
 49
-0.125
 74
     0
  0
LTYPE
  5
DA8
100
AcDbSymbolTableRecord
100
AcDbLinetypeTableRecord
  2
DASHDOTX2
 70
     0
  3
Dash dot (2x) ____  .  ____  .  ____  .  ___
 72
    65
 73
     4
 40
2.0
 49
1.0
 74
     0
 49
-0.5
 74
     0
 49
0.0
 74
     0
 49
-0.5
 74
     0
  0
LTYPE
  5
DA9
100
AcDbSymbolTableRecord
100
AcDbLinetypeTableRecord
  2
DASHED2
 70
     0
  3
Dashed (.5x) _ _ _ _ _ _ _ _ _ _ _ _ _ _ _ _ _
 72
    65
 73
     2
 40
0.375
 49
0.25
 74
     0
 49
-0.125
 74
     0
  0
LTYPE
  5
DAA
100
AcDbSymbolTableRecord
100
AcDbLinetypeTableRecord
  2
DASHEDX2
 70
     0
  3
Dashed (2x) ____  ____  ____  ____  ____  ___
 72
    65
 73
     2
 40
1.5
 49
1.0
 74
     0
 49
-0.5
 74
     0
  0
LTYPE
  5
DAB
100
AcDbSymbolTableRecord
100
AcDbLinetypeTableRecord
  2
DIVIDE
 70
     0
  3
Divide ____ . . ____ . . ____ . . ____ . . ____
 72
    65
 73
     6
 40
1.25
 49
0.5
 74
     0
 49
-0.25
 74
     0
 49
0.0
 74
     0
 49
-0.25
 74
     0
 49
0.0
 74
     0
 49
-0.25
 74
     0
  0
LTYPE
  5
DAC
100
AcDbSymbolTableRecord
100
AcDbLinetypeTableRecord
  2
DIVIDE2
 70
     0
  3
Divide (.5x) __..__..__..__..__..__..__..__.._
 72
    65
 73
     6
 40
0.625
 49
0.25
 74
     0
 49
-0.125
 74
     0
 49
0.0
 74
     0
 49
-0.125
 74
     0
 49
0.0
 74
     0
 49
-0.125
 74
     0
  0
LTYPE
  5
DAD
100
AcDbSymbolTableRecord
100
AcDbLinetypeTableRecord
  2
DIVIDEX2
 70
     0
  3
Divide (2x) ________  .  .  ________  .  .  _
 72
    65
 73
     6
 40
2.5
 49
1.0
 74
     0
 49
-0.5
 74
     0
 49
0.0
 74
     0
 49
-0.5
 74
     0
 49
0.0
 74
     0
 49
-0.5
 74
     0
  0
LTYPE
  5
DAE
100
AcDbSymbolTableRecord
100
AcDbLinetypeTableRecord
  2
DOT
 70
     0
  3
Dot . . . . . . . . . . . . . . . . . . . . . .
 72
    65
 73
     2
 40
0.25
 49
0.0
 74
     0
 49
-0.25
 74
     0
  0
LTYPE
  5
DAF
100
AcDbSymbolTableRecord
100
AcDbLinetypeTableRecord
  2
DOTX2
 70
     0
  3
Dot (2x) .  .  .  .  .  .  .  .  .  .  .  .  . 
 72
    65
 73
     2
 40
0.5
 49
0.0
 74
     0
 49
-0.5
 74
     0
  0
LTYPE
  5
DB0
100
AcDbSymbolTableRecord
100
AcDbLinetypeTableRecord
  2
FENCELINE1
 70
     0
  3
Fenceline circle ----0-----0----0-----0----0---
 72
    65
 73
     4
 40
1.45
 49
0.25
 74
     0
 49
-0.1
 74
     4
 75
   133
340
DBC
 46
0.1
 50
0.0
 44
-0.1
 45
0.0
 49
-0.1
 74
     0
 49
1.0
 74
     0
  0
LTYPE
  5
DB1
100
AcDbSymbolTableRecord
100
AcDbLinetypeTableRecord
  2
FENCELINE2
 70
     0
  3
Fenceline square ----[]-----[]----[]-----[]----
 72
    65
 73
     4
 40
1.45
 49
0.25
 74
     0
 49
-0.1
 74
     4
 75
   132
340
DBC
 46
0.1
 50
0.0
 44
-0.1
 45
0.0
 49
-0.1
 74
     0
 49
1.0
 74
     0
  0
LTYPE
  5
DB2
100
AcDbSymbolTableRecord
100
AcDbLinetypeTableRecord
  2
GAS_LINE
 70
     0
  3
Gas line ----GAS----GAS----GAS----GAS----GAS---
 72
    65
 73
     3
 40
0.95
 49
0.5
 74
     0
 49
-0.2
 74
     2
 75
     0
340
10
 46
0.1
 50
0.0
 44
-0.1
 45
-0.05
  9
GAS
 49
-0.25
 74
     0
  0
LTYPE
  5
DB3
100
AcDbSymbolTableRecord
100
AcDbLinetypeTableRecord
  2
HIDDEN
 70
     0
  3
Hidden __ __ __ __ __ __ __ __ __ __ __ __ __ _
 72
    65
 73
     2
 40
0.375
 49
0.25
 74
     0
 49
-0.125
 74
     0
  0
LTYPE
  5
DB4
100
AcDbSymbolTableRecord
100
AcDbLinetypeTableRecord
  2
HIDDEN2
 70
     0
  3
Hidden (.5x) _ _ _ _ _ _ _ _ _ _ _ _ _ _ _ _ _
 72
    65
 73
     2
 40
0.1875
 49
0.125
 74
     0
 49
-0.0625
 74
     0
  0
LTYPE
  5
DB5
100
AcDbSymbolTableRecord
100
AcDbLinetypeTableRecord
  2
HIDDENX2
 70
     0
  3
Hidden (2x) ____ ____ ____ ____ ____ ____ ____
 72
    65
 73
     2
 40
0.75
 49
0.5
 74
     0
 49
-0.25
 74
     0
  0
LTYPE
  5
DB6
100
AcDbSymbolTableRecord
100
AcDbLinetypeTableRecord
  2
HOT_WATER_SUPPLY
 70
     0
  3
Hot water supply ---- HW ---- HW ---- HW ----
 72
    65
 73
     3
 40
0.9
 49
0.5
 74
     0
 49
-0.2
 74
     2
 75
     0
340
10
 46
0.1
 50
0.0
 44
-0.1
 45
-0.05
  9
HW
 49
-0.2
 74
     0
  0
LTYPE
  5
DB7
100
AcDbSymbolTableRecord
100
AcDbLinetypeTableRecord
  2
PHANTOM
 70
     0
  3
Phantom ______  __  __  ______  __  __  ______
 72
    65
 73
     6
 40
2.5
 49
1.25
 74
     0
 49
-0.25
 74
     0
 49
0.25
 74
     0
 49
-0.25
 74
     0
 49
0.25
 74
     0
 49
-0.25
 74
     0
  0
LTYPE
  5
DB8
100
AcDbSymbolTableRecord
100
AcDbLinetypeTableRecord
  2
PHANTOM2
 70
     0
  3
Phantom (.5x) ___ _ _ ___ _ _ ___ _ _ ___ _ _
 72
    65
 73
     6
 40
1.25
 49
0.625
 74
     0
 49
-0.125
 74
     0
 49
0.125
 74
     0
 49
-0.125
 74
     0
 49
0.125
 74
     0
 49
-0.125
 74
     0
  0
LTYPE
  5
DB9
100
AcDbSymbolTableRecord
100
AcDbLinetypeTableRecord
  2
PHANTOMX2
 70
     0
  3
Phantom (2x) ____________    ____    ____   _
 72
    65
 73
     6
 40
5.0
 49
2.5
 74
     0
 49
-0.5
 74
     0
 49
0.5
 74
     0
 49
-0.5
 74
     0
 49
0.5
 74
     0
 49
-0.5
 74
     0
  0
LTYPE
  5
DBA
100
AcDbSymbolTableRecord
100
AcDbLinetypeTableRecord
  2
TRACKS
 70
     0
  3
Tracks -|-|-|-|-|-|-|-|-|-|-|-|-|-|-|-|-|-|-|-|
 72
    65
 73
     2
 40
0.3
 49
0.15
 74
     4
 75
   130
340
DBC
 46
0.25
 50
0.0
 44
0.0
 45
0.0
 49
0.15
 74
     0
  0
LTYPE
  5
DBB
100
AcDbSymbolTableRecord
100
AcDbLinetypeTableRecord
  2
ZIGZAG
 70
     0
  3
Zig zag /\/\/\/\/\/\/\/\/\/\/\/\/\/\/\/\/\/\/\/
 72
    65
 73
     4
 40
0.8001
 49
0.0001
 74
     0
 49
-0.2
 74
     4
 75
   131
340
DBC
 46
0.2
 50
0.0
 44
-0.2
 45
0.0
 49
-0.4
 74
     4
 75
   131
340
DBC
 46
0.2
 50
180.0
 44
0.2
 45
0.0
 49
-0.2
 74
     0
  0
ENDTAB
  0
TABLE
  2
LAYER
  5
2
100
AcDbSymbolTable
 70
     6
  0
LAYER
  5
F
100
AcDbSymbolTableRecord
100
AcDbLayerTableRecord
  2
0
 70
     0
 62
     7
  6
CONTINUOUS
  0
LAYER
  5
9E
100
AcDbSymbolTableRecord
100
AcDbLayerTableRecord
  2
DEFPOINTS
 70
     0
 62
     7
  6
CONTINUOUS
  0
LAYER
  5
377
100
AcDbSymbolTableRecord
100
AcDbLayerTableRecord
  2
V0-OBRYS
 70
     0
 62
    90
  6
CONTINUOUS
  0
LAYER
  5
378
100
AcDbSymbolTableRecord
100
AcDbLayerTableRecord
  2
V0-VYPLNE
 70
     0
 62
    63
  6
DASHDOT
  0
LAYER
  5
37A
100
AcDbSymbolTableRecord
100
AcDbLayerTableRecord
  2
V0-NAZVY
 70
     0
 62
   210
  6
CONTINUOUS
  0
LAYER
  5
559
100
AcDbSymbolTableRecord
100
AcDbLayerTableRecord
  2
V0-ZBYTEK
 70
     0
 62
    51
  6
CONTINUOUS
  0
ENDTAB
  0
TABLE
  2
STYLE
  5
3
100
AcDbSymbolTable
 70
     7
  0
STYLE
  5
10
100
AcDbSymbolTableRecord
100
AcDbTextStyleTableRecord
  2
STANDARD
 70
     0
 40
7.0
 41
1.0
 50
0.0
 71
     0
 42
20.0
  3
ISOCP.shx
  4

  0
STYLE
  5
331
100
AcDbSymbolTableRecord
100
AcDbTextStyleTableRecord
  2
ED30
 70
     0
 40
30.0
 41
1.0
 50
0.0
 71
     0
 42
2.5
  3
ISOCP.shx
  4

  0
STYLE
  5
5D2
100
AcDbSymbolTableRecord
100
AcDbTextStyleTableRecord
  2
ED20
 70
     0
 40
20.0
 41
1.0
 50
0.0
 71
     0
 42
20.0
  3
isocp.shx
  4

  0
STYLE
  5
64F
100
AcDbSymbolTableRecord
100
AcDbTextStyleTableRecord
  2
ED40
 70
     0
 40
40.0
 41
1.0
 50
0.0
 71
     0
 42
20.0
  3
isocp.shx
  4

  0
STYLE
  5
650
100
AcDbSymbolTableRecord
100
AcDbTextStyleTableRecord
  2
ED10
 70
     0
 40
10.0
 41
1.0
 50
0.0
 71
     0
 42
10.0
  3
isocp.shx
  4

  0
STYLE
  5
DBC
100
AcDbSymbolTableRecord
100
AcDbTextStyleTableRecord
  2

 70
     1
 40
0.0
 41
1.0
 50
0.0
 71
     0
 42
0.2
  3
ltypeshp.shx
  4

  0
STYLE
  5
DBD
100
AcDbSymbolTableRecord
100
AcDbTextStyleTableRecord
  2
ED15
 70
     0
 40
15.0
 41
1.0
 50
0.0
 71
     0
 42
30.0
  3
isocp.shx
  4

  0
ENDTAB
  0
TABLE
  2
VIEW
  5
6
100
AcDbSymbolTable
 70
     0
  0
ENDTAB
  0
TABLE
  2
UCS
  5
7
100
AcDbSymbolTable
 70
     0
  0
ENDTAB
  0
TABLE
  2
APPID
  5
9
100
AcDbSymbolTable
 70
     5
  0
APPID
  5
11
100
AcDbSymbolTableRecord
100
AcDbRegAppTableRecord
  2
ACAD
 70
     0
  0
APPID
  5
DBF
100
AcDbSymbolTableRecord
100
AcDbRegAppTableRecord
  2
CONTENTTABDATA
 70
     0
  0
APPID
  5
DC0
100
AcDbSymbolTableRecord
100
AcDbRegAppTableRecord
  2
CONTENTCURRENTTAB
 70
     0
  0
APPID
  5
DC1
100
AcDbSymbolTableRecord
100
AcDbRegAppTableRecord
  2
CONTENTBLOCKDESCRIPTION
 70
     0
  0
APPID
  5
1050
100
AcDbSymbolTableRecord
100
AcDbRegAppTableRecord
  2
CONTENTBLOCKICON
 70
     0
  0
ENDTAB
  0
TABLE
  2
DIMSTYLE
  5
A
100
AcDbSymbolTable
 70
     6
  0
DIMSTYLE
105
1D
100
AcDbSymbolTableRecord
100
AcDbDimStyleTableRecord
  2
STANDARD
 70
     0
  3

  4

  5

  6
_OPEN
  7
_OPEN
 40
0.0
 41
15.0
 42
0.625
 43
3.75
 44
1.25
 45
0.0
 46
0.0
 47
0.0
 48
0.0
140
15.0
141
2.5
142
0.0
143
0.0394
144
1.0
145
0.0
146
1.0
147
3.0
 71
     0
 72
     0
 73
     0
 74
     0
 75
     0
 76
     0
 77
     1
 78
     8
170
     0
171
     4
172
     1
173
     1
174
     0
175
     0
176
     0
177
     0
178
     0
270
     2
271
     0
272
     1
273
     8
274
     4
340
331
275
     0
280
     0
281
     0
282
     0
283
     1
284
     8
285
     0
286
     0
287
     3
288
     0
  0
DIMSTYLE
105
397
100
AcDbSymbolTableRecord
100
AcDbDimStyleTableRecord
  2
ED40
 70
     0
  3

  4

  5

  6
_OPEN
  7
_OPEN
 40
0.0
 41
35.0
 42
1.0
 43
3.75
 44
1.25
 45
0.0
 46
0.0
 47
0.0
 48
0.0
140
40.0
141
3.0
142
0.0
143
0.0394
144
1.0
145
0.0
146
1.0
147
3.0
 71
     0
 72
     0
 73
     0
 74
     0
 75
     0
 76
     0
 77
     1
 78
     8
170
     0
171
     4
172
     1
173
     1
174
     0
175
     0
176
     0
177
     0
178
     0
270
     2
271
     0
272
     1
273
     8
274
     4
340
64F
275
     0
280
     0
281
     0
282
     0
283
     1
284
     8
285
     0
286
     0
287
     3
288
     0
  0
DIMSTYLE
105
656
102
{ACAD_REACTORS
330
A42
330
A3E
102
}
100
AcDbSymbolTableRecord
100
AcDbDimStyleTableRecord
  2
ED30
 70
     0
  3

  4

  5

  6
_OPEN
  7
_OPEN
 40
0.0
 41
25.0
 42
1.0
 43
3.75
 44
1.25
 45
0.0
 46
0.0
 47
0.0
 48
0.0
140
30.0
141
3.0
142
0.0
143
0.0394
144
1.0
145
0.0
146
1.0
147
2.0
 71
     0
 72
     0
 73
     0
 74
     0
 75
     0
 76
     0
 77
     1
 78
     8
170
     0
171
     4
172
     1
173
     1
174
     0
175
     0
176
     0
177
     0
178
     0
270
     2
271
     0
272
     1
273
     8
274
     4
340
331
275
     0
280
     0
281
     0
282
     0
283
     1
284
     8
285
     0
286
     0
287
     3
288
     0
  0
DIMSTYLE
105
657
100
AcDbSymbolTableRecord
100
AcDbDimStyleTableRecord
  2
ED20
 70
     0
  3

  4

  5

  6
_OPEN
  7
_OPEN
 40
0.0
 41
20.0
 42
1.0
 43
3.75
 44
1.25
 45
0.0
 46
0.0
 47
0.0
 48
0.0
140
20.0
141
3.0
142
0.0
143
0.0394
144
1.0
145
0.0
146
1.0
147
1.5
 71
     0
 72
     0
 73
     0
 74
     0
 75
     0
 76
     0
 77
     1
 78
     8
170
     0
171
     4
172
     1
173
     1
174
     0
175
     0
176
     0
177
     0
178
     0
270
     2
271
     0
272
     1
273
     8
274
     4
340
5D2
275
     0
280
     0
281
     0
282
     0
283
     1
284
     8
285
     0
286
     0
287
     3
288
     0
  0
DIMSTYLE
105
658
102
{ACAD_REACTORS
330
BA3
330
C16
102
}
100
AcDbSymbolTableRecord
100
AcDbDimStyleTableRecord
  2
ED10
 70
     0
  3

  4

  5

  6
_OPEN
  7
_OPEN
 40
0.0
 41
15.0
 42
1.0
 43
3.75
 44
1.25
 45
0.0
 46
0.0
 47
0.0
 48
0.0
140
10.0
141
3.0
142
0.0
143
0.0394
144
1.0
145
0.0
146
1.0
147
1.5
 71
     0
 72
     0
 73
     0
 74
     0
 75
     0
 76
     0
 77
     1
 78
     8
170
     0
171
     4
172
     1
173
     1
174
     0
175
     0
176
    41
177
    41
178
    41
270
     2
271
     0
272
     1
273
     8
274
     4
340
5D2
275
     0
280
     0
281
     0
282
     0
283
     1
284
     8
285
     0
286
     0
287
     3
288
     0
  0
DIMSTYLE
105
DBE
100
AcDbSymbolTableRecord
100
AcDbDimStyleTableRecord
  2
ED15
 70
     0
  3

  4

  5

  6
_OPEN
  7
_OPEN
 40
0.0
 41
15.0
 42
1.0
 43
3.75
 44
1.25
 45
0.0
 46
0.0
 47
0.0
 48
0.0
140
15.0
141
3.0
142
0.0
143
0.0394
144
1.0
145
0.0
146
1.0
147
1.5
 71
     0
 72
     0
 73
     0
 74
     0
 75
     0
 76
     0
 77
     1
 78
     8
170
     0
171
     4
172
     1
173
     1
174
     0
175
     0
176
     0
177
     0
178
     0
270
     2
271
     0
272
     1
273
     8
274
     4
340
DBD
275
     0
280
     0
281
     0
282
     0
283
     1
284
     8
285
     0
286
     0
287
     3
288
     0
  0
ENDTAB
  0
TABLE
  2
BLOCK_RECORD
  5
1
100
AcDbSymbolTable
 70
     8
  0
BLOCK_RECORD
  5
1A
100
AcDbSymbolTableRecord
100
AcDbBlockTableRecord
  2
*MODEL_SPACE
  0
BLOCK_RECORD
  5
17
100
AcDbSymbolTableRecord
100
AcDbBlockTableRecord
  2
*PAPER_SPACE
  0
BLOCK_RECORD
  5
90
100
AcDbSymbolTableRecord
100
AcDbBlockTableRecord
  2
_OPEN
  0
BLOCK_RECORD
  5
A52
100
AcDbSymbolTableRecord
100
AcDbBlockTableRecord
  2
*D1
  0
BLOCK_RECORD
  5
A5E
100
AcDbSymbolTableRecord
100
AcDbBlockTableRecord
  2
*D2
  0
BLOCK_RECORD
  5
B97
100
AcDbSymbolTableRecord
100
AcDbBlockTableRecord
  2
*D3
  0
BLOCK_RECORD
  5
C0A
100
AcDbSymbolTableRecord
100
AcDbBlockTableRecord
  2
*D4
  0
BLOCK_RECORD
  5
F2A
100
AcDbSymbolTableRecord
100
AcDbBlockTableRecord
  2
*D5
  0
BLOCK_RECORD
  5
F36
100
AcDbSymbolTableRecord
100
AcDbBlockTableRecord
  2
*D6
  0
BLOCK_RECORD
  5
F42
100
AcDbSymbolTableRecord
100
AcDbBlockTableRecord
  2
*D7
  0
ENDTAB
  0
ENDSEC
  0
SECTION
  2
BLOCKS
  0
BLOCK
  5
1B
100
AcDbEntity
  8
0
100
AcDbBlockBegin
  2
*MODEL_SPACE
 70
     0
 10
0.0
 20
0.0
 30
0.0
  3
*MODEL_SPACE
  1

  0
ENDBLK
  5
1C
100
AcDbEntity
  8
0
100
AcDbBlockEnd
  0
BLOCK
  5
18
100
AcDbEntity
 67
     1
  8
0
100
AcDbBlockBegin
  2
*PAPER_SPACE
 70
     0
 10
0.0
 20
0.0
 30
0.0
  3
*PAPER_SPACE
  1

  0
ENDBLK
  5
19
100
AcDbEntity
 67
     1
  8
0
100
AcDbBlockEnd
  0
BLOCK
  5
91
100
AcDbEntity
  8
0
100
AcDbBlockBegin
  2
_OPEN
 70
     0
 10
0.0
 20
0.0
 30
0.0
  3
_OPEN
  1

  0
LINE
  5
92
100
AcDbEntity
  8
0
  6
BYBLOCK
 62
     0
100
AcDbLine
 10
-1.0
 20
0.166667
 30
0.0
 11
0.0
 21
0.0
 31
0.0
  0
LINE
  5
93
100
AcDbEntity
  8
0
  6
BYBLOCK
 62
     0
100
AcDbLine
 10
0.0
 20
0.0
 30
0.0
 11
-1.0
 21
-0.166667
 31
0.0
  0
LINE
  5
94
100
AcDbEntity
  8
0
  6
BYBLOCK
 62
     0
100
AcDbLine
 10
0.0
 20
0.0
 30
0.0
 11
-1.0
 21
0.0
 31
0.0
  0
ENDBLK
  5
95
100
AcDbEntity
  8
0
100
AcDbBlockEnd
  0
BLOCK
  5
1182
100
AcDbEntity
  8
0
100
AcDbBlockBegin
  2
*D1
 70
     1
 10
0.0
 20
0.0
 30
0.0
  3
*D1
  1

  0
LINE
  5
1183
100
AcDbEntity
  8
0
  6
BYBLOCK
 62
     0
100
AcDbLine
 10
706.552254
 20
140.0
 30
0.0
 11
664.355302
 21
140.0
 31
0.0
  0
LINE
  5
1184
100
AcDbEntity
  8
0
  6
BYBLOCK
 62
     0
100
AcDbLine
 10
706.552254
 20
-140.0
 30
0.0
 11
664.355302
 21
-140.0
 31
0.0
  0
LINE
  5
1185
100
AcDbEntity
  8
0
  6
BYBLOCK
 62
     0
100
AcDbLine
 10
665.605302
 20
115.0
 30
0.0
 11
665.605302
 21
-115.0
 31
0.0
  0
INSERT
  5
1186
100
AcDbEntity
  8
0
  6
BYBLOCK
 62
     0
100
AcDbBlockReference
  2
_OPEN
 10
665.605302
 20
140.0
 30
0.0
 41
25.0
 42
25.0
 43
25.0
 50
90.0
  0
INSERT
  5
1187
100
AcDbEntity
  8
0
  6
BYBLOCK
 62
     0
100
AcDbBlockReference
  2
_OPEN
 10
665.605302
 20
-140.0
 30
0.0
 41
25.0
 42
25.0
 43
25.0
 50
270.0
  0
MTEXT
  5
1188
100
AcDbEntity
  8
0
  6
BYBLOCK
 62
     0
100
AcDbMText
 10
648.602349
 20
-1.802349
 30
0.0
 40
30.0
 41
0.0
 71
     5
 72
     1
  1
\A1;\U+2205280
  7
ED30
 11
0.0
 21
1.0
 31
0.0
  0
POINT
  5
1189
100
AcDbEntity
  8
DEFPOINTS
  6
BYBLOCK
 62
     0
100
AcDbPoint
 10
707.552254
 20
140.0
 30
0.0
  0
POINT
  5
118A
100
AcDbEntity
  8
DEFPOINTS
  6
BYBLOCK
 62
     0
100
AcDbPoint
 10
707.552254
 20
-140.0
 30
0.0
  0
POINT
  5
118B
100
AcDbEntity
  8
DEFPOINTS
  6
BYBLOCK
 62
     0
100
AcDbPoint
 10
665.605302
 20
-140.0
 30
0.0
  0
ENDBLK
  5
118C
100
AcDbEntity
  8
0
100
AcDbBlockEnd
  0
BLOCK
  5
CFF
100
AcDbEntity
  8
0
100
AcDbBlockBegin
  2
*D2
 70
     1
 10
0.0
 20
0.0
 30
0.0
  3
*D2
  1

  0
LINE
  5
D00
100
AcDbEntity
  8
0
  6
BYBLOCK
 62
     0
100
AcDbLine
 10
707.552254
 20
-158.5
 30
0.0
 11
707.552254
 21
-206.745962
 31
0.0
  0
LINE
  5
D01
100
AcDbEntity
  8
0
  6
BYBLOCK
 62
     0
100
AcDbLine
 10
767.552254
 20
-158.5
 30
0.0
 11
767.552254
 21
-206.745962
 31
0.0
  0
LINE
  5
D02
100
AcDbEntity
  8
0
  6
BYBLOCK
 62
     0
100
AcDbLine
 10
732.552254
 20
-205.495962
 30
0.0
 11
742.552254
 21
-205.495962
 31
0.0
  0
INSERT
  5
D03
100
AcDbEntity
  8
0
  6
BYBLOCK
 62
     0
100
AcDbBlockReference
  2
_OPEN
 10
707.552254
 20
-205.495962
 30
0.0
 41
25.0
 42
25.0
 43
25.0
 50
180.0
  0
INSERT
  5
D04
100
AcDbEntity
  8
0
  6
BYBLOCK
 62
     0
100
AcDbBlockReference
  2
_OPEN
 10
767.552254
 20
-205.495962
 30
0.0
 41
25.0
 42
25.0
 43
25.0
  0
MTEXT
  5
D05
100
AcDbEntity
  8
0
  6
BYBLOCK
 62
     0
100
AcDbMText
 10
739.653632
 20
-188.495962
 30
0.0
 40
30.0
 41
0.0
 71
     5
 72
     1
  1
\A1;60
  7
ED30
  0
POINT
  5
D06
100
AcDbEntity
  8
DEFPOINTS
  6
BYBLOCK
 62
     0
100
AcDbPoint
 10
707.552254
 20
-157.5
 30
0.0
  0
POINT
  5
D07
100
AcDbEntity
  8
DEFPOINTS
  6
BYBLOCK
 62
     0
100
AcDbPoint
 10
767.552254
 20
-157.5
 30
0.0
  0
POINT
  5
D08
100
AcDbEntity
  8
DEFPOINTS
  6
BYBLOCK
 62
     0
100
AcDbPoint
 10
767.552254
 20
-205.495962
 30
0.0
  0
ENDBLK
  5
D09
100
AcDbEntity
  8
0
100
AcDbBlockEnd
  0
BLOCK
  5
D15
100
AcDbEntity
  8
0
100
AcDbBlockBegin
  2
*D3
 70
     1
 10
0.0
 20
0.0
 30
0.0
  3
*D3
  1

  0
LINE
  5
D16
100
AcDbEntity
  8
0
  6
BYBLOCK
 62
     0
100
AcDbLine
 10
707.552254
 20
-159.5
 30
0.0
 11
707.552254
 21
-248.974261
 31
0.0
  0
LINE
  5
D17
100
AcDbEntity
  8
0
  6
BYBLOCK
 62
     0
100
AcDbLine
 10
1057.547962
 20
-159.5
 30
0.0
 11
1057.547962
 21
-248.974261
 31
0.0
  0
LINE
  5
D18
100
AcDbEntity
  8
0
  6
BYBLOCK
 62
     0
100
AcDbLine
 10
732.552254
 20
-247.724261
 30
0.0
 11
1032.547962
 21
-247.724261
 31
0.0
  0
INSERT
  5
D19
100
AcDbEntity
  8
0
  6
BYBLOCK
 62
     0
100
AcDbBlockReference
  2
_OPEN
 10
707.552254
 20
-247.724261
 30
0.0
 41
25.0
 42
25.0
 43
25.0
 50
180.0
  0
INSERT
  5
D1A
100
AcDbEntity
  8
0
  6
BYBLOCK
 62
     0
100
AcDbBlockReference
  2
_OPEN
 10
1057.547962
 20
-247.724261
 30
0.0
 41
25.0
 42
25.0
 43
25.0
  0
MTEXT
  5
D1B
100
AcDbEntity
  8
0
  6
BYBLOCK
 62
     0
100
AcDbMText
 10
882.550108
 20
-230.724261
 30
0.0
 40
30.0
 41
0.0
 71
     5
 72
     1
  1
\A1;350
  7
ED30
  0
POINT
  5
D1C
100
AcDbEntity
  8
DEFPOINTS
  6
BYBLOCK
 62
     0
100
AcDbPoint
 10
707.552254
 20
-158.5
 30
0.0
  0
POINT
  5
D1D
100
AcDbEntity
  8
DEFPOINTS
  6
BYBLOCK
 62
     0
100
AcDbPoint
 10
1057.547962
 20
-158.5
 30
0.0
  0
POINT
  5
D1E
100
AcDbEntity
  8
DEFPOINTS
  6
BYBLOCK
 62
     0
100
AcDbPoint
 10
1057.547962
 20
-247.724261
 30
0.0
  0
ENDBLK
  5
D1F
100
AcDbEntity
  8
0
100
AcDbBlockEnd
  0
BLOCK
  5
D0A
100
AcDbEntity
  8
0
100
AcDbBlockBegin
  2
*D4
 70
     1
 10
0.0
 20
0.0
 30
0.0
  3
*D4
  1

  0
LINE
  5
D0B
100
AcDbEntity
  8
0
  6
BYBLOCK
 62
     0
100
AcDbLine
 10
767.552254
 20
-158.5
 30
0.0
 11
767.552254
 21
-206.933207
 31
0.0
  0
LINE
  5
D0C
100
AcDbEntity
  8
0
  6
BYBLOCK
 62
     0
100
AcDbLine
 10
997.552254
 20
-158.5
 30
0.0
 11
997.552254
 21
-206.933207
 31
0.0
  0
LINE
  5
D0D
100
AcDbEntity
  8
0
  6
BYBLOCK
 62
     0
100
AcDbLine
 10
792.552254
 20
-205.683207
 30
0.0
 11
972.552254
 21
-205.683207
 31
0.0
  0
INSERT
  5
D0E
100
AcDbEntity
  8
0
  6
BYBLOCK
 62
     0
100
AcDbBlockReference
  2
_OPEN
 10
767.552254
 20
-205.683207
 30
0.0
 41
25.0
 42
25.0
 43
25.0
 50
180.0
  0
INSERT
  5
D0F
100
AcDbEntity
  8
0
  6
BYBLOCK
 62
     0
100
AcDbBlockReference
  2
_OPEN
 10
997.552254
 20
-205.683207
 30
0.0
 41
25.0
 42
25.0
 43
25.0
  0
MTEXT
  5
D10
100
AcDbEntity
  8
0
  6
BYBLOCK
 62
     0
100
AcDbMText
 10
882.552254
 20
-188.680254
 30
0.0
 40
30.0
 41
0.0
 71
     5
 72
     1
  1
\A1;230
  7
ED30
  0
POINT
  5
D11
100
AcDbEntity
  8
DEFPOINTS
  6
BYBLOCK
 62
     0
100
AcDbPoint
 10
767.552254
 20
-157.5
 30
0.0
  0
POINT
  5
D12
100
AcDbEntity
  8
DEFPOINTS
  6
BYBLOCK
 62
     0
100
AcDbPoint
 10
997.552254
 20
-157.5
 30
0.0
  0
POINT
  5
D13
100
AcDbEntity
  8
DEFPOINTS
  6
BYBLOCK
 62
     0
100
AcDbPoint
 10
997.552254
 20
-205.683207
 30
0.0
  0
ENDBLK
  5
D14
100
AcDbEntity
  8
0
100
AcDbBlockEnd
  0
BLOCK
  5
F9D
100
AcDbEntity
  8
0
100
AcDbBlockBegin
  2
*D5
 70
     1
 10
0.0
 20
0.0
 30
0.0
  3
*D5
  1

  0
LINE
  5
F9E
100
AcDbEntity
  8
0
  6
BYBLOCK
 62
     0
100
AcDbLine
 10
882.552254
 20
200.5
 30
0.0
 11
882.552254
 21
252.143716
 31
0.0
  0
LINE
  5
F9F
100
AcDbEntity
  8
0
  6
BYBLOCK
 62
     0
100
AcDbLine
 10
1017.552254
 20
203.5
 30
0.0
 11
1017.552254
 21
252.143716
 31
0.0
  0
LINE
  5
FA0
100
AcDbEntity
  8
0
  6
BYBLOCK
 62
     0
100
AcDbLine
 10
907.552254
 20
250.893716
 30
0.0
 11
992.552254
 21
250.893716
 31
0.0
  0
INSERT
  5
FA1
100
AcDbEntity
  8
0
  6
BYBLOCK
 62
     0
100
AcDbBlockReference
  2
_OPEN
 10
882.552254
 20
250.893716
 30
0.0
 41
25.0
 42
25.0
 43
25.0
 50
180.0
  0
INSERT
  5
FA2
100
AcDbEntity
  8
0
  6
BYBLOCK
 62
     0
100
AcDbBlockReference
  2
_OPEN
 10
1017.552254
 20
250.893716
 30
0.0
 41
25.0
 42
25.0
 43
25.0
  0
MTEXT
  5
FA3
100
AcDbEntity
  8
0
  6
BYBLOCK
 62
     0
100
AcDbMText
 10
960.360725
 20
267.893716
 30
0.0
 40
30.0
 41
0.0
 71
     5
 72
     1
  1
\A1;135
  7
ED30
  0
POINT
  5
FA4
100
AcDbEntity
  8
DEFPOINTS
  6
BYBLOCK
 62
     0
100
AcDbPoint
 10
882.552254
 20
199.5
 30
0.0
  0
POINT
  5
FA5
100
AcDbEntity
  8
DEFPOINTS
  6
BYBLOCK
 62
     0
100
AcDbPoint
 10
1017.552254
 20
202.5
 30
0.0
  0
POINT
  5
FA6
100
AcDbEntity
  8
DEFPOINTS
  6
BYBLOCK
 62
     0
100
AcDbPoint
 10
1017.552254
 20
250.893716
 30
0.0
  0
ENDBLK
  5
FA7
100
AcDbEntity
  8
0
100
AcDbBlockEnd
  0
BLOCK
  5
F90
100
AcDbEntity
  8
0
100
AcDbBlockBegin
  2
*D6
 70
     1
 10
0.0
 20
0.0
 30
0.0
  3
*D6
  1

  0
LINE
  5
F91
100
AcDbEntity
  8
0
  6
BYBLOCK
 62
     0
100
AcDbLine
 10
1018.552254
 20
202.5
 30
0.0
 11
1106.933291
 21
202.5
 31
0.0
  0
LINE
  5
F92
100
AcDbEntity
  8
0
  6
BYBLOCK
 62
     0
100
AcDbLine
 10
983.552254
 20
157.5
 30
0.0
 11
1106.933291
 21
157.5
 31
0.0
  0
LINE
  5
F93
100
AcDbEntity
  8
0
  6
BYBLOCK
 62
     0
100
AcDbLine
 10
1105.683291
 20
227.5
 30
0.0
 11
1105.683291
 21
252.5
 31
0.0
  0
LINE
  5
F94
100
AcDbEntity
  8
0
  6
BYBLOCK
 62
     0
100
AcDbLine
 10
1105.683291
 20
132.5
 30
0.0
 11
1105.683291
 21
107.5
 31
0.0
  0
LINE
  5
F95
100
AcDbEntity
  8
0
  6
BYBLOCK
 62
     0
100
AcDbLine
 10
1105.683291
 20
202.5
 30
0.0
 11
1105.683291
 21
157.5
 31
0.0
  0
INSERT
  5
F96
100
AcDbEntity
  8
0
  6
BYBLOCK
 62
     0
100
AcDbBlockReference
  2
_OPEN
 10
1105.683291
 20
202.5
 30
0.0
 41
25.0
 42
25.0
 43
25.0
 50
270.0
  0
INSERT
  5
F97
100
AcDbEntity
  8
0
  6
BYBLOCK
 62
     0
100
AcDbBlockReference
  2
_OPEN
 10
1105.683291
 20
157.5
 30
0.0
 41
25.0
 42
25.0
 43
25.0
 50
90.0
  0
MTEXT
  5
F98
100
AcDbEntity
  8
0
  6
BYBLOCK
 62
     0
100
AcDbMText
 10
1088.683291
 20
180.0
 30
0.0
 40
30.0
 41
0.0
 71
     5
 72
     1
  1
\A1;45
  7
ED30
 11
0.0
 21
1.0
 31
0.0
  0
POINT
  5
F99
100
AcDbEntity
  8
DEFPOINTS
  6
BYBLOCK
 62
     0
100
AcDbPoint
 10
1017.552254
 20
202.5
 30
0.0
  0
POINT
  5
F9A
100
AcDbEntity
  8
DEFPOINTS
  6
BYBLOCK
 62
     0
100
AcDbPoint
 10
982.552254
 20
157.5
 30
0.0
  0
POINT
  5
F9B
100
AcDbEntity
  8
DEFPOINTS
  6
BYBLOCK
 62
     0
100
AcDbPoint
 10
1105.683291
 20
157.5
 30
0.0
  0
ENDBLK
  5
F9C
100
AcDbEntity
  8
0
100
AcDbBlockEnd
  0
BLOCK
  5
116C
100
AcDbEntity
  8
0
100
AcDbBlockBegin
  2
*D7
 70
     1
 10
0.0
 20
0.0
 30
0.0
  3
*D7
  1

  0
LINE
  5
116D
100
AcDbEntity
  8
0
  6
BYBLOCK
 62
    41
100
AcDbLine
 10
1269.421351
 20
169.372276
 30
0.0
 11
1269.421351
 21
196.693631
 31
0.0
  0
LINE
  5
116E
100
AcDbEntity
  8
0
  6
BYBLOCK
 62
    41
100
AcDbLine
 10
1358.321351
 20
169.372276
 30
0.0
 11
1358.321351
 21
196.693631
 31
0.0
  0
LINE
  5
116F
100
AcDbEntity
  8
0
  6
BYBLOCK
 62
    41
100
AcDbLine
 10
1284.421351
 20
195.443631
 30
0.0
 11
1343.321351
 21
195.443631
 31
0.0
  0
INSERT
  5
1170
100
AcDbEntity
  8
0
  6
BYBLOCK
 62
    41
100
AcDbBlockReference
  2
_OPEN
 10
1269.421351
 20
195.443631
 30
0.0
 41
15.0
 42
15.0
 43
15.0
 50
180.0
  0
INSERT
  5
1171
100
AcDbEntity
  8
0
  6
BYBLOCK
 62
    41
100
AcDbBlockReference
  2
_OPEN
 10
1358.321351
 20
195.443631
 30
0.0
 41
15.0
 42
15.0
 43
15.0
  0
MTEXT
  5
1172
100
AcDbEntity
  8
0
  6
BYBLOCK
 62
    41
100
AcDbMText
 10
1314.321435
 20
204.443631
 30
0.0
 40
15.0
 41
0.0
 71
     5
 72
     1
  1
\A1;89
  7
ED15
  0
POINT
  5
1173
100
AcDbEntity
  8
DEFPOINTS
  6
BYBLOCK
 62
     0
100
AcDbPoint
 10
1269.421351
 20
168.372276
 30
0.0
  0
POINT
  5
1174
100
AcDbEntity
  8
DEFPOINTS
  6
BYBLOCK
 62
     0
100
AcDbPoint
 10
1358.321351
 20
168.372276
 30
0.0
  0
POINT
  5
1175
100
AcDbEntity
  8
DEFPOINTS
  6
BYBLOCK
 62
     0
100
AcDbPoint
 10
1358.321351
 20
195.443631
 30
0.0
  0
ENDBLK
  5
1176
100
AcDbEntity
  8
0
100
AcDbBlockEnd
  0
ENDSEC
  0
SECTION
  2
ENTITIES
  0
DIMENSION
  5
A3E
100
AcDbEntity
  8
V0-VYPLNE
  6
CONTINUOUS
 62
    41
100
AcDbDimension
  2
*D2
 10
767.552254
 20
-187.995962
 30
0.0
 11
739.653632
 21
-187.995962
 31
0.0
 12
0.0
 22
17.5
 32
0.0
 70
   160
  3
ED30
100
AcDbAlignedDimension
 13
707.552254
 23
-140.0
 33
0.0
 14
767.552254
 24
-140.0
 34
0.0
100
AcDbRotatedDimension
1001
ACAD
1000
DSTYLE
1002
{
1070
    40
1040
1.0
1002
}
  0
LINE
  5
A3F
100
AcDbEntity
  8
V0-OBRYS
  6
CONTINUOUS
 62
    90
100
AcDbLine
 10
707.552254
 20
-140.0
 30
0.0
 11
767.552254
 21
-140.0
 31
0.0
  0
LINE
  5
A40
100
AcDbEntity
  8
V0-OBRYS
  6
CONTINUOUS
 62
    90
100
AcDbLine
 10
707.552254
 20
140.0
 30
0.0
 11
767.552254
 21
140.0
 31
0.0
  0
LINE
  5
A41
100
AcDbEntity
  8
V0-VYPLNE
  6
DASHDOT
 62
    63
 48
2.0
100
AcDbLine
 10
707.552254
 20
0.0
 30
0.0
 11
1057.552254
 21
0.0
 31
0.0
  0
DIMENSION
  5
A42
100
AcDbEntity
  8
V0-VYPLNE
  6
CONTINUOUS
 62
    41
100
AcDbDimension
  2
*D1
 10
665.605302
 20
-140.0
 30
0.0
 11
665.605302
 21
-1.802349
 31
0.0
 70
   160
  1
%%c<>
  3
ED30
100
AcDbAlignedDimension
 13
707.552254
 23
140.0
 33
0.0
 14
707.552254
 24
-140.0
 34
0.0
 50
90.0
100
AcDbRotatedDimension
1001
ACAD
1000
DSTYLE
1002
{
1070
    40
1040
1.0
1002
}
  0
LINE
  5
A43
100
AcDbEntity
  8
V0-OBRYS
  6
CONTINUOUS
 62
    90
100
AcDbLine
 10
707.552254
 20
0.0
 30
0.0
 11
707.552254
 21
140.0
 31
0.0
  0
LINE
  5
A44
100
AcDbEntity
  8
V0-OBRYS
  6
CONTINUOUS
 62
    90
100
AcDbLine
 10
707.552254
 20
0.0
 30
0.0
 11
707.552254
 21
-140.0
 31
0.0
  0
LINE
  5
A46
100
AcDbEntity
  8
V0-OBRYS
  6
CONTINUOUS
 62
    90
100
AcDbLine
 10
767.552254
 20
0.0
 30
0.0
 11
767.552254
 21
140.0
 31
0.0
  0
LINE
  5
A47
100
AcDbEntity
  8
V0-OBRYS
  6
CONTINUOUS
 62
    90
100
AcDbLine
 10
782.552254
 20
140.0
 30
0.0
 11
782.552254
 21
0.0
 31
0.0
  0
LINE
  5
A48
100
AcDbEntity
  8
V0-OBRYS
  6
CONTINUOUS
 62
    90
100
AcDbLine
 10
782.552254
 20
-140.0
 30
0.0
 11
782.552254
 21
0.0
 31
0.0
  0
LINE
  5
A49
100
AcDbEntity
  8
V0-OBRYS
  6
CONTINUOUS
 62
    90
100
AcDbLine
 10
767.552254
 20
0.0
 30
0.0
 11
767.552254
 21
-140.0
 31
0.0
  0
ARC
  5
A4B
100
AcDbEntity
  8
V0-OBRYS
  6
CONTINUOUS
 62
    90
100
AcDbCircle
 10
772.552254
 20
-140.0
 30
0.0
 40
5.0
100
AcDbArc
 50
180.0
 51
270.0
  0
ARC
  5
A4C
100
AcDbEntity
  8
V0-OBRYS
  6
CONTINUOUS
 62
    90
100
AcDbCircle
 10
777.552254
 20
-140.0
 30
0.0
 40
5.0
100
AcDbArc
 50
270.0
 51
0.0
  0
LINE
  5
A4D
100
AcDbEntity
  8
V0-OBRYS
  6
CONTINUOUS
 62
    90
100
AcDbLine
 10
772.552254
 20
-145.0
 30
0.0
 11
777.552254
 21
-145.0
 31
0.0
  0
ARC
  5
A4F
100
AcDbEntity
  8
V0-OBRYS
  6
CONTINUOUS
 62
    90
100
AcDbCircle
 10
772.552254
 20
140.0
 30
0.0
 40
5.0
100
AcDbArc
 50
90.0
 51
180.0
  0
ARC
  5
A50
100
AcDbEntity
  8
V0-OBRYS
  6
CONTINUOUS
 62
    90
100
AcDbCircle
 10
777.552254
 20
140.0
 30
0.0
 40
5.0
100
AcDbArc
 50
0.0
 51
90.0
  0
LINE
  5
A51
100
AcDbEntity
  8
V0-OBRYS
  6
CONTINUOUS
 62
    90
100
AcDbLine
 10
772.552254
 20
145.0
 30
0.0
 11
777.552254
 21
145.0
 31
0.0
  0
LINE
  5
B85
100
AcDbEntity
  8
V0-OBRYS
  6
CONTINUOUS
 62
    90
100
AcDbLine
 10
982.552254
 20
-140.0
 30
0.0
 11
782.552254
 21
-140.0
 31
0.0
  0
LINE
  5
B86
100
AcDbEntity
  8
V0-OBRYS
  6
CONTINUOUS
 62
    90
100
AcDbLine
 10
982.552254
 20
140.0
 30
0.0
 11
782.552254
 21
140.0
 31
0.0
  0
LINE
  5
B88
100
AcDbEntity
  8
V0-OBRYS
  6
CONTINUOUS
 62
    90
100
AcDbLine
 10
1057.552254
 20
0.0
 30
0.0
 11
1057.552254
 21
140.0
 31
0.0
  0
LINE
  5
B89
100
AcDbEntity
  8
V0-OBRYS
  6
CONTINUOUS
 62
    90
100
AcDbLine
 10
997.552254
 20
0.0
 30
0.0
 11
997.552254
 21
140.0
 31
0.0
  0
LINE
  5
B8A
100
AcDbEntity
  8
V0-OBRYS
  6
CONTINUOUS
 62
    90
100
AcDbLine
 10
982.552254
 20
140.0
 30
0.0
 11
982.552254
 21
0.0
 31
0.0
  0
LINE
  5
B8C
100
AcDbEntity
  8
V0-OBRYS
  6
CONTINUOUS
 62
    90
100
AcDbLine
 10
1057.552254
 20
-140.0
 30
0.0
 11
997.552254
 21
-140.0
 31
0.0
  0
LINE
  5
B8D
100
AcDbEntity
  8
V0-OBRYS
  6
CONTINUOUS
 62
    90
100
AcDbLine
 10
1057.552254
 20
0.0
 30
0.0
 11
1057.552254
 21
-140.0
 31
0.0
  0
LINE
  5
B8E
100
AcDbEntity
  8
V0-OBRYS
  6
CONTINUOUS
 62
    90
100
AcDbLine
 10
997.552254
 20
0.0
 30
0.0
 11
997.552254
 21
-140.0
 31
0.0
  0
LINE
  5
B8F
100
AcDbEntity
  8
V0-OBRYS
  6
CONTINUOUS
 62
    90
100
AcDbLine
 10
982.552254
 20
-140.0
 30
0.0
 11
982.552254
 21
0.0
 31
0.0
  0
LINE
  5
B90
100
AcDbEntity
  8
V0-OBRYS
  6
CONTINUOUS
 62
    90
100
AcDbLine
 10
992.552254
 20
-145.0
 30
0.0
 11
987.552254
 21
-145.0
 31
0.0
  0
ARC
  5
B91
100
AcDbEntity
  8
V0-OBRYS
  6
CONTINUOUS
 62
    90
100
AcDbCircle
 10
992.552254
 20
-140.0
 30
0.0
 40
5.0
100
AcDbArc
 50
270.0
 51
0.0
  0
ARC
  5
B92
100
AcDbEntity
  8
V0-OBRYS
  6
CONTINUOUS
 62
    90
100
AcDbCircle
 10
987.552254
 20
-140.0
 30
0.0
 40
5.0
100
AcDbArc
 50
180.0
 51
270.0
  0
LINE
  5
B93
100
AcDbEntity
  8
V0-OBRYS
  6
CONTINUOUS
 62
    90
100
AcDbLine
 10
1057.552254
 20
140.0
 30
0.0
 11
997.552254
 21
140.0
 31
0.0
  0
LINE
  5
B94
100
AcDbEntity
  8
V0-OBRYS
  6
CONTINUOUS
 62
    90
100
AcDbLine
 10
992.552254
 20
145.0
 30
0.0
 11
987.552254
 21
145.0
 31
0.0
  0
ARC
  5
B95
100
AcDbEntity
  8
V0-OBRYS
  6
CONTINUOUS
 62
    90
100
AcDbCircle
 10
992.552254
 20
140.0
 30
0.0
 40
5.0
100
AcDbArc
 50
0.0
 51
90.0
  0
ARC
  5
B96
100
AcDbEntity
  8
V0-OBRYS
  6
CONTINUOUS
 62
    90
100
AcDbCircle
 10
987.552254
 20
140.0
 30
0.0
 40
5.0
100
AcDbArc
 50
90.0
 51
180.0
  0
DIMENSION
  5
BA3
100
AcDbEntity
  8
V0-VYPLNE
  6
CONTINUOUS
 62
    41
100
AcDbDimension
  2
*D3
 10
1057.547962
 20
-230.224261
 30
0.0
 11
882.550108
 21
-230.724261
 31
0.0
 12
0.0
 22
17.5
 32
0.0
 70
    32
  3
ED30
100
AcDbAlignedDimension
 13
707.552254
 23
-141.0
 33
0.0
 14
1057.547962
 24
-141.0
 34
0.0
100
AcDbRotatedDimension
1001
ACAD
1000
DSTYLE
1002
{
1070
    40
1040
1.0
1002
}
  0
DIMENSION
  5
C16
100
AcDbEntity
  8
V0-VYPLNE
  6
CONTINUOUS
 62
    41
100
AcDbDimension
  2
*D4
 10
997.552254
 20
-188.183207
 30
0.0
 11
882.552254
 21
-188.680254
 31
0.0
 12
0.0
 22
17.5
 32
0.0
 70
    32
  3
ED30
100
AcDbAlignedDimension
 13
767.552254
 23
-140.0
 33
0.0
 14
997.552254
 24
-140.0
 34
0.0
100
AcDbRotatedDimension
1001
ACAD
1000
DSTYLE
1002
{
1070
    40
1040
1.0
1002
}
  0
POINT
  5
D20
100
AcDbEntity
  8
DEFPOINTS
  6
CONTINUOUS
 62
    63
100
AcDbPoint
 10
767.552254
 20
0.0
 30
0.0
  0
POINT
  5
D21
100
AcDbEntity
  8
DEFPOINTS
  6
CONTINUOUS
 62
    63
100
AcDbPoint
 10
767.552254
 20
0.0
 30
0.0
  0
POINT
  5
D22
100
AcDbEntity
  8
V0-VYPLNE
  6
CONTINUOUS
 62
     7
100
AcDbPoint
 10
767.552254
 20
0.0
 30
0.0
  0
POINT
  5
D23
100
AcDbEntity
  8
V0-VYPLNE
  6
CONTINUOUS
 62
     7
100
AcDbPoint
 10
997.552254
 20
0.0
 30
0.0
  0
LINE
  5
D2D
100
AcDbEntity
  8
V0-OBRYS
  6
CONTINUOUS
 62
    90
100
AcDbLine
 10
982.552254
 20
-339.307653
 30
0.0
 11
982.552254
 21
-469.307653
 31
0.0
  0
LINE
  5
D2E
100
AcDbEntity
  8
V0-OBRYS
  6
CONTINUOUS
 62
    90
100
AcDbLine
 10
997.552254
 20
-469.307653
 30
0.0
 11
997.552254
 21
-339.307653
 31
0.0
  0
LINE
  5
D2F
100
AcDbEntity
  8
V0-OBRYS
  6
CONTINUOUS
 62
    90
100
AcDbLine
 10
1057.552254
 20
-479.307653
 30
0.0
 11
1057.552254
 21
-339.307653
 31
0.0
  0
LINE
  5
D30
100
AcDbEntity
  8
V0-OBRYS
  6
CONTINUOUS
 62
    90
100
AcDbLine
 10
782.552254
 20
-339.307653
 30
0.0
 11
782.552254
 21
-479.307653
 31
0.0
  0
LINE
  5
D31
100
AcDbEntity
  8
V0-OBRYS
  6
CONTINUOUS
 62
    90
100
AcDbLine
 10
767.552254
 20
-479.307653
 30
0.0
 11
767.552254
 21
-339.307653
 31
0.0
  0
LINE
  5
D32
100
AcDbEntity
  8
V0-OBRYS
  6
CONTINUOUS
 62
    90
100
AcDbLine
 10
707.552254
 20
-479.307653
 30
0.0
 11
707.552254
 21
-339.307653
 31
0.0
  0
LINE
  5
D33
100
AcDbEntity
  8
V0-OBRYS
  6
CONTINUOUS
 62
    90
100
AcDbLine
 10
982.552254
 20
-619.307653
 30
0.0
 11
782.552254
 21
-619.307653
 31
0.0
  0
LINE
  5
D34
100
AcDbEntity
  8
V0-VYPLNE
  6
DASHDOT
 62
    63
 48
2.0
100
AcDbLine
 10
707.552254
 20
-479.307653
 30
0.0
 11
1057.552254
 21
-479.307653
 31
0.0
  0
LINE
  5
D35
100
AcDbEntity
  8
V0-OBRYS
  6
CONTINUOUS
 62
    90
100
AcDbLine
 10
767.552254
 20
-479.307653
 30
0.0
 11
767.552254
 21
-619.307653
 31
0.0
  0
LINE
  5
D36
100
AcDbEntity
  8
V0-OBRYS
  6
CONTINUOUS
 62
    90
100
AcDbLine
 10
782.552254
 20
-619.307653
 30
0.0
 11
782.552254
 21
-479.307653
 31
0.0
  0
LINE
  5
D37
100
AcDbEntity
  8
V0-OBRYS
  6
CONTINUOUS
 62
    90
100
AcDbLine
 10
707.552254
 20
-479.307653
 30
0.0
 11
707.552254
 21
-619.307653
 31
0.0
  0
LINE
  5
D38
100
AcDbEntity
  8
V0-OBRYS
  6
CONTINUOUS
 62
    90
100
AcDbLine
 10
772.552254
 20
-624.307653
 30
0.0
 11
777.552254
 21
-624.307653
 31
0.0
  0
LINE
  5
D39
100
AcDbEntity
  8
V0-OBRYS
  6
CONTINUOUS
 62
    90
100
AcDbLine
 10
707.552254
 20
-619.307653
 30
0.0
 11
767.552254
 21
-619.307653
 31
0.0
  0
ARC
  5
D3A
100
AcDbEntity
  8
V0-OBRYS
  6
CONTINUOUS
 62
    90
100
AcDbCircle
 10
772.552254
 20
-619.307653
 30
0.0
 40
5.0
100
AcDbArc
 50
180.0
 51
270.0
  0
ARC
  5
D3B
100
AcDbEntity
  8
V0-OBRYS
  6
CONTINUOUS
 62
    90
100
AcDbCircle
 10
777.552254
 20
-619.307653
 30
0.0
 40
5.0
100
AcDbArc
 50
270.0
 51
0.0
  0
POINT
  5
D3C
100
AcDbEntity
  8
V0-VYPLNE
  6
CONTINUOUS
 62
     7
100
AcDbPoint
 10
767.552254
 20
-479.307653
 30
0.0
  0
POINT
  5
D3D
100
AcDbEntity
  8
DEFPOINTS
  6
CONTINUOUS
 62
    63
100
AcDbPoint
 10
767.552254
 20
-479.307653
 30
0.0
  0
POINT
  5
D3E
100
AcDbEntity
  8
DEFPOINTS
  6
CONTINUOUS
 62
    63
100
AcDbPoint
 10
767.552254
 20
-479.307653
 30
0.0
  0
LINE
  5
D3F
100
AcDbEntity
  8
V0-OBRYS
  6
CONTINUOUS
 62
    90
100
AcDbLine
 10
982.552254
 20
-619.307653
 30
0.0
 11
982.552254
 21
-489.307653
 31
0.0
  0
LINE
  5
D40
100
AcDbEntity
  8
V0-OBRYS
  6
CONTINUOUS
 62
    90
100
AcDbLine
 10
997.552254
 20
-489.307653
 30
0.0
 11
997.552254
 21
-619.307653
 31
0.0
  0
LINE
  5
D41
100
AcDbEntity
  8
V0-OBRYS
  6
CONTINUOUS
 62
    90
100
AcDbLine
 10
1057.552254
 20
-479.307653
 30
0.0
 11
1057.552254
 21
-619.307653
 31
0.0
  0
LINE
  5
D42
100
AcDbEntity
  8
V0-OBRYS
  6
CONTINUOUS
 62
    90
100
AcDbLine
 10
1057.552254
 20
-619.307653
 30
0.0
 11
997.552254
 21
-619.307653
 31
0.0
  0
ARC
  5
D43
100
AcDbEntity
  8
V0-OBRYS
  6
CONTINUOUS
 62
    90
100
AcDbCircle
 10
987.552254
 20
-619.307653
 30
0.0
 40
5.0
100
AcDbArc
 50
180.0
 51
270.0
  0
ARC
  5
D44
100
AcDbEntity
  8
V0-OBRYS
  6
CONTINUOUS
 62
    90
100
AcDbCircle
 10
992.552254
 20
-619.307653
 30
0.0
 40
5.0
100
AcDbArc
 50
270.0
 51
0.0
  0
LINE
  5
D45
100
AcDbEntity
  8
V0-OBRYS
  6
CONTINUOUS
 62
    90
100
AcDbLine
 10
992.552254
 20
-624.307653
 30
0.0
 11
987.552254
 21
-624.307653
 31
0.0
  0
POINT
  5
D46
100
AcDbEntity
  8
V0-VYPLNE
  6
CONTINUOUS
 62
     7
100
AcDbPoint
 10
997.552254
 20
-479.307653
 30
0.0
  0
LINE
  5
D47
100
AcDbEntity
  8
V0-OBRYS
  6
CONTINUOUS
 62
    90
100
AcDbLine
 10
982.552254
 20
-339.307653
 30
0.0
 11
782.552254
 21
-339.307653
 31
0.0
  0
LINE
  5
D48
100
AcDbEntity
  8
V0-OBRYS
  6
CONTINUOUS
 62
    90
100
AcDbLine
 10
772.552254
 20
-334.307653
 30
0.0
 11
777.552254
 21
-334.307653
 31
0.0
  0
LINE
  5
D49
100
AcDbEntity
  8
V0-OBRYS
  6
CONTINUOUS
 62
    90
100
AcDbLine
 10
707.552254
 20
-339.307653
 30
0.0
 11
767.552254
 21
-339.307653
 31
0.0
  0
ARC
  5
D4A
100
AcDbEntity
  8
V0-OBRYS
  6
CONTINUOUS
 62
    90
100
AcDbCircle
 10
772.552254
 20
-339.307653
 30
0.0
 40
5.0
100
AcDbArc
 50
90.0
 51
180.0
  0
ARC
  5
D4B
100
AcDbEntity
  8
V0-OBRYS
  6
CONTINUOUS
 62
    90
100
AcDbCircle
 10
777.552254
 20
-339.307653
 30
0.0
 40
5.0
100
AcDbArc
 50
0.0
 51
90.0
  0
LINE
  5
D4C
100
AcDbEntity
  8
V0-OBRYS
  6
CONTINUOUS
 62
    90
100
AcDbLine
 10
1057.552254
 20
-339.307653
 30
0.0
 11
997.552254
 21
-339.307653
 31
0.0
  0
ARC
  5
D4D
100
AcDbEntity
  8
V0-OBRYS
  6
CONTINUOUS
 62
    90
100
AcDbCircle
 10
987.552254
 20
-339.307653
 30
0.0
 40
5.0
100
AcDbArc
 50
90.0
 51
180.0
  0
ARC
  5
D4E
100
AcDbEntity
  8
V0-OBRYS
  6
CONTINUOUS
 62
    90
100
AcDbCircle
 10
992.552254
 20
-339.307653
 30
0.0
 40
5.0
100
AcDbArc
 50
0.0
 51
90.0
  0
LINE
  5
D4F
100
AcDbEntity
  8
V0-OBRYS
  6
CONTINUOUS
 62
    90
100
AcDbLine
 10
992.552254
 20
-334.307653
 30
0.0
 11
987.552254
 21
-334.307653
 31
0.0
  0
LINE
  5
D51
100
AcDbEntity
  8
V0-VYPLNE
  6
DASHDOT
 62
    63
 48
2.0
100
AcDbLine
 10
1148.268106
 20
-0.104291
 30
0.0
 11
1473.902134
 21
-0.104291
 31
0.0
  0
DIMENSION
  5
EA7
100
AcDbEntity
  8
V0-VYPLNE
  6
CONTINUOUS
 62
    41
100
AcDbDimension
  2
*D5
 10
1017.552254
 20
233.393716
 30
0.0
 11
960.360725
 21
233.393716
 31
0.0
 12
0.0
 22
-17.5
 32
0.0
 70
   160
  3
ED30
100
AcDbAlignedDimension
 13
882.552254
 23
182.0
 33
0.0
 14
1017.552254
 24
185.0
 34
0.0
100
AcDbRotatedDimension
1001
ACAD
1000
DSTYLE
1002
{
1070
    40
1040
1.0
1002
}
  0
LINE
  5
EA8
100
AcDbEntity
  8
V0-OBRYS
  6
CONTINUOUS
 62
    90
100
AcDbLine
 10
914.773509
 20
-489.307653
 30
0.0
 11
1012.552254
 21
-489.307653
 31
0.0
  0
LINE
  5
EA9
100
AcDbEntity
  8
V0-OBRYS
  6
CONTINUOUS
 62
    90
100
AcDbLine
 10
935.036142
 20
-469.307653
 30
0.0
 11
1012.552254
 21
-469.307653
 31
0.0
  0
LINE
  5
EAA
100
AcDbEntity
  8
V0-OBRYS
  6
CONTINUOUS
 62
    90
100
AcDbLine
 10
963.936312
 20
182.33835
 30
0.0
 11
938.379874
 21
169.049002
 31
0.0
  0
LINE
  5
EAB
100
AcDbEntity
  8
V0-OBRYS
  6
CONTINUOUS
 62
    90
100
AcDbLine
 10
962.552254
 20
185.0
 30
0.0
 11
937.552254
 21
172.0
 31
0.0
  0
LINE
  5
EAC
100
AcDbEntity
  8
V0-VYPLNE
  6
DASHED
 62
    52
100
AcDbLine
 10
885.552254
 20
169.049002
 30
0.0
 11
885.552254
 21
-140.264457
 31
0.0
  0
LINE
  5
EAD
100
AcDbEntity
  8
V0-VYPLNE
  6
DASHED
 62
    52
100
AcDbLine
 10
879.552254
 20
169.049002
 30
0.0
 11
879.552254
 21
-140.264457
 31
0.0
  0
LINE
  5
EAE
100
AcDbEntity
  8
V0-VYPLNE
  6
DASHDOT
 62
    63
100
AcDbLine
 10
882.552254
 20
183.0
 30
0.0
 11
882.552254
 21
-145.25172
 31
0.0
  0
ARC
  5
EAF
100
AcDbEntity
  8
V0-VYPLNE
  6
DASHDOT
 62
    63
100
AcDbCircle
 10
882.552254
 20
-479.307653
 30
0.0
 40
40.0
100
AcDbArc
 50
260.720854
 51
98.569564
  0
LINE
  5
EB0
100
AcDbEntity
  8
V0-OBRYS
  6
CONTINUOUS
 62
    90
100
AcDbLine
 10
867.552254
 20
-473.094449
 30
0.0
 11
867.552254
 21
-429.307653
 31
0.0
  0
LINE
  5
EB1
100
AcDbEntity
  8
V0-OBRYS
  6
CONTINUOUS
 62
    90
100
AcDbLine
 10
937.552254
 20
-429.307653
 30
0.0
 11
937.552254
 21
-469.307653
 31
0.0
  0
ARC
  5
EB2
100
AcDbEntity
  8
V0-OBRYS
  6
CONTINUOUS
 62
    90
100
AcDbCircle
 10
882.552254
 20
-479.307653
 30
0.0
 40
43.0
100
AcDbArc
 50
13.447727
 51
90.0
  0
ARC
  5
EB3
100
AcDbEntity
  8
V0-OBRYS
  6
CONTINUOUS
 62
    90
100
AcDbCircle
 10
882.552254
 20
-479.307653
 30
0.0
 40
37.0
100
AcDbArc
 50
15.68035
 51
90.0
  0
LINE
  5
EB4
100
AcDbEntity
  8
V0-OBRYS
  6
CONTINUOUS
 62
    90
100
AcDbLine
 10
937.552254
 20
-529.307653
 30
0.0
 11
867.552254
 21
-529.307653
 31
0.0
  0
LINE
  5
EB5
100
AcDbEntity
  8
V0-OBRYS
  6
CONTINUOUS
 62
    90
100
AcDbLine
 10
867.552254
 20
-469.307653
 30
0.0
 11
930.430933
 21
-469.307653
 31
0.0
  0
ARC
  5
EB6
100
AcDbEntity
  8
V0-OBRYS
  6
CONTINUOUS
 62
    90
100
AcDbCircle
 10
882.552254
 20
-479.307653
 30
0.0
 40
43.0
100
AcDbArc
 50
270.0
 51
346.552273
  0
ARC
  5
EB7
100
AcDbEntity
  8
V0-OBRYS
  6
CONTINUOUS
 62
    90
100
AcDbCircle
 10
882.552254
 20
-479.307653
 30
0.0
 40
37.0
100
AcDbArc
 50
270.0
 51
344.31965
  0
LINE
  5
EB8
100
AcDbEntity
  8
V0-OBRYS
  6
CONTINUOUS
 62
    90
100
AcDbLine
 10
867.552254
 20
-489.307653
 30
0.0
 11
910.430933
 21
-489.307653
 31
0.0
  0
LINE
  5
EB9
100
AcDbEntity
  8
V0-OBRYS
  6
CONTINUOUS
 62
    90
100
AcDbLine
 10
867.552254
 20
-529.307653
 30
0.0
 11
867.552254
 21
-483.327235
 31
0.0
  0
ARC
  5
EBA
100
AcDbEntity
  8
V0-OBRYS
  6
CONTINUOUS
 62
    90
100
AcDbCircle
 10
882.552254
 20
-519.307653
 30
0.0
 40
3.0
100
AcDbArc
 50
90.0
 51
270.0
  0
LINE
  5
EBB
100
AcDbEntity
  8
V0-OBRYS
  6
CONTINUOUS
 62
    90
100
AcDbLine
 10
867.552254
 20
-478.307653
 30
0.0
 11
877.653274
 21
-478.307653
 31
0.0
  0
LINE
  5
EBC
100
AcDbEntity
  8
V0-OBRYS
  6
CONTINUOUS
 62
    90
100
AcDbLine
 10
867.552254
 20
-480.307653
 30
0.0
 11
877.653274
 21
-480.307653
 31
0.0
  0
LINE
  5
EBD
100
AcDbEntity
  8
V0-OBRYS
  6
CONTINUOUS
 62
    90
100
AcDbLine
 10
868.856343
 20
-492.27949
 30
0.0
 11
877.109577
 21
-492.27949
 31
0.0
  0
LINE
  5
EBE
100
AcDbEntity
  8
V0-OBRYS
  6
CONTINUOUS
 62
    90
100
AcDbLine
 10
868.856343
 20
-466.335816
 30
0.0
 11
877.109577
 21
-466.335816
 31
0.0
  0
LINE
  5
EBF
100
AcDbEntity
  8
V0-OBRYS
  6
CONTINUOUS
 62
    90
100
AcDbLine
 10
867.552254
 20
-478.307653
 30
0.0
 11
867.552254
 21
-469.307653
 31
0.0
  0
LINE
  5
EC0
100
AcDbEntity
  8
V0-OBRYS
  6
CONTINUOUS
 62
    90
100
AcDbLine
 10
867.552254
 20
-489.307653
 30
0.0
 11
867.552254
 21
-480.307653
 31
0.0
  0
LINE
  5
EC1
100
AcDbEntity
  8
V0-OBRYS
  6
CONTINUOUS
 62
    90
100
AcDbLine
 10
868.856343
 20
-489.184427
 30
0.0
 11
868.856343
 21
-492.27949
 31
0.0
  0
LINE
  5
EC2
100
AcDbEntity
  8
V0-OBRYS
  6
CONTINUOUS
 62
    90
100
AcDbLine
 10
870.746918
 20
-493.91263
 30
0.0
 11
870.746918
 21
-489.307653
 31
0.0
  0
LINE
  5
EC3
100
AcDbEntity
  8
V0-OBRYS
  6
CONTINUOUS
 62
    90
100
AcDbLine
 10
874.787925
 20
-493.91263
 30
0.0
 11
874.787925
 21
-489.307653
 31
0.0
  0
LINE
  5
EC4
100
AcDbEntity
  8
V0-OBRYS
  6
CONTINUOUS
 62
    90
100
AcDbLine
 10
870.746918
 20
-493.91263
 30
0.0
 11
874.787925
 21
-493.91263
 31
0.0
  0
LINE
  5
EC5
100
AcDbEntity
  8
V0-OBRYS
  6
CONTINUOUS
 62
    90
100
AcDbLine
 10
870.746918
 20
-480.307653
 30
0.0
 11
870.746918
 21
-478.307653
 31
0.0
  0
LINE
  5
EC6
100
AcDbEntity
  8
V0-OBRYS
  6
CONTINUOUS
 62
    90
100
AcDbLine
 10
874.787925
 20
-480.307653
 30
0.0
 11
874.787925
 21
-478.307653
 31
0.0
  0
LINE
  5
EC7
100
AcDbEntity
  8
V0-OBRYS
  6
CONTINUOUS
 62
    90
100
AcDbLine
 10
868.856343
 20
-469.430879
 30
0.0
 11
868.856343
 21
-466.335816
 31
0.0
  0
LINE
  5
EC8
100
AcDbEntity
  8
V0-OBRYS
  6
CONTINUOUS
 62
    90
100
AcDbLine
 10
874.787925
 20
-466.423457
 30
0.0
 11
874.787925
 21
-469.346825
 31
0.0
  0
LINE
  5
EC9
100
AcDbEntity
  8
V0-OBRYS
  6
CONTINUOUS
 62
    90
100
AcDbLine
 10
870.746918
 20
-466.336238
 30
0.0
 11
870.746918
 21
-469.345559
 31
0.0
  0
LINE
  5
ECA
100
AcDbEntity
  8
V0-OBRYS
  6
CONTINUOUS
 62
    90
100
AcDbLine
 10
895.431184
 20
-469.320631
 30
0.0
 11
895.431184
 21
-489.208018
 31
0.0
  0
CIRCLE
  5
ECB
100
AcDbEntity
  8
V0-OBRYS
  6
CONTINUOUS
 62
    90
100
AcDbCircle
 10
882.552254
 20
-479.307653
 30
0.0
 40
5.0
  0
LINE
  5
ECC
100
AcDbEntity
  8
V0-OBRYS
  6
CONTINUOUS
 62
    90
100
AcDbLine
 10
877.109577
 20
-492.27949
 30
0.0
 11
877.109577
 21
-489.181895
 31
0.0
  0
LINE
  5
ECD
100
AcDbEntity
  8
V0-OBRYS
  6
CONTINUOUS
 62
    90
100
AcDbLine
 10
877.109577
 20
-466.335816
 30
0.0
 11
877.109577
 21
-469.433411
 31
0.0
  0
LINE
  5
ECE
100
AcDbEntity
  8
V0-OBRYS
100
AcDbLine
 10
937.552254
 20
-489.307653
 30
0.0
 11
937.552254
 21
-520.165517
 31
0.0
  0
LINE
  5
ECF
100
AcDbEntity
  8
V0-OBRYS
100
AcDbLine
 10
937.552254
 20
-489.307653
 30
0.0
 11
937.552254
 21
-520.165517
 31
0.0
  0
LINE
  5
ED0
100
AcDbEntity
  8
V0-OBRYS
  6
CONTINUOUS
 62
    90
100
AcDbLine
 10
937.552254
 20
-489.307653
 30
0.0
 11
937.552254
 21
-529.307653
 31
0.0
  0
CIRCLE
  5
ED1
100
AcDbEntity
  8
V0-OBRYS
  6
CONTINUOUS
 62
    90
100
AcDbCircle
 10
922.552254
 20
-479.307653
 30
0.0
 40
6.0
  0
CIRCLE
  5
ED2
100
AcDbEntity
  8
V0-OBRYS
  6
CONTINUOUS
 62
    90
100
AcDbCircle
 10
922.552254
 20
-479.307653
 30
0.0
 40
3.0
  0
LINE
  5
ED3
100
AcDbEntity
  8
V0-OBRYS
  6
CONTINUOUS
 62
    90
100
AcDbLine
 10
907.349458
 20
-492.389128
 30
0.0
 11
917.392627
 21
-482.345959
 31
0.0
  0
LINE
  5
ED4
100
AcDbEntity
  8
V0-OBRYS
  6
CONTINUOUS
 62
    90
100
AcDbLine
 10
909.470778
 20
-494.510449
 30
0.0
 11
919.513947
 21
-484.46728
 31
0.0
  0
LINE
  5
ED5
100
AcDbEntity
  8
V0-OBRYS
  6
CONTINUOUS
 62
    90
100
AcDbLine
 10
907.349458
 20
-492.389128
 30
0.0
 11
909.470778
 21
-494.510449
 31
0.0
  0
LINE
  5
ED6
100
AcDbEntity
  8
V0-OBRYS
  6
CONTINUOUS
 62
    90
100
AcDbLine
 10
937.755049
 20
-466.226177
 30
0.0
 11
927.71188
 21
-476.269346
 31
0.0
  0
LINE
  5
ED7
100
AcDbEntity
  8
V0-OBRYS
  6
CONTINUOUS
 62
    90
100
AcDbLine
 10
935.633729
 20
-464.104857
 30
0.0
 11
925.59056
 21
-474.148026
 31
0.0
  0
LINE
  5
ED8
100
AcDbEntity
  8
V0-OBRYS
  6
CONTINUOUS
 62
    90
100
AcDbLine
 10
935.633729
 20
-464.104857
 30
0.0
 11
937.755049
 21
-466.226177
 31
0.0
  0
LINE
  5
ED9
100
AcDbEntity
  8
V0-OBRYS
  6
CONTINUOUS
 62
    90
100
AcDbLine
 10
867.552254
 20
-429.307653
 30
0.0
 11
937.552254
 21
-429.307653
 31
0.0
  0
ARC
  5
EDA
100
AcDbEntity
  8
V0-OBRYS
  6
CONTINUOUS
 62
    90
100
AcDbCircle
 10
882.552254
 20
-439.307653
 30
0.0
 40
3.0
100
AcDbArc
 50
90.0
 51
270.0
  0
LWPOLYLINE
  5
EDB
100
AcDbEntity
  8
V0-OBRYS
  6
CONTINUOUS
 62
    90
100
AcDbPolyline
 90
        4
 70
     1
 43
0.0
 10
874.153582
 20
-140.278697
 10
890.324962
 20
-140.278697
 10
890.324962
 20
-135.734817
 10
874.153582
 20
-135.734817
  0
LINE
  5
EDC
100
AcDbEntity
  8
V0-OBRYS
  6
CONTINUOUS
 62
    90
100
AcDbLine
 10
885.552254
 20
-140.278697
 30
0.0
 11
885.552254
 21
-142.488641
 31
0.0
  0
LINE
  5
EDD
100
AcDbEntity
  8
V0-OBRYS
  6
CONTINUOUS
 62
    90
100
AcDbLine
 10
879.552254
 20
-140.278697
 30
0.0
 11
879.552254
 21
-142.488641
 31
0.0
  0
LINE
  5
EDE
100
AcDbEntity
  8
V0-OBRYS
  6
CONTINUOUS
 62
    90
100
AcDbLine
 10
879.552254
 20
-142.488641
 30
0.0
 11
885.552254
 21
-142.488641
 31
0.0
  0
LINE
  5
EDF
100
AcDbEntity
  8
V0-VYPLNE
  6
DASHDOT
 62
    63
100
AcDbLine
 10
917.552254
 20
185.0
 30
0.0
 11
917.552254
 21
166.582585
 31
0.0
  0
ARC
  5
EE0
100
AcDbEntity
  8
V0-OBRYS
  6
CONTINUOUS
 62
    90
100
AcDbCircle
 10
857.552254
 20
174.524501
 30
0.0
 40
5.475499
100
AcDbArc
 50
90.0
 51
270.0
  0
LINE
  5
EE1
100
AcDbEntity
  8
V0-OBRYS
  6
CONTINUOUS
 62
    90
100
AcDbLine
 10
938.379874
 20
169.049002
 30
0.0
 11
882.024427
 21
169.049002
 31
0.0
  0
LINE
  5
EE2
100
AcDbEntity
  8
V0-OBRYS
  6
CONTINUOUS
100
AcDbLine
 10
874.296765
 20
140.0
 30
0.0
 11
882.552254
 21
140.0
 31
0.0
  0
LINE
  5
EE3
100
AcDbEntity
  8
V0-OBRYS
  6
CONTINUOUS
 62
    90
100
AcDbLine
 10
852.552254
 20
169.049002
 30
0.0
 11
883.08008
 21
169.049002
 31
0.0
  0
LINE
  5
EE4
100
AcDbEntity
  8
V0-OBRYS
  6
CONTINUOUS
 62
    90
100
AcDbLine
 10
852.552254
 20
169.049002
 30
0.0
 11
852.552254
 21
139.860781
 31
0.0
  0
LINE
  5
EE5
100
AcDbEntity
  8
V0-OBRYS
  6
CONTINUOUS
 62
    90
100
AcDbLine
 10
932.552254
 20
169.049002
 30
0.0
 11
932.552254
 21
139.860781
 31
0.0
  0
LINE
  5
EE6
100
AcDbEntity
  8
V0-OBRYS
  6
CONTINUOUS
 62
    90
100
AcDbLine
 10
937.646488
 20
172.049002
 30
0.0
 11
857.552254
 21
172.049002
 31
0.0
  0
LINE
  5
EE7
100
AcDbEntity
  8
V0-OBRYS
  6
CONTINUOUS
 62
    90
100
AcDbLine
 10
895.552254
 20
177.0
 30
0.0
 11
857.552254
 21
177.0
 31
0.0
  0
LINE
  5
EE8
100
AcDbEntity
  8
V0-OBRYS
  6
CONTINUOUS
 62
    90
100
AcDbLine
 10
895.552254
 20
180.0
 30
0.0
 11
857.552254
 21
180.0
 31
0.0
  0
ARC
  5
EE9
100
AcDbEntity
  8
V0-OBRYS
  6
CONTINUOUS
 62
    90
100
AcDbCircle
 10
857.552254
 20
174.524501
 30
0.0
 40
2.475499
100
AcDbArc
 50
90.0
 51
270.0
  0
LINE
  5
EEA
100
AcDbEntity
  8
V0-OBRYS
  6
CONTINUOUS
 62
    90
100
AcDbLine
 10
879.552254
 20
182.0
 30
0.0
 11
882.552254
 21
182.0
 31
0.0
  0
LINE
  5
EEB
100
AcDbEntity
  8
V0-OBRYS
  6
CONTINUOUS
 62
    90
100
AcDbLine
 10
879.552254
 20
180.0
 30
0.0
 11
879.552254
 21
182.0
 31
0.0
  0
LINE
  5
EEC
100
AcDbEntity
  8
V0-OBRYS
  6
CONTINUOUS
 62
    90
100
AcDbLine
 10
879.552254
 20
172.0
 30
0.0
 11
879.552254
 21
177.072606
 31
0.0
  0
LINE
  5
EED
100
AcDbEntity
  8
V0-OBRYS
  6
CONTINUOUS
 62
    90
100
AcDbLine
 10
885.552254
 20
172.0
 30
0.0
 11
885.552254
 21
177.072606
 31
0.0
  0
LINE
  5
EEE
100
AcDbEntity
  8
V0-OBRYS
  6
CONTINUOUS
 62
    90
100
AcDbLine
 10
885.552254
 20
180.0
 30
0.0
 11
885.552254
 21
182.0
 31
0.0
  0
LINE
  5
EEF
100
AcDbEntity
  8
V0-OBRYS
  6
CONTINUOUS
 62
    90
100
AcDbLine
 10
885.552254
 20
182.0
 30
0.0
 11
882.552254
 21
182.0
 31
0.0
  0
LINE
  5
EF0
100
AcDbEntity
  8
V0-OBRYS
  6
CONTINUOUS
 62
    90
100
AcDbLine
 10
895.552254
 20
180.0
 30
0.0
 11
895.552254
 21
177.0
 31
0.0
  0
LINE
  5
EF1
100
AcDbEntity
  8
V0-OBRYS
  6
CONTINUOUS
 62
    90
100
AcDbLine
 10
931.043319
 20
179.590211
 30
0.0
 11
921.587815
 21
172.049002
 31
0.0
  0
LINE
  5
EF2
100
AcDbEntity
  8
V0-OBRYS
  6
CONTINUOUS
 62
    90
100
AcDbLine
 10
919.912598
 20
176.023604
 30
0.0
 11
929.573223
 21
182.527417
 31
0.0
  0
LINE
  5
EF3
100
AcDbEntity
  8
V0-OBRYS
  6
CONTINUOUS
 62
    90
100
AcDbLine
 10
904.061188
 20
179.590211
 30
0.0
 11
913.516692
 21
172.049002
 31
0.0
  0
LINE
  5
EF4
100
AcDbEntity
  8
V0-OBRYS
  6
CONTINUOUS
 62
    90
100
AcDbLine
 10
915.191909
 20
176.023604
 30
0.0
 11
905.531284
 21
182.527417
 31
0.0
  0
LINE
  5
EF5
100
AcDbEntity
  8
V0-OBRYS
  6
CONTINUOUS
 62
    90
100
AcDbLine
 10
905.531284
 20
182.527417
 30
0.0
 11
904.061188
 21
179.590211
 31
0.0
  0
LINE
  5
EF6
100
AcDbEntity
  8
V0-OBRYS
  6
CONTINUOUS
 62
    90
100
AcDbLine
 10
917.502059
 20
176.023604
 30
0.0
 11
915.191909
 21
176.023604
 31
0.0
  0
LINE
  5
EF7
100
AcDbEntity
  8
V0-OBRYS
  6
CONTINUOUS
 62
    90
100
AcDbLine
 10
915.191909
 20
176.023604
 30
0.0
 11
913.511801
 21
172.037396
 31
0.0
  0
LINE
  5
EF8
100
AcDbEntity
  8
V0-OBRYS
  6
CONTINUOUS
 62
    90
100
AcDbLine
 10
917.602448
 20
176.023604
 30
0.0
 11
919.912598
 21
176.023604
 31
0.0
  0
LINE
  5
EF9
100
AcDbEntity
  8
V0-OBRYS
  6
CONTINUOUS
 62
    90
100
AcDbLine
 10
919.912598
 20
176.023604
 30
0.0
 11
921.592706
 21
172.037396
 31
0.0
  0
LINE
  5
EFA
100
AcDbEntity
  8
V0-OBRYS
  6
CONTINUOUS
 62
    90
100
AcDbLine
 10
929.573223
 20
182.527417
 30
0.0
 11
931.043319
 21
179.590211
 31
0.0
  0
LINE
  5
EFB
100
AcDbEntity
  8
V0-VYPLNE
  6
DASHDOT
 62
    63
100
AcDbLine
 10
1313.871351
 20
168.372276
 30
0.0
 11
1313.871351
 21
-157.013574
 31
0.0
  0
LINE
  5
EFC
100
AcDbEntity
  8
V0-OBRYS
  6
CONTINUOUS
 62
    90
100
AcDbLine
 10
1311.204351
 20
141.5089
 30
0.0
 11
1311.204351
 21
-151.153537
 31
0.0
  0
LINE
  5
EFD
100
AcDbEntity
  8
V0-OBRYS
  6
CONTINUOUS
 62
    90
100
AcDbLine
 10
1316.538351
 20
141.687561
 30
0.0
 11
1316.538351
 21
-151.153537
 31
0.0
  0
LINE
  5
EFE
100
AcDbEntity
  8
V0-OBRYS
  6
CONTINUOUS
 62
    90
100
AcDbLine
 10
1012.552254
 20
-469.307653
 30
0.0
 11
1017.552254
 21
-474.307653
 31
0.0
  0
LINE
  5
EFF
100
AcDbEntity
  8
V0-OBRYS
  6
CONTINUOUS
 62
    90
100
AcDbLine
 10
1017.552254
 20
-484.307653
 30
0.0
 11
1012.552254
 21
-489.307653
 31
0.0
  0
LINE
  5
F00
100
AcDbEntity
  8
V0-OBRYS
  6
CONTINUOUS
 62
    90
100
AcDbLine
 10
1017.552254
 20
-484.307653
 30
0.0
 11
1017.552254
 21
-474.307653
 31
0.0
  0
LWPOLYLINE
  5
F01
100
AcDbEntity
  8
V0-OBRYS
  6
CONTINUOUS
 62
    90
100
AcDbPolyline
 90
        4
 70
     1
 43
0.0
 10
1306.492634
 20
-148.272145
 10
1320.370856
 20
-148.272145
 10
1320.370856
 20
-143.875914
 10
1306.492634
 20
-143.875914
  0
LINE
  5
F02
100
AcDbEntity
  8
V0-OBRYS
  6
CONTINUOUS
 62
    90
100
AcDbLine
 10
1311.204351
 20
-151.153537
 30
0.0
 11
1316.538351
 21
-151.153537
 31
0.0
  0
DIMENSION
  5
F03
100
AcDbEntity
  8
V0-VYPLNE
  6
CONTINUOUS
 62
    41
100
AcDbDimension
  2
*D6
 10
1105.683291
 20
140.0
 30
0.0
 11
1105.683291
 21
162.5
 31
0.0
 12
0.0
 22
-17.5
 32
0.0
 70
   160
  3
ED30
100
AcDbAlignedDimension
 13
1017.552254
 23
185.0
 33
0.0
 14
982.552254
 24
140.0
 34
0.0
 50
90.0
100
AcDbRotatedDimension
1001
ACAD
1000
DSTYLE
1002
{
1070
    40
1040
1.0
1002
}
  0
LINE
  5
F04
100
AcDbEntity
  8
V0-OBRYS
  6
CONTINUOUS
 62
    90
100
AcDbLine
 10
1017.552254
 20
182.0
 30
0.0
 11
962.552254
 21
182.0
 31
0.0
  0
LINE
  5
F05
100
AcDbEntity
  8
V0-OBRYS
  6
CONTINUOUS
 62
    90
100
AcDbLine
 10
1017.552254
 20
185.0
 30
0.0
 11
962.552254
 21
185.0
 31
0.0
  0
LINE
  5
F06
100
AcDbEntity
  8
V0-OBRYS
  6
CONTINUOUS
100
AcDbLine
 10
1320.621631
 20
141.702276
 30
0.0
 11
1307.68291
 21
141.702276
 31
0.0
  0
LINE
  5
F07
100
AcDbEntity
  8
V0-OBRYS
  6
CONTINUOUS
 62
    90
100
AcDbLine
 10
1304.717799
 20
179.377285
 30
0.0
 11
1313.015304
 21
179.377285
 31
0.0
  0
LINE
  5
F08
100
AcDbEntity
  8
V0-OBRYS
  6
CONTINUOUS
 62
    90
100
AcDbLine
 10
1313.015304
 20
169.306038
 30
0.0
 11
1304.656604
 21
169.306038
 31
0.0
  0
LINE
  5
F09
100
AcDbEntity
  8
V0-OBRYS
  6
CONTINUOUS
 62
    90
100
AcDbLine
 10
1269.421351
 20
168.372276
 30
0.0
 11
1358.321351
 21
168.372276
 31
0.0
  0
DIMENSION
  5
F0A
100
AcDbEntity
  8
V0-VYPLNE
  6
CONTINUOUS
 62
    63
100
AcDbDimension
  2
*D7
 10
1358.321351
 20
195.443631
 30
0.0
 11
1314.321435
 21
195.443631
 31
0.0
 70
   160
  3
ED15
100
AcDbAlignedDimension
 13
1269.421351
 23
168.372276
 33
0.0
 14
1358.321351
 24
168.372276
 34
0.0
100
AcDbRotatedDimension
1001
ACAD
1000
DSTYLE
1002
{
1070
    40
1040
1.0
1070
   178
1070
    41
1070
   177
1070
    41
1070
   176
1070
    41
1002
}
  0
LINE
  5
F0B
100
AcDbEntity
  8
V0-OBRYS
  6
CONTINUOUS
 62
    90
100
AcDbLine
 10
1304.717799
 20
171.085045
 30
0.0
 11
1304.717799
 21
168.372276
 31
0.0
  0
LINE
  5
F0C
100
AcDbEntity
  8
V0-OBRYS
  6
CONTINUOUS
 62
    90
100
AcDbLine
 10
1304.717799
 20
168.372276
 30
0.0
 11
1304.717799
 21
179.377285
 31
0.0
  0
LINE
  5
F0D
100
AcDbEntity
  8
V0-OBRYS
  6
CONTINUOUS
 62
    90
100
AcDbLine
 10
1269.421351
 20
168.372276
 30
0.0
 11
1269.421351
 21
141.305323
 31
0.0
  0
LINE
  5
F0E
100
AcDbEntity
  8
V0-OBRYS
  6
CONTINUOUS
 62
    90
100
AcDbLine
 10
1302.015017
 20
172.146095
 30
0.0
 11
1304.690302
 21
172.146095
 31
0.0
  0
LINE
  5
F0F
100
AcDbEntity
  8
V0-OBRYS
  6
CONTINUOUS
 62
    90
100
AcDbLine
 10
1304.717799
 20
170.465374
 30
0.0
 11
1302.014641
 21
170.465374
 31
0.0
  0
LINE
  5
F10
100
AcDbEntity
  8
V0-OBRYS
  6
CONTINUOUS
 62
    90
100
AcDbLine
 10
1302.014641
 20
177.802499
 30
0.0
 11
1304.768403
 21
177.802499
 31
0.0
  0
LINE
  5
F11
100
AcDbEntity
  8
V0-OBRYS
  6
CONTINUOUS
 62
    90
100
AcDbLine
 10
1302.092554
 20
175.738551
 30
0.0
 11
1304.691428
 21
175.738551
 31
0.0
  0
LINE
  5
F12
100
AcDbEntity
  8
V0-OBRYS
  6
CONTINUOUS
 62
    90
100
AcDbLine
 10
1302.014641
 20
170.465374
 30
0.0
 11
1302.014641
 21
177.802499
 31
0.0
  0
LINE
  5
F13
100
AcDbEntity
  8
V0-OBRYS
  6
CONTINUOUS
 62
    90
100
AcDbLine
 10
1322.530715
 20
171.085045
 30
0.0
 11
1322.530715
 21
168.372276
 31
0.0
  0
LINE
  5
F14
100
AcDbEntity
  8
V0-OBRYS
  6
CONTINUOUS
 62
    90
100
AcDbLine
 10
1322.530715
 20
168.372276
 30
0.0
 11
1322.530715
 21
179.377285
 31
0.0
  0
LINE
  5
F15
100
AcDbEntity
  8
V0-OBRYS
  6
CONTINUOUS
 62
    90
100
AcDbLine
 10
1313.015304
 20
169.306038
 30
0.0
 11
1313.015304
 21
179.377285
 31
0.0
  0
LINE
  5
F16
100
AcDbEntity
  8
V0-OBRYS
  6
CONTINUOUS
 62
    90
100
AcDbLine
 10
1314.793304
 20
169.306038
 30
0.0
 11
1314.793304
 21
179.377285
 31
0.0
  0
LINE
  5
F17
100
AcDbEntity
  8
V0-VYPLNE
  6
DASHED
 62
    52
100
AcDbLine
 10
1311.204351
 20
168.372276
 30
0.0
 11
1311.204351
 21
142.22354
 31
0.0
  0
LINE
  5
F18
100
AcDbEntity
  8
V0-VYPLNE
  6
DASHED
 62
    52
100
AcDbLine
 10
1316.538351
 20
168.372276
 30
0.0
 11
1316.538351
 21
142.58086
 31
0.0
  0
LINE
  5
F19
100
AcDbEntity
  8
V0-OBRYS
  6
CONTINUOUS
 62
    90
100
AcDbLine
 10
1322.436604
 20
169.306038
 30
0.0
 11
1314.793304
 21
169.306038
 31
0.0
  0
LINE
  5
F1A
100
AcDbEntity
  8
V0-OBRYS
  6
CONTINUOUS
 62
    90
100
AcDbLine
 10
1358.321351
 20
168.372276
 30
0.0
 11
1358.321351
 21
141.305323
 31
0.0
  0
LINE
  5
F1B
100
AcDbEntity
  8
V0-OBRYS
  6
CONTINUOUS
 62
    90
100
AcDbLine
 10
1314.793304
 20
179.377285
 30
0.0
 11
1322.530715
 21
179.377285
 31
0.0
  0
LINE
  5
F1C
100
AcDbEntity
  8
V0-OBRYS
  6
CONTINUOUS
 62
    90
100
AcDbLine
 10
1314.793304
 20
172.190765
 30
0.0
 11
1313.015304
 21
172.190765
 31
0.0
  0
LINE
  5
F1D
100
AcDbEntity
  8
V0-OBRYS
  6
CONTINUOUS
 62
    90
100
AcDbLine
 10
1314.793304
 20
175.78322
 30
0.0
 11
1313.015304
 21
175.78322
 31
0.0
  0
LINE
  5
F1E
100
AcDbEntity
  8
V0-OBRYS
  6
CONTINUOUS
 62
    90
100
AcDbLine
 10
1322.530715
 20
170.465374
 30
0.0
 11
1325.078567
 21
170.465374
 31
0.0
  0
LINE
  5
F1F
100
AcDbEntity
  8
V0-OBRYS
  6
CONTINUOUS
 62
    90
100
AcDbLine
 10
1325.078567
 20
177.802499
 30
0.0
 11
1322.530715
 21
177.802499
 31
0.0
  0
LINE
  5
F20
100
AcDbEntity
  8
V0-OBRYS
  6
CONTINUOUS
 62
    90
100
AcDbLine
 10
1326.530429
 20
172.146095
 30
0.0
 11
1322.530715
 21
172.146095
 31
0.0
  0
LINE
  5
F21
100
AcDbEntity
  8
V0-OBRYS
  6
CONTINUOUS
 62
    90
100
AcDbLine
 10
1326.530429
 20
175.738551
 30
0.0
 11
1322.530715
 21
175.738551
 31
0.0
  0
LINE
  5
F22
100
AcDbEntity
  8
V0-OBRYS
  6
CONTINUOUS
 62
    90
100
AcDbLine
 10
1326.530429
 20
172.146095
 30
0.0
 11
1326.530429
 21
175.738551
 31
0.0
  0
LINE
  5
F23
100
AcDbEntity
  8
V0-OBRYS
  6
CONTINUOUS
 62
    90
100
AcDbLine
 10
1325.078567
 20
170.465374
 30
0.0
 11
1325.078567
 21
177.802499
 31
0.0
  0
LWPOLYLINE
  5
F24
100
AcDbEntity
  8
V0-OBRYS
  6
CONTINUOUS
 62
    90
100
AcDbPolyline
 90
        4
 70
     1
 43
0.0
 10
874.466563
 20
140.0
 10
890.637944
 20
140.0
 10
890.637944
 20
144.54388
 10
874.466563
 20
144.54388
  0
LWPOLYLINE
  5
F25
100
AcDbEntity
  8
V0-OBRYS
  6
CONTINUOUS
 62
    90
100
AcDbPolyline
 90
        4
 70
     1
 43
0.0
 10
1307.213159
 20
141.702276
 10
1321.091382
 20
141.702276
 10
1321.091382
 20
146.098506
 10
1307.213159
 20
146.098506
  0
MTEXT
  5
F26
100
AcDbEntity
  8
V0-NAZVY
100
AcDbMText
 10
1306.054323
 20
-462.036291
 30
0.0
 40
45.0
 41
370.153
 71
     5
 72
     5
  1
MSK-280
  7
ED10
  0
MTEXT
  5
F27
100
AcDbEntity
  8
V0-ZBYTEK
 62
    51
100
AcDbMText
 10
1317.603409
 20
-527.99822
 30
0.0
 40
25.2
 41
713.86632
 71
     5
 72
     5
  1
KLAPKA SKRTICI
  7
ED10
  0
MTEXT
  5
F28
100
AcDbEntity
  8
V0-ZBYTEK
100
AcDbMText
 10
1314.734367
 20
-582.546104
 30
0.0
 40
18.0
 41
282.7719
 71
     5
 72
     5
  1
S RUCNIM OVLADANIM KOVOVYM
  7
ED10
  0
CIRCLE
  5
F70
100
AcDbEntity
  8
V0-OBRYS
  6
CONTINUOUS
 62
    90
100
AcDbCircle
 10
1313.739744
 20
-0.104291
 30
0.0
 40
140.0175
  0
CIRCLE
  5
F71
100
AcDbEntity
  8
V0-OBRYS
  6
CONTINUOUS
 62
    90
100
AcDbCircle
 10
1313.739744
 20
-0.104291
 30
0.0
 40
148.9075
  0
ELLIPSE
  5
F72
100
AcDbEntity
  8
V0-OBRYS
  6
CONTINUOUS
 62
    90
100
AcDbEllipse
 10
1313.949618
 20
-0.93956
 30
0.0
 11
0.0
 21
136.7136287570408
 31
0.0
210
0.0
220
0.0
230
1.0
 40
0.6
 41
0.0
 42
6.283185307179586
  0
ELLIPSE
  5
F73
100
AcDbEntity
  8
V0-VYPLNE
  6
DASHED
 62
    52
100
AcDbEllipse
 10
882.695932
 20
0.18103
 30
0.0
 11
0.0
 21
134.9986149628724
 31
0.0
210
0.0
220
0.0
230
1.0
 40
0.513577
 41
0.0
 42
6.283185307179586
  0
POINT
  5
F77
100
AcDbEntity
  8
V0-VYPLNE
  6
DASHED
 62
     7
100
AcDbPoint
 10
1313.949618
 20
-0.93956
 30
0.0
  0
LINE
  5
FA8
100
AcDbEntity
  8
V0-VYPLNE
  6
DASHED
 62
    52
100
AcDbLine
 10
947.855779
 20
-359.009986
 30
0.0
 11
815.145864
 21
-604.042596
 31
0.0
  0
MTEXT
  5
118D
100
AcDbEntity
  8
V0-NAZVY
100
AcDbMText
 10
1311.014459
 20
-219.472841
 30
0.0
 40
31.5
 41
259.1071
 71
     5
 72
     5
  1
MSK-280
  7
ED10
  0
MTEXT
  5
118E
100
AcDbEntity
  8
V0-NAZVY
100
AcDbMText
 10
879.288787
 20
-50.160878
 30
0.0
 40
31.5
 41
259.1071
 71
     5
 72
     5
  1
MSK-280
  7
ED10
  0
MTEXT
  5
118F
100
AcDbEntity
  8
V0-NAZVY
100
AcDbMText
 10
881.609893
 20
-388.784804
 30
0.0
 40
31.5
 41
259.1071
 71
     5
 72
     5
  1
MSK-280
  7
ED10
  0
VIEWPORT
  5
22
100
AcDbEntity
 67
     1
  8
0
100
AcDbViewport
 10
261.517699
 20
148.5
 30
0.0
 40
523.035398
 41
297.0
 68
    -1
 69
     1
1001
ACAD
1000
MVIEW
1002
{
1070
    16
1010
0.0
1020
0.0
1030
0.0
1010
0.0
1020
0.0
1030
1.0
1040
0.0
1040
297.0
1040
261.517699
1040
148.5
1040
50.0
1040
0.0
1040
0.0
1070
     0
1070
   100
1070
     1
1070
     1
1070
     0
1070
     0
1070
     0
1070
     0
1040
0.0
1040
0.0
1040
0.0
1040
1.0
1040
1.0
1040
10.0
1040
10.0
1070
     0
1002
{
1002
}
1002
}
  0
ENDSEC
  0
SECTION
  2
OBJECTS
  0
DICTIONARY
  5
C
100
AcDbDictionary
  3
ACAD_GROUP
350
D
  3
ACAD_MLINESTYLE
350
E
  3
ACDBVARIABLEDICTIONARY
350
5D
  0
DICTIONARY
  5
D
102
{ACAD_REACTORS
330
C
102
}
100
AcDbDictionary
  0
DICTIONARY
  5
E
102
{ACAD_REACTORS
330
C
102
}
100
AcDbDictionary
  3
STANDARD
350
13
  0
DICTIONARY
  5
5D
102
{ACAD_REACTORS
330
C
102
}
100
AcDbDictionary
  3
DIMADEC
350
5E
  3
SORTENTS
350
3D8
  0
MLINESTYLE
  5
13
102
{ACAD_REACTORS
330
E
102
}
100
AcDbMlineStyle
  2
STANDARD
 70
     0
  3

 62
     0
 51
90.0
 52
90.0
 71
     2
 49
0.5
 62
   256
  6
BYLAYER
 49
-0.5
 62
   256
  6
BYLAYER
  0
DICTIONARYVAR
  5
5E
102
{ACAD_REACTORS
330
5D
102
}
100
DictionaryVariables
280
     0
  1
0
  0
DICTIONARYVAR
  5
3D8
102
{ACAD_REACTORS
330
5D
102
}
100
DictionaryVariables
280
     0
  1
96
  0
ENDSEC
  0
EOF
