  0
SECTION
  2
HEADER
  9
$ACADVER
  1
AC1014
  9
$ACADMAINTVER
 70
     0
  9
$DWGCODEPAGE
  3
ANSI_1250
  9
$INSBASE
 10
0.0
 20
0.0
 30
0.0
  9
$EXTMIN
 10
665.097428
 20
-399.549061
 30
0.0
  9
$EXTMAX
 10
1230.063532
 20
199.013551
 30
0.0
  9
$LIMMIN
 10
0.0
 20
0.0
  9
$LIMMAX
 10
420.0
 20
297.0
  9
$ORTHOMODE
 70
     0
  9
$REGENMODE
 70
     1
  9
$FILLMODE
 70
     1
  9
$QTEXTMODE
 70
     0
  9
$MIRRTEXT
 70
     1
  9
$DRAGMODE
 70
     2
  9
$LTSCALE
 40
1.0
  9
$OSMODE
 70
    15
  9
$ATTMODE
 70
     1
  9
$TEXTSIZE
 40
10.0
  9
$TRACEWID
 40
1.0
  9
$TEXTSTYLE
  7
ED30
  9
$CLAYER
  8
V0-VYPLNE
  9
$CELTYPE
  6
DASHED
  9
$CECOLOR
 62
    52
  9
$CELTSCALE
 40
1.0
  9
$DELOBJ
 70
     1
  9
$DISPSILH
 70
     0
  9
$DIMSCALE
 40
0.0
  9
$DIMASZ
 40
15.0
  9
$DIMEXO
 40
1.0
  9
$DIMDLI
 40
3.75
  9
$DIMRND
 40
0.0
  9
$DIMDLE
 40
0.0
  9
$DIMEXE
 40
1.25
  9
$DIMTP
 40
0.0
  9
$DIMTM
 40
0.0
  9
$DIMTXT
 40
10.0
  9
$DIMCEN
 40
3.0
  9
$DIMTSZ
 40
0.0
  9
$DIMTOL
 70
     0
  9
$DIMLIM
 70
     0
  9
$DIMTIH
 70
     0
  9
$DIMTOH
 70
     0
  9
$DIMSE1
 70
     0
  9
$DIMSE2
 70
     0
  9
$DIMTAD
 70
     1
  9
$DIMZIN
 70
     8
  9
$DIMBLK
  1

  9
$DIMASO
 70
     1
  9
$DIMSHO
 70
     1
  9
$DIMPOST
  1

  9
$DIMAPOST
  1

  9
$DIMALT
 70
     0
  9
$DIMALTD
 70
     4
  9
$DIMALTF
 40
0.0394
  9
$DIMLFAC
 40
1.0
  9
$DIMTOFL
 70
     1
  9
$DIMTVP
 40
0.0
  9
$DIMTIX
 70
     0
  9
$DIMSOXD
 70
     0
  9
$DIMSAH
 70
     1
  9
$DIMBLK1
  1
_OPEN
  9
$DIMBLK2
  1
_OPEN
  9
$DIMSTYLE
  2
ED10
  9
$DIMCLRD
 70
    41
  9
$DIMCLRE
 70
    41
  9
$DIMCLRT
 70
    41
  9
$DIMTFAC
 40
1.0
  9
$DIMGAP
 40
1.5
  9
$DIMJUST
 70
     0
  9
$DIMSD1
 70
     0
  9
$DIMSD2
 70
     0
  9
$DIMTOLJ
 70
     1
  9
$DIMTZIN
 70
     8
  9
$DIMALTZ
 70
     0
  9
$DIMALTTZ
 70
     0
  9
$DIMFIT
 70
     3
  9
$DIMUPT
 70
     0
  9
$DIMUNIT
 70
     2
  9
$DIMDEC
 70
     0
  9
$DIMTDEC
 70
     1
  9
$DIMALTU
 70
     8
  9
$DIMALTTD
 70
     4
  9
$DIMTXSTY
  7
ED20
  9
$DIMAUNIT
 70
     0
  9
$LUNITS
 70
     2
  9
$LUPREC
 70
     4
  9
$SKETCHINC
 40
1.0
  9
$FILLETRAD
 40
5.0
  9
$AUNITS
 70
     0
  9
$AUPREC
 70
     0
  9
$MENU
  1
.
  9
$ELEVATION
 40
0.0
  9
$PELEVATION
 40
0.0
  9
$THICKNESS
 40
0.0
  9
$LIMCHECK
 70
     0
  9
$BLIPMODE
 70
     0
  9
$CHAMFERA
 40
10.0
  9
$CHAMFERB
 40
10.0
  9
$CHAMFERC
 40
20.0
  9
$CHAMFERD
 40
0.0
  9
$SKPOLY
 70
     1
  9
$TDCREATE
 40
2451196.643769328
  9
$TDUPDATE
 40
2453311.828261308
  9
$TDINDWG
 40
0.2590559722
  9
$TDUSRTIMER
 40
0.2590559722
  9
$USRTIMER
 70
     1
  9
$ANGBASE
 50
0.0
  9
$ANGDIR
 70
     0
  9
$PDMODE
 70
     3
  9
$PDSIZE
 40
15.0
  9
$PLINEWID
 40
0.0
  9
$COORDS
 70
     1
  9
$SPLFRAME
 70
     0
  9
$SPLINETYPE
 70
     6
  9
$SPLINESEGS
 70
     8
  9
$ATTDIA
 70
     0
  9
$ATTREQ
 70
     1
  9
$HANDLING
 70
     1
  9
$HANDSEED
  5
FBC
  9
$SURFTAB1
 70
     6
  9
$SURFTAB2
 70
     6
  9
$SURFTYPE
 70
     6
  9
$SURFU
 70
     6
  9
$SURFV
 70
     6
  9
$UCSNAME
  2

  9
$UCSORG
 10
727.5522535047794
 20
0.0
 30
0.0
  9
$UCSXDIR
 10
1.0
 20
0.0
 30
0.0
  9
$UCSYDIR
 10
0.0
 20
1.0
 30
0.0
  9
$PUCSNAME
  2

  9
$PUCSORG
 10
0.0
 20
0.0
 30
0.0
  9
$PUCSXDIR
 10
1.0
 20
0.0
 30
0.0
  9
$PUCSYDIR
 10
0.0
 20
1.0
 30
0.0
  9
$USERI1
 70
     0
  9
$USERI2
 70
     0
  9
$USERI3
 70
     2
  9
$USERI4
 70
     2
  9
$USERI5
 70
     6
  9
$USERR1
 40
281.0
  9
$USERR2
 40
321.0
  9
$USERR3
 40
0.0
  9
$USERR4
 40
0.0
  9
$USERR5
 40
0.0
  9
$WORLDVIEW
 70
     1
  9
$SHADEDGE
 70
     3
  9
$SHADEDIF
 70
    70
  9
$TILEMODE
 70
     1
  9
$MAXACTVP
 70
    48
  9
$PINSBASE
 10
0.0
 20
0.0
 30
0.0
  9
$PLIMCHECK
 70
     0
  9
$PEXTMIN
 10
1.000000E+20
 20
1.000000E+20
 30
1.000000E+20
  9
$PEXTMAX
 10
-1.000000E+20
 20
-1.000000E+20
 30
-1.000000E+20
  9
$PLIMMIN
 10
0.0
 20
0.0
  9
$PLIMMAX
 10
420.0
 20
297.0
  9
$UNITMODE
 70
     0
  9
$VISRETAIN
 70
     1
  9
$PLINEGEN
 70
     0
  9
$PSLTSCALE
 70
     0
  9
$TREEDEPTH
 70
  3020
  9
$PICKSTYLE
 70
     1
  9
$CMLSTYLE
  2
STANDARD
  9
$CMLJUST
 70
     0
  9
$CMLSCALE
 40
1.0
  9
$PROXYGRAPHICS
 70
     1
  9
$MEASUREMENT
 70
     1
  0
ENDSEC
  0
SECTION
  2
CLASSES
  0
CLASS
  1
DICTIONARYVAR
  2
AcDbDictionaryVar
  3
"AutoCAD"
 90
        0
280
     0
281
     0
  0
CLASS
  1
LWPOLYLINE
  2
AcDbPolyline
  3
"AutoCAD"
 90
        0
280
     0
281
     1
  0
CLASS
  1
HATCH
  2
AcDbHatch
  3
"ACAD_SEDONA"
 90
        0
280
     0
281
     1
  0
ENDSEC
  0
SECTION
  2
TABLES
  0
TABLE
  2
VPORT
  5
8
100
AcDbSymbolTable
 70
     2
  0
VPORT
  5
FBB
100
AcDbSymbolTableRecord
100
AcDbViewportTableRecord
  2
*ACTIVE
 70
     0
 10
0.0
 20
0.0
 11
1.0
 21
1.0
 12
947.58048
 22
-100.267755
 13
0.0
 23
0.0
 14
10.0
 24
10.0
 15
10.0
 25
10.0
 16
0.0
 26
0.0
 36
1.0
 17
0.0
 27
0.0
 37
0.0
 40
605.536157
 41
1.550584
 42
50.0
 43
0.0
 44
0.0
 50
0.0
 51
0.0
 71
     0
 72
   100
 73
     1
 74
     1
 75
     0
 76
     0
 77
     0
 78
     0
  0
ENDTAB
  0
TABLE
  2
LTYPE
  5
5
100
AcDbSymbolTable
 70
     3
  0
LTYPE
  5
14
100
AcDbSymbolTableRecord
100
AcDbLinetypeTableRecord
  2
BYBLOCK
 70
     0
  3

 72
    65
 73
     0
 40
0.0
  0
LTYPE
  5
15
100
AcDbSymbolTableRecord
100
AcDbLinetypeTableRecord
  2
BYLAYER
 70
     0
  3

 72
    65
 73
     0
 40
0.0
  0
LTYPE
  5
16
100
AcDbSymbolTableRecord
100
AcDbLinetypeTableRecord
  2
CONTINUOUS
 70
     0
  3
Solid line
 72
    65
 73
     0
 40
0.0
  0
LTYPE
  5
7F
100
AcDbSymbolTableRecord
100
AcDbLinetypeTableRecord
  2
DASHDOT
 70
     0
  3
Dash dot __ . __ . __ . __ . __ . __ . __ . __
 72
    65
 73
     4
 40
25.4
 49
12.7
 74
     0
 49
-6.35
 74
     0
 49
0.0
 74
     0
 49
-6.35
 74
     0
  0
LTYPE
  5
80
100
AcDbSymbolTableRecord
100
AcDbLinetypeTableRecord
  2
DASHED
 70
     0
  3
Dashed __ __ __ __ __ __ __ __ __ __ __ __ __ _
 72
    65
 73
     2
 40
19.05
 49
12.7
 74
     0
 49
-6.35
 74
     0
  0
ENDTAB
  0
TABLE
  2
LAYER
  5
2
100
AcDbSymbolTable
 70
     6
  0
LAYER
  5
F
100
AcDbSymbolTableRecord
100
AcDbLayerTableRecord
  2
0
 70
     0
 62
     7
  6
CONTINUOUS
  0
LAYER
  5
9E
100
AcDbSymbolTableRecord
100
AcDbLayerTableRecord
  2
DEFPOINTS
 70
     0
 62
     7
  6
CONTINUOUS
  0
LAYER
  5
377
100
AcDbSymbolTableRecord
100
AcDbLayerTableRecord
  2
V0-OBRYS
 70
     0
 62
    90
  6
CONTINUOUS
  0
LAYER
  5
378
100
AcDbSymbolTableRecord
100
AcDbLayerTableRecord
  2
V0-VYPLNE
 70
     0
 62
    63
  6
DASHDOT
  0
LAYER
  5
37A
100
AcDbSymbolTableRecord
100
AcDbLayerTableRecord
  2
V0-NAZVY
 70
     0
 62
   210
  6
CONTINUOUS
  0
LAYER
  5
559
100
AcDbSymbolTableRecord
100
AcDbLayerTableRecord
  2
V0-ZBYTEK
 70
     0
 62
    51
  6
CONTINUOUS
  0
ENDTAB
  0
TABLE
  2
STYLE
  5
3
100
AcDbSymbolTable
 70
     6
  0
STYLE
  5
10
100
AcDbSymbolTableRecord
100
AcDbTextStyleTableRecord
  2
STANDARD
 70
     0
 40
7.0
 41
1.0
 50
0.0
 71
     0
 42
20.0
  3
ISOCP.shx
  4

  0
STYLE
  5
331
100
AcDbSymbolTableRecord
100
AcDbTextStyleTableRecord
  2
ED30
 70
     0
 40
30.0
 41
1.0
 50
0.0
 71
     0
 42
2.5
  3
ISOCP.shx
  4

  0
STYLE
  5
5D2
100
AcDbSymbolTableRecord
100
AcDbTextStyleTableRecord
  2
ED20
 70
     0
 40
20.0
 41
1.0
 50
0.0
 71
     0
 42
20.0
  3
isocp.shx
  4

  0
STYLE
  5
64F
100
AcDbSymbolTableRecord
100
AcDbTextStyleTableRecord
  2
ED40
 70
     0
 40
40.0
 41
1.0
 50
0.0
 71
     0
 42
20.0
  3
isocp.shx
  4

  0
STYLE
  5
650
100
AcDbSymbolTableRecord
100
AcDbTextStyleTableRecord
  2
ED10
 70
     0
 40
10.0
 41
1.0
 50
0.0
 71
     0
 42
10.0
  3
isocp.shx
  4

  0
STYLE
  5
C33
100
AcDbSymbolTableRecord
100
AcDbTextStyleTableRecord
  2
ED15
 70
     0
 40
15.0
 41
1.0
 50
0.0
 71
     0
 42
30.0
  3
isocp.shx
  4

  0
ENDTAB
  0
TABLE
  2
VIEW
  5
6
100
AcDbSymbolTable
 70
     0
  0
ENDTAB
  0
TABLE
  2
UCS
  5
7
100
AcDbSymbolTable
 70
     0
  0
ENDTAB
  0
TABLE
  2
APPID
  5
9
100
AcDbSymbolTable
 70
     3
  0
APPID
  5
11
100
AcDbSymbolTableRecord
100
AcDbRegAppTableRecord
  2
ACAD
 70
     0
  0
APPID
  5
E74
100
AcDbSymbolTableRecord
100
AcDbRegAppTableRecord
  2
CONTENTBLOCKICON
 70
     0
  0
APPID
  5
E75
100
AcDbSymbolTableRecord
100
AcDbRegAppTableRecord
  2
CONTENTBLOCKDESCRIPTION
 70
     0
  0
ENDTAB
  0
TABLE
  2
DIMSTYLE
  5
A
100
AcDbSymbolTable
 70
     6
  0
DIMSTYLE
105
1D
100
AcDbSymbolTableRecord
100
AcDbDimStyleTableRecord
  2
STANDARD
 70
     0
  3

  4

  5

  6
_OPEN
  7
_OPEN
 40
0.0
 41
15.0
 42
0.625
 43
3.75
 44
1.25
 45
0.0
 46
0.0
 47
0.0
 48
0.0
140
15.0
141
2.5
142
0.0
143
0.0394
144
1.0
145
0.0
146
1.0
147
3.0
 71
     0
 72
     0
 73
     0
 74
     0
 75
     0
 76
     0
 77
     1
 78
     8
170
     0
171
     4
172
     1
173
     1
174
     0
175
     0
176
     0
177
     0
178
     0
270
     2
271
     0
272
     1
273
     8
274
     4
340
331
275
     0
280
     0
281
     0
282
     0
283
     1
284
     8
285
     0
286
     0
287
     3
288
     0
  0
DIMSTYLE
105
397
100
AcDbSymbolTableRecord
100
AcDbDimStyleTableRecord
  2
ED40
 70
     0
  3

  4

  5

  6
_OPEN
  7
_OPEN
 40
0.0
 41
35.0
 42
1.0
 43
3.75
 44
1.25
 45
0.0
 46
0.0
 47
0.0
 48
0.0
140
40.0
141
3.0
142
0.0
143
0.0394
144
1.0
145
0.0
146
1.0
147
3.0
 71
     0
 72
     0
 73
     0
 74
     0
 75
     0
 76
     0
 77
     1
 78
     8
170
     0
171
     4
172
     1
173
     1
174
     0
175
     0
176
     0
177
     0
178
     0
270
     2
271
     0
272
     1
273
     8
274
     4
340
64F
275
     0
280
     0
281
     0
282
     0
283
     1
284
     8
285
     0
286
     0
287
     3
288
     0
  0
DIMSTYLE
105
656
102
{ACAD_REACTORS
330
A42
330
A3E
102
}
100
AcDbSymbolTableRecord
100
AcDbDimStyleTableRecord
  2
ED30
 70
     0
  3

  4

  5

  6
_OPEN
  7
_OPEN
 40
0.0
 41
25.0
 42
1.0
 43
3.75
 44
1.25
 45
0.0
 46
0.0
 47
0.0
 48
0.0
140
30.0
141
3.0
142
0.0
143
0.0394
144
1.0
145
0.0
146
1.0
147
2.0
 71
     0
 72
     0
 73
     0
 74
     0
 75
     0
 76
     0
 77
     1
 78
     8
170
     0
171
     4
172
     1
173
     1
174
     0
175
     0
176
     0
177
     0
178
     0
270
     2
271
     0
272
     1
273
     8
274
     4
340
331
275
     0
280
     0
281
     0
282
     0
283
     1
284
     8
285
     0
286
     0
287
     3
288
     0
  0
DIMSTYLE
105
657
100
AcDbSymbolTableRecord
100
AcDbDimStyleTableRecord
  2
ED20
 70
     0
  3

  4

  5

  6
_OPEN
  7
_OPEN
 40
0.0
 41
20.0
 42
1.0
 43
3.75
 44
1.25
 45
0.0
 46
0.0
 47
0.0
 48
0.0
140
20.0
141
3.0
142
0.0
143
0.0394
144
1.0
145
0.0
146
1.0
147
1.5
 71
     0
 72
     0
 73
     0
 74
     0
 75
     0
 76
     0
 77
     1
 78
     8
170
     0
171
     4
172
     1
173
     1
174
     0
175
     0
176
     0
177
     0
178
     0
270
     2
271
     0
272
     1
273
     8
274
     4
340
5D2
275
     0
280
     0
281
     0
282
     0
283
     1
284
     8
285
     0
286
     0
287
     3
288
     0
  0
DIMSTYLE
105
658
102
{ACAD_REACTORS
330
BA3
330
BF7
102
}
100
AcDbSymbolTableRecord
100
AcDbDimStyleTableRecord
  2
ED10
 70
     0
  3

  4

  5

  6
_OPEN
  7
_OPEN
 40
0.0
 41
15.0
 42
1.0
 43
3.75
 44
1.25
 45
0.0
 46
0.0
 47
0.0
 48
0.0
140
10.0
141
3.0
142
0.0
143
0.0394
144
1.0
145
0.0
146
1.0
147
1.5
 71
     0
 72
     0
 73
     0
 74
     0
 75
     0
 76
     0
 77
     1
 78
     8
170
     0
171
     4
172
     1
173
     1
174
     0
175
     0
176
    41
177
    41
178
    41
270
     2
271
     0
272
     1
273
     8
274
     4
340
5D2
275
     0
280
     0
281
     0
282
     0
283
     1
284
     8
285
     0
286
     0
287
     3
288
     0
  0
DIMSTYLE
105
C34
100
AcDbSymbolTableRecord
100
AcDbDimStyleTableRecord
  2
ED15
 70
     0
  3

  4

  5

  6
_OPEN
  7
_OPEN
 40
0.0
 41
15.0
 42
1.0
 43
3.75
 44
1.25
 45
0.0
 46
0.0
 47
0.0
 48
0.0
140
15.0
141
3.0
142
0.0
143
0.0394
144
1.0
145
0.0
146
1.0
147
1.5
 71
     0
 72
     0
 73
     0
 74
     0
 75
     0
 76
     0
 77
     1
 78
     8
170
     0
171
     4
172
     1
173
     1
174
     0
175
     0
176
     0
177
     0
178
     0
270
     2
271
     0
272
     1
273
     8
274
     4
340
C33
275
     0
280
     0
281
     0
282
     0
283
     1
284
     8
285
     0
286
     0
287
     3
288
     0
  0
ENDTAB
  0
TABLE
  2
BLOCK_RECORD
  5
1
100
AcDbSymbolTable
 70
    11
  0
BLOCK_RECORD
  5
1A
100
AcDbSymbolTableRecord
100
AcDbBlockTableRecord
  2
*MODEL_SPACE
  0
BLOCK_RECORD
  5
17
100
AcDbSymbolTableRecord
100
AcDbBlockTableRecord
  2
*PAPER_SPACE
  0
BLOCK_RECORD
  5
90
100
AcDbSymbolTableRecord
100
AcDbBlockTableRecord
  2
_OPEN
  0
BLOCK_RECORD
  5
A52
100
AcDbSymbolTableRecord
100
AcDbBlockTableRecord
  2
*D1
  0
BLOCK_RECORD
  5
A5E
100
AcDbSymbolTableRecord
100
AcDbBlockTableRecord
  2
*D2
  0
BLOCK_RECORD
  5
B97
100
AcDbSymbolTableRecord
100
AcDbBlockTableRecord
  2
*D3
  0
BLOCK_RECORD
  5
BEB
100
AcDbSymbolTableRecord
100
AcDbBlockTableRecord
  2
*D4
  0
BLOCK_RECORD
  5
D60
100
AcDbSymbolTableRecord
100
AcDbBlockTableRecord
  2
*D8
  0
BLOCK_RECORD
  5
D6C
100
AcDbSymbolTableRecord
100
AcDbBlockTableRecord
  2
*D9
  0
BLOCK_RECORD
  5
D78
100
AcDbSymbolTableRecord
100
AcDbBlockTableRecord
  2
*D10
  0
ENDTAB
  0
ENDSEC
  0
SECTION
  2
BLOCKS
  0
BLOCK
  5
1B
100
AcDbEntity
  8
0
100
AcDbBlockBegin
  2
*MODEL_SPACE
 70
     0
 10
0.0
 20
0.0
 30
0.0
  3
*MODEL_SPACE
  1

  0
ENDBLK
  5
1C
100
AcDbEntity
  8
0
100
AcDbBlockEnd
  0
BLOCK
  5
18
100
AcDbEntity
 67
     1
  8
0
100
AcDbBlockBegin
  2
*PAPER_SPACE
 70
     0
 10
0.0
 20
0.0
 30
0.0
  3
*PAPER_SPACE
  1

  0
ENDBLK
  5
19
100
AcDbEntity
 67
     1
  8
0
100
AcDbBlockEnd
  0
BLOCK
  5
91
100
AcDbEntity
  8
0
100
AcDbBlockBegin
  2
_OPEN
 70
     0
 10
0.0
 20
0.0
 30
0.0
  3
_OPEN
  1

  0
LINE
  5
92
100
AcDbEntity
  8
0
  6
BYBLOCK
 62
     0
100
AcDbLine
 10
-1.0
 20
0.166667
 30
0.0
 11
0.0
 21
0.0
 31
0.0
  0
LINE
  5
93
100
AcDbEntity
  8
0
  6
BYBLOCK
 62
     0
100
AcDbLine
 10
0.0
 20
0.0
 30
0.0
 11
-1.0
 21
-0.166667
 31
0.0
  0
LINE
  5
94
100
AcDbEntity
  8
0
  6
BYBLOCK
 62
     0
100
AcDbLine
 10
0.0
 20
0.0
 30
0.0
 11
-1.0
 21
0.0
 31
0.0
  0
ENDBLK
  5
95
100
AcDbEntity
  8
0
100
AcDbBlockEnd
  0
BLOCK
  5
BDC
100
AcDbEntity
  8
0
100
AcDbBlockBegin
  2
*D1
 70
     1
 10
0.0
 20
0.0
 30
0.0
  3
*D1
  1

  0
LINE
  5
BDD
100
AcDbEntity
  8
0
  6
BYBLOCK
 62
     0
100
AcDbLine
 10
726.552254
 20
75.0
 30
0.0
 11
684.355302
 21
75.0
 31
0.0
  0
LINE
  5
BDE
100
AcDbEntity
  8
0
  6
BYBLOCK
 62
     0
100
AcDbLine
 10
726.552254
 20
-75.0
 30
0.0
 11
684.355302
 21
-75.0
 31
0.0
  0
LINE
  5
BDF
100
AcDbEntity
  8
0
  6
BYBLOCK
 62
     0
100
AcDbLine
 10
685.605302
 20
55.0
 30
0.0
 11
685.605302
 21
-55.0
 31
0.0
  0
INSERT
  5
BE0
100
AcDbEntity
  8
0
  6
BYBLOCK
 62
     0
100
AcDbBlockReference
  2
_OPEN
 10
685.605302
 20
75.0
 30
0.0
 41
20.0
 42
20.0
 43
20.0
 50
90.0
  0
INSERT
  5
BE1
100
AcDbEntity
  8
0
  6
BYBLOCK
 62
     0
100
AcDbBlockReference
  2
_OPEN
 10
685.605302
 20
-75.0
 30
0.0
 41
20.0
 42
20.0
 43
20.0
 50
270.0
  0
MTEXT
  5
BE2
100
AcDbEntity
  8
0
  6
BYBLOCK
 62
     0
100
AcDbMText
 10
674.105302
 20
-1.802349
 30
0.0
 40
20.0
 41
0.0
 71
     5
 72
     1
  1
\A1;\U+2205150
  7
ED20
 11
0.0
 21
1.0
 31
0.0
  0
POINT
  5
BE3
100
AcDbEntity
  8
DEFPOINTS
  6
BYBLOCK
 62
     0
100
AcDbPoint
 10
727.552254
 20
75.0
 30
0.0
  0
POINT
  5
BE4
100
AcDbEntity
  8
DEFPOINTS
  6
BYBLOCK
 62
     0
100
AcDbPoint
 10
727.552254
 20
-75.0
 30
0.0
  0
POINT
  5
BE5
100
AcDbEntity
  8
DEFPOINTS
  6
BYBLOCK
 62
     0
100
AcDbPoint
 10
685.605302
 20
-75.0
 30
0.0
  0
ENDBLK
  5
BE6
100
AcDbEntity
  8
0
100
AcDbBlockEnd
  0
BLOCK
  5
B08
100
AcDbEntity
  8
0
100
AcDbBlockBegin
  2
*D2
 70
     1
 10
0.0
 20
0.0
 30
0.0
  3
*D2
  1

  0
LINE
  5
B09
100
AcDbEntity
  8
0
  6
BYBLOCK
 62
     0
100
AcDbLine
 10
727.552254
 20
-51.0
 30
0.0
 11
727.552254
 21
-99.245962
 31
0.0
  0
LINE
  5
B0A
100
AcDbEntity
  8
0
  6
BYBLOCK
 62
     0
100
AcDbLine
 10
767.552254
 20
-51.0
 30
0.0
 11
767.552254
 21
-99.245962
 31
0.0
  0
LINE
  5
B0B
100
AcDbEntity
  8
0
  6
BYBLOCK
 62
     0
100
AcDbLine
 10
707.552254
 20
-97.995962
 30
0.0
 11
687.552254
 21
-97.995962
 31
0.0
  0
LINE
  5
B0C
100
AcDbEntity
  8
0
  6
BYBLOCK
 62
     0
100
AcDbLine
 10
787.552254
 20
-97.995962
 30
0.0
 11
807.552254
 21
-97.995962
 31
0.0
  0
LINE
  5
B0D
100
AcDbEntity
  8
0
  6
BYBLOCK
 62
     0
100
AcDbLine
 10
727.552254
 20
-97.995962
 30
0.0
 11
767.552254
 21
-97.995962
 31
0.0
  0
INSERT
  5
B0E
100
AcDbEntity
  8
0
  6
BYBLOCK
 62
     0
100
AcDbBlockReference
  2
_OPEN
 10
727.552254
 20
-97.995962
 30
0.0
 41
20.0
 42
20.0
 43
20.0
  0
INSERT
  5
B0F
100
AcDbEntity
  8
0
  6
BYBLOCK
 62
     0
100
AcDbBlockReference
  2
_OPEN
 10
767.552254
 20
-97.995962
 30
0.0
 41
20.0
 42
20.0
 43
20.0
 50
180.0
  0
MTEXT
  5
B10
100
AcDbEntity
  8
0
  6
BYBLOCK
 62
     0
100
AcDbMText
 10
747.552254
 20
-86.495962
 30
0.0
 40
20.0
 41
0.0
 71
     5
 72
     1
  1
\A1;40
  7
ED20
  0
POINT
  5
B11
100
AcDbEntity
  8
DEFPOINTS
  6
BYBLOCK
 62
     0
100
AcDbPoint
 10
727.552254
 20
-50.0
 30
0.0
  0
POINT
  5
B12
100
AcDbEntity
  8
DEFPOINTS
  6
BYBLOCK
 62
     0
100
AcDbPoint
 10
767.552254
 20
-50.0
 30
0.0
  0
POINT
  5
B13
100
AcDbEntity
  8
DEFPOINTS
  6
BYBLOCK
 62
     0
100
AcDbPoint
 10
767.552254
 20
-97.995962
 30
0.0
  0
ENDBLK
  5
B14
100
AcDbEntity
  8
0
100
AcDbBlockEnd
  0
BLOCK
  5
B98
100
AcDbEntity
  8
0
100
AcDbBlockBegin
  2
*D3
 70
     1
 10
0.0
 20
0.0
 30
0.0
  3
*D3
  1

  0
LINE
  5
B99
100
AcDbEntity
  8
0
  6
BYBLOCK
 62
    41
100
AcDbLine
 10
727.552254
 20
-64.5
 30
0.0
 11
727.552254
 21
-153.974261
 31
0.0
  0
LINE
  5
B9A
100
AcDbEntity
  8
0
  6
BYBLOCK
 62
    41
100
AcDbLine
 10
927.547962
 20
-64.5
 30
0.0
 11
927.547962
 21
-153.974261
 31
0.0
  0
LINE
  5
B9B
100
AcDbEntity
  8
0
  6
BYBLOCK
 62
    41
100
AcDbLine
 10
742.552254
 20
-152.724261
 30
0.0
 11
912.547962
 21
-152.724261
 31
0.0
  0
INSERT
  5
B9C
100
AcDbEntity
  8
0
  6
BYBLOCK
 62
    41
100
AcDbBlockReference
  2
_OPEN
 10
727.552254
 20
-152.724261
 30
0.0
 41
15.0
 42
15.0
 43
15.0
 50
180.0
  0
INSERT
  5
B9D
100
AcDbEntity
  8
0
  6
BYBLOCK
 62
    41
100
AcDbBlockReference
  2
_OPEN
 10
927.547962
 20
-152.724261
 30
0.0
 41
15.0
 42
15.0
 43
15.0
  0
MTEXT
  5
B9E
100
AcDbEntity
  8
0
  6
BYBLOCK
 62
    41
100
AcDbMText
 10
827.550108
 20
-141.222293
 30
0.0
 40
20.0
 41
0.0
 71
     5
 72
     1
  1
\A1;200
  7
ED20
  0
POINT
  5
B9F
100
AcDbEntity
  8
DEFPOINTS
  6
BYBLOCK
 62
     0
100
AcDbPoint
 10
727.552254
 20
-63.5
 30
0.0
  0
POINT
  5
BA0
100
AcDbEntity
  8
DEFPOINTS
  6
BYBLOCK
 62
     0
100
AcDbPoint
 10
927.547962
 20
-63.5
 30
0.0
  0
POINT
  5
BA1
100
AcDbEntity
  8
DEFPOINTS
  6
BYBLOCK
 62
     0
100
AcDbPoint
 10
927.547962
 20
-152.724261
 30
0.0
  0
ENDBLK
  5
BA2
100
AcDbEntity
  8
0
100
AcDbBlockEnd
  0
BLOCK
  5
BEC
100
AcDbEntity
  8
0
100
AcDbBlockBegin
  2
*D4
 70
     1
 10
0.0
 20
0.0
 30
0.0
  3
*D4
  1

  0
LINE
  5
BED
100
AcDbEntity
  8
0
  6
BYBLOCK
 62
    41
100
AcDbLine
 10
767.552254
 20
-77.0
 30
0.0
 11
767.552254
 21
-124.122887
 31
0.0
  0
LINE
  5
BEE
100
AcDbEntity
  8
0
  6
BYBLOCK
 62
    41
100
AcDbLine
 10
887.552254
 20
-76.0
 30
0.0
 11
887.552254
 21
-124.122887
 31
0.0
  0
LINE
  5
BEF
100
AcDbEntity
  8
0
  6
BYBLOCK
 62
    41
100
AcDbLine
 10
782.552254
 20
-122.872887
 30
0.0
 11
872.552254
 21
-122.872887
 31
0.0
  0
INSERT
  5
BF0
100
AcDbEntity
  8
0
  6
BYBLOCK
 62
    41
100
AcDbBlockReference
  2
_OPEN
 10
767.552254
 20
-122.872887
 30
0.0
 41
15.0
 42
15.0
 43
15.0
 50
180.0
  0
INSERT
  5
BF1
100
AcDbEntity
  8
0
  6
BYBLOCK
 62
    41
100
AcDbBlockReference
  2
_OPEN
 10
887.552254
 20
-122.872887
 30
0.0
 41
15.0
 42
15.0
 43
15.0
  0
MTEXT
  5
BF2
100
AcDbEntity
  8
0
  6
BYBLOCK
 62
    41
100
AcDbMText
 10
827.552254
 20
-111.370919
 30
0.0
 40
20.0
 41
0.0
 71
     5
 72
     1
  1
\A1;120
  7
ED20
  0
POINT
  5
BF3
100
AcDbEntity
  8
DEFPOINTS
  6
BYBLOCK
 62
     0
100
AcDbPoint
 10
767.552254
 20
-76.0
 30
0.0
  0
POINT
  5
BF4
100
AcDbEntity
  8
DEFPOINTS
  6
BYBLOCK
 62
     0
100
AcDbPoint
 10
887.552254
 20
-75.0
 30
0.0
  0
POINT
  5
BF5
100
AcDbEntity
  8
DEFPOINTS
  6
BYBLOCK
 62
     0
100
AcDbPoint
 10
887.552254
 20
-122.872887
 30
0.0
  0
ENDBLK
  5
BF6
100
AcDbEntity
  8
0
100
AcDbBlockEnd
  0
BLOCK
  5
D84
100
AcDbEntity
  8
0
100
AcDbBlockBegin
  2
*D8
 70
     1
 10
0.0
 20
0.0
 30
0.0
  3
*D8
  1

  0
LINE
  5
D85
100
AcDbEntity
  8
0
  6
BYBLOCK
 62
    41
100
AcDbLine
 10
827.552254
 20
118.0
 30
0.0
 11
827.552254
 21
152.873177
 31
0.0
  0
LINE
  5
D86
100
AcDbEntity
  8
0
  6
BYBLOCK
 62
    41
100
AcDbLine
 10
962.552254
 20
121.0
 30
0.0
 11
962.552254
 21
152.873177
 31
0.0
  0
LINE
  5
D87
100
AcDbEntity
  8
0
  6
BYBLOCK
 62
    41
100
AcDbLine
 10
842.552254
 20
151.623177
 30
0.0
 11
947.552254
 21
151.623177
 31
0.0
  0
INSERT
  5
D88
100
AcDbEntity
  8
0
  6
BYBLOCK
 62
    41
100
AcDbBlockReference
  2
_OPEN
 10
827.552254
 20
151.623177
 30
0.0
 41
15.0
 42
15.0
 43
15.0
 50
180.0
  0
INSERT
  5
D89
100
AcDbEntity
  8
0
  6
BYBLOCK
 62
    41
100
AcDbBlockReference
  2
_OPEN
 10
962.552254
 20
151.623177
 30
0.0
 41
15.0
 42
15.0
 43
15.0
  0
MTEXT
  5
D8A
100
AcDbEntity
  8
0
  6
BYBLOCK
 62
    41
100
AcDbMText
 10
895.052254
 20
160.623177
 30
0.0
 40
15.0
 41
0.0
 71
     5
 72
     1
  1
\A1;135
  7
ED15
  0
POINT
  5
D8B
100
AcDbEntity
  8
DEFPOINTS
  6
BYBLOCK
 62
     0
100
AcDbPoint
 10
827.552254
 20
117.0
 30
0.0
  0
POINT
  5
D8C
100
AcDbEntity
  8
DEFPOINTS
  6
BYBLOCK
 62
     0
100
AcDbPoint
 10
962.552254
 20
120.0
 30
0.0
  0
POINT
  5
D8D
100
AcDbEntity
  8
DEFPOINTS
  6
BYBLOCK
 62
     0
100
AcDbPoint
 10
962.552254
 20
151.623177
 30
0.0
  0
ENDBLK
  5
D8E
100
AcDbEntity
  8
0
100
AcDbBlockEnd
  0
BLOCK
  5
D8F
100
AcDbEntity
  8
0
100
AcDbBlockBegin
  2
*D9
 70
     1
 10
0.0
 20
0.0
 30
0.0
  3
*D9
  1

  0
LINE
  5
D90
100
AcDbEntity
  8
0
  6
BYBLOCK
 62
    41
100
AcDbLine
 10
963.552254
 20
120.0
 30
0.0
 11
980.133946
 21
120.0
 31
0.0
  0
LINE
  5
D91
100
AcDbEntity
  8
0
  6
BYBLOCK
 62
    41
100
AcDbLine
 10
928.552254
 20
75.0
 30
0.0
 11
980.133946
 21
75.0
 31
0.0
  0
LINE
  5
D92
100
AcDbEntity
  8
0
  6
BYBLOCK
 62
    41
100
AcDbLine
 10
978.883946
 20
105.0
 30
0.0
 11
978.883946
 21
90.0
 31
0.0
  0
INSERT
  5
D93
100
AcDbEntity
  8
0
  6
BYBLOCK
 62
    41
100
AcDbBlockReference
  2
_OPEN
 10
978.883946
 20
120.0
 30
0.0
 41
15.0
 42
15.0
 43
15.0
 50
90.0
  0
INSERT
  5
D94
100
AcDbEntity
  8
0
  6
BYBLOCK
 62
    41
100
AcDbBlockReference
  2
_OPEN
 10
978.883946
 20
75.0
 30
0.0
 41
15.0
 42
15.0
 43
15.0
 50
270.0
  0
MTEXT
  5
D95
100
AcDbEntity
  8
0
  6
BYBLOCK
 62
    41
100
AcDbMText
 10
969.883946
 20
97.5
 30
0.0
 40
15.0
 41
0.0
 71
     5
 72
     1
  1
\A1;45
  7
ED15
 11
0.0
 21
1.0
 31
0.0
  0
POINT
  5
D96
100
AcDbEntity
  8
DEFPOINTS
  6
BYBLOCK
 62
     0
100
AcDbPoint
 10
962.552254
 20
120.0
 30
0.0
  0
POINT
  5
D97
100
AcDbEntity
  8
DEFPOINTS
  6
BYBLOCK
 62
     0
100
AcDbPoint
 10
927.552254
 20
75.0
 30
0.0
  0
POINT
  5
D98
100
AcDbEntity
  8
DEFPOINTS
  6
BYBLOCK
 62
     0
100
AcDbPoint
 10
978.883946
 20
75.0
 30
0.0
  0
ENDBLK
  5
D99
100
AcDbEntity
  8
0
100
AcDbBlockEnd
  0
BLOCK
  5
D9A
100
AcDbEntity
  8
0
100
AcDbBlockBegin
  2
*D10
 70
     1
 10
0.0
 20
0.0
 30
0.0
  3
*D10
  1

  0
LINE
  5
D9B
100
AcDbEntity
  8
0
  6
BYBLOCK
 62
    41
100
AcDbLine
 10
1703.29072
 20
106.0
 30
0.0
 11
1703.29072
 21
136.701469
 31
0.0
  0
LINE
  5
D9C
100
AcDbEntity
  8
0
  6
BYBLOCK
 62
    41
100
AcDbLine
 10
1803.29072
 20
106.0
 30
0.0
 11
1803.29072
 21
136.701469
 31
0.0
  0
LINE
  5
D9D
100
AcDbEntity
  8
0
  6
BYBLOCK
 62
    41
100
AcDbLine
 10
1718.29072
 20
135.451469
 30
0.0
 11
1788.29072
 21
135.451469
 31
0.0
  0
INSERT
  5
D9E
100
AcDbEntity
  8
0
  6
BYBLOCK
 62
    41
100
AcDbBlockReference
  2
_OPEN
 10
1703.29072
 20
135.451469
 30
0.0
 41
15.0
 42
15.0
 43
15.0
 50
180.0
  0
INSERT
  5
D9F
100
AcDbEntity
  8
0
  6
BYBLOCK
 62
    41
100
AcDbBlockReference
  2
_OPEN
 10
1803.29072
 20
135.451469
 30
0.0
 41
15.0
 42
15.0
 43
15.0
  0
MTEXT
  5
DA0
100
AcDbEntity
  8
0
  6
BYBLOCK
 62
    41
100
AcDbMText
 10
1753.797002
 20
144.451469
 30
0.0
 40
15.0
 41
0.0
 71
     5
 72
     1
  1
\A1;100
  7
ED15
  0
POINT
  5
DA1
100
AcDbEntity
  8
DEFPOINTS
  6
BYBLOCK
 62
     0
100
AcDbPoint
 10
1703.29072
 20
105.0
 30
0.0
  0
POINT
  5
DA2
100
AcDbEntity
  8
DEFPOINTS
  6
BYBLOCK
 62
     0
100
AcDbPoint
 10
1803.29072
 20
105.0
 30
0.0
  0
POINT
  5
DA3
100
AcDbEntity
  8
DEFPOINTS
  6
BYBLOCK
 62
     0
100
AcDbPoint
 10
1803.29072
 20
135.451469
 30
0.0
  0
ENDBLK
  5
DA4
100
AcDbEntity
  8
0
100
AcDbBlockEnd
  0
ENDSEC
  0
SECTION
  2
ENTITIES
  0
DIMENSION
  5
A3E
100
AcDbEntity
  8
V0-VYPLNE
  6
CONTINUOUS
 62
    41
100
AcDbDimension
  2
*D2
 10
767.552254
 20
-122.995962
 30
0.0
 11
747.552254
 21
-122.995962
 31
0.0
 12
0.0
 22
-25.0
 32
0.0
 70
   160
  3
ED20
100
AcDbAlignedDimension
 13
727.552254
 23
-75.0
 33
0.0
 14
767.552254
 24
-75.0
 34
0.0
100
AcDbRotatedDimension
1001
ACAD
1000
DSTYLE
1002
{
1070
    40
1040
1.0
1002
}
  0
LINE
  5
A3F
100
AcDbEntity
  8
V0-OBRYS
  6
CONTINUOUS
 62
    90
100
AcDbLine
 10
727.552254
 20
-75.0
 30
0.0
 11
767.552254
 21
-75.0
 31
0.0
  0
LINE
  5
A40
100
AcDbEntity
  8
V0-OBRYS
  6
CONTINUOUS
 62
    90
100
AcDbLine
 10
727.552254
 20
75.0
 30
0.0
 11
767.552254
 21
75.0
 31
0.0
  0
LINE
  5
A41
100
AcDbEntity
  8
V0-VYPLNE
  6
DASHDOT
 62
    63
100
AcDbLine
 10
722.552254
 20
0.0
 30
0.0
 11
935.787284
 21
0.0
 31
0.0
  0
DIMENSION
  5
A42
100
AcDbEntity
  8
V0-VYPLNE
  6
CONTINUOUS
 62
    41
100
AcDbDimension
  2
*D1
 10
685.605302
 20
-75.0
 30
0.0
 11
685.605302
 21
-1.802349
 31
0.0
 70
   160
  1
%%c<>
  3
ED20
100
AcDbAlignedDimension
 13
727.552254
 23
75.0
 33
0.0
 14
727.552254
 24
-75.0
 34
0.0
 50
90.0
100
AcDbRotatedDimension
1001
ACAD
1000
DSTYLE
1002
{
1070
    40
1040
1.0
1002
}
  0
LINE
  5
A43
100
AcDbEntity
  8
V0-OBRYS
  6
CONTINUOUS
 62
    90
100
AcDbLine
 10
727.552254
 20
0.0
 30
0.0
 11
727.552254
 21
75.0
 31
0.0
  0
LINE
  5
A44
100
AcDbEntity
  8
V0-OBRYS
  6
CONTINUOUS
 62
    90
100
AcDbLine
 10
727.552254
 20
0.0
 30
0.0
 11
727.552254
 21
-75.0
 31
0.0
  0
POINT
  5
A45
100
AcDbEntity
  8
V0-VYPLNE
  6
CONTINUOUS
 62
     7
100
AcDbPoint
 10
768.79957
 20
0.0
 30
0.0
  0
LINE
  5
A46
100
AcDbEntity
  8
V0-OBRYS
  6
CONTINUOUS
 62
    90
100
AcDbLine
 10
767.552254
 20
0.0
 30
0.0
 11
767.552254
 21
75.0
 31
0.0
  0
LINE
  5
A47
100
AcDbEntity
  8
V0-OBRYS
  6
CONTINUOUS
 62
    90
100
AcDbLine
 10
782.552254
 20
75.0
 30
0.0
 11
782.552254
 21
0.0
 31
0.0
  0
LINE
  5
A48
100
AcDbEntity
  8
V0-OBRYS
  6
CONTINUOUS
 62
    90
100
AcDbLine
 10
782.552254
 20
-75.0
 30
0.0
 11
782.552254
 21
0.0
 31
0.0
  0
LINE
  5
A49
100
AcDbEntity
  8
V0-OBRYS
  6
CONTINUOUS
 62
    90
100
AcDbLine
 10
767.552254
 20
0.0
 30
0.0
 11
767.552254
 21
-75.0
 31
0.0
  0
ARC
  5
A4B
100
AcDbEntity
  8
V0-OBRYS
  6
CONTINUOUS
 62
    90
100
AcDbCircle
 10
772.552254
 20
-75.0
 30
0.0
 40
5.0
100
AcDbArc
 50
180.0
 51
270.0
  0
ARC
  5
A4C
100
AcDbEntity
  8
V0-OBRYS
  6
CONTINUOUS
 62
    90
100
AcDbCircle
 10
777.552254
 20
-75.0
 30
0.0
 40
5.0
100
AcDbArc
 50
270.0
 51
0.0
  0
LINE
  5
A4D
100
AcDbEntity
  8
V0-OBRYS
  6
CONTINUOUS
 62
    90
100
AcDbLine
 10
772.552254
 20
-80.0
 30
0.0
 11
777.552254
 21
-80.0
 31
0.0
  0
ARC
  5
A4F
100
AcDbEntity
  8
V0-OBRYS
  6
CONTINUOUS
 62
    90
100
AcDbCircle
 10
772.552254
 20
75.0
 30
0.0
 40
5.0
100
AcDbArc
 50
90.0
 51
180.0
  0
ARC
  5
A50
100
AcDbEntity
  8
V0-OBRYS
  6
CONTINUOUS
 62
    90
100
AcDbCircle
 10
777.552254
 20
75.0
 30
0.0
 40
5.0
100
AcDbArc
 50
0.0
 51
90.0
  0
LINE
  5
A51
100
AcDbEntity
  8
V0-OBRYS
  6
CONTINUOUS
 62
    90
100
AcDbLine
 10
772.552254
 20
80.0
 30
0.0
 11
777.552254
 21
80.0
 31
0.0
  0
LINE
  5
B85
100
AcDbEntity
  8
V0-OBRYS
  6
CONTINUOUS
 62
    90
100
AcDbLine
 10
872.552254
 20
-75.0
 30
0.0
 11
782.552254
 21
-75.0
 31
0.0
  0
LINE
  5
B86
100
AcDbEntity
  8
V0-OBRYS
  6
CONTINUOUS
 62
    90
100
AcDbLine
 10
872.552254
 20
75.0
 30
0.0
 11
870.071596
 21
75.0
 31
0.0
  0
LINE
  5
B88
100
AcDbEntity
  8
V0-OBRYS
  6
CONTINUOUS
 62
    90
100
AcDbLine
 10
927.552254
 20
0.0
 30
0.0
 11
927.552254
 21
75.0
 31
0.0
  0
LINE
  5
B89
100
AcDbEntity
  8
V0-OBRYS
  6
CONTINUOUS
 62
    90
100
AcDbLine
 10
887.552254
 20
0.0
 30
0.0
 11
887.552254
 21
75.0
 31
0.0
  0
LINE
  5
B8A
100
AcDbEntity
  8
V0-OBRYS
  6
CONTINUOUS
 62
    90
100
AcDbLine
 10
872.552254
 20
75.0
 30
0.0
 11
872.552254
 21
0.0
 31
0.0
  0
POINT
  5
B8B
100
AcDbEntity
  8
V0-VYPLNE
  6
CONTINUOUS
 62
     7
100
AcDbPoint
 10
887.552254
 20
0.0
 30
0.0
  0
LINE
  5
B8C
100
AcDbEntity
  8
V0-OBRYS
  6
CONTINUOUS
 62
    90
100
AcDbLine
 10
927.552254
 20
-75.0
 30
0.0
 11
887.552254
 21
-75.0
 31
0.0
  0
LINE
  5
B8D
100
AcDbEntity
  8
V0-OBRYS
  6
CONTINUOUS
 62
    90
100
AcDbLine
 10
927.552254
 20
0.0
 30
0.0
 11
927.552254
 21
-75.0
 31
0.0
  0
LINE
  5
B8E
100
AcDbEntity
  8
V0-OBRYS
  6
CONTINUOUS
 62
    90
100
AcDbLine
 10
887.552254
 20
0.0
 30
0.0
 11
887.552254
 21
-75.0
 31
0.0
  0
LINE
  5
B8F
100
AcDbEntity
  8
V0-OBRYS
  6
CONTINUOUS
 62
    90
100
AcDbLine
 10
872.552254
 20
-75.0
 30
0.0
 11
872.552254
 21
0.0
 31
0.0
  0
LINE
  5
B90
100
AcDbEntity
  8
V0-OBRYS
  6
CONTINUOUS
 62
    90
100
AcDbLine
 10
882.552254
 20
-80.0
 30
0.0
 11
877.552254
 21
-80.0
 31
0.0
  0
ARC
  5
B91
100
AcDbEntity
  8
V0-OBRYS
  6
CONTINUOUS
 62
    90
100
AcDbCircle
 10
882.552254
 20
-75.0
 30
0.0
 40
5.0
100
AcDbArc
 50
270.0
 51
0.0
  0
ARC
  5
B92
100
AcDbEntity
  8
V0-OBRYS
  6
CONTINUOUS
 62
    90
100
AcDbCircle
 10
877.552254
 20
-75.0
 30
0.0
 40
5.0
100
AcDbArc
 50
180.0
 51
270.0
  0
LINE
  5
B93
100
AcDbEntity
  8
V0-OBRYS
  6
CONTINUOUS
 62
    90
100
AcDbLine
 10
927.552254
 20
75.0
 30
0.0
 11
887.552254
 21
75.0
 31
0.0
  0
LINE
  5
B94
100
AcDbEntity
  8
V0-OBRYS
  6
CONTINUOUS
 62
    90
100
AcDbLine
 10
882.552254
 20
80.0
 30
0.0
 11
877.552254
 21
80.0
 31
0.0
  0
ARC
  5
B95
100
AcDbEntity
  8
V0-OBRYS
  6
CONTINUOUS
 62
    90
100
AcDbCircle
 10
882.552254
 20
75.0
 30
0.0
 40
5.0
100
AcDbArc
 50
0.0
 51
90.0
  0
ARC
  5
B96
100
AcDbEntity
  8
V0-OBRYS
  6
CONTINUOUS
 62
    90
100
AcDbCircle
 10
877.552254
 20
75.0
 30
0.0
 40
5.0
100
AcDbArc
 50
90.0
 51
180.0
  0
DIMENSION
  5
BA3
100
AcDbEntity
  8
DEFPOINTS
  6
CONTINUOUS
 62
    90
100
AcDbDimension
  2
*D3
 10
927.547962
 20
-165.224261
 30
0.0
 11
827.550108
 21
-141.222293
 31
0.0
 12
0.0
 22
-12.5
 32
0.0
 70
    32
  3
ED10
100
AcDbAlignedDimension
 13
727.552254
 23
-76.0
 33
0.0
 14
927.547962
 24
-76.0
 34
0.0
100
AcDbRotatedDimension
1001
ACAD
1000
DSTYLE
1002
{
1070
    40
1040
1.0
1002
}
  0
DIMENSION
  5
BF7
100
AcDbEntity
  8
DEFPOINTS
  6
CONTINUOUS
 62
    90
100
AcDbDimension
  2
*D4
 10
887.552254
 20
-122.872887
 30
0.0
 11
827.552254
 21
-111.370919
 31
0.0
 70
    32
  3
ED10
100
AcDbAlignedDimension
 13
767.552254
 23
-76.0
 33
0.0
 14
887.552254
 24
-75.0
 34
0.0
100
AcDbRotatedDimension
1001
ACAD
1000
DSTYLE
1002
{
1070
    40
1040
1.0
1002
}
  0
LINE
  5
CBC
100
AcDbEntity
  8
V0-OBRYS
  6
CONTINUOUS
 62
    90
100
AcDbLine
 10
875.552254
 20
-209.700202
 30
0.0
 11
875.552254
 21
-274.232362
 31
0.0
  0
LINE
  5
CBD
100
AcDbEntity
  8
V0-OBRYS
  6
CONTINUOUS
 62
    90
100
AcDbLine
 10
890.552254
 20
-274.700202
 30
0.0
 11
890.552254
 21
-209.700202
 31
0.0
  0
LINE
  5
CBE
100
AcDbEntity
  8
V0-OBRYS
  6
CONTINUOUS
 62
    90
100
AcDbLine
 10
930.552254
 20
-274.700202
 30
0.0
 11
930.552254
 21
-209.700202
 31
0.0
  0
LINE
  5
CBF
100
AcDbEntity
  8
V0-OBRYS
  6
CONTINUOUS
 62
    90
100
AcDbLine
 10
785.552254
 20
-209.700202
 30
0.0
 11
785.552254
 21
-284.700202
 31
0.0
  0
LINE
  5
CC0
100
AcDbEntity
  8
V0-OBRYS
  6
CONTINUOUS
 62
    90
100
AcDbLine
 10
770.552254
 20
-284.700202
 30
0.0
 11
770.552254
 21
-209.700202
 31
0.0
  0
LINE
  5
CC1
100
AcDbEntity
  8
V0-OBRYS
  6
CONTINUOUS
 62
    90
100
AcDbLine
 10
730.552254
 20
-284.700202
 30
0.0
 11
730.552254
 21
-209.700202
 31
0.0
  0
LINE
  5
CC2
100
AcDbEntity
  8
V0-VYPLNE
  6
DASHDOT
 62
    63
100
AcDbLine
 10
725.552254
 20
-284.700202
 30
0.0
 11
962.552254
 21
-284.700202
 31
0.0
  0
LINE
  5
CC3
100
AcDbEntity
  8
V0-OBRYS
  6
CONTINUOUS
 62
    90
100
AcDbLine
 10
730.552254
 20
-359.700202
 30
0.0
 11
770.552254
 21
-359.700202
 31
0.0
  0
LINE
  5
CC4
100
AcDbEntity
  8
V0-OBRYS
  6
CONTINUOUS
 62
    90
100
AcDbLine
 10
730.552254
 20
-284.700202
 30
0.0
 11
730.552254
 21
-359.700202
 31
0.0
  0
ARC
  5
CC5
100
AcDbEntity
  8
V0-OBRYS
  6
CONTINUOUS
 62
    90
100
AcDbCircle
 10
880.552254
 20
-359.700202
 30
0.0
 40
5.0
100
AcDbArc
 50
180.0
 51
270.0
  0
ARC
  5
CC6
100
AcDbEntity
  8
V0-OBRYS
  6
CONTINUOUS
 62
    90
100
AcDbCircle
 10
885.552254
 20
-359.700202
 30
0.0
 40
5.0
100
AcDbArc
 50
270.0
 51
0.0
  0
ARC
  5
CC7
100
AcDbEntity
  8
V0-OBRYS
  6
CONTINUOUS
 62
    90
100
AcDbCircle
 10
780.552254
 20
-359.700202
 30
0.0
 40
5.0
100
AcDbArc
 50
270.0
 51
0.0
  0
ARC
  5
CC8
100
AcDbEntity
  8
V0-OBRYS
  6
CONTINUOUS
 62
    90
100
AcDbCircle
 10
775.552254
 20
-359.700202
 30
0.0
 40
5.0
100
AcDbArc
 50
180.0
 51
270.0
  0
LINE
  5
CC9
100
AcDbEntity
  8
V0-OBRYS
  6
CONTINUOUS
 62
    90
100
AcDbLine
 10
930.552254
 20
-359.700202
 30
0.0
 11
890.552254
 21
-359.700202
 31
0.0
  0
LINE
  5
CCA
100
AcDbEntity
  8
V0-OBRYS
  6
CONTINUOUS
 62
    90
100
AcDbLine
 10
875.552254
 20
-359.700202
 30
0.0
 11
875.552254
 21
-294.700202
 31
0.0
  0
LINE
  5
CCB
100
AcDbEntity
  8
V0-OBRYS
  6
CONTINUOUS
 62
    90
100
AcDbLine
 10
890.552254
 20
-294.700202
 30
0.0
 11
890.552254
 21
-359.700202
 31
0.0
  0
POINT
  5
CCC
100
AcDbEntity
  8
V0-VYPLNE
  6
CONTINUOUS
 62
     7
100
AcDbPoint
 10
890.552254
 20
-284.700202
 30
0.0
  0
LINE
  5
CCD
100
AcDbEntity
  8
V0-OBRYS
  6
CONTINUOUS
 62
    90
100
AcDbLine
 10
770.552254
 20
-284.700202
 30
0.0
 11
770.552254
 21
-359.700202
 31
0.0
  0
LINE
  5
CCE
100
AcDbEntity
  8
V0-OBRYS
  6
CONTINUOUS
 62
    90
100
AcDbLine
 10
785.552254
 20
-359.700202
 30
0.0
 11
785.552254
 21
-284.700202
 31
0.0
  0
POINT
  5
CCF
100
AcDbEntity
  8
V0-VYPLNE
  6
CONTINUOUS
 62
     7
100
AcDbPoint
 10
771.79957
 20
-284.700202
 30
0.0
  0
LINE
  5
CD0
100
AcDbEntity
  8
V0-OBRYS
  6
CONTINUOUS
 62
    90
100
AcDbLine
 10
875.552254
 20
-359.700202
 30
0.0
 11
785.552254
 21
-359.700202
 31
0.0
  0
LINE
  5
CD1
100
AcDbEntity
  8
V0-OBRYS
  6
CONTINUOUS
 62
    90
100
AcDbLine
 10
775.552254
 20
-364.700202
 30
0.0
 11
780.552254
 21
-364.700202
 31
0.0
  0
LINE
  5
CD2
100
AcDbEntity
  8
V0-OBRYS
  6
CONTINUOUS
 62
    90
100
AcDbLine
 10
885.552254
 20
-364.700202
 30
0.0
 11
880.552254
 21
-364.700202
 31
0.0
  0
LINE
  5
CD3
100
AcDbEntity
  8
V0-OBRYS
  6
CONTINUOUS
 62
    90
100
AcDbLine
 10
930.552254
 20
-294.700202
 30
0.0
 11
930.552254
 21
-359.700202
 31
0.0
  0
LINE
  5
CD4
100
AcDbEntity
  8
V0-OBRYS
  6
CONTINUOUS
 62
    90
100
AcDbLine
 10
730.552254
 20
-209.700202
 30
0.0
 11
770.552254
 21
-209.700202
 31
0.0
  0
LINE
  5
CD5
100
AcDbEntity
  8
V0-OBRYS
  6
CONTINUOUS
 62
    90
100
AcDbLine
 10
930.552254
 20
-209.700202
 30
0.0
 11
890.552254
 21
-209.700202
 31
0.0
  0
LINE
  5
CD6
100
AcDbEntity
  8
V0-OBRYS
  6
CONTINUOUS
 62
    90
100
AcDbLine
 10
875.552254
 20
-209.700202
 30
0.0
 11
785.552254
 21
-209.700202
 31
0.0
  0
ARC
  5
CD7
100
AcDbEntity
  8
V0-OBRYS
  6
CONTINUOUS
 62
    90
100
AcDbCircle
 10
775.552254
 20
-209.700202
 30
0.0
 40
5.0
100
AcDbArc
 50
90.0
 51
180.0
  0
ARC
  5
CD8
100
AcDbEntity
  8
V0-OBRYS
  6
CONTINUOUS
 62
    90
100
AcDbCircle
 10
780.552254
 20
-209.700202
 30
0.0
 40
5.0
100
AcDbArc
 50
0.0
 51
90.0
  0
LINE
  5
CD9
100
AcDbEntity
  8
V0-OBRYS
  6
CONTINUOUS
 62
    90
100
AcDbLine
 10
775.552254
 20
-204.700202
 30
0.0
 11
780.552254
 21
-204.700202
 31
0.0
  0
LINE
  5
CDA
100
AcDbEntity
  8
V0-OBRYS
  6
CONTINUOUS
 62
    90
100
AcDbLine
 10
885.552254
 20
-204.700202
 30
0.0
 11
880.552254
 21
-204.700202
 31
0.0
  0
ARC
  5
CDB
100
AcDbEntity
  8
V0-OBRYS
  6
CONTINUOUS
 62
    90
100
AcDbCircle
 10
880.552254
 20
-209.700202
 30
0.0
 40
5.0
100
AcDbArc
 50
90.0
 51
180.0
  0
ARC
  5
CDC
100
AcDbEntity
  8
V0-OBRYS
  6
CONTINUOUS
 62
    90
100
AcDbCircle
 10
885.552254
 20
-209.700202
 30
0.0
 40
5.0
100
AcDbArc
 50
0.0
 51
90.0
  0
DIMENSION
  5
CDD
100
AcDbEntity
  8
V0-VYPLNE
  6
CONTINUOUS
 62
    41
100
AcDbDimension
  2
*D8
 10
962.552254
 20
151.623177
 30
0.0
 11
895.052254
 21
151.623177
 31
0.0
 70
   160
  3
ED15
100
AcDbAlignedDimension
 13
827.552254
 23
117.0
 33
0.0
 14
962.552254
 24
120.0
 34
0.0
100
AcDbRotatedDimension
1001
ACAD
1000
DSTYLE
1002
{
1070
    40
1040
1.0
1070
   178
1070
    41
1070
   177
1070
    41
1070
   176
1070
    41
1002
}
  0
LINE
  5
CDE
100
AcDbEntity
  8
V0-OBRYS
  6
CONTINUOUS
 62
    90
100
AcDbLine
 10
859.773509
 20
-294.700202
 30
0.0
 11
957.552254
 21
-294.700202
 31
0.0
  0
LINE
  5
CDF
100
AcDbEntity
  8
V0-OBRYS
  6
CONTINUOUS
 62
    90
100
AcDbLine
 10
880.036142
 20
-274.700202
 30
0.0
 11
957.552254
 21
-274.700202
 31
0.0
  0
LINE
  5
CE0
100
AcDbEntity
  8
V0-OBRYS
  6
CONTINUOUS
 62
    90
100
AcDbLine
 10
908.936312
 20
117.33835
 30
0.0
 11
883.379874
 21
104.049002
 31
0.0
  0
LINE
  5
CE1
100
AcDbEntity
  8
V0-OBRYS
  6
CONTINUOUS
 62
    90
100
AcDbLine
 10
907.552254
 20
120.0
 30
0.0
 11
882.552254
 21
107.0
 31
0.0
  0
LINE
  5
CE2
100
AcDbEntity
  8
V0-VYPLNE
  6
DASHED
 62
    52
100
AcDbLine
 10
830.552254
 20
104.049002
 30
0.0
 11
830.552254
 21
-80.160428
 31
0.0
  0
LINE
  5
CE3
100
AcDbEntity
  8
V0-VYPLNE
  6
DASHED
 62
    52
100
AcDbLine
 10
824.552254
 20
104.049002
 30
0.0
 11
824.552254
 21
-80.160428
 31
0.0
  0
LINE
  5
CE4
100
AcDbEntity
  8
V0-OBRYS
  6
CONTINUOUS
 62
    90
100
AcDbLine
 10
827.552254
 20
118.0
 30
0.0
 11
827.552254
 21
-85.147691
 31
0.0
  0
ARC
  5
CE5
100
AcDbEntity
  8
V0-VYPLNE
  6
DASHDOT
 62
    63
100
AcDbCircle
 10
827.552254
 20
-284.700202
 30
0.0
 40
40.0
100
AcDbArc
 50
260.720854
 51
98.569564
  0
LINE
  5
CE6
100
AcDbEntity
  8
V0-OBRYS
  6
CONTINUOUS
 62
    90
100
AcDbLine
 10
812.552254
 20
-278.486998
 30
0.0
 11
812.552254
 21
-234.700202
 31
0.0
  0
LINE
  5
CE7
100
AcDbEntity
  8
V0-OBRYS
  6
CONTINUOUS
 62
    90
100
AcDbLine
 10
882.552254
 20
-234.700202
 30
0.0
 11
882.552254
 21
-274.700202
 31
0.0
  0
ARC
  5
CE8
100
AcDbEntity
  8
V0-OBRYS
  6
CONTINUOUS
 62
    90
100
AcDbCircle
 10
827.552254
 20
-284.700202
 30
0.0
 40
43.0
100
AcDbArc
 50
13.447727
 51
90.0
  0
ARC
  5
CE9
100
AcDbEntity
  8
V0-OBRYS
  6
CONTINUOUS
 62
    90
100
AcDbCircle
 10
827.552254
 20
-284.700202
 30
0.0
 40
37.0
100
AcDbArc
 50
15.68035
 51
90.0
  0
LINE
  5
CEA
100
AcDbEntity
  8
V0-OBRYS
  6
CONTINUOUS
 62
    90
100
AcDbLine
 10
882.552254
 20
-334.700202
 30
0.0
 11
812.552254
 21
-334.700202
 31
0.0
  0
LINE
  5
CEB
100
AcDbEntity
  8
V0-OBRYS
  6
CONTINUOUS
 62
    90
100
AcDbLine
 10
812.552254
 20
-274.700202
 30
0.0
 11
875.430933
 21
-274.700202
 31
0.0
  0
ARC
  5
CEC
100
AcDbEntity
  8
V0-OBRYS
  6
CONTINUOUS
 62
    90
100
AcDbCircle
 10
827.552254
 20
-284.700202
 30
0.0
 40
43.0
100
AcDbArc
 50
270.0
 51
346.552273
  0
ARC
  5
CED
100
AcDbEntity
  8
V0-OBRYS
  6
CONTINUOUS
 62
    90
100
AcDbCircle
 10
827.552254
 20
-284.700202
 30
0.0
 40
37.0
100
AcDbArc
 50
270.0
 51
344.31965
  0
LINE
  5
CEE
100
AcDbEntity
  8
V0-OBRYS
  6
CONTINUOUS
 62
    90
100
AcDbLine
 10
812.552254
 20
-294.700202
 30
0.0
 11
855.430933
 21
-294.700202
 31
0.0
  0
LINE
  5
CEF
100
AcDbEntity
  8
V0-OBRYS
  6
CONTINUOUS
 62
    90
100
AcDbLine
 10
812.552254
 20
-334.700202
 30
0.0
 11
812.552254
 21
-288.719784
 31
0.0
  0
ARC
  5
CF0
100
AcDbEntity
  8
V0-OBRYS
  6
CONTINUOUS
 62
    90
100
AcDbCircle
 10
827.552254
 20
-324.700202
 30
0.0
 40
3.0
100
AcDbArc
 50
90.0
 51
270.0
  0
LINE
  5
CF1
100
AcDbEntity
  8
V0-OBRYS
  6
CONTINUOUS
 62
    90
100
AcDbLine
 10
812.552254
 20
-283.700202
 30
0.0
 11
822.653274
 21
-283.700202
 31
0.0
  0
LINE
  5
CF2
100
AcDbEntity
  8
V0-OBRYS
  6
CONTINUOUS
 62
    90
100
AcDbLine
 10
812.552254
 20
-285.700202
 30
0.0
 11
822.653274
 21
-285.700202
 31
0.0
  0
LINE
  5
CF3
100
AcDbEntity
  8
V0-OBRYS
  6
CONTINUOUS
 62
    90
100
AcDbLine
 10
813.856343
 20
-297.672039
 30
0.0
 11
822.109577
 21
-297.672039
 31
0.0
  0
LINE
  5
CF4
100
AcDbEntity
  8
V0-OBRYS
  6
CONTINUOUS
 62
    90
100
AcDbLine
 10
813.856343
 20
-271.728365
 30
0.0
 11
822.109577
 21
-271.728365
 31
0.0
  0
LINE
  5
CF5
100
AcDbEntity
  8
V0-OBRYS
  6
CONTINUOUS
 62
    90
100
AcDbLine
 10
812.552254
 20
-283.700202
 30
0.0
 11
812.552254
 21
-274.700202
 31
0.0
  0
LINE
  5
CF6
100
AcDbEntity
  8
V0-OBRYS
  6
CONTINUOUS
 62
    90
100
AcDbLine
 10
812.552254
 20
-294.700202
 30
0.0
 11
812.552254
 21
-285.700202
 31
0.0
  0
LINE
  5
CF7
100
AcDbEntity
  8
V0-OBRYS
  6
CONTINUOUS
 62
    90
100
AcDbLine
 10
813.856343
 20
-294.576976
 30
0.0
 11
813.856343
 21
-297.672039
 31
0.0
  0
LINE
  5
CF8
100
AcDbEntity
  8
V0-OBRYS
  6
CONTINUOUS
 62
    90
100
AcDbLine
 10
815.746918
 20
-299.305179
 30
0.0
 11
815.746918
 21
-294.700202
 31
0.0
  0
LINE
  5
CF9
100
AcDbEntity
  8
V0-OBRYS
  6
CONTINUOUS
 62
    90
100
AcDbLine
 10
819.787925
 20
-299.305179
 30
0.0
 11
819.787925
 21
-294.700202
 31
0.0
  0
LINE
  5
CFA
100
AcDbEntity
  8
V0-OBRYS
  6
CONTINUOUS
 62
    90
100
AcDbLine
 10
815.746918
 20
-299.305179
 30
0.0
 11
819.787925
 21
-299.305179
 31
0.0
  0
LINE
  5
CFB
100
AcDbEntity
  8
V0-OBRYS
  6
CONTINUOUS
 62
    90
100
AcDbLine
 10
815.746918
 20
-285.700202
 30
0.0
 11
815.746918
 21
-283.700202
 31
0.0
  0
LINE
  5
CFC
100
AcDbEntity
  8
V0-OBRYS
  6
CONTINUOUS
 62
    90
100
AcDbLine
 10
819.787925
 20
-285.700202
 30
0.0
 11
819.787925
 21
-283.700202
 31
0.0
  0
LINE
  5
CFD
100
AcDbEntity
  8
V0-OBRYS
  6
CONTINUOUS
 62
    90
100
AcDbLine
 10
813.856343
 20
-274.823428
 30
0.0
 11
813.856343
 21
-271.728365
 31
0.0
  0
LINE
  5
CFE
100
AcDbEntity
  8
V0-OBRYS
  6
CONTINUOUS
 62
    90
100
AcDbLine
 10
819.787925
 20
-271.816006
 30
0.0
 11
819.787925
 21
-274.739374
 31
0.0
  0
LINE
  5
CFF
100
AcDbEntity
  8
V0-OBRYS
  6
CONTINUOUS
 62
    90
100
AcDbLine
 10
815.746918
 20
-271.728787
 30
0.0
 11
815.746918
 21
-274.738108
 31
0.0
  0
LINE
  5
D00
100
AcDbEntity
  8
V0-OBRYS
  6
CONTINUOUS
 62
    90
100
AcDbLine
 10
840.431184
 20
-274.71318
 30
0.0
 11
840.431184
 21
-294.600567
 31
0.0
  0
CIRCLE
  5
D01
100
AcDbEntity
  8
V0-OBRYS
  6
CONTINUOUS
 62
    90
100
AcDbCircle
 10
827.552254
 20
-284.700202
 30
0.0
 40
5.0
  0
LINE
  5
D02
100
AcDbEntity
  8
V0-OBRYS
  6
CONTINUOUS
 62
    90
100
AcDbLine
 10
822.109577
 20
-297.672039
 30
0.0
 11
822.109577
 21
-294.574444
 31
0.0
  0
LINE
  5
D03
100
AcDbEntity
  8
V0-OBRYS
  6
CONTINUOUS
 62
    90
100
AcDbLine
 10
822.109577
 20
-271.728365
 30
0.0
 11
822.109577
 21
-274.82596
 31
0.0
  0
LINE
  5
D04
100
AcDbEntity
  8
V0-OBRYS
100
AcDbLine
 10
882.552254
 20
-294.700202
 30
0.0
 11
882.552254
 21
-325.558066
 31
0.0
  0
LINE
  5
D05
100
AcDbEntity
  8
V0-OBRYS
100
AcDbLine
 10
882.552254
 20
-294.700202
 30
0.0
 11
882.552254
 21
-325.558066
 31
0.0
  0
LINE
  5
D06
100
AcDbEntity
  8
V0-OBRYS
  6
CONTINUOUS
 62
    90
100
AcDbLine
 10
882.552254
 20
-294.700202
 30
0.0
 11
882.552254
 21
-334.700202
 31
0.0
  0
CIRCLE
  5
D07
100
AcDbEntity
  8
V0-OBRYS
  6
CONTINUOUS
 62
    90
100
AcDbCircle
 10
867.552254
 20
-284.700202
 30
0.0
 40
6.0
  0
CIRCLE
  5
D08
100
AcDbEntity
  8
V0-OBRYS
  6
CONTINUOUS
 62
    90
100
AcDbCircle
 10
867.552254
 20
-284.700202
 30
0.0
 40
3.0
  0
LINE
  5
D09
100
AcDbEntity
  8
V0-OBRYS
  6
CONTINUOUS
 62
    90
100
AcDbLine
 10
852.349458
 20
-297.781677
 30
0.0
 11
862.392627
 21
-287.738508
 31
0.0
  0
LINE
  5
D0A
100
AcDbEntity
  8
V0-OBRYS
  6
CONTINUOUS
 62
    90
100
AcDbLine
 10
854.470778
 20
-299.902997
 30
0.0
 11
864.513947
 21
-289.859829
 31
0.0
  0
LINE
  5
D0B
100
AcDbEntity
  8
V0-OBRYS
  6
CONTINUOUS
 62
    90
100
AcDbLine
 10
852.349458
 20
-297.781677
 30
0.0
 11
854.470778
 21
-299.902997
 31
0.0
  0
LINE
  5
D0C
100
AcDbEntity
  8
V0-OBRYS
  6
CONTINUOUS
 62
    90
100
AcDbLine
 10
882.755049
 20
-271.618726
 30
0.0
 11
872.71188
 21
-281.661895
 31
0.0
  0
LINE
  5
D0D
100
AcDbEntity
  8
V0-OBRYS
  6
CONTINUOUS
 62
    90
100
AcDbLine
 10
880.633729
 20
-269.497406
 30
0.0
 11
870.59056
 21
-279.540575
 31
0.0
  0
LINE
  5
D0E
100
AcDbEntity
  8
V0-OBRYS
  6
CONTINUOUS
 62
    90
100
AcDbLine
 10
880.633729
 20
-269.497406
 30
0.0
 11
882.755049
 21
-271.618726
 31
0.0
  0
LINE
  5
D0F
100
AcDbEntity
  8
V0-OBRYS
  6
CONTINUOUS
 62
    90
100
AcDbLine
 10
812.552254
 20
-234.700202
 30
0.0
 11
882.552254
 21
-234.700202
 31
0.0
  0
ARC
  5
D10
100
AcDbEntity
  8
V0-OBRYS
  6
CONTINUOUS
 62
    90
100
AcDbCircle
 10
827.552254
 20
-244.700202
 30
0.0
 40
3.0
100
AcDbArc
 50
90.0
 51
270.0
  0
LWPOLYLINE
  5
D11
100
AcDbEntity
  8
V0-OBRYS
  6
CONTINUOUS
 62
    90
100
AcDbPolyline
 90
        4
 70
     1
 43
0.0
 10
819.153582
 20
-80.174668
 10
835.324962
 20
-80.174668
 10
835.324962
 20
-75.630788
 10
819.153582
 20
-75.630788
  0
LINE
  5
D12
100
AcDbEntity
  8
V0-OBRYS
  6
CONTINUOUS
 62
    90
100
AcDbLine
 10
830.552254
 20
-80.174668
 30
0.0
 11
830.552254
 21
-82.384612
 31
0.0
  0
LINE
  5
D13
100
AcDbEntity
  8
V0-OBRYS
  6
CONTINUOUS
 62
    90
100
AcDbLine
 10
824.552254
 20
-80.174668
 30
0.0
 11
824.552254
 21
-82.384612
 31
0.0
  0
LINE
  5
D14
100
AcDbEntity
  8
V0-OBRYS
  6
CONTINUOUS
 62
    90
100
AcDbLine
 10
824.552254
 20
-82.384612
 30
0.0
 11
830.552254
 21
-82.384612
 31
0.0
  0
LINE
  5
D15
100
AcDbEntity
  8
V0-VYPLNE
  6
DASHDOT
 62
    63
100
AcDbLine
 10
862.552254
 20
120.0
 30
0.0
 11
862.552254
 21
101.582585
 31
0.0
  0
ARC
  5
D16
100
AcDbEntity
  8
V0-OBRYS
  6
CONTINUOUS
 62
    90
100
AcDbCircle
 10
802.552254
 20
109.524501
 30
0.0
 40
5.475499
100
AcDbArc
 50
90.0
 51
270.0
  0
LINE
  5
D17
100
AcDbEntity
  8
V0-OBRYS
  6
CONTINUOUS
 62
    90
100
AcDbLine
 10
883.379874
 20
104.049002
 30
0.0
 11
827.024427
 21
104.049002
 31
0.0
  0
LINE
  5
D18
100
AcDbEntity
  8
V0-VYPLNE
  6
DASHED
 62
    52
100
AcDbLine
 10
819.296765
 20
75.0
 30
0.0
 11
827.552254
 21
75.0
 31
0.0
  0
LINE
  5
D19
100
AcDbEntity
  8
V0-OBRYS
  6
CONTINUOUS
 62
    90
100
AcDbLine
 10
797.552254
 20
104.049002
 30
0.0
 11
828.08008
 21
104.049002
 31
0.0
  0
LINE
  5
D1A
100
AcDbEntity
  8
V0-OBRYS
  6
CONTINUOUS
 62
    90
100
AcDbLine
 10
797.552254
 20
104.049002
 30
0.0
 11
797.552254
 21
59.784446
 31
0.0
  0
LINE
  5
D1B
100
AcDbEntity
  8
V0-OBRYS
  6
CONTINUOUS
 62
    90
100
AcDbLine
 10
870.071596
 20
104.049002
 30
0.0
 11
870.071596
 21
59.784446
 31
0.0
  0
LINE
  5
D1C
100
AcDbEntity
  8
V0-OBRYS
  6
CONTINUOUS
 62
    90
100
AcDbLine
 10
882.646488
 20
107.049002
 30
0.0
 11
806.202372
 21
107.049002
 31
0.0
  0
LINE
  5
D1D
100
AcDbEntity
  8
V0-OBRYS
  6
CONTINUOUS
 62
    90
100
AcDbLine
 10
840.552254
 20
112.0
 30
0.0
 11
806.202372
 21
112.0
 31
0.0
  0
LINE
  5
D1E
100
AcDbEntity
  8
V0-OBRYS
  6
CONTINUOUS
 62
    90
100
AcDbLine
 10
840.552254
 20
115.0
 30
0.0
 11
802.552254
 21
115.0
 31
0.0
  0
LINE
  5
D20
100
AcDbEntity
  8
V0-OBRYS
  6
CONTINUOUS
 62
    90
100
AcDbLine
 10
824.552254
 20
117.0
 30
0.0
 11
827.552254
 21
117.0
 31
0.0
  0
LINE
  5
D21
100
AcDbEntity
  8
V0-OBRYS
  6
CONTINUOUS
 62
    90
100
AcDbLine
 10
824.552254
 20
115.0
 30
0.0
 11
824.552254
 21
117.0
 31
0.0
  0
LINE
  5
D22
100
AcDbEntity
  8
V0-OBRYS
  6
CONTINUOUS
 62
    90
100
AcDbLine
 10
824.552254
 20
107.0
 30
0.0
 11
824.552254
 21
112.072606
 31
0.0
  0
LINE
  5
D23
100
AcDbEntity
  8
V0-OBRYS
  6
CONTINUOUS
 62
    90
100
AcDbLine
 10
830.552254
 20
107.0
 30
0.0
 11
830.552254
 21
112.072606
 31
0.0
  0
LINE
  5
D24
100
AcDbEntity
  8
V0-OBRYS
  6
CONTINUOUS
 62
    90
100
AcDbLine
 10
830.552254
 20
115.0
 30
0.0
 11
830.552254
 21
117.0
 31
0.0
  0
LINE
  5
D25
100
AcDbEntity
  8
V0-OBRYS
  6
CONTINUOUS
 62
    90
100
AcDbLine
 10
830.552254
 20
117.0
 30
0.0
 11
827.552254
 21
117.0
 31
0.0
  0
LINE
  5
D26
100
AcDbEntity
  8
V0-OBRYS
  6
CONTINUOUS
 62
    90
100
AcDbLine
 10
840.552254
 20
115.0
 30
0.0
 11
840.552254
 21
112.0
 31
0.0
  0
LINE
  5
D27
100
AcDbEntity
  8
V0-OBRYS
  6
CONTINUOUS
 62
    90
100
AcDbLine
 10
876.043319
 20
114.590211
 30
0.0
 11
866.587815
 21
107.049002
 31
0.0
  0
LINE
  5
D28
100
AcDbEntity
  8
V0-OBRYS
  6
CONTINUOUS
 62
    90
100
AcDbLine
 10
864.912598
 20
111.023604
 30
0.0
 11
874.573223
 21
117.527417
 31
0.0
  0
LINE
  5
D29
100
AcDbEntity
  8
V0-OBRYS
  6
CONTINUOUS
 62
    90
100
AcDbLine
 10
849.061188
 20
114.590211
 30
0.0
 11
858.516692
 21
107.049002
 31
0.0
  0
LINE
  5
D2A
100
AcDbEntity
  8
V0-OBRYS
  6
CONTINUOUS
 62
    90
100
AcDbLine
 10
860.191909
 20
111.023604
 30
0.0
 11
850.531284
 21
117.527417
 31
0.0
  0
LINE
  5
D2B
100
AcDbEntity
  8
V0-OBRYS
  6
CONTINUOUS
 62
    90
100
AcDbLine
 10
850.531284
 20
117.527417
 30
0.0
 11
849.061188
 21
114.590211
 31
0.0
  0
LINE
  5
D2C
100
AcDbEntity
  8
V0-OBRYS
  6
CONTINUOUS
 62
    90
100
AcDbLine
 10
862.502059
 20
111.023604
 30
0.0
 11
860.191909
 21
111.023604
 31
0.0
  0
LINE
  5
D2D
100
AcDbEntity
  8
V0-OBRYS
  6
CONTINUOUS
 62
    90
100
AcDbLine
 10
860.191909
 20
111.023604
 30
0.0
 11
858.511801
 21
107.037396
 31
0.0
  0
LINE
  5
D2E
100
AcDbEntity
  8
V0-OBRYS
  6
CONTINUOUS
 62
    90
100
AcDbLine
 10
862.602448
 20
111.023604
 30
0.0
 11
864.912598
 21
111.023604
 31
0.0
  0
LINE
  5
D2F
100
AcDbEntity
  8
V0-OBRYS
  6
CONTINUOUS
 62
    90
100
AcDbLine
 10
864.912598
 20
111.023604
 30
0.0
 11
866.592706
 21
107.037396
 31
0.0
  0
LINE
  5
D30
100
AcDbEntity
  8
V0-OBRYS
  6
CONTINUOUS
 62
    90
100
AcDbLine
 10
874.573223
 20
117.527417
 30
0.0
 11
876.043319
 21
114.590211
 31
0.0
  0
LINE
  5
D31
100
AcDbEntity
  8
V0-VYPLNE
  6
DASHDOT
 62
    63
100
AcDbLine
 10
1122.166763
 20
105.0
 30
0.0
 11
1122.166763
 21
-88.976329
 31
0.0
  0
LINE
  5
D32
100
AcDbEntity
  8
V0-OBRYS
  6
CONTINUOUS
 62
    90
100
AcDbLine
 10
1119.166763
 20
74.78248
 30
0.0
 11
1119.166763
 21
-82.384612
 31
0.0
  0
LINE
  5
D33
100
AcDbEntity
  8
V0-OBRYS
  6
CONTINUOUS
 62
    90
100
AcDbLine
 10
1125.166763
 20
74.983448
 30
0.0
 11
1125.166763
 21
-82.384612
 31
0.0
  0
LINE
  5
D34
100
AcDbEntity
  8
V0-OBRYS
  6
CONTINUOUS
 62
    90
100
AcDbLine
 10
957.552254
 20
-274.700202
 30
0.0
 11
962.552254
 21
-279.700202
 31
0.0
  0
LINE
  5
D35
100
AcDbEntity
  8
V0-OBRYS
  6
CONTINUOUS
 62
    90
100
AcDbLine
 10
962.552254
 20
-289.700202
 30
0.0
 11
957.552254
 21
-294.700202
 31
0.0
  0
LINE
  5
D36
100
AcDbEntity
  8
V0-OBRYS
  6
CONTINUOUS
 62
    90
100
AcDbLine
 10
962.552254
 20
-289.700202
 30
0.0
 11
962.552254
 21
-279.700202
 31
0.0
  0
LINE
  5
D38
100
AcDbEntity
  8
V0-OBRYS
  6
CONTINUOUS
 62
    90
100
AcDbLine
 10
1119.166763
 20
-82.384612
 30
0.0
 11
1125.166763
 21
-82.384612
 31
0.0
  0
DIMENSION
  5
D39
100
AcDbEntity
  8
V0-VYPLNE
  6
CONTINUOUS
 62
    41
100
AcDbDimension
  2
*D9
 10
978.883946
 20
75.0
 30
0.0
 11
969.883946
 21
97.5
 31
0.0
 70
    32
  3
ED15
100
AcDbAlignedDimension
 13
962.552254
 23
120.0
 33
0.0
 14
927.552254
 24
75.0
 34
0.0
 50
90.0
100
AcDbRotatedDimension
1001
ACAD
1000
DSTYLE
1002
{
1070
    40
1040
1.0
1070
   178
1070
    41
1070
   177
1070
    41
1070
   176
1070
    41
1002
}
  0
LINE
  5
D3A
100
AcDbEntity
  8
V0-OBRYS
  6
CONTINUOUS
 62
    90
100
AcDbLine
 10
962.552254
 20
117.0
 30
0.0
 11
907.552254
 21
117.0
 31
0.0
  0
LINE
  5
D3B
100
AcDbEntity
  8
V0-OBRYS
  6
CONTINUOUS
 62
    90
100
AcDbLine
 10
962.552254
 20
120.0
 30
0.0
 11
907.552254
 21
120.0
 31
0.0
  0
LINE
  5
D3C
100
AcDbEntity
  8
V0-OBRYS
  6
CONTINUOUS
100
AcDbLine
 10
1129.759878
 20
69.892124
 30
0.0
 11
1115.205637
 21
69.892124
 31
0.0
  0
LINE
  5
D3D
100
AcDbEntity
  8
V0-OBRYS
  6
CONTINUOUS
 62
    90
100
AcDbLine
 10
1111.870304
 20
117.379089
 30
0.0
 11
1121.20383
 21
117.379089
 31
0.0
  0
LINE
  5
D3E
100
AcDbEntity
  8
V0-OBRYS
  6
CONTINUOUS
 62
    90
100
AcDbLine
 10
1121.20383
 20
106.050352
 30
0.0
 11
1111.801468
 21
106.050352
 31
0.0
  0
LINE
  5
D3F
100
AcDbEntity
  8
V0-OBRYS
  6
CONTINUOUS
 62
    90
100
AcDbLine
 10
1072.166763
 20
105.0
 30
0.0
 11
1172.166763
 21
105.0
 31
0.0
  0
DIMENSION
  5
D40
100
AcDbEntity
  8
V0-VYPLNE
  6
CONTINUOUS
 62
    63
100
AcDbDimension
  2
*D10
 10
1172.166763
 20
135.451469
 30
0.0
 11
1122.673044
 21
135.451469
 31
0.0
 12
-631.123958
 22
0.0
 32
0.0
 70
   160
  3
ED15
100
AcDbAlignedDimension
 13
1072.166763
 23
105.0
 33
0.0
 14
1172.166763
 24
105.0
 34
0.0
100
AcDbRotatedDimension
1001
ACAD
1000
DSTYLE
1002
{
1070
    40
1040
1.0
1070
   178
1070
    41
1070
   177
1070
    41
1070
   176
1070
    41
1002
}
  0
LINE
  5
D41
100
AcDbEntity
  8
V0-OBRYS
  6
CONTINUOUS
 62
    90
100
AcDbLine
 10
1111.870304
 20
108.051484
 30
0.0
 11
1111.870304
 21
105.0
 31
0.0
  0
LINE
  5
D42
100
AcDbEntity
  8
V0-OBRYS
  6
CONTINUOUS
 62
    90
100
AcDbLine
 10
1111.870304
 20
105.0
 30
0.0
 11
1111.870304
 21
117.379089
 31
0.0
  0
LINE
  5
D43
100
AcDbEntity
  8
V0-OBRYS
  6
CONTINUOUS
 62
    90
100
AcDbLine
 10
1072.166763
 20
105.0
 30
0.0
 11
1072.166763
 21
62.44998
 31
0.0
  0
LINE
  5
D44
100
AcDbEntity
  8
V0-OBRYS
  6
CONTINUOUS
 62
    90
100
AcDbLine
 10
1108.830054
 20
109.245016
 30
0.0
 11
1111.839374
 21
109.245016
 31
0.0
  0
LINE
  5
D45
100
AcDbEntity
  8
V0-OBRYS
  6
CONTINUOUS
 62
    90
100
AcDbLine
 10
1111.870304
 20
107.354442
 30
0.0
 11
1108.829631
 21
107.354442
 31
0.0
  0
LINE
  5
D46
100
AcDbEntity
  8
V0-OBRYS
  6
CONTINUOUS
 62
    90
100
AcDbLine
 10
1108.829631
 20
115.607676
 30
0.0
 11
1111.927226
 21
115.607676
 31
0.0
  0
LINE
  5
D47
100
AcDbEntity
  8
V0-OBRYS
  6
CONTINUOUS
 62
    90
100
AcDbLine
 10
1108.917273
 20
113.286024
 30
0.0
 11
1111.840641
 21
113.286024
 31
0.0
  0
LINE
  5
D48
100
AcDbEntity
  8
V0-OBRYS
  6
CONTINUOUS
 62
    90
100
AcDbLine
 10
1108.829631
 20
107.354442
 30
0.0
 11
1108.829631
 21
115.607676
 31
0.0
  0
LINE
  5
D49
100
AcDbEntity
  8
V0-OBRYS
  6
CONTINUOUS
 62
    90
100
AcDbLine
 10
1131.90733
 20
108.051484
 30
0.0
 11
1131.90733
 21
105.0
 31
0.0
  0
LINE
  5
D4A
100
AcDbEntity
  8
V0-OBRYS
  6
CONTINUOUS
 62
    90
100
AcDbLine
 10
1131.90733
 20
105.0
 30
0.0
 11
1131.90733
 21
117.379089
 31
0.0
  0
LINE
  5
D4B
100
AcDbEntity
  8
V0-OBRYS
  6
CONTINUOUS
 62
    90
100
AcDbLine
 10
1121.20383
 20
106.050352
 30
0.0
 11
1121.20383
 21
117.379089
 31
0.0
  0
LINE
  5
D4C
100
AcDbEntity
  8
V0-OBRYS
  6
CONTINUOUS
 62
    90
100
AcDbLine
 10
1123.20383
 20
106.050352
 30
0.0
 11
1123.20383
 21
117.379089
 31
0.0
  0
LINE
  5
D4D
100
AcDbEntity
  8
V0-VYPLNE
  6
DASHED
 62
    52
100
AcDbLine
 10
1119.166763
 20
105.0
 30
0.0
 11
1119.166763
 21
75.586349
 31
0.0
  0
LINE
  5
D4E
100
AcDbEntity
  8
V0-VYPLNE
  6
DASHED
 62
    52
100
AcDbLine
 10
1125.166763
 20
105.0
 30
0.0
 11
1125.166763
 21
75.988284
 31
0.0
  0
LINE
  5
D4F
100
AcDbEntity
  8
V0-OBRYS
  6
CONTINUOUS
 62
    90
100
AcDbLine
 10
1131.801468
 20
106.050352
 30
0.0
 11
1123.20383
 21
106.050352
 31
0.0
  0
LINE
  5
D50
100
AcDbEntity
  8
V0-OBRYS
  6
CONTINUOUS
 62
    90
100
AcDbLine
 10
1172.166763
 20
105.0
 30
0.0
 11
1172.166763
 21
62.44998
 31
0.0
  0
LINE
  5
D51
100
AcDbEntity
  8
V0-OBRYS
  6
CONTINUOUS
 62
    90
100
AcDbLine
 10
1123.20383
 20
117.379089
 30
0.0
 11
1131.90733
 21
117.379089
 31
0.0
  0
LINE
  5
D52
100
AcDbEntity
  8
V0-OBRYS
  6
CONTINUOUS
 62
    90
100
AcDbLine
 10
1123.20383
 20
109.295263
 30
0.0
 11
1121.20383
 21
109.295263
 31
0.0
  0
LINE
  5
D53
100
AcDbEntity
  8
V0-OBRYS
  6
CONTINUOUS
 62
    90
100
AcDbLine
 10
1123.20383
 20
113.336271
 30
0.0
 11
1121.20383
 21
113.336271
 31
0.0
  0
LINE
  5
D54
100
AcDbEntity
  8
V0-OBRYS
  6
CONTINUOUS
 62
    90
100
AcDbLine
 10
1131.90733
 20
107.354442
 30
0.0
 11
1134.773305
 21
107.354442
 31
0.0
  0
LINE
  5
D55
100
AcDbEntity
  8
V0-OBRYS
  6
CONTINUOUS
 62
    90
100
AcDbLine
 10
1134.773305
 20
115.607676
 30
0.0
 11
1131.90733
 21
115.607676
 31
0.0
  0
LINE
  5
D56
100
AcDbEntity
  8
V0-OBRYS
  6
CONTINUOUS
 62
    90
100
AcDbLine
 10
1136.406445
 20
109.245016
 30
0.0
 11
1131.90733
 21
109.245016
 31
0.0
  0
LINE
  5
D57
100
AcDbEntity
  8
V0-OBRYS
  6
CONTINUOUS
 62
    90
100
AcDbLine
 10
1136.406445
 20
113.286024
 30
0.0
 11
1131.90733
 21
113.286024
 31
0.0
  0
LINE
  5
D58
100
AcDbEntity
  8
V0-OBRYS
  6
CONTINUOUS
 62
    90
100
AcDbLine
 10
1136.406445
 20
109.245016
 30
0.0
 11
1136.406445
 21
113.286024
 31
0.0
  0
LINE
  5
D59
100
AcDbEntity
  8
V0-OBRYS
  6
CONTINUOUS
 62
    90
100
AcDbLine
 10
1134.773305
 20
107.354442
 30
0.0
 11
1134.773305
 21
115.607676
 31
0.0
  0
LWPOLYLINE
  5
D5B
100
AcDbEntity
  8
V0-OBRYS
  6
CONTINUOUS
 62
    90
100
AcDbPolyline
 90
        4
 70
     1
 43
0.0
 10
1114.677233
 20
69.892124
 10
1130.288282
 20
69.892124
 10
1130.288282
 20
74.837266
 10
1114.677233
 20
74.837266
  0
MTEXT
  5
D5C
100
AcDbEntity
  8
V0-NAZVY
100
AcDbMText
 10
1120.531793
 20
-202.588694
 30
0.0
 40
37.5
 41
308.46075
 71
     5
 72
     5
  1
MSK-150
  7
ED10
  0
MTEXT
  5
D5D
100
AcDbEntity
  8
V0-ZBYTEK
 62
    51
100
AcDbMText
 10
1130.156032
 20
-257.556967
 30
0.0
 40
21.0
 41
594.8886
 71
     5
 72
     5
  1
KLAPKA SKRTICI
  7
ED10
  0
MTEXT
  5
D5E
100
AcDbEntity
  8
V0-ZBYTEK
100
AcDbMText
 10
1127.765163
 20
-303.013538
 30
0.0
 40
15.0
 41
235.64325
 71
     5
 72
     5
  1
S RUCNIM OVLADANIM KOVOVYM
  7
ED10
  0
CIRCLE
  5
DA6
100
AcDbEntity
  8
V0-OBRYS
  6
CONTINUOUS
 62
    90
100
AcDbCircle
 10
1122.166763
 20
0.0
 30
0.0
 40
75.0
  0
CIRCLE
  5
DA7
100
AcDbEntity
  8
V0-OBRYS
  6
CONTINUOUS
 62
    90
100
AcDbCircle
 10
1122.166763
 20
0.0
 30
0.0
 40
80.0
  0
ELLIPSE
  5
DA8
100
AcDbEntity
  8
V0-OBRYS
  6
CONTINUOUS
 62
    90
100
AcDbEllipse
 10
1122.016811
 20
0.139947
 30
0.0
 11
0.0
 21
69.32117643067977
 31
0.0
210
0.0
220
0.0
230
1.0
 40
0.653252
 41
0.0
 42
6.283185307179586
  0
LINE
  5
DAA
100
AcDbEntity
  8
V0-OBRYS
  6
CONTINUOUS
 62
    90
100
AcDbLine
 10
1129.477792
 20
-74.921263
 30
0.0
 11
1129.477792
 21
-69.976121
 31
0.0
  0
LINE
  5
DAB
100
AcDbEntity
  8
V0-OBRYS
  6
CONTINUOUS
 62
    90
100
AcDbLine
 10
1129.477792
 20
-69.976121
 30
0.0
 11
1113.866743
 21
-69.976121
 31
0.0
  0
LINE
  5
DAC
100
AcDbEntity
  8
V0-OBRYS
  6
CONTINUOUS
 62
    90
100
AcDbLine
 10
1113.866743
 20
-69.976121
 30
0.0
 11
1113.866743
 21
-74.921263
 31
0.0
  0
ELLIPSE
  5
DAD
100
AcDbEntity
  8
V0-VYPLNE
  6
DASHED
 62
    52
100
AcDbEllipse
 10
827.669386
 20
0.139946
 30
0.0
 11
0.0
 21
70.78056948351383
 31
0.0
210
0.0
220
0.0
230
1.0
 40
0.56755
 41
0.0
 42
6.283185307179586
  0
LINE
  5
DAE
100
AcDbEntity
  8
V0-VYPLNE
  6
DASHDOT
 62
    63
100
AcDbLine
 10
1035.708611
 20
0.0
 30
0.0
 11
1209.645738
 21
0.0
 31
0.0
  0
LINE
  5
DAF
100
AcDbEntity
  8
V0-OBRYS
  6
CONTINUOUS
 62
    90
100
AcDbLine
 10
797.552254
 20
59.784446
 30
0.0
 11
870.725605
 21
59.784446
 31
0.0
  0
LINE
  5
DB0
100
AcDbEntity
  8
V0-OBRYS
  6
CONTINUOUS
 62
    90
100
AcDbLine
 10
797.552254
 20
75.0
 30
0.0
 11
782.552254
 21
75.0
 31
0.0
  0
LINE
  5
DB1
100
AcDbEntity
  8
V0-VYPLNE
  6
DASHED
 62
    52
 48
0.5
100
AcDbLine
 10
797.552254
 20
75.0
 30
0.0
 11
870.045545
 21
75.0
 31
0.0
  0
LINE
  5
DB2
100
AcDbEntity
  8
V0-VYPLNE
  6
DASHED
 62
    52
 48
0.5
100
AcDbLine
 10
819.466563
 20
75.0
 30
0.0
 11
835.637944
 21
75.0
 31
0.0
  0
LINE
  5
DB3
100
AcDbEntity
  8
V0-VYPLNE
  6
DASHED
 62
    52
 48
0.5
100
AcDbLine
 10
835.637944
 20
75.0
 30
0.0
 11
835.637944
 21
79.54388
 31
0.0
  0
LINE
  5
DB4
100
AcDbEntity
  8
V0-VYPLNE
  6
DASHED
 62
    52
 48
0.5
100
AcDbLine
 10
835.637944
 20
79.54388
 30
0.0
 11
819.466563
 21
79.54388
 31
0.0
  0
LINE
  5
DB5
100
AcDbEntity
  8
V0-VYPLNE
  6
DASHED
 62
    52
 48
0.5
100
AcDbLine
 10
819.466563
 20
79.54388
 30
0.0
 11
819.466563
 21
75.0
 31
0.0
  0
LWPOLYLINE
  5
DBC
100
AcDbEntity
  8
V0-OBRYS
  6
CONTINUOUS
 62
    90
100
AcDbPolyline
 90
        6
 70
     1
 43
0.0
 10
798.583349
 20
107.233053
 10
802.552254
 20
104.941605
 10
806.521158
 20
107.233053
 10
806.521158
 20
111.815949
 10
802.552254
 20
114.107397
 10
798.583349
 20
111.815949
  0
CIRCLE
  5
DBD
100
AcDbEntity
  8
V0-OBRYS
  6
CONTINUOUS
 62
    90
100
AcDbCircle
 10
802.552254
 20
109.524501
 30
0.0
 40
2.254762
  0
CIRCLE
  5
DBE
100
AcDbEntity
  8
V0-OBRYS
  6
CONTINUOUS
 62
    90
100
AcDbCircle
 10
802.552254
 20
109.524501
 30
0.0
 40
3.968904
  0
LINE
  5
DC3
100
AcDbEntity
  8
V0-VYPLNE
  6
DASHED
 62
    52
100
AcDbLine
 10
796.390862
 20
-348.608886
 30
0.0
 11
858.070696
 21
-221.669169
 31
0.0
  0
POINT
  5
EA4
100
AcDbEntity
  8
V0-VYPLNE
  6
DASHED
 62
     7
100
AcDbPoint
 10
1122.166763
 20
0.0
 30
0.0
  0
MTEXT
  5
FB8
100
AcDbEntity
  8
V0-NAZVY
100
AcDbMText
 10
1123.323999
 20
-121.079228
 30
0.0
 40
26.25
 41
215.922525
 71
     5
 72
     5
  1
MSK-150
  7
ED10
  0
MTEXT
  5
FB9
100
AcDbEntity
  8
V0-NAZVY
100
AcDbMText
 10
830.460737
 20
187.190716
 30
0.0
 40
26.25
 41
215.922525
 71
     5
 72
     5
  1
MSK-150
  7
ED10
  0
MTEXT
  5
FBA
100
AcDbEntity
  8
V0-NAZVY
100
AcDbMText
 10
833.063963
 20
-387.726227
 30
0.0
 40
26.25
 41
215.922525
 71
     5
 72
     5
  1
MSK-150
  7
ED10
  0
VIEWPORT
  5
22
100
AcDbEntity
 67
     1
  8
0
100
AcDbViewport
 10
261.517699
 20
148.5
 30
0.0
 40
523.035398
 41
297.0
 68
    -1
 69
     1
1001
ACAD
1000
MVIEW
1002
{
1070
    16
1010
0.0
1020
0.0
1030
0.0
1010
0.0
1020
0.0
1030
1.0
1040
0.0
1040
297.0
1040
261.517699
1040
148.5
1040
50.0
1040
0.0
1040
0.0
1070
     0
1070
   100
1070
     1
1070
     1
1070
     0
1070
     0
1070
     0
1070
     0
1040
0.0
1040
0.0
1040
0.0
1040
1.0
1040
1.0
1040
10.0
1040
10.0
1070
     0
1002
{
1002
}
1002
}
  0
ENDSEC
  0
SECTION
  2
OBJECTS
  0
DICTIONARY
  5
C
100
AcDbDictionary
  3
ACAD_GROUP
350
D
  3
ACAD_MLINESTYLE
350
E
  3
ACDBVARIABLEDICTIONARY
350
5D
  0
DICTIONARY
  5
D
102
{ACAD_REACTORS
330
C
102
}
100
AcDbDictionary
  0
DICTIONARY
  5
E
102
{ACAD_REACTORS
330
C
102
}
100
AcDbDictionary
  3
STANDARD
350
13
  0
DICTIONARY
  5
5D
102
{ACAD_REACTORS
330
C
102
}
100
AcDbDictionary
  3
DIMADEC
350
5E
  3
SORTENTS
350
3D8
  0
MLINESTYLE
  5
13
102
{ACAD_REACTORS
330
E
102
}
100
AcDbMlineStyle
  2
STANDARD
 70
     0
  3

 62
     0
 51
90.0
 52
90.0
 71
     2
 49
0.5
 62
   256
  6
BYLAYER
 49
-0.5
 62
   256
  6
BYLAYER
  0
DICTIONARYVAR
  5
5E
102
{ACAD_REACTORS
330
5D
102
}
100
DictionaryVariables
280
     0
  1
0
  0
DICTIONARYVAR
  5
3D8
102
{ACAD_REACTORS
330
5D
102
}
100
DictionaryVariables
280
     0
  1
96
  0
ENDSEC
  0
EOF
