  0
SECTION
  2
HEADER
  9
$ACADVER
  1
AC1014
  9
$ACADMAINTVER
 70
     0
  9
$DWGCODEPAGE
  3
ANSI_1250
  9
$INSBASE
 10
0.0
 20
0.0
 30
0.0
  9
$EXTMIN
 10
664.099396
 20
-357.059052
 30
0.0
  9
$EXTMAX
 10
1167.935167
 20
182.557273
 30
0.0
  9
$LIMMIN
 10
0.0
 20
0.0
  9
$LIMMAX
 10
420.0
 20
297.0
  9
$ORTHOMODE
 70
     0
  9
$REGENMODE
 70
     1
  9
$FILLMODE
 70
     1
  9
$QTEXTMODE
 70
     0
  9
$MIRRTEXT
 70
     1
  9
$DRAGMODE
 70
     2
  9
$LTSCALE
 40
1.0
  9
$OSMODE
 70
    15
  9
$ATTMODE
 70
     1
  9
$TEXTSIZE
 40
10.0
  9
$TRACEWID
 40
1.0
  9
$TEXTSTYLE
  7
ED30
  9
$CLAYER
  8
V0-VYPLNE
  9
$CELTYPE
  6
DASHED
  9
$CECOLOR
 62
    52
  9
$CELTSCALE
 40
1.0
  9
$DELOBJ
 70
     1
  9
$DISPSILH
 70
     0
  9
$DIMSCALE
 40
0.0
  9
$DIMASZ
 40
15.0
  9
$DIMEXO
 40
1.0
  9
$DIMDLI
 40
3.75
  9
$DIMRND
 40
0.0
  9
$DIMDLE
 40
0.0
  9
$DIMEXE
 40
1.25
  9
$DIMTP
 40
0.0
  9
$DIMTM
 40
0.0
  9
$DIMTXT
 40
10.0
  9
$DIMCEN
 40
3.0
  9
$DIMTSZ
 40
0.0
  9
$DIMTOL
 70
     0
  9
$DIMLIM
 70
     0
  9
$DIMTIH
 70
     0
  9
$DIMTOH
 70
     0
  9
$DIMSE1
 70
     0
  9
$DIMSE2
 70
     0
  9
$DIMTAD
 70
     1
  9
$DIMZIN
 70
     8
  9
$DIMBLK
  1

  9
$DIMASO
 70
     1
  9
$DIMSHO
 70
     1
  9
$DIMPOST
  1

  9
$DIMAPOST
  1

  9
$DIMALT
 70
     0
  9
$DIMALTD
 70
     4
  9
$DIMALTF
 40
0.0394
  9
$DIMLFAC
 40
1.0
  9
$DIMTOFL
 70
     1
  9
$DIMTVP
 40
0.0
  9
$DIMTIX
 70
     0
  9
$DIMSOXD
 70
     0
  9
$DIMSAH
 70
     1
  9
$DIMBLK1
  1
_OPEN
  9
$DIMBLK2
  1
_OPEN
  9
$DIMSTYLE
  2
ED10
  9
$DIMCLRD
 70
    41
  9
$DIMCLRE
 70
    41
  9
$DIMCLRT
 70
    41
  9
$DIMTFAC
 40
1.0
  9
$DIMGAP
 40
1.5
  9
$DIMJUST
 70
     0
  9
$DIMSD1
 70
     0
  9
$DIMSD2
 70
     0
  9
$DIMTOLJ
 70
     1
  9
$DIMTZIN
 70
     8
  9
$DIMALTZ
 70
     0
  9
$DIMALTTZ
 70
     0
  9
$DIMFIT
 70
     3
  9
$DIMUPT
 70
     0
  9
$DIMUNIT
 70
     2
  9
$DIMDEC
 70
     0
  9
$DIMTDEC
 70
     1
  9
$DIMALTU
 70
     8
  9
$DIMALTTD
 70
     4
  9
$DIMTXSTY
  7
ED20
  9
$DIMAUNIT
 70
     0
  9
$LUNITS
 70
     2
  9
$LUPREC
 70
     4
  9
$SKETCHINC
 40
1.0
  9
$FILLETRAD
 40
5.0
  9
$AUNITS
 70
     0
  9
$AUPREC
 70
     0
  9
$MENU
  1
.
  9
$ELEVATION
 40
0.0
  9
$PELEVATION
 40
0.0
  9
$THICKNESS
 40
0.0
  9
$LIMCHECK
 70
     0
  9
$BLIPMODE
 70
     0
  9
$CHAMFERA
 40
10.0
  9
$CHAMFERB
 40
10.0
  9
$CHAMFERC
 40
20.0
  9
$CHAMFERD
 40
0.0
  9
$SKPOLY
 70
     1
  9
$TDCREATE
 40
2451196.643769328
  9
$TDUPDATE
 40
2453311.831584837
  9
$TDINDWG
 40
0.2646881597
  9
$TDUSRTIMER
 40
0.2646881597
  9
$USRTIMER
 70
     1
  9
$ANGBASE
 50
0.0
  9
$ANGDIR
 70
     0
  9
$PDMODE
 70
     3
  9
$PDSIZE
 40
15.0
  9
$PLINEWID
 40
0.0
  9
$COORDS
 70
     1
  9
$SPLFRAME
 70
     0
  9
$SPLINETYPE
 70
     6
  9
$SPLINESEGS
 70
     8
  9
$ATTDIA
 70
     0
  9
$ATTREQ
 70
     1
  9
$HANDLING
 70
     1
  9
$HANDSEED
  5
10C8
  9
$SURFTAB1
 70
     6
  9
$SURFTAB2
 70
     6
  9
$SURFTYPE
 70
     6
  9
$SURFU
 70
     6
  9
$SURFV
 70
     6
  9
$UCSNAME
  2

  9
$UCSORG
 10
727.5522535047794
 20
0.0
 30
0.0
  9
$UCSXDIR
 10
1.0
 20
0.0
 30
0.0
  9
$UCSYDIR
 10
0.0
 20
1.0
 30
0.0
  9
$PUCSNAME
  2

  9
$PUCSORG
 10
0.0
 20
0.0
 30
0.0
  9
$PUCSXDIR
 10
1.0
 20
0.0
 30
0.0
  9
$PUCSYDIR
 10
0.0
 20
1.0
 30
0.0
  9
$USERI1
 70
     0
  9
$USERI2
 70
     0
  9
$USERI3
 70
     2
  9
$USERI4
 70
     2
  9
$USERI5
 70
     6
  9
$USERR1
 40
281.0
  9
$USERR2
 40
321.0
  9
$USERR3
 40
0.0
  9
$USERR4
 40
0.0
  9
$USERR5
 40
0.0
  9
$WORLDVIEW
 70
     1
  9
$SHADEDGE
 70
     3
  9
$SHADEDIF
 70
    70
  9
$TILEMODE
 70
     1
  9
$MAXACTVP
 70
    48
  9
$PINSBASE
 10
0.0
 20
0.0
 30
0.0
  9
$PLIMCHECK
 70
     0
  9
$PEXTMIN
 10
1.000000E+20
 20
1.000000E+20
 30
1.000000E+20
  9
$PEXTMAX
 10
-1.000000E+20
 20
-1.000000E+20
 30
-1.000000E+20
  9
$PLIMMIN
 10
0.0
 20
0.0
  9
$PLIMMAX
 10
420.0
 20
297.0
  9
$UNITMODE
 70
     0
  9
$VISRETAIN
 70
     1
  9
$PLINEGEN
 70
     0
  9
$PSLTSCALE
 70
     0
  9
$TREEDEPTH
 70
  3020
  9
$PICKSTYLE
 70
     1
  9
$CMLSTYLE
  2
STANDARD
  9
$CMLJUST
 70
     0
  9
$CMLSCALE
 40
1.0
  9
$PROXYGRAPHICS
 70
     1
  9
$MEASUREMENT
 70
     1
  0
ENDSEC
  0
SECTION
  2
CLASSES
  0
CLASS
  1
DICTIONARYVAR
  2
AcDbDictionaryVar
  3
"AutoCAD"
 90
        0
280
     0
281
     0
  0
CLASS
  1
LWPOLYLINE
  2
AcDbPolyline
  3
"AutoCAD"
 90
        0
280
     0
281
     1
  0
CLASS
  1
HATCH
  2
AcDbHatch
  3
"ACAD_SEDONA"
 90
        0
280
     0
281
     1
  0
ENDSEC
  0
SECTION
  2
TABLES
  0
TABLE
  2
VPORT
  5
8
100
AcDbSymbolTable
 70
     2
  0
VPORT
  5
10C7
100
AcDbSymbolTableRecord
100
AcDbViewportTableRecord
  2
*ACTIVE
 70
     0
 10
0.0
 20
0.0
 11
1.0
 21
1.0
 12
931.55762
 22
-49.466139
 13
0.0
 23
0.0
 14
10.0
 24
10.0
 15
10.0
 25
10.0
 16
0.0
 26
0.0
 36
1.0
 17
0.0
 27
0.0
 37
0.0
 40
618.174794
 41
1.550584
 42
50.0
 43
0.0
 44
0.0
 50
0.0
 51
0.0
 71
     0
 72
   100
 73
     1
 74
     1
 75
     0
 76
     0
 77
     0
 78
     0
  0
ENDTAB
  0
TABLE
  2
LTYPE
  5
5
100
AcDbSymbolTable
 70
    46
  0
LTYPE
  5
14
100
AcDbSymbolTableRecord
100
AcDbLinetypeTableRecord
  2
BYBLOCK
 70
     0
  3

 72
    65
 73
     0
 40
0.0
  0
LTYPE
  5
15
100
AcDbSymbolTableRecord
100
AcDbLinetypeTableRecord
  2
BYLAYER
 70
     0
  3

 72
    65
 73
     0
 40
0.0
  0
LTYPE
  5
16
100
AcDbSymbolTableRecord
100
AcDbLinetypeTableRecord
  2
CONTINUOUS
 70
     0
  3
Solid line
 72
    65
 73
     0
 40
0.0
  0
LTYPE
  5
7F
100
AcDbSymbolTableRecord
100
AcDbLinetypeTableRecord
  2
DASHDOT
 70
     0
  3
Dash dot __ . __ . __ . __ . __ . __ . __ . __
 72
    65
 73
     4
 40
25.4
 49
12.7
 74
     0
 49
-6.35
 74
     0
 49
0.0
 74
     0
 49
-6.35
 74
     0
  0
LTYPE
  5
80
100
AcDbSymbolTableRecord
100
AcDbLinetypeTableRecord
  2
DASHED
 70
     0
  3
Dashed __ __ __ __ __ __ __ __ __ __ __ __ __ _
 72
    65
 73
     2
 40
19.05
 49
12.7
 74
     0
 49
-6.35
 74
     0
  0
LTYPE
  5
C13
100
AcDbSymbolTableRecord
100
AcDbLinetypeTableRecord
  2
DOT2
 70
     0
  3
...............................................
 72
    65
 73
     2
 40
0.125
 49
0.0
 74
     0
 49
-0.125
 74
     0
  0
LTYPE
  5
C14
100
AcDbSymbolTableRecord
100
AcDbLinetypeTableRecord
  2
ACAD_ISO02W100
 70
     0
  3
ISO dash __ __ __ __ __ __ __ __ __ __ __ __ __
 72
    65
 73
     2
 40
15.0
 49
12.0
 74
     0
 49
-3.0
 74
     0
  0
LTYPE
  5
C15
100
AcDbSymbolTableRecord
100
AcDbLinetypeTableRecord
  2
ACAD_ISO03W100
 70
     0
  3
ISO dash space __    __    __    __    __    __
 72
    65
 73
     2
 40
30.0
 49
12.0
 74
     0
 49
-18.0
 74
     0
  0
LTYPE
  5
C16
100
AcDbSymbolTableRecord
100
AcDbLinetypeTableRecord
  2
ACAD_ISO04W100
 70
     0
  3
ISO long-dash dot ____ . ____ . ____ . ____ . _
 72
    65
 73
     4
 40
30.5
 49
24.0
 74
     0
 49
-3.0
 74
     0
 49
0.5
 74
     0
 49
-3.0
 74
     0
  0
LTYPE
  5
C17
100
AcDbSymbolTableRecord
100
AcDbLinetypeTableRecord
  2
ACAD_ISO05W100
 70
     0
  3
ISO long-dash double-dot ____ .. ____ .. ____ .
 72
    65
 73
     6
 40
34.0
 49
24.0
 74
     0
 49
-3.0
 74
     0
 49
0.5
 74
     0
 49
-3.0
 74
     0
 49
0.5
 74
     0
 49
-3.0
 74
     0
  0
LTYPE
  5
C18
100
AcDbSymbolTableRecord
100
AcDbLinetypeTableRecord
  2
ACAD_ISO06W100
 70
     0
  3
ISO long-dash triple-dot ____ ... ____ ... ____
 72
    65
 73
     8
 40
37.5
 49
24.0
 74
     0
 49
-3.0
 74
     0
 49
0.5
 74
     0
 49
-3.0
 74
     0
 49
0.5
 74
     0
 49
-3.0
 74
     0
 49
0.5
 74
     0
 49
-3.0
 74
     0
  0
LTYPE
  5
C19
100
AcDbSymbolTableRecord
100
AcDbLinetypeTableRecord
  2
ACAD_ISO07W100
 70
     0
  3
ISO dot . . . . . . . . . . . . . . . . . . . .
 72
    65
 73
     2
 40
3.5
 49
0.5
 74
     0
 49
-3.0
 74
     0
  0
LTYPE
  5
C1A
100
AcDbSymbolTableRecord
100
AcDbLinetypeTableRecord
  2
ACAD_ISO08W100
 70
     0
  3
ISO long-dash short-dash ____ __ ____ __ ____ _
 72
    65
 73
     4
 40
36.0
 49
24.0
 74
     0
 49
-3.0
 74
     0
 49
6.0
 74
     0
 49
-3.0
 74
     0
  0
LTYPE
  5
C1B
100
AcDbSymbolTableRecord
100
AcDbLinetypeTableRecord
  2
ACAD_ISO09W100
 70
     0
  3
ISO long-dash double-short-dash ____ __ __ ____
 72
    65
 73
     6
 40
45.0
 49
24.0
 74
     0
 49
-3.0
 74
     0
 49
6.0
 74
     0
 49
-3.0
 74
     0
 49
6.0
 74
     0
 49
-3.0
 74
     0
  0
LTYPE
  5
C1C
100
AcDbSymbolTableRecord
100
AcDbLinetypeTableRecord
  2
ACAD_ISO10W100
 70
     0
  3
ISO dash dot __ . __ . __ . __ . __ . __ . __ .
 72
    65
 73
     4
 40
18.5
 49
12.0
 74
     0
 49
-3.0
 74
     0
 49
0.5
 74
     0
 49
-3.0
 74
     0
  0
LTYPE
  5
C1D
100
AcDbSymbolTableRecord
100
AcDbLinetypeTableRecord
  2
ACAD_ISO11W100
 70
     0
  3
ISO double-dash dot __ __ . __ __ . __ __ . __ 
 72
    65
 73
     6
 40
33.5
 49
12.0
 74
     0
 49
-3.0
 74
     0
 49
12.0
 74
     0
 49
-3.0
 74
     0
 49
0.5
 74
     0
 49
-3.0
 74
     0
  0
LTYPE
  5
C1E
100
AcDbSymbolTableRecord
100
AcDbLinetypeTableRecord
  2
ACAD_ISO12W100
 70
     0
  3
ISO dash double-dot __ . . __ . . __ . . __ . .
 72
    65
 73
     6
 40
22.0
 49
12.0
 74
     0
 49
-3.0
 74
     0
 49
0.5
 74
     0
 49
-3.0
 74
     0
 49
0.5
 74
     0
 49
-3.0
 74
     0
  0
LTYPE
  5
C1F
100
AcDbSymbolTableRecord
100
AcDbLinetypeTableRecord
  2
ACAD_ISO13W100
 70
     0
  3
ISO double-dash double-dot __ __ . . __ __ . . 
 72
    65
 73
     8
 40
37.0
 49
12.0
 74
     0
 49
-3.0
 74
     0
 49
12.0
 74
     0
 49
-3.0
 74
     0
 49
0.5
 74
     0
 49
-3.0
 74
     0
 49
0.5
 74
     0
 49
-3.0
 74
     0
  0
LTYPE
  5
C20
100
AcDbSymbolTableRecord
100
AcDbLinetypeTableRecord
  2
ACAD_ISO14W100
 70
     0
  3
ISO dash triple-dot __ . . . __ . . . __ . . . 
 72
    65
 73
     8
 40
25.5
 49
12.0
 74
     0
 49
-3.0
 74
     0
 49
0.5
 74
     0
 49
-3.0
 74
     0
 49
0.5
 74
     0
 49
-3.0
 74
     0
 49
0.5
 74
     0
 49
-3.0
 74
     0
  0
LTYPE
  5
C21
100
AcDbSymbolTableRecord
100
AcDbLinetypeTableRecord
  2
ACAD_ISO15W100
 70
     0
  3
ISO double-dash triple-dot __ __ . . . __ __ . 
 72
    65
 73
    10
 40
40.5
 49
12.0
 74
     0
 49
-3.0
 74
     0
 49
12.0
 74
     0
 49
-3.0
 74
     0
 49
0.5
 74
     0
 49
-3.0
 74
     0
 49
0.5
 74
     0
 49
-3.0
 74
     0
 49
0.5
 74
     0
 49
-3.0
 74
     0
  0
LTYPE
  5
C22
100
AcDbSymbolTableRecord
100
AcDbLinetypeTableRecord
  2
BATTING
 70
     0
  3
Batting SSSSSSSSSSSSSSSSSSSSSSSSSSSSSSSSSSSSSSS
 72
    65
 73
     4
 40
0.4001
 49
0.0001
 74
     0
 49
-0.1
 74
     4
 75
   134
340
C3E
 46
0.1
 50
0.0
 44
-0.1
 45
0.0
 49
-0.2
 74
     4
 75
   134
340
C3E
 46
0.1
 50
180.0
 44
0.1
 45
0.0
 49
-0.1
 74
     0
  0
LTYPE
  5
C23
100
AcDbSymbolTableRecord
100
AcDbLinetypeTableRecord
  2
BORDER
 70
     0
  3
Border __ __ . __ __ . __ __ . __ __ . __ __ .
 72
    65
 73
     6
 40
1.75
 49
0.5
 74
     0
 49
-0.25
 74
     0
 49
0.5
 74
     0
 49
-0.25
 74
     0
 49
0.0
 74
     0
 49
-0.25
 74
     0
  0
LTYPE
  5
C24
100
AcDbSymbolTableRecord
100
AcDbLinetypeTableRecord
  2
BORDER2
 70
     0
  3
Border (.5x) __.__.__.__.__.__.__.__.__.__.__.
 72
    65
 73
     6
 40
0.875
 49
0.25
 74
     0
 49
-0.125
 74
     0
 49
0.25
 74
     0
 49
-0.125
 74
     0
 49
0.0
 74
     0
 49
-0.125
 74
     0
  0
LTYPE
  5
C25
100
AcDbSymbolTableRecord
100
AcDbLinetypeTableRecord
  2
BORDERX2
 70
     0
  3
Border (2x) ____  ____  .  ____  ____  .  ___
 72
    65
 73
     6
 40
3.5
 49
1.0
 74
     0
 49
-0.5
 74
     0
 49
1.0
 74
     0
 49
-0.5
 74
     0
 49
0.0
 74
     0
 49
-0.5
 74
     0
  0
LTYPE
  5
C26
100
AcDbSymbolTableRecord
100
AcDbLinetypeTableRecord
  2
CENTER
 70
     0
  3
Center ____ _ ____ _ ____ _ ____ _ ____ _ ____
 72
    65
 73
     4
 40
2.0
 49
1.25
 74
     0
 49
-0.25
 74
     0
 49
0.25
 74
     0
 49
-0.25
 74
     0
  0
LTYPE
  5
C27
100
AcDbSymbolTableRecord
100
AcDbLinetypeTableRecord
  2
CENTER2
 70
     0
  3
Center (.5x) ___ _ ___ _ ___ _ ___ _ ___ _ ___
 72
    65
 73
     4
 40
1.125
 49
0.75
 74
     0
 49
-0.125
 74
     0
 49
0.125
 74
     0
 49
-0.125
 74
     0
  0
LTYPE
  5
C28
100
AcDbSymbolTableRecord
100
AcDbLinetypeTableRecord
  2
CENTERX2
 70
     0
  3
Center (2x) ________  __  ________  __  _____
 72
    65
 73
     4
 40
4.0
 49
2.5
 74
     0
 49
-0.5
 74
     0
 49
0.5
 74
     0
 49
-0.5
 74
     0
  0
LTYPE
  5
C29
100
AcDbSymbolTableRecord
100
AcDbLinetypeTableRecord
  2
DASHDOT2
 70
     0
  3
Dash dot (.5x) _._._._._._._._._._._._._._._.
 72
    65
 73
     4
 40
0.5
 49
0.25
 74
     0
 49
-0.125
 74
     0
 49
0.0
 74
     0
 49
-0.125
 74
     0
  0
LTYPE
  5
C2A
100
AcDbSymbolTableRecord
100
AcDbLinetypeTableRecord
  2
DASHDOTX2
 70
     0
  3
Dash dot (2x) ____  .  ____  .  ____  .  ___
 72
    65
 73
     4
 40
2.0
 49
1.0
 74
     0
 49
-0.5
 74
     0
 49
0.0
 74
     0
 49
-0.5
 74
     0
  0
LTYPE
  5
C2B
100
AcDbSymbolTableRecord
100
AcDbLinetypeTableRecord
  2
DASHED2
 70
     0
  3
Dashed (.5x) _ _ _ _ _ _ _ _ _ _ _ _ _ _ _ _ _
 72
    65
 73
     2
 40
0.375
 49
0.25
 74
     0
 49
-0.125
 74
     0
  0
LTYPE
  5
C2C
100
AcDbSymbolTableRecord
100
AcDbLinetypeTableRecord
  2
DASHEDX2
 70
     0
  3
Dashed (2x) ____  ____  ____  ____  ____  ___
 72
    65
 73
     2
 40
1.5
 49
1.0
 74
     0
 49
-0.5
 74
     0
  0
LTYPE
  5
C2D
100
AcDbSymbolTableRecord
100
AcDbLinetypeTableRecord
  2
DIVIDE
 70
     0
  3
Divide ____ . . ____ . . ____ . . ____ . . ____
 72
    65
 73
     6
 40
1.25
 49
0.5
 74
     0
 49
-0.25
 74
     0
 49
0.0
 74
     0
 49
-0.25
 74
     0
 49
0.0
 74
     0
 49
-0.25
 74
     0
  0
LTYPE
  5
C2E
100
AcDbSymbolTableRecord
100
AcDbLinetypeTableRecord
  2
DIVIDE2
 70
     0
  3
Divide (.5x) __..__..__..__..__..__..__..__.._
 72
    65
 73
     6
 40
0.625
 49
0.25
 74
     0
 49
-0.125
 74
     0
 49
0.0
 74
     0
 49
-0.125
 74
     0
 49
0.0
 74
     0
 49
-0.125
 74
     0
  0
LTYPE
  5
C2F
100
AcDbSymbolTableRecord
100
AcDbLinetypeTableRecord
  2
DIVIDEX2
 70
     0
  3
Divide (2x) ________  .  .  ________  .  .  _
 72
    65
 73
     6
 40
2.5
 49
1.0
 74
     0
 49
-0.5
 74
     0
 49
0.0
 74
     0
 49
-0.5
 74
     0
 49
0.0
 74
     0
 49
-0.5
 74
     0
  0
LTYPE
  5
C30
100
AcDbSymbolTableRecord
100
AcDbLinetypeTableRecord
  2
DOT
 70
     0
  3
Dot . . . . . . . . . . . . . . . . . . . . . .
 72
    65
 73
     2
 40
0.25
 49
0.0
 74
     0
 49
-0.25
 74
     0
  0
LTYPE
  5
C31
100
AcDbSymbolTableRecord
100
AcDbLinetypeTableRecord
  2
DOTX2
 70
     0
  3
Dot (2x) .  .  .  .  .  .  .  .  .  .  .  .  . 
 72
    65
 73
     2
 40
0.5
 49
0.0
 74
     0
 49
-0.5
 74
     0
  0
LTYPE
  5
C32
100
AcDbSymbolTableRecord
100
AcDbLinetypeTableRecord
  2
FENCELINE1
 70
     0
  3
Fenceline circle ----0-----0----0-----0----0---
 72
    65
 73
     4
 40
1.45
 49
0.25
 74
     0
 49
-0.1
 74
     4
 75
   133
340
C3E
 46
0.1
 50
0.0
 44
-0.1
 45
0.0
 49
-0.1
 74
     0
 49
1.0
 74
     0
  0
LTYPE
  5
C33
100
AcDbSymbolTableRecord
100
AcDbLinetypeTableRecord
  2
FENCELINE2
 70
     0
  3
Fenceline square ----[]-----[]----[]-----[]----
 72
    65
 73
     4
 40
1.45
 49
0.25
 74
     0
 49
-0.1
 74
     4
 75
   132
340
C3E
 46
0.1
 50
0.0
 44
-0.1
 45
0.0
 49
-0.1
 74
     0
 49
1.0
 74
     0
  0
LTYPE
  5
C34
100
AcDbSymbolTableRecord
100
AcDbLinetypeTableRecord
  2
GAS_LINE
 70
     0
  3
Gas line ----GAS----GAS----GAS----GAS----GAS---
 72
    65
 73
     3
 40
0.95
 49
0.5
 74
     0
 49
-0.2
 74
     2
 75
     0
340
10
 46
0.1
 50
0.0
 44
-0.1
 45
-0.05
  9
GAS
 49
-0.25
 74
     0
  0
LTYPE
  5
C35
100
AcDbSymbolTableRecord
100
AcDbLinetypeTableRecord
  2
HIDDEN
 70
     0
  3
Hidden __ __ __ __ __ __ __ __ __ __ __ __ __ _
 72
    65
 73
     2
 40
0.375
 49
0.25
 74
     0
 49
-0.125
 74
     0
  0
LTYPE
  5
C36
100
AcDbSymbolTableRecord
100
AcDbLinetypeTableRecord
  2
HIDDEN2
 70
     0
  3
Hidden (.5x) _ _ _ _ _ _ _ _ _ _ _ _ _ _ _ _ _
 72
    65
 73
     2
 40
0.1875
 49
0.125
 74
     0
 49
-0.0625
 74
     0
  0
LTYPE
  5
C37
100
AcDbSymbolTableRecord
100
AcDbLinetypeTableRecord
  2
HIDDENX2
 70
     0
  3
Hidden (2x) ____ ____ ____ ____ ____ ____ ____
 72
    65
 73
     2
 40
0.75
 49
0.5
 74
     0
 49
-0.25
 74
     0
  0
LTYPE
  5
C38
100
AcDbSymbolTableRecord
100
AcDbLinetypeTableRecord
  2
HOT_WATER_SUPPLY
 70
     0
  3
Hot water supply ---- HW ---- HW ---- HW ----
 72
    65
 73
     3
 40
0.9
 49
0.5
 74
     0
 49
-0.2
 74
     2
 75
     0
340
10
 46
0.1
 50
0.0
 44
-0.1
 45
-0.05
  9
HW
 49
-0.2
 74
     0
  0
LTYPE
  5
C39
100
AcDbSymbolTableRecord
100
AcDbLinetypeTableRecord
  2
PHANTOM
 70
     0
  3
Phantom ______  __  __  ______  __  __  ______
 72
    65
 73
     6
 40
2.5
 49
1.25
 74
     0
 49
-0.25
 74
     0
 49
0.25
 74
     0
 49
-0.25
 74
     0
 49
0.25
 74
     0
 49
-0.25
 74
     0
  0
LTYPE
  5
C3A
100
AcDbSymbolTableRecord
100
AcDbLinetypeTableRecord
  2
PHANTOM2
 70
     0
  3
Phantom (.5x) ___ _ _ ___ _ _ ___ _ _ ___ _ _
 72
    65
 73
     6
 40
1.25
 49
0.625
 74
     0
 49
-0.125
 74
     0
 49
0.125
 74
     0
 49
-0.125
 74
     0
 49
0.125
 74
     0
 49
-0.125
 74
     0
  0
LTYPE
  5
C3B
100
AcDbSymbolTableRecord
100
AcDbLinetypeTableRecord
  2
PHANTOMX2
 70
     0
  3
Phantom (2x) ____________    ____    ____   _
 72
    65
 73
     6
 40
5.0
 49
2.5
 74
     0
 49
-0.5
 74
     0
 49
0.5
 74
     0
 49
-0.5
 74
     0
 49
0.5
 74
     0
 49
-0.5
 74
     0
  0
LTYPE
  5
C3C
100
AcDbSymbolTableRecord
100
AcDbLinetypeTableRecord
  2
TRACKS
 70
     0
  3
Tracks -|-|-|-|-|-|-|-|-|-|-|-|-|-|-|-|-|-|-|-|
 72
    65
 73
     2
 40
0.3
 49
0.15
 74
     4
 75
   130
340
C3E
 46
0.25
 50
0.0
 44
0.0
 45
0.0
 49
0.15
 74
     0
  0
LTYPE
  5
C3D
100
AcDbSymbolTableRecord
100
AcDbLinetypeTableRecord
  2
ZIGZAG
 70
     0
  3
Zig zag /\/\/\/\/\/\/\/\/\/\/\/\/\/\/\/\/\/\/\/
 72
    65
 73
     4
 40
0.8001
 49
0.0001
 74
     0
 49
-0.2
 74
     4
 75
   131
340
C3E
 46
0.2
 50
0.0
 44
-0.2
 45
0.0
 49
-0.4
 74
     4
 75
   131
340
C3E
 46
0.2
 50
180.0
 44
0.2
 45
0.0
 49
-0.2
 74
     0
  0
ENDTAB
  0
TABLE
  2
LAYER
  5
2
100
AcDbSymbolTable
 70
     6
  0
LAYER
  5
F
100
AcDbSymbolTableRecord
100
AcDbLayerTableRecord
  2
0
 70
     0
 62
     7
  6
CONTINUOUS
  0
LAYER
  5
9E
100
AcDbSymbolTableRecord
100
AcDbLayerTableRecord
  2
DEFPOINTS
 70
     0
 62
     7
  6
CONTINUOUS
  0
LAYER
  5
377
100
AcDbSymbolTableRecord
100
AcDbLayerTableRecord
  2
V0-OBRYS
 70
     0
 62
    90
  6
CONTINUOUS
  0
LAYER
  5
378
100
AcDbSymbolTableRecord
100
AcDbLayerTableRecord
  2
V0-VYPLNE
 70
     0
 62
    63
  6
DASHDOT
  0
LAYER
  5
37A
100
AcDbSymbolTableRecord
100
AcDbLayerTableRecord
  2
V0-NAZVY
 70
     0
 62
   210
  6
CONTINUOUS
  0
LAYER
  5
559
100
AcDbSymbolTableRecord
100
AcDbLayerTableRecord
  2
V0-ZBYTEK
 70
     0
 62
    51
  6
CONTINUOUS
  0
ENDTAB
  0
TABLE
  2
STYLE
  5
3
100
AcDbSymbolTable
 70
     7
  0
STYLE
  5
10
100
AcDbSymbolTableRecord
100
AcDbTextStyleTableRecord
  2
STANDARD
 70
     0
 40
7.0
 41
1.0
 50
0.0
 71
     0
 42
20.0
  3
ISOCP.shx
  4

  0
STYLE
  5
331
100
AcDbSymbolTableRecord
100
AcDbTextStyleTableRecord
  2
ED30
 70
     0
 40
30.0
 41
1.0
 50
0.0
 71
     0
 42
2.5
  3
ISOCP.shx
  4

  0
STYLE
  5
5D2
100
AcDbSymbolTableRecord
100
AcDbTextStyleTableRecord
  2
ED20
 70
     0
 40
20.0
 41
1.0
 50
0.0
 71
     0
 42
20.0
  3
isocp.shx
  4

  0
STYLE
  5
64F
100
AcDbSymbolTableRecord
100
AcDbTextStyleTableRecord
  2
ED40
 70
     0
 40
40.0
 41
1.0
 50
0.0
 71
     0
 42
20.0
  3
isocp.shx
  4

  0
STYLE
  5
650
100
AcDbSymbolTableRecord
100
AcDbTextStyleTableRecord
  2
ED10
 70
     0
 40
10.0
 41
1.0
 50
0.0
 71
     0
 42
10.0
  3
isocp.shx
  4

  0
STYLE
  5
C3E
100
AcDbSymbolTableRecord
100
AcDbTextStyleTableRecord
  2

 70
     1
 40
0.0
 41
1.0
 50
0.0
 71
     0
 42
0.2
  3
ltypeshp.shx
  4

  0
STYLE
  5
C3F
100
AcDbSymbolTableRecord
100
AcDbTextStyleTableRecord
  2
ED15
 70
     0
 40
15.0
 41
1.0
 50
0.0
 71
     0
 42
30.0
  3
isocp.shx
  4

  0
ENDTAB
  0
TABLE
  2
VIEW
  5
6
100
AcDbSymbolTable
 70
     0
  0
ENDTAB
  0
TABLE
  2
UCS
  5
7
100
AcDbSymbolTable
 70
     0
  0
ENDTAB
  0
TABLE
  2
APPID
  5
9
100
AcDbSymbolTable
 70
     5
  0
APPID
  5
11
100
AcDbSymbolTableRecord
100
AcDbRegAppTableRecord
  2
ACAD
 70
     0
  0
APPID
  5
C41
100
AcDbSymbolTableRecord
100
AcDbRegAppTableRecord
  2
CONTENTTABDATA
 70
     0
  0
APPID
  5
C42
100
AcDbSymbolTableRecord
100
AcDbRegAppTableRecord
  2
CONTENTCURRENTTAB
 70
     0
  0
APPID
  5
C43
100
AcDbSymbolTableRecord
100
AcDbRegAppTableRecord
  2
CONTENTBLOCKDESCRIPTION
 70
     0
  0
APPID
  5
EE1
100
AcDbSymbolTableRecord
100
AcDbRegAppTableRecord
  2
CONTENTBLOCKICON
 70
     0
  0
ENDTAB
  0
TABLE
  2
DIMSTYLE
  5
A
100
AcDbSymbolTable
 70
     6
  0
DIMSTYLE
105
1D
100
AcDbSymbolTableRecord
100
AcDbDimStyleTableRecord
  2
STANDARD
 70
     0
  3

  4

  5

  6
_OPEN
  7
_OPEN
 40
0.0
 41
15.0
 42
0.625
 43
3.75
 44
1.25
 45
0.0
 46
0.0
 47
0.0
 48
0.0
140
15.0
141
2.5
142
0.0
143
0.0394
144
1.0
145
0.0
146
1.0
147
3.0
 71
     0
 72
     0
 73
     0
 74
     0
 75
     0
 76
     0
 77
     1
 78
     8
170
     0
171
     4
172
     1
173
     1
174
     0
175
     0
176
     0
177
     0
178
     0
270
     2
271
     0
272
     1
273
     8
274
     4
340
331
275
     0
280
     0
281
     0
282
     0
283
     1
284
     8
285
     0
286
     0
287
     3
288
     0
  0
DIMSTYLE
105
397
100
AcDbSymbolTableRecord
100
AcDbDimStyleTableRecord
  2
ED40
 70
     0
  3

  4

  5

  6
_OPEN
  7
_OPEN
 40
0.0
 41
35.0
 42
1.0
 43
3.75
 44
1.25
 45
0.0
 46
0.0
 47
0.0
 48
0.0
140
40.0
141
3.0
142
0.0
143
0.0394
144
1.0
145
0.0
146
1.0
147
3.0
 71
     0
 72
     0
 73
     0
 74
     0
 75
     0
 76
     0
 77
     1
 78
     8
170
     0
171
     4
172
     1
173
     1
174
     0
175
     0
176
     0
177
     0
178
     0
270
     2
271
     0
272
     1
273
     8
274
     4
340
64F
275
     0
280
     0
281
     0
282
     0
283
     1
284
     8
285
     0
286
     0
287
     3
288
     0
  0
DIMSTYLE
105
656
102
{ACAD_REACTORS
330
A42
330
A3E
102
}
100
AcDbSymbolTableRecord
100
AcDbDimStyleTableRecord
  2
ED30
 70
     0
  3

  4

  5

  6
_OPEN
  7
_OPEN
 40
0.0
 41
25.0
 42
1.0
 43
3.75
 44
1.25
 45
0.0
 46
0.0
 47
0.0
 48
0.0
140
30.0
141
3.0
142
0.0
143
0.0394
144
1.0
145
0.0
146
1.0
147
2.0
 71
     0
 72
     0
 73
     0
 74
     0
 75
     0
 76
     0
 77
     1
 78
     8
170
     0
171
     4
172
     1
173
     1
174
     0
175
     0
176
     0
177
     0
178
     0
270
     2
271
     0
272
     1
273
     8
274
     4
340
331
275
     0
280
     0
281
     0
282
     0
283
     1
284
     8
285
     0
286
     0
287
     3
288
     0
  0
DIMSTYLE
105
657
100
AcDbSymbolTableRecord
100
AcDbDimStyleTableRecord
  2
ED20
 70
     0
  3

  4

  5

  6
_OPEN
  7
_OPEN
 40
0.0
 41
20.0
 42
1.0
 43
3.75
 44
1.25
 45
0.0
 46
0.0
 47
0.0
 48
0.0
140
20.0
141
3.0
142
0.0
143
0.0394
144
1.0
145
0.0
146
1.0
147
1.5
 71
     0
 72
     0
 73
     0
 74
     0
 75
     0
 76
     0
 77
     1
 78
     8
170
     0
171
     4
172
     1
173
     1
174
     0
175
     0
176
     0
177
     0
178
     0
270
     2
271
     0
272
     1
273
     8
274
     4
340
5D2
275
     0
280
     0
281
     0
282
     0
283
     1
284
     8
285
     0
286
     0
287
     3
288
     0
  0
DIMSTYLE
105
658
102
{ACAD_REACTORS
330
BA3
330
BC6
102
}
100
AcDbSymbolTableRecord
100
AcDbDimStyleTableRecord
  2
ED10
 70
     0
  3

  4

  5

  6
_OPEN
  7
_OPEN
 40
0.0
 41
15.0
 42
1.0
 43
3.75
 44
1.25
 45
0.0
 46
0.0
 47
0.0
 48
0.0
140
10.0
141
3.0
142
0.0
143
0.0394
144
1.0
145
0.0
146
1.0
147
1.5
 71
     0
 72
     0
 73
     0
 74
     0
 75
     0
 76
     0
 77
     1
 78
     8
170
     0
171
     4
172
     1
173
     1
174
     0
175
     0
176
    41
177
    41
178
    41
270
     2
271
     0
272
     1
273
     8
274
     4
340
5D2
275
     0
280
     0
281
     0
282
     0
283
     1
284
     8
285
     0
286
     0
287
     3
288
     0
  0
DIMSTYLE
105
C40
102
{ACAD_REACTORS
330
BF7
330
BFB
102
}
100
AcDbSymbolTableRecord
100
AcDbDimStyleTableRecord
  2
ED15
 70
     0
  3

  4

  5

  6
_OPEN
  7
_OPEN
 40
0.0
 41
15.0
 42
1.0
 43
3.75
 44
1.25
 45
0.0
 46
0.0
 47
0.0
 48
0.0
140
15.0
141
3.0
142
0.0
143
0.0394
144
1.0
145
0.0
146
1.0
147
1.5
 71
     0
 72
     0
 73
     0
 74
     0
 75
     0
 76
     0
 77
     1
 78
     8
170
     0
171
     4
172
     1
173
     1
174
     0
175
     0
176
     0
177
     0
178
     0
270
     2
271
     0
272
     1
273
     8
274
     4
340
C3F
275
     0
280
     0
281
     0
282
     0
283
     1
284
     8
285
     0
286
     0
287
     3
288
     0
  0
ENDTAB
  0
TABLE
  2
BLOCK_RECORD
  5
1
100
AcDbSymbolTable
 70
    16
  0
BLOCK_RECORD
  5
1A
100
AcDbSymbolTableRecord
100
AcDbBlockTableRecord
  2
*MODEL_SPACE
  0
BLOCK_RECORD
  5
17
100
AcDbSymbolTableRecord
100
AcDbBlockTableRecord
  2
*PAPER_SPACE
  0
BLOCK_RECORD
  5
90
100
AcDbSymbolTableRecord
100
AcDbBlockTableRecord
  2
_OPEN
  0
BLOCK_RECORD
  5
A52
100
AcDbSymbolTableRecord
100
AcDbBlockTableRecord
  2
*D1
  0
BLOCK_RECORD
  5
A5E
100
AcDbSymbolTableRecord
100
AcDbBlockTableRecord
  2
*D2
  0
BLOCK_RECORD
  5
B97
100
AcDbSymbolTableRecord
100
AcDbBlockTableRecord
  2
*D3
  0
BLOCK_RECORD
  5
BBA
100
AcDbSymbolTableRecord
100
AcDbBlockTableRecord
  2
*D4
  0
BLOCK_RECORD
  5
BD4
100
AcDbSymbolTableRecord
100
AcDbBlockTableRecord
  2
*D5
  0
BLOCK_RECORD
  5
BE0
100
AcDbSymbolTableRecord
100
AcDbBlockTableRecord
  2
*D6
  0
BLOCK_RECORD
  5
BEE
100
AcDbSymbolTableRecord
100
AcDbBlockTableRecord
  2
PAKA-PLAST
  0
BLOCK_RECORD
  5
DAC
100
AcDbSymbolTableRecord
100
AcDbBlockTableRecord
  2
*D11
  0
BLOCK_RECORD
  5
DB8
100
AcDbSymbolTableRecord
100
AcDbBlockTableRecord
  2
*D12
  0
BLOCK_RECORD
  5
DC4
100
AcDbSymbolTableRecord
100
AcDbBlockTableRecord
  2
*D13
  0
BLOCK_RECORD
  5
FC5
100
AcDbSymbolTableRecord
100
AcDbBlockTableRecord
  2
KSP-125-P
1001
CONTENTBLOCKICON
1071
        0
1004
2800000020000000200000000100040000000000000200000000000000000000000000000000000000000000000080000080000000808000800000008000800080800000C0C0C000808080000000FF0000FF000000FFFF00FF000000FF00FF00FFFF0000FFFFFF00FFFFFFFFFFFFFFFFFFFFFFFFFFFFFFFF
1004
FFFFFFFFFFFFFFFFFFFFFFFFFFFFFFFFFFFFFFFFFFFFFFFFFFFFFFFFFFFFFFFFFFFFFFFFFFFFFFFFFFFFFFFFFFFFFFFFFFFFFFFFFFFFFFFFFFFFFFFFFFFFFFFFFFFFFFFFFFFFFFFFFFFFFFFFFFFFFFFFFFFFFFFFFFFFFFFFFFFFFFFFFFFFFFFFFFFFFFAAAFFFFFFFFFFFAAFFFFFFFFFFFAAAAAAFAAAAAAAA
1004
AAAAFFAAAAAFFFFFFAFFFFAFABFFAAAAAAAAFAFFFFAFFFFFFAFFFFAFAFFFAFAAFFFAFAFFFFAFFFFFFAFFFFAFAFBFA7A77AFAFAFFFFAFFFFFFAFFFFAFAFFFAFFAA7AAFAFFFFAFFFFFFAFFFFAFAFFFAFFFF77AFAFFFFAFFFFFFAFFFFAFAFFFAAAAAA7AAAAAAAAAAAFFFAFFFFAFAFFFAAAAFFAAFAFFFFAFFFFA
1004
7A77F7AF777FAAAA7FAAA077F7AFFFFFFAFFFFAFAFFFAAAAAA7AAAAAAAAAAAAFFAFFFFAFAFFFAFFFFAAAAAFFFFAFFFFFFAFFFFAFAFFFAFFFB7AAFAFFFFAFFFFFFAFFFFAFAFFFAF77A7FAFAFFFFAFFFFFFAFFFFAFAFFFA7AAFBFAFAFFFFAFFFFFFAFFFFAFAFFFAAAAAAAAFAFFFFAFFFFFFAFFFFAFAFFFFFFF
1004
FFFAFAFFFFAFFFFFFAAAAAAFAAAAAAAAAAAAAAAAAAAFFFFFFFFFFFFFFFFFFFFFFFFFFFFFFFFFFFFFFFFFFFFFFFFFFFFFFFFFFFFFFFFFFFFFFFFFFFFFFFFFFFFFFFFFFFFFFFFFFFFFFFFFFFFFFFFFFFFFFFFFFFFFFFFFFFFFFFFFFFFFFFFFFFFFFFFFFFFFFFFFFFFFFFFFFFFFFFFFFFFFFFFFFFFFFFFFFFFF
1004
FFFFFFFFFFFFFFFFFFFFFFFFFFFFFFFF
  0
BLOCK_RECORD
  5
1068
100
AcDbSymbolTableRecord
100
AcDbBlockTableRecord
  2
KSP-125-N
1001
CONTENTBLOCKICON
1071
        0
1004
2800000020000000200000000100040000000000000200000000000000000000000000000000000000000000000080000080000000808000800000008000800080800000C0C0C000808080000000FF0000FF000000FFFF00FF000000FF00FF00FFFF0000FFFFFF00FFFFFFFFFFFFFFFFFFFFFFFFFFFFFFFF
1004
FFFFFFFFFFFFFFFFFFFFFFFFFFFFFFFFFFFFFFFFFFFFFFFFFFFFFFFFFFFFFFFFFFFFFFFFFFFFFFFFFFFFFFFFFFFFFFFFFFFFFFFFFFFFFAFFFFFFFFFFFFFFFFFFFAAAAAAAAAAAAAAAAAAAAAAAAAAFFFFFFAFFFFAFAFFFBBBBFFFAFAFFFFAFFFFFFAFFFFAFAFFBFFAFBFFAFAFFFFAFFFFFFAFFFFAFAFBBFBBF
1004
FBFAFAFFFFAFFFFFFAFFFFAFAFBFFFAFFBFAFAFFFFAFFFFFFAFFFFAFAFBFFBBFFFBAFAFFFFAFFFFFFAFFFFAFABFFFBBFFFBAFAFFFFAFFFFFFAFFFFAFABFFFFAFFFBAFAFFFFAFFFFF7A77F7AF777F77B77F777077F7AF777FFAFFFFAFABFFFFAFFFBAFAFFFFAFFFFFFAFFFFAFABFFFBBFFFBAFAFFFFAFFFFF
1004
FAFFFFAFABFFFBBFFFBAFAFFFFAFFFFFFAFFFFAFAFBFFFAFFBBAFAFFFFAFFFFFFAFFFFAFAFAAAAAAAAAAFAFFFFAFFFFFFAFFFFAFAFABFFAFBBFAFAFFFFAFFFFFFAFFFFAFAFABBBBBBFFAFAFFFFAFFFFFFAAAAAFFAAABAABBBBBAFAAAAAAFFFFFFFFFFFAFAFAFFBBBFFFAAAFFFFFFFFFFFFFFFFFFFFAFFBBF
1004
FFFAFFFFFFFFFFFFFFFFFFFFFFAFFFAFFFFAFFFFFFFFFFFFFFFFFFFFFFAAAAAAAAAAAAFFFFFFFFFFFFFFFFFFFFAAAAAAAAAAAAAAFFFFFFFFFFFFFFFFFFAAAAAAFA7AAFFAAAAAAAAAFFFFFFFFFFFFFFFFFFFFFFFFFFFFFFFFFFFFFFFFFFFFFFFFFFFFFFFFFFFFFFFFFFFFFFFFFFFFFFFFFFFFFFFFFFFFFFFF
1004
FFFFFFFFFFFFFFFFFFFFFFFFFFFFFFFF
  0
ENDTAB
  0
ENDSEC
  0
SECTION
  2
BLOCKS
  0
BLOCK
  5
1B
100
AcDbEntity
  8
0
100
AcDbBlockBegin
  2
*MODEL_SPACE
 70
     0
 10
0.0
 20
0.0
 30
0.0
  3
*MODEL_SPACE
  1

  0
ENDBLK
  5
1C
100
AcDbEntity
  8
0
100
AcDbBlockEnd
  0
BLOCK
  5
18
100
AcDbEntity
 67
     1
  8
0
100
AcDbBlockBegin
  2
*PAPER_SPACE
 70
     0
 10
0.0
 20
0.0
 30
0.0
  3
*PAPER_SPACE
  1

  0
ENDBLK
  5
19
100
AcDbEntity
 67
     1
  8
0
100
AcDbBlockEnd
  0
BLOCK
  5
91
100
AcDbEntity
  8
0
100
AcDbBlockBegin
  2
_OPEN
 70
     0
 10
0.0
 20
0.0
 30
0.0
  3
_OPEN
  1

  0
LINE
  5
92
100
AcDbEntity
  8
0
  6
BYBLOCK
 62
     0
100
AcDbLine
 10
-1.0
 20
0.166667
 30
0.0
 11
0.0
 21
0.0
 31
0.0
  0
LINE
  5
93
100
AcDbEntity
  8
0
  6
BYBLOCK
 62
     0
100
AcDbLine
 10
0.0
 20
0.0
 30
0.0
 11
-1.0
 21
-0.166667
 31
0.0
  0
LINE
  5
94
100
AcDbEntity
  8
0
  6
BYBLOCK
 62
     0
100
AcDbLine
 10
0.0
 20
0.0
 30
0.0
 11
-1.0
 21
0.0
 31
0.0
  0
ENDBLK
  5
95
100
AcDbEntity
  8
0
100
AcDbBlockEnd
  0
BLOCK
  5
B68
100
AcDbEntity
  8
0
100
AcDbBlockBegin
  2
*D1
 70
     1
 10
0.0
 20
0.0
 30
0.0
  3
*D1
  1

  0
LINE
  5
B69
100
AcDbEntity
  8
0
  6
BYBLOCK
 62
     0
100
AcDbLine
 10
726.552254
 20
62.5
 30
0.0
 11
684.355302
 21
62.5
 31
0.0
  0
LINE
  5
B6A
100
AcDbEntity
  8
0
  6
BYBLOCK
 62
     0
100
AcDbLine
 10
726.552254
 20
-62.5
 30
0.0
 11
684.355302
 21
-62.5
 31
0.0
  0
LINE
  5
B6B
100
AcDbEntity
  8
0
  6
BYBLOCK
 62
     0
100
AcDbLine
 10
685.605302
 20
42.5
 30
0.0
 11
685.605302
 21
-42.5
 31
0.0
  0
INSERT
  5
B6C
100
AcDbEntity
  8
0
  6
BYBLOCK
 62
     0
100
AcDbBlockReference
  2
_OPEN
 10
685.605302
 20
62.5
 30
0.0
 41
20.0
 42
20.0
 43
20.0
 50
90.0
  0
INSERT
  5
B6D
100
AcDbEntity
  8
0
  6
BYBLOCK
 62
     0
100
AcDbBlockReference
  2
_OPEN
 10
685.605302
 20
-62.5
 30
0.0
 41
20.0
 42
20.0
 43
20.0
 50
270.0
  0
MTEXT
  5
B6E
100
AcDbEntity
  8
0
  6
BYBLOCK
 62
     0
100
AcDbMText
 10
674.103333
 20
-1.802349
 30
0.0
 40
20.0
 41
0.0
 71
     5
 72
     1
  1
\A1;\U+2205125
  7
ED20
 11
0.0
 21
1.0
 31
0.0
  0
POINT
  5
B6F
100
AcDbEntity
  8
DEFPOINTS
  6
BYBLOCK
 62
     0
100
AcDbPoint
 10
727.552254
 20
62.5
 30
0.0
  0
POINT
  5
B70
100
AcDbEntity
  8
DEFPOINTS
  6
BYBLOCK
 62
     0
100
AcDbPoint
 10
727.552254
 20
-62.5
 30
0.0
  0
POINT
  5
B71
100
AcDbEntity
  8
DEFPOINTS
  6
BYBLOCK
 62
     0
100
AcDbPoint
 10
685.605302
 20
-62.5
 30
0.0
  0
ENDBLK
  5
B72
100
AcDbEntity
  8
0
100
AcDbBlockEnd
  0
BLOCK
  5
B08
100
AcDbEntity
  8
0
100
AcDbBlockBegin
  2
*D2
 70
     1
 10
0.0
 20
0.0
 30
0.0
  3
*D2
  1

  0
LINE
  5
B09
100
AcDbEntity
  8
0
  6
BYBLOCK
 62
     0
100
AcDbLine
 10
727.552254
 20
-51.0
 30
0.0
 11
727.552254
 21
-99.245962
 31
0.0
  0
LINE
  5
B0A
100
AcDbEntity
  8
0
  6
BYBLOCK
 62
     0
100
AcDbLine
 10
767.552254
 20
-51.0
 30
0.0
 11
767.552254
 21
-99.245962
 31
0.0
  0
LINE
  5
B0B
100
AcDbEntity
  8
0
  6
BYBLOCK
 62
     0
100
AcDbLine
 10
707.552254
 20
-97.995962
 30
0.0
 11
687.552254
 21
-97.995962
 31
0.0
  0
LINE
  5
B0C
100
AcDbEntity
  8
0
  6
BYBLOCK
 62
     0
100
AcDbLine
 10
787.552254
 20
-97.995962
 30
0.0
 11
807.552254
 21
-97.995962
 31
0.0
  0
LINE
  5
B0D
100
AcDbEntity
  8
0
  6
BYBLOCK
 62
     0
100
AcDbLine
 10
727.552254
 20
-97.995962
 30
0.0
 11
767.552254
 21
-97.995962
 31
0.0
  0
INSERT
  5
B0E
100
AcDbEntity
  8
0
  6
BYBLOCK
 62
     0
100
AcDbBlockReference
  2
_OPEN
 10
727.552254
 20
-97.995962
 30
0.0
 41
20.0
 42
20.0
 43
20.0
  0
INSERT
  5
B0F
100
AcDbEntity
  8
0
  6
BYBLOCK
 62
     0
100
AcDbBlockReference
  2
_OPEN
 10
767.552254
 20
-97.995962
 30
0.0
 41
20.0
 42
20.0
 43
20.0
 50
180.0
  0
MTEXT
  5
B10
100
AcDbEntity
  8
0
  6
BYBLOCK
 62
     0
100
AcDbMText
 10
747.552254
 20
-86.495962
 30
0.0
 40
20.0
 41
0.0
 71
     5
 72
     1
  1
\A1;40
  7
ED20
  0
POINT
  5
B11
100
AcDbEntity
  8
DEFPOINTS
  6
BYBLOCK
 62
     0
100
AcDbPoint
 10
727.552254
 20
-50.0
 30
0.0
  0
POINT
  5
B12
100
AcDbEntity
  8
DEFPOINTS
  6
BYBLOCK
 62
     0
100
AcDbPoint
 10
767.552254
 20
-50.0
 30
0.0
  0
POINT
  5
B13
100
AcDbEntity
  8
DEFPOINTS
  6
BYBLOCK
 62
     0
100
AcDbPoint
 10
767.552254
 20
-97.995962
 30
0.0
  0
ENDBLK
  5
B14
100
AcDbEntity
  8
0
100
AcDbBlockEnd
  0
BLOCK
  5
B98
100
AcDbEntity
  8
0
100
AcDbBlockBegin
  2
*D3
 70
     1
 10
0.0
 20
0.0
 30
0.0
  3
*D3
  1

  0
LINE
  5
B99
100
AcDbEntity
  8
0
  6
BYBLOCK
 62
    41
100
AcDbLine
 10
727.552254
 20
-64.5
 30
0.0
 11
727.552254
 21
-153.974261
 31
0.0
  0
LINE
  5
B9A
100
AcDbEntity
  8
0
  6
BYBLOCK
 62
    41
100
AcDbLine
 10
927.547962
 20
-64.5
 30
0.0
 11
927.547962
 21
-153.974261
 31
0.0
  0
LINE
  5
B9B
100
AcDbEntity
  8
0
  6
BYBLOCK
 62
    41
100
AcDbLine
 10
742.552254
 20
-152.724261
 30
0.0
 11
912.547962
 21
-152.724261
 31
0.0
  0
INSERT
  5
B9C
100
AcDbEntity
  8
0
  6
BYBLOCK
 62
    41
100
AcDbBlockReference
  2
_OPEN
 10
727.552254
 20
-152.724261
 30
0.0
 41
15.0
 42
15.0
 43
15.0
 50
180.0
  0
INSERT
  5
B9D
100
AcDbEntity
  8
0
  6
BYBLOCK
 62
    41
100
AcDbBlockReference
  2
_OPEN
 10
927.547962
 20
-152.724261
 30
0.0
 41
15.0
 42
15.0
 43
15.0
  0
MTEXT
  5
B9E
100
AcDbEntity
  8
0
  6
BYBLOCK
 62
    41
100
AcDbMText
 10
827.550108
 20
-141.222293
 30
0.0
 40
20.0
 41
0.0
 71
     5
 72
     1
  1
\A1;200
  7
ED20
  0
POINT
  5
B9F
100
AcDbEntity
  8
DEFPOINTS
  6
BYBLOCK
 62
     0
100
AcDbPoint
 10
727.552254
 20
-63.5
 30
0.0
  0
POINT
  5
BA0
100
AcDbEntity
  8
DEFPOINTS
  6
BYBLOCK
 62
     0
100
AcDbPoint
 10
927.547962
 20
-63.5
 30
0.0
  0
POINT
  5
BA1
100
AcDbEntity
  8
DEFPOINTS
  6
BYBLOCK
 62
     0
100
AcDbPoint
 10
927.547962
 20
-152.724261
 30
0.0
  0
ENDBLK
  5
BA2
100
AcDbEntity
  8
0
100
AcDbBlockEnd
  0
BLOCK
  5
BBB
100
AcDbEntity
  8
0
100
AcDbBlockBegin
  2
*D4
 70
     1
 10
0.0
 20
0.0
 30
0.0
  3
*D4
  1

  0
LINE
  5
BBC
100
AcDbEntity
  8
0
  6
BYBLOCK
 62
    41
100
AcDbLine
 10
767.552254
 20
-63.5
 30
0.0
 11
767.552254
 21
-111.732146
 31
0.0
  0
LINE
  5
BBD
100
AcDbEntity
  8
0
  6
BYBLOCK
 62
    41
100
AcDbLine
 10
887.552254
 20
-63.5
 30
0.0
 11
887.552254
 21
-111.732146
 31
0.0
  0
LINE
  5
BBE
100
AcDbEntity
  8
0
  6
BYBLOCK
 62
    41
100
AcDbLine
 10
782.552254
 20
-110.482146
 30
0.0
 11
872.552254
 21
-110.482146
 31
0.0
  0
INSERT
  5
BBF
100
AcDbEntity
  8
0
  6
BYBLOCK
 62
    41
100
AcDbBlockReference
  2
_OPEN
 10
767.552254
 20
-110.482146
 30
0.0
 41
15.0
 42
15.0
 43
15.0
 50
180.0
  0
INSERT
  5
BC0
100
AcDbEntity
  8
0
  6
BYBLOCK
 62
    41
100
AcDbBlockReference
  2
_OPEN
 10
887.552254
 20
-110.482146
 30
0.0
 41
15.0
 42
15.0
 43
15.0
  0
MTEXT
  5
BC1
100
AcDbEntity
  8
0
  6
BYBLOCK
 62
    41
100
AcDbMText
 10
827.552254
 20
-98.980178
 30
0.0
 40
20.0
 41
0.0
 71
     5
 72
     1
  1
\A1;120
  7
ED20
  0
POINT
  5
BC2
100
AcDbEntity
  8
DEFPOINTS
  6
BYBLOCK
 62
     0
100
AcDbPoint
 10
767.552254
 20
-62.5
 30
0.0
  0
POINT
  5
BC3
100
AcDbEntity
  8
DEFPOINTS
  6
BYBLOCK
 62
     0
100
AcDbPoint
 10
887.552254
 20
-62.5
 30
0.0
  0
POINT
  5
BC4
100
AcDbEntity
  8
DEFPOINTS
  6
BYBLOCK
 62
     0
100
AcDbPoint
 10
887.552254
 20
-110.482146
 30
0.0
  0
ENDBLK
  5
BC5
100
AcDbEntity
  8
0
100
AcDbBlockEnd
  0
BLOCK
  5
BDE
100
AcDbEntity
  8
0
100
AcDbBlockBegin
  2
*D5
 70
     1
 10
0.0
 20
0.0
 30
0.0
  3
*D5
  1

  0
LINE
  5
BD5
100
AcDbEntity
  8
0
  6
BYBLOCK
 62
    41
100
AcDbLine
 10
240.0
 20
95.8201
 30
0.0
 11
240.0
 21
100.247389
 31
0.0
  0
LINE
  5
BD6
100
AcDbEntity
  8
0
  6
BYBLOCK
 62
    41
100
AcDbLine
 10
315.0
 20
84.0
 30
0.0
 11
315.0
 21
100.247389
 31
0.0
  0
LINE
  5
BD7
100
AcDbEntity
  8
0
  6
BYBLOCK
 62
    41
100
AcDbLine
 10
255.0
 20
98.997389
 30
0.0
 11
300.0
 21
98.997389
 31
0.0
  0
INSERT
  5
BD8
100
AcDbEntity
  8
0
  6
BYBLOCK
 62
    41
100
AcDbBlockReference
  2
_OPEN
 10
240.0
 20
98.997389
 30
0.0
 41
15.0
 42
15.0
 43
15.0
 50
180.0
  0
INSERT
  5
BD9
100
AcDbEntity
  8
0
  6
BYBLOCK
 62
    41
100
AcDbBlockReference
  2
_OPEN
 10
315.0
 20
98.997389
 30
0.0
 41
15.0
 42
15.0
 43
15.0
  0
MTEXT
  5
BDA
100
AcDbEntity
  8
0
  6
BYBLOCK
 62
    41
100
AcDbMText
 10
277.5
 20
107.997389
 30
0.0
 40
15.0
 41
0.0
 71
     5
 72
     1
  1
\A1;75
  7
ED15
  0
POINT
  5
BDB
100
AcDbEntity
  8
DEFPOINTS
  6
BYBLOCK
 62
     0
100
AcDbPoint
 10
240.0
 20
94.8201
 30
0.0
  0
POINT
  5
BDC
100
AcDbEntity
  8
DEFPOINTS
  6
BYBLOCK
 62
     0
100
AcDbPoint
 10
315.0
 20
83.0
 30
0.0
  0
POINT
  5
BDD
100
AcDbEntity
  8
DEFPOINTS
  6
BYBLOCK
 62
     0
100
AcDbPoint
 10
315.0
 20
98.997389
 30
0.0
  0
ENDBLK
  5
BDF
100
AcDbEntity
  8
0
100
AcDbBlockEnd
  0
BLOCK
  5
BEC
100
AcDbEntity
  8
0
100
AcDbBlockBegin
  2
*D6
 70
     1
 10
0.0
 20
0.0
 30
0.0
  3
*D6
  1

  0
LINE
  5
BE1
100
AcDbEntity
  8
0
  6
BYBLOCK
 62
    41
100
AcDbLine
 10
316.0
 20
82.0
 30
0.0
 11
364.253085
 21
82.0
 31
0.0
  0
LINE
  5
BE2
100
AcDbEntity
  8
0
  6
BYBLOCK
 62
    41
100
AcDbLine
 10
341.0
 20
50.0
 30
0.0
 11
364.253085
 21
50.0
 31
0.0
  0
LINE
  5
BE3
100
AcDbEntity
  8
0
  6
BYBLOCK
 62
    41
100
AcDbLine
 10
363.003085
 20
97.0
 30
0.0
 11
363.003085
 21
112.0
 31
0.0
  0
LINE
  5
BE4
100
AcDbEntity
  8
0
  6
BYBLOCK
 62
    41
100
AcDbLine
 10
363.003085
 20
35.0
 30
0.0
 11
363.003085
 21
20.0
 31
0.0
  0
LINE
  5
BE5
100
AcDbEntity
  8
0
  6
BYBLOCK
 62
    41
100
AcDbLine
 10
363.003085
 20
82.0
 30
0.0
 11
363.003085
 21
50.0
 31
0.0
  0
INSERT
  5
BE6
100
AcDbEntity
  8
0
  6
BYBLOCK
 62
    41
100
AcDbBlockReference
  2
_OPEN
 10
363.003085
 20
82.0
 30
0.0
 41
15.0
 42
15.0
 43
15.0
 50
270.0
  0
INSERT
  5
BE7
100
AcDbEntity
  8
0
  6
BYBLOCK
 62
    41
100
AcDbBlockReference
  2
_OPEN
 10
363.003085
 20
50.0
 30
0.0
 41
15.0
 42
15.0
 43
15.0
 50
90.0
  0
MTEXT
  5
BE8
100
AcDbEntity
  8
0
  6
BYBLOCK
 62
    41
100
AcDbMText
 10
354.001609
 20
66.0
 30
0.0
 40
15.0
 41
0.0
 71
     5
 72
     1
  1
\A1;32
  7
ED15
 11
0.0
 21
1.0
 31
0.0
  0
POINT
  5
BE9
100
AcDbEntity
  8
DEFPOINTS
  6
BYBLOCK
 62
     0
100
AcDbPoint
 10
315.0
 20
82.0
 30
0.0
  0
POINT
  5
BEA
100
AcDbEntity
  8
DEFPOINTS
  6
BYBLOCK
 62
     0
100
AcDbPoint
 10
340.0
 20
50.0
 30
0.0
  0
POINT
  5
BEB
100
AcDbEntity
  8
DEFPOINTS
  6
BYBLOCK
 62
     0
100
AcDbPoint
 10
363.003085
 20
50.0
 30
0.0
  0
ENDBLK
  5
BED
100
AcDbEntity
  8
0
100
AcDbBlockEnd
  0
BLOCK
  5
C11
100
AcDbEntity
  8
0
100
AcDbBlockBegin
  2
PAKA-PLAST
 70
     0
 10
0.0
 20
0.0
 30
0.0
  3
PAKA-PLAST
  1

  0
LINE
  5
BEF
100
AcDbEntity
  8
V0-OBRYS
  6
CONTINUOUS
 62
    90
100
AcDbLine
 10
-30.0
 20
78.0
 30
0.0
 11
0.527827
 21
78.0
 31
0.0
  0
LINE
  5
BF0
100
AcDbEntity
  8
V0-OBRYS
  6
CONTINUOUS
 62
    90
100
AcDbLine
 10
-30.0
 20
78.0
 30
0.0
 11
-30.0
 21
49.860781
 31
0.0
  0
LINE
  5
BF1
100
AcDbEntity
  8
V0-OBRYS
  6
CONTINUOUS
 62
    90
100
AcDbLine
 10
-33.0
 20
81.0
 30
0.0
 11
-33.0
 21
67.207687
 31
0.0
  0
LINE
  5
BF2
100
AcDbEntity
  8
V0-OBRYS
  6
CONTINUOUS
 62
    90
100
AcDbLine
 10
-33.0
 20
67.207687
 30
0.0
 11
-29.87045
 21
67.207687
 31
0.0
  0
LINE
  5
BF3
100
AcDbEntity
  8
V0-OBRYS
  6
CONTINUOUS
 62
    90
100
AcDbLine
 10
30.0
 20
78.0
 30
0.0
 11
30.0
 21
49.860781
 31
0.0
  0
LINE
  5
BF4
100
AcDbEntity
  8
V0-VYPLNE
  6
DASHED
 62
    52
100
AcDbLine
 10
-3.0
 20
78.0
 30
0.0
 11
-3.0
 21
25.0
 31
0.0
  0
LINE
  5
BF5
100
AcDbEntity
  8
V0-VYPLNE
  6
DASHED
 62
    52
100
AcDbLine
 10
3.0
 20
78.0
 30
0.0
 11
3.0
 21
25.0
 31
0.0
  0
LINE
  5
BF6
100
AcDbEntity
  8
V0-VYPLNE
  6
DASHED
 62
    52
100
AcDbLine
 10
-3.0
 20
25.0
 30
0.0
 11
0.0
 21
25.0
 31
0.0
  0
DIMENSION
  5
BF7
100
AcDbEntity
  8
V0-VYPLNE
  6
CONTINUOUS
 62
    41
100
AcDbDimension
  2
*D5
 10
75.0
 20
96.997389
 30
0.0
 11
37.5
 21
107.997389
 31
0.0
 12
-240.0
 22
-2.0
 32
0.0
  3
ED15
100
AcDbAlignedDimension
 13
0.0
 23
92.8201
 33
0.0
 14
75.0
 24
81.0
 34
0.0
100
AcDbRotatedDimension
1001
ACAD
1000
DSTYLE
1002
{
1070
    40
1040
1.0
1070
   178
1070
    41
1070
   177
1070
    41
1070
   176
1070
    41
1002
}
  0
LINE
  5
BF8
100
AcDbEntity
  8
V0-OBRYS
  6
CONTINUOUS
 62
    90
100
AcDbLine
 10
74.0
 20
78.0
 30
0.0
 11
-0.527827
 21
78.0
 31
0.0
  0
LINE
  5
BF9
100
AcDbEntity
  8
V0-OBRYS
  6
CONTINUOUS
 62
    90
100
AcDbLine
 10
74.0
 20
81.0
 30
0.0
 11
74.0
 21
78.0
 31
0.0
  0
LINE
  5
BFA
100
AcDbEntity
  8
V0-OBRYS
  6
CONTINUOUS
 62
    90
100
AcDbLine
 10
74.0
 20
81.0
 30
0.0
 11
-33.0
 21
81.0
 31
0.0
  0
DIMENSION
  5
BFB
100
AcDbEntity
  8
V0-VYPLNE
  6
CONTINUOUS
 62
    41
100
AcDbDimension
  2
*D6
 10
123.003085
 20
50.0
 30
0.0
 11
114.001609
 21
66.0
 31
0.0
 12
-240.0
 22
0.0
 32
0.0
  3
ED15
100
AcDbAlignedDimension
 13
75.0
 23
82.0
 33
0.0
 14
100.0
 24
50.0
 34
0.0
 50
90.0
100
AcDbRotatedDimension
1001
ACAD
1000
DSTYLE
1002
{
1070
    40
1040
1.0
1070
   178
1070
    41
1070
   177
1070
    41
1070
   176
1070
    41
1002
}
  0
LINE
  5
BFC
100
AcDbEntity
  8
V0-VYPLNE
  6
DASHED
 62
    52
100
AcDbLine
 10
33.465724
 20
-179.442191
 30
0.0
 11
-32.039523
 21
-259.948319
 31
0.0
  0
ARC
  5
BFD
100
AcDbEntity
  8
V0-OBRYS
  6
CONTINUOUS
 62
    90
100
AcDbCircle
 10
0.0
 20
-220.571658
 30
0.0
 40
30.0
100
AcDbArc
 50
11.536959
 51
168.463041
  0
ARC
  5
BFE
100
AcDbEntity
  8
V0-OBRYS
  6
CONTINUOUS
 62
    90
100
AcDbCircle
 10
0.0
 20
-220.571658
 30
0.0
 40
30.0
100
AcDbArc
 50
191.536959
 51
348.463041
  0
LINE
  5
BFF
100
AcDbEntity
  8
V0-OBRYS
  6
CONTINUOUS
 62
    90
100
AcDbLine
 10
75.0
 20
-226.571658
 30
0.0
 11
-33.0
 21
-226.571658
 31
0.0
  0
LINE
  5
C00
100
AcDbEntity
  8
V0-OBRYS
  6
CONTINUOUS
 62
    90
100
AcDbLine
 10
-33.0
 20
-214.571658
 30
0.0
 11
75.0
 21
-214.571658
 31
0.0
  0
LINE
  5
C01
100
AcDbEntity
  8
V0-OBRYS
  6
CONTINUOUS
 62
    90
100
AcDbLine
 10
-33.0
 20
-226.571658
 30
0.0
 11
-33.0
 21
-214.571658
 31
0.0
  0
LINE
  5
C02
100
AcDbEntity
  8
V0-OBRYS
  6
CONTINUOUS
 62
    90
100
AcDbLine
 10
75.0
 20
-214.571658
 30
0.0
 11
75.0
 21
-226.571658
 31
0.0
  0
POINT
  5
C03
100
AcDbEntity
  8
V0-VYPLNE
  6
CONTINUOUS
 62
    41
100
AcDbPoint
 10
60.0
 20
-220.571658
 30
0.0
  0
LINE
  5
C04
100
AcDbEntity
  8
V0-OBRYS
  6
CONTINUOUS
 62
    90
100
AcDbLine
 10
248.05652
 20
80.0
 30
0.0
 11
223.797087
 21
80.0
 31
0.0
  0
LINE
  5
C05
100
AcDbEntity
  8
V0-VYPLNE
  6
DASHED
 62
    52
100
AcDbLine
 10
221.05652
 20
80.0
 30
0.0
 11
221.05652
 21
50.988284
 31
0.0
  0
LINE
  5
C06
100
AcDbEntity
  8
V0-VYPLNE
  6
DASHED
 62
    52
100
AcDbLine
 10
215.05652
 20
80.0
 30
0.0
 11
215.05652
 21
50.586349
 31
0.0
  0
LINE
  5
C07
100
AcDbEntity
  8
V0-OBRYS
  6
CONTINUOUS
 62
    90
100
AcDbLine
 10
188.05652
 20
80.0
 30
0.0
 11
188.05652
 21
46.097722
 31
0.0
  0
LINE
  5
C08
100
AcDbEntity
  8
V0-OBRYS
  6
CONTINUOUS
 62
    90
100
AcDbLine
 10
221.05652
 20
49.983448
 30
0.0
 11
221.05652
 21
25.0
 31
0.0
  0
LINE
  5
C09
100
AcDbEntity
  8
V0-OBRYS
  6
CONTINUOUS
 62
    90
100
AcDbLine
 10
215.05652
 20
49.78248
 30
0.0
 11
215.05652
 21
25.0
 31
0.0
  0
LINE
  5
C0A
100
AcDbEntity
  8
V0-OBRYS
  6
DASHED
 62
    90
100
AcDbLine
 10
215.05652
 20
25.0
 30
0.0
 11
221.05652
 21
25.0
 31
0.0
  0
LINE
  5
C0B
100
AcDbEntity
  8
V0-OBRYS
  6
CONTINUOUS
 62
    90
100
AcDbLine
 10
188.05652
 20
80.0
 30
0.0
 11
211.760062
 21
80.0
 31
0.0
  0
LINE
  5
C0C
100
AcDbEntity
  8
V0-OBRYS
  6
CONTINUOUS
 62
    90
100
AcDbLine
 10
223.797087
 20
83.051484
 30
0.0
 11
223.797087
 21
67.620911
 31
0.0
  0
LINE
  5
C0D
100
AcDbEntity
  8
V0-OBRYS
  6
CONTINUOUS
 62
    90
100
AcDbLine
 10
211.760062
 20
83.051484
 30
0.0
 11
211.760062
 21
67.620911
 31
0.0
  0
LINE
  5
C0E
100
AcDbEntity
  8
V0-OBRYS
  6
CONTINUOUS
 62
    90
100
AcDbLine
 10
211.760062
 20
67.620911
 30
0.0
 11
223.797087
 21
67.620911
 31
0.0
  0
LINE
  5
C0F
100
AcDbEntity
  8
V0-OBRYS
  6
CONTINUOUS
 62
    90
100
AcDbLine
 10
211.760062
 20
83.0
 30
0.0
 11
223.797087
 21
83.0
 31
0.0
  0
LINE
  5
C10
100
AcDbEntity
  8
V0-OBRYS
  6
CONTINUOUS
 62
    90
100
AcDbLine
 10
248.05652
 20
80.0
 30
0.0
 11
248.05652
 21
46.097722
 31
0.0
  0
ENDBLK
  5
C12
100
AcDbEntity
  8
0
100
AcDbBlockEnd
  0
BLOCK
  5
DD0
100
AcDbEntity
  8
0
100
AcDbBlockBegin
  2
*D11
 70
     1
 10
0.0
 20
0.0
 30
0.0
  3
*D11
  1

  0
LINE
  5
DD1
100
AcDbEntity
  8
0
  6
BYBLOCK
 62
    41
100
AcDbLine
 10
827.552254
 20
105.5
 30
0.0
 11
827.552254
 21
140.373177
 31
0.0
  0
LINE
  5
DD2
100
AcDbEntity
  8
0
  6
BYBLOCK
 62
    41
100
AcDbLine
 10
962.552254
 20
108.5
 30
0.0
 11
962.552254
 21
140.373177
 31
0.0
  0
LINE
  5
DD3
100
AcDbEntity
  8
0
  6
BYBLOCK
 62
    41
100
AcDbLine
 10
842.552254
 20
139.123177
 30
0.0
 11
947.552254
 21
139.123177
 31
0.0
  0
INSERT
  5
DD4
100
AcDbEntity
  8
0
  6
BYBLOCK
 62
    41
100
AcDbBlockReference
  2
_OPEN
 10
827.552254
 20
139.123177
 30
0.0
 41
15.0
 42
15.0
 43
15.0
 50
180.0
  0
INSERT
  5
DD5
100
AcDbEntity
  8
0
  6
BYBLOCK
 62
    41
100
AcDbBlockReference
  2
_OPEN
 10
962.552254
 20
139.123177
 30
0.0
 41
15.0
 42
15.0
 43
15.0
  0
MTEXT
  5
DD6
100
AcDbEntity
  8
0
  6
BYBLOCK
 62
    41
100
AcDbMText
 10
895.052254
 20
148.123177
 30
0.0
 40
15.0
 41
0.0
 71
     5
 72
     1
  1
\A1;135
  7
ED15
  0
POINT
  5
DD7
100
AcDbEntity
  8
DEFPOINTS
  6
BYBLOCK
 62
     0
100
AcDbPoint
 10
827.552254
 20
104.5
 30
0.0
  0
POINT
  5
DD8
100
AcDbEntity
  8
DEFPOINTS
  6
BYBLOCK
 62
     0
100
AcDbPoint
 10
962.552254
 20
107.5
 30
0.0
  0
POINT
  5
DD9
100
AcDbEntity
  8
DEFPOINTS
  6
BYBLOCK
 62
     0
100
AcDbPoint
 10
962.552254
 20
139.123177
 30
0.0
  0
ENDBLK
  5
DDA
100
AcDbEntity
  8
0
100
AcDbBlockEnd
  0
BLOCK
  5
DDB
100
AcDbEntity
  8
0
100
AcDbBlockBegin
  2
*D12
 70
     1
 10
0.0
 20
0.0
 30
0.0
  3
*D12
  1

  0
LINE
  5
DDC
100
AcDbEntity
  8
0
  6
BYBLOCK
 62
    41
100
AcDbLine
 10
963.552254
 20
107.5
 30
0.0
 11
980.133946
 21
107.5
 31
0.0
  0
LINE
  5
DDD
100
AcDbEntity
  8
0
  6
BYBLOCK
 62
    41
100
AcDbLine
 10
928.552254
 20
62.5
 30
0.0
 11
980.133946
 21
62.5
 31
0.0
  0
LINE
  5
DDE
100
AcDbEntity
  8
0
  6
BYBLOCK
 62
    41
100
AcDbLine
 10
978.883946
 20
92.5
 30
0.0
 11
978.883946
 21
77.5
 31
0.0
  0
INSERT
  5
DDF
100
AcDbEntity
  8
0
  6
BYBLOCK
 62
    41
100
AcDbBlockReference
  2
_OPEN
 10
978.883946
 20
107.5
 30
0.0
 41
15.0
 42
15.0
 43
15.0
 50
90.0
  0
INSERT
  5
DE0
100
AcDbEntity
  8
0
  6
BYBLOCK
 62
    41
100
AcDbBlockReference
  2
_OPEN
 10
978.883946
 20
62.5
 30
0.0
 41
15.0
 42
15.0
 43
15.0
 50
270.0
  0
MTEXT
  5
DE1
100
AcDbEntity
  8
0
  6
BYBLOCK
 62
    41
100
AcDbMText
 10
969.883946
 20
85.0
 30
0.0
 40
15.0
 41
0.0
 71
     5
 72
     1
  1
\A1;45
  7
ED15
 11
0.0
 21
1.0
 31
0.0
  0
POINT
  5
DE2
100
AcDbEntity
  8
DEFPOINTS
  6
BYBLOCK
 62
     0
100
AcDbPoint
 10
962.552254
 20
107.5
 30
0.0
  0
POINT
  5
DE3
100
AcDbEntity
  8
DEFPOINTS
  6
BYBLOCK
 62
     0
100
AcDbPoint
 10
927.552254
 20
62.5
 30
0.0
  0
POINT
  5
DE4
100
AcDbEntity
  8
DEFPOINTS
  6
BYBLOCK
 62
     0
100
AcDbPoint
 10
978.883946
 20
62.5
 30
0.0
  0
ENDBLK
  5
DE5
100
AcDbEntity
  8
0
100
AcDbBlockEnd
  0
BLOCK
  5
DE6
100
AcDbEntity
  8
0
100
AcDbBlockBegin
  2
*D13
 70
     1
 10
0.0
 20
0.0
 30
0.0
  3
*D13
  1

  0
LINE
  5
DE7
100
AcDbEntity
  8
0
  6
BYBLOCK
 62
    41
100
AcDbLine
 10
1703.29072
 20
93.5
 30
0.0
 11
1703.29072
 21
124.201469
 31
0.0
  0
LINE
  5
DE8
100
AcDbEntity
  8
0
  6
BYBLOCK
 62
    41
100
AcDbLine
 10
1803.29072
 20
93.5
 30
0.0
 11
1803.29072
 21
124.201469
 31
0.0
  0
LINE
  5
DE9
100
AcDbEntity
  8
0
  6
BYBLOCK
 62
    41
100
AcDbLine
 10
1718.29072
 20
122.951469
 30
0.0
 11
1788.29072
 21
122.951469
 31
0.0
  0
INSERT
  5
DEA
100
AcDbEntity
  8
0
  6
BYBLOCK
 62
    41
100
AcDbBlockReference
  2
_OPEN
 10
1703.29072
 20
122.951469
 30
0.0
 41
15.0
 42
15.0
 43
15.0
 50
180.0
  0
INSERT
  5
DEB
100
AcDbEntity
  8
0
  6
BYBLOCK
 62
    41
100
AcDbBlockReference
  2
_OPEN
 10
1803.29072
 20
122.951469
 30
0.0
 41
15.0
 42
15.0
 43
15.0
  0
MTEXT
  5
DEC
100
AcDbEntity
  8
0
  6
BYBLOCK
 62
    41
100
AcDbMText
 10
1753.797002
 20
131.951469
 30
0.0
 40
15.0
 41
0.0
 71
     5
 72
     1
  1
\A1;100
  7
ED15
  0
POINT
  5
DED
100
AcDbEntity
  8
DEFPOINTS
  6
BYBLOCK
 62
     0
100
AcDbPoint
 10
1703.29072
 20
92.5
 30
0.0
  0
POINT
  5
DEE
100
AcDbEntity
  8
DEFPOINTS
  6
BYBLOCK
 62
     0
100
AcDbPoint
 10
1803.29072
 20
92.5
 30
0.0
  0
POINT
  5
DEF
100
AcDbEntity
  8
DEFPOINTS
  6
BYBLOCK
 62
     0
100
AcDbPoint
 10
1803.29072
 20
122.951469
 30
0.0
  0
ENDBLK
  5
DF0
100
AcDbEntity
  8
0
100
AcDbBlockEnd
  0
BLOCK
  5
FC6
100
AcDbEntity
  8
0
100
AcDbBlockBegin
  2
KSP-125-P
 70
     0
 10
0.0
 20
0.0
 30
0.0
  3
KSP-125-P
  1

  0
LINE
  5
FC7
100
AcDbEntity
  8
V0-OBRYS
  6
CONTINUOUS
 62
    90
100
AcDbLine
 10
112.669889
 20
9.999961
 30
0.0
 11
190.186
 21
9.999961
 31
0.0
  0
LINE
  5
FC8
100
AcDbEntity
  8
V0-OBRYS
  6
CONTINUOUS
 62
    90
100
AcDbLine
 10
92.407256
 20
-10.000039
 30
0.0
 11
190.186
 21
-10.000039
 31
0.0
  0
LINE
  5
FC9
100
AcDbEntity
  8
V0-VYPLNE
  6
DASHED
 62
    52
100
AcDbLine
 10
24.737521
 20
-52.3939
 30
0.0
 11
95.318243
 21
51.101946
 31
0.0
  0
LINE
  5
FCA
100
AcDbEntity
  8
V0-OBRYS
  6
CONTINUOUS
 62
    90
100
AcDbLine
 10
159.999992
 20
-0.000039
 30
0.0
 11
159.999992
 21
62.499961
 31
0.0
  0
LINE
  5
FCB
100
AcDbEntity
  8
V0-OBRYS
  6
CONTINUOUS
 62
    90
100
AcDbLine
 10
-0.000008
 20
-0.000039
 30
0.0
 11
-0.000008
 21
62.499961
 31
0.0
  0
LINE
  5
FCC
100
AcDbEntity
  8
V0-OBRYS
  6
CONTINUOUS
 62
    90
100
AcDbLine
 10
14.999992
 20
62.499961
 30
0.0
 11
14.999992
 21
-0.000039
 31
0.0
  0
LINE
  5
FCD
100
AcDbEntity
  8
V0-OBRYS
  6
CONTINUOUS
 62
    90
100
AcDbLine
 10
119.999992
 20
-0.000039
 30
0.0
 11
119.999992
 21
62.499961
 31
0.0
  0
LINE
  5
FCE
100
AcDbEntity
  8
V0-OBRYS
  6
CONTINUOUS
 62
    90
100
AcDbLine
 10
104.999992
 20
62.499961
 30
0.0
 11
104.999992
 21
-0.000039
 31
0.0
  0
LINE
  5
FCF
100
AcDbEntity
  8
V0-OBRYS
  6
CONTINUOUS
 62
    90
100
AcDbLine
 10
-40.000008
 20
-0.000039
 30
0.0
 11
-40.000008
 21
62.499961
 31
0.0
  0
ARC
  5
FD0
100
AcDbEntity
  8
V0-OBRYS
  6
CONTINUOUS
 62
    90
100
AcDbCircle
 10
60.186
 20
-0.000039
 30
0.0
 40
43.0
100
AcDbArc
 50
13.447727
 51
90.0
  0
POINT
  5
FD1
100
AcDbEntity
  8
V0-VYPLNE
  6
CONTINUOUS
 62
     7
100
AcDbPoint
 10
-0.000008
 20
-0.000039
 30
0.0
  0
LINE
  5
FD2
100
AcDbEntity
  8
V0-OBRYS
  6
CONTINUOUS
 62
    90
100
AcDbLine
 10
-40.000008
 20
-62.500039
 30
0.0
 11
-0.000008
 21
-62.500039
 31
0.0
  0
LINE
  5
FD3
100
AcDbEntity
  8
V0-VYPLNE
  6
DASHDOT
 62
    63
100
AcDbLine
 10
-45.000008
 20
-0.000039
 30
0.0
 11
159.999992
 21
-0.000039
 31
0.0
  0
LINE
  5
FD4
100
AcDbEntity
  8
V0-OBRYS
  6
CONTINUOUS
 62
    90
100
AcDbLine
 10
-40.000008
 20
-0.000039
 30
0.0
 11
-40.000008
 21
-62.500039
 31
0.0
  0
LINE
  5
FD5
100
AcDbEntity
  8
V0-OBRYS
  6
CONTINUOUS
 62
    90
100
AcDbLine
 10
159.999992
 20
-0.000039
 30
0.0
 11
159.999992
 21
-62.500039
 31
0.0
  0
LINE
  5
FD6
100
AcDbEntity
  8
V0-OBRYS
  6
CONTINUOUS
 62
    90
100
AcDbLine
 10
119.999992
 20
-0.000039
 30
0.0
 11
119.999992
 21
-62.500039
 31
0.0
  0
LINE
  5
FD7
100
AcDbEntity
  8
V0-OBRYS
  6
CONTINUOUS
 62
    90
100
AcDbLine
 10
104.999992
 20
-62.500039
 30
0.0
 11
104.999992
 21
-0.000039
 31
0.0
  0
LINE
  5
FD8
100
AcDbEntity
  8
V0-OBRYS
  6
CONTINUOUS
 62
    90
100
AcDbLine
 10
14.999992
 20
-62.500039
 30
0.0
 11
14.999992
 21
-0.000039
 31
0.0
  0
LINE
  5
FD9
100
AcDbEntity
  8
V0-OBRYS
  6
CONTINUOUS
 62
    90
100
AcDbLine
 10
-0.000008
 20
-0.000039
 30
0.0
 11
-0.000008
 21
-62.500039
 31
0.0
  0
LINE
  5
FDA
100
AcDbEntity
  8
V0-OBRYS
  6
CONTINUOUS
 62
    90
100
AcDbLine
 10
45.186
 20
-50.000039
 30
0.0
 11
45.186
 21
-4.019621
 31
0.0
  0
ARC
  5
FDB
100
AcDbEntity
  8
V0-OBRYS
  6
CONTINUOUS
 62
    90
100
AcDbCircle
 10
60.186
 20
-0.000039
 30
0.0
 40
43.0
100
AcDbArc
 50
270.0
 51
346.552273
  0
LINE
  5
FDC
100
AcDbEntity
  8
V0-OBRYS
  6
CONTINUOUS
 62
    90
100
AcDbLine
 10
104.999992
 20
-62.500039
 30
0.0
 11
14.999992
 21
-62.500039
 31
0.0
  0
LINE
  5
FDD
100
AcDbEntity
  8
V0-OBRYS
  6
CONTINUOUS
 62
    90
100
AcDbLine
 10
104.999992
 20
-50.000039
 30
0.0
 11
45.186
 21
-50.000039
 31
0.0
  0
ARC
  5
FDE
100
AcDbEntity
  8
V0-OBRYS
  6
CONTINUOUS
 62
    90
100
AcDbCircle
 10
9.999992
 20
-62.500039
 30
0.0
 40
5.0
100
AcDbArc
 50
270.0
 51
0.0
  0
LINE
  5
FDF
100
AcDbEntity
  8
V0-OBRYS
  6
CONTINUOUS
 62
    90
100
AcDbLine
 10
4.999992
 20
-67.500039
 30
0.0
 11
9.999992
 21
-67.500039
 31
0.0
  0
ARC
  5
FE0
100
AcDbEntity
  8
V0-OBRYS
  6
CONTINUOUS
 62
    90
100
AcDbCircle
 10
4.999992
 20
-62.500039
 30
0.0
 40
5.0
100
AcDbArc
 50
180.0
 51
270.0
  0
LINE
  5
FE1
100
AcDbEntity
  8
V0-OBRYS
  6
CONTINUOUS
 62
    90
100
AcDbLine
 10
159.999992
 20
-62.500039
 30
0.0
 11
119.999992
 21
-62.500039
 31
0.0
  0
LINE
  5
FE2
100
AcDbEntity
  8
V0-OBRYS
  6
CONTINUOUS
 62
    90
100
AcDbLine
 10
114.999992
 20
-67.500039
 30
0.0
 11
109.999992
 21
-67.500039
 31
0.0
  0
ARC
  5
FE3
100
AcDbEntity
  8
V0-OBRYS
  6
CONTINUOUS
 62
    90
100
AcDbCircle
 10
109.999992
 20
-62.500039
 30
0.0
 40
5.0
100
AcDbArc
 50
180.0
 51
270.0
  0
ARC
  5
FE4
100
AcDbEntity
  8
V0-OBRYS
  6
CONTINUOUS
 62
    90
100
AcDbCircle
 10
114.999992
 20
-62.500039
 30
0.0
 40
5.0
100
AcDbArc
 50
270.0
 51
0.0
  0
LINE
  5
FE5
100
AcDbEntity
  8
V0-OBRYS
  6
CONTINUOUS
 62
    90
100
AcDbLine
 10
45.186
 20
49.999961
 30
0.0
 11
104.999992
 21
49.999961
 31
0.0
  0
LINE
  5
FE6
100
AcDbEntity
  8
V0-OBRYS
  6
CONTINUOUS
 62
    90
100
AcDbLine
 10
87.104525
 20
-15.202835
 30
0.0
 11
97.147693
 21
-5.159666
 31
0.0
  0
LINE
  5
FE7
100
AcDbEntity
  8
V0-OBRYS
  6
CONTINUOUS
 62
    90
100
AcDbLine
 10
84.983204
 20
-13.081514
 30
0.0
 11
95.026373
 21
-3.038345
 31
0.0
  0
ARC
  5
FE8
100
AcDbEntity
  8
V0-OBRYS
  6
CONTINUOUS
 62
    90
100
AcDbCircle
 10
60.186
 20
-0.000039
 30
0.0
 40
37.0
100
AcDbArc
 50
270.0
 51
344.31965
  0
LINE
  5
FE9
100
AcDbEntity
  8
V0-OBRYS
  6
CONTINUOUS
 62
    90
100
AcDbLine
 10
45.186
 20
9.999961
 30
0.0
 11
108.06468
 21
9.999961
 31
0.0
  0
ARC
  5
FEA
100
AcDbEntity
  8
V0-OBRYS
  6
CONTINUOUS
 62
    90
100
AcDbCircle
 10
60.186
 20
-0.000039
 30
0.0
 40
37.0
100
AcDbArc
 50
15.68035
 51
90.0
  0
ARC
  5
FEB
100
AcDbEntity
  8
V0-VYPLNE
  6
DASHDOT
 62
    63
100
AcDbCircle
 10
60.186
 20
-0.000039
 30
0.0
 40
40.0
100
AcDbArc
 50
260.720854
 51
98.569564
  0
CIRCLE
  5
FEC
100
AcDbEntity
  8
V0-OBRYS
  6
CONTINUOUS
 62
    90
100
AcDbCircle
 10
60.186
 20
-0.000039
 30
0.0
 40
5.0
  0
LINE
  5
FED
100
AcDbEntity
  8
V0-OBRYS
  6
CONTINUOUS
 62
    90
100
AcDbLine
 10
73.06493
 20
9.986983
 30
0.0
 11
73.06493
 21
-9.900404
 31
0.0
  0
LINE
  5
FEE
100
AcDbEntity
  8
V0-OBRYS
  6
CONTINUOUS
 62
    90
100
AcDbLine
 10
52.421672
 20
-1.000039
 30
0.0
 11
52.421672
 21
0.999961
 31
0.0
  0
LINE
  5
FEF
100
AcDbEntity
  8
V0-OBRYS
  6
CONTINUOUS
 62
    90
100
AcDbLine
 10
48.380664
 20
-1.000039
 30
0.0
 11
48.380664
 21
0.999961
 31
0.0
  0
ARC
  5
FF0
100
AcDbEntity
  8
V0-OBRYS
  6
CONTINUOUS
 62
    90
100
AcDbCircle
 10
60.186
 20
-40.000039
 30
0.0
 40
3.0
100
AcDbArc
 50
90.0
 51
270.0
  0
LINE
  5
FF1
100
AcDbEntity
  8
V0-OBRYS
  6
CONTINUOUS
 62
    90
100
AcDbLine
 10
45.186
 20
-10.000039
 30
0.0
 11
88.06468
 21
-10.000039
 31
0.0
  0
LINE
  5
FF2
100
AcDbEntity
  8
V0-OBRYS
  6
CONTINUOUS
 62
    90
100
AcDbLine
 10
54.743324
 20
-12.971876
 30
0.0
 11
54.743324
 21
-9.874281
 31
0.0
  0
LINE
  5
FF3
100
AcDbEntity
  8
V0-OBRYS
  6
CONTINUOUS
 62
    90
100
AcDbLine
 10
52.421672
 20
-14.605016
 30
0.0
 11
52.421672
 21
-10.000039
 31
0.0
  0
LINE
  5
FF4
100
AcDbEntity
  8
V0-OBRYS
  6
CONTINUOUS
 62
    90
100
AcDbLine
 10
48.380664
 20
-14.605016
 30
0.0
 11
48.380664
 21
-10.000039
 31
0.0
  0
LINE
  5
FF5
100
AcDbEntity
  8
V0-OBRYS
  6
CONTINUOUS
 62
    90
100
AcDbLine
 10
46.49009
 20
-9.876813
 30
0.0
 11
46.49009
 21
-12.971876
 31
0.0
  0
LINE
  5
FF6
100
AcDbEntity
  8
V0-OBRYS
  6
CONTINUOUS
 62
    90
100
AcDbLine
 10
48.380664
 20
-14.605016
 30
0.0
 11
52.421672
 21
-14.605016
 31
0.0
  0
LINE
  5
FF7
100
AcDbEntity
  8
V0-OBRYS
  6
CONTINUOUS
 62
    90
100
AcDbLine
 10
46.49009
 20
-12.971876
 30
0.0
 11
54.743324
 21
-12.971876
 31
0.0
  0
LINE
  5
FF8
100
AcDbEntity
  8
V0-OBRYS
  6
CONTINUOUS
 62
    90
100
AcDbLine
 10
45.186
 20
-10.000039
 30
0.0
 11
45.186
 21
-1.000039
 31
0.0
  0
LINE
  5
FF9
100
AcDbEntity
  8
V0-OBRYS
  6
CONTINUOUS
 62
    90
100
AcDbLine
 10
45.186
 20
-1.000039
 30
0.0
 11
55.287021
 21
-1.000039
 31
0.0
  0
LINE
  5
FFA
100
AcDbEntity
  8
V0-OBRYS
  6
CONTINUOUS
 62
    90
100
AcDbLine
 10
84.983204
 20
-13.081514
 30
0.0
 11
87.104525
 21
-15.202835
 31
0.0
  0
LINE
  5
FFB
100
AcDbEntity
  8
V0-OBRYS
  6
CONTINUOUS
 62
    90
100
AcDbLine
 10
45.186
 20
6.213165
 30
0.0
 11
45.186
 21
49.999961
 31
0.0
  0
LINE
  5
FFC
100
AcDbEntity
  8
V0-OBRYS
  6
CONTINUOUS
 62
    90
100
AcDbLine
 10
54.743324
 20
12.971798
 30
0.0
 11
54.743324
 21
9.874203
 31
0.0
  0
LINE
  5
FFD
100
AcDbEntity
  8
V0-OBRYS
  6
CONTINUOUS
 62
    90
100
AcDbLine
 10
48.380664
 20
12.971376
 30
0.0
 11
48.380664
 21
9.962055
 31
0.0
  0
LINE
  5
FFE
100
AcDbEntity
  8
V0-OBRYS
  6
CONTINUOUS
 62
    90
100
AcDbLine
 10
52.421672
 20
12.884157
 30
0.0
 11
52.421672
 21
9.960789
 31
0.0
  0
LINE
  5
FFF
100
AcDbEntity
  8
V0-OBRYS
  6
CONTINUOUS
 62
    90
100
AcDbLine
 10
46.49009
 20
9.876735
 30
0.0
 11
46.49009
 21
12.971798
 31
0.0
  0
LINE
  5
1000
100
AcDbEntity
  8
V0-OBRYS
  6
CONTINUOUS
 62
    90
100
AcDbLine
 10
45.186
 20
0.999961
 30
0.0
 11
45.186
 21
9.999961
 31
0.0
  0
LINE
  5
1001
100
AcDbEntity
  8
V0-OBRYS
  6
CONTINUOUS
 62
    90
100
AcDbLine
 10
46.49009
 20
12.971798
 30
0.0
 11
54.743324
 21
12.971798
 31
0.0
  0
LINE
  5
1002
100
AcDbEntity
  8
V0-OBRYS
  6
CONTINUOUS
 62
    90
100
AcDbLine
 10
45.186
 20
0.999961
 30
0.0
 11
55.287021
 21
0.999961
 31
0.0
  0
ARC
  5
1003
100
AcDbEntity
  8
V0-OBRYS
  6
CONTINUOUS
 62
    90
100
AcDbCircle
 10
60.186
 20
39.999961
 30
0.0
 40
3.0
100
AcDbArc
 50
90.0
 51
270.0
  0
POINT
  5
1004
100
AcDbEntity
  8
V0-VYPLNE
  6
CONTINUOUS
 62
     7
100
AcDbPoint
 10
119.999992
 20
-0.000039
 30
0.0
  0
CIRCLE
  5
1005
100
AcDbEntity
  8
V0-OBRYS
  6
CONTINUOUS
 62
    90
100
AcDbCircle
 10
100.186
 20
-0.000039
 30
0.0
 40
3.0
  0
CIRCLE
  5
1006
100
AcDbEntity
  8
V0-OBRYS
  6
CONTINUOUS
 62
    90
100
AcDbCircle
 10
100.186
 20
-0.000039
 30
0.0
 40
6.0
  0
LINE
  5
1007
100
AcDbEntity
  8
V0-OBRYS
  6
CONTINUOUS
 62
    90
100
AcDbLine
 10
113.267475
 20
15.202757
 30
0.0
 11
103.224307
 21
5.159588
 31
0.0
  0
LINE
  5
1008
100
AcDbEntity
  8
V0-OBRYS
  6
CONTINUOUS
 62
    90
100
AcDbLine
 10
115.388796
 20
13.081437
 30
0.0
 11
105.345627
 21
3.038268
 31
0.0
  0
LINE
  5
1009
100
AcDbEntity
  8
V0-OBRYS
  6
CONTINUOUS
 62
    90
100
AcDbLine
 10
113.267475
 20
15.202757
 30
0.0
 11
115.388796
 21
13.081437
 31
0.0
  0
ARC
  5
100A
100
AcDbEntity
  8
V0-OBRYS
  6
CONTINUOUS
 62
    90
100
AcDbCircle
 10
4.999992
 20
62.499961
 30
0.0
 40
5.0
100
AcDbArc
 50
90.0
 51
180.0
  0
LINE
  5
100B
100
AcDbEntity
  8
V0-OBRYS
  6
CONTINUOUS
 62
    90
100
AcDbLine
 10
-40.000008
 20
62.499961
 30
0.0
 11
-0.000008
 21
62.499961
 31
0.0
  0
LINE
  5
100C
100
AcDbEntity
  8
V0-OBRYS
  6
CONTINUOUS
 62
    90
100
AcDbLine
 10
104.999992
 20
62.499961
 30
0.0
 11
14.999992
 21
62.499961
 31
0.0
  0
ARC
  5
100D
100
AcDbEntity
  8
V0-OBRYS
  6
CONTINUOUS
 62
    90
100
AcDbCircle
 10
9.999992
 20
62.499961
 30
0.0
 40
5.0
100
AcDbArc
 50
0.0
 51
90.0
  0
LINE
  5
100E
100
AcDbEntity
  8
V0-OBRYS
  6
CONTINUOUS
 62
    90
100
AcDbLine
 10
4.999992
 20
67.499961
 30
0.0
 11
9.999992
 21
67.499961
 31
0.0
  0
LINE
  5
100F
100
AcDbEntity
  8
V0-OBRYS
  6
CONTINUOUS
 62
    90
100
AcDbLine
 10
159.999992
 20
62.499961
 30
0.0
 11
119.999992
 21
62.499961
 31
0.0
  0
LINE
  5
1010
100
AcDbEntity
  8
V0-OBRYS
  6
CONTINUOUS
 62
    90
100
AcDbLine
 10
114.999992
 20
67.499961
 30
0.0
 11
109.999992
 21
67.499961
 31
0.0
  0
ARC
  5
1011
100
AcDbEntity
  8
V0-OBRYS
  6
CONTINUOUS
 62
    90
100
AcDbCircle
 10
109.999992
 20
62.499961
 30
0.0
 40
5.0
100
AcDbArc
 50
90.0
 51
180.0
  0
ARC
  5
1012
100
AcDbEntity
  8
V0-OBRYS
  6
CONTINUOUS
 62
    90
100
AcDbCircle
 10
114.999992
 20
62.499961
 30
0.0
 40
5.0
100
AcDbArc
 50
0.0
 51
90.0
  0
LINE
  5
1013
100
AcDbEntity
  8
V0-OBRYS
  6
CONTINUOUS
 62
    90
100
AcDbLine
 10
195.186
 20
-5.000039
 30
0.0
 11
195.186
 21
4.999961
 31
0.0
  0
LINE
  5
1014
100
AcDbEntity
  8
V0-OBRYS
  6
CONTINUOUS
 62
    90
100
AcDbLine
 10
195.186
 20
-5.000039
 30
0.0
 11
190.186
 21
-10.000039
 31
0.0
  0
LINE
  5
1015
100
AcDbEntity
  8
V0-OBRYS
  6
CONTINUOUS
 62
    90
100
AcDbLine
 10
190.186
 20
9.999961
 30
0.0
 11
195.186
 21
4.999961
 31
0.0
  0
ENDBLK
  5
1016
100
AcDbEntity
  8
0
100
AcDbBlockEnd
  0
BLOCK
  5
1069
100
AcDbEntity
  8
0
100
AcDbBlockBegin
  2
KSP-125-N
 70
     0
 10
0.0
 20
0.0
 30
0.0
  3
KSP-125-N
  1

  0
ELLIPSE
  5
106A
100
AcDbEntity
  8
V0-OBRYS
  6
DASHED
 62
    52
100
AcDbEllipse
 10
59.866367
 20
0.135452
 30
0.0
 11
0.0
 21
59.14048499979822
 31
0.0
210
0.0
220
0.0
230
1.0
 40
0.589744
 41
0.0
 42
6.283185307179586
  0
LINE
  5
106B
100
AcDbEntity
  8
V0-OBRYS
  6
CONTINUOUS
 62
    90
100
AcDbLine
 10
60.0
 20
105.5
 30
0.0
 11
60.312982
 21
-72.016903
 31
0.0
  0
LINE
  5
106C
100
AcDbEntity
  8
V0-VYPLNE
  6
DASHED
 62
    52
100
AcDbLine
 10
57.0
 20
91.549002
 30
0.0
 11
57.312982
 21
-67.02964
 31
0.0
  0
LINE
  5
106D
100
AcDbEntity
  8
V0-VYPLNE
  6
DASHED
 62
    52
100
AcDbLine
 10
63.0
 20
91.549002
 30
0.0
 11
63.312982
 21
-67.02964
 31
0.0
  0
LINE
  5
106E
100
AcDbEntity
  8
V0-OBRYS
  6
CONTINUOUS
 62
    90
100
AcDbLine
 10
105.0
 20
-62.5
 30
0.0
 11
105.0
 21
0.0
 31
0.0
  0
LINE
  5
106F
100
AcDbEntity
  8
V0-OBRYS
  6
CONTINUOUS
 62
    90
100
AcDbLine
 10
120.0
 20
0.0
 30
0.0
 11
120.0
 21
-62.5
 31
0.0
  0
LINE
  5
1070
100
AcDbEntity
  8
V0-OBRYS
  6
CONTINUOUS
 62
    90
100
AcDbLine
 10
160.0
 20
0.0
 30
0.0
 11
160.0
 21
-62.5
 31
0.0
  0
LINE
  5
1071
100
AcDbEntity
  8
V0-OBRYS
  6
CONTINUOUS
 62
    90
100
AcDbLine
 10
0.0
 20
0.0
 30
0.0
 11
0.0
 21
-62.5
 31
0.0
  0
LINE
  5
1072
100
AcDbEntity
  8
V0-OBRYS
  6
CONTINUOUS
 62
    90
100
AcDbLine
 10
15.0
 20
-62.5
 30
0.0
 11
15.0
 21
0.0
 31
0.0
  0
LINE
  5
1073
100
AcDbEntity
  8
V0-OBRYS
  6
CONTINUOUS
 62
    90
100
AcDbLine
 10
-40.0
 20
0.0
 30
0.0
 11
-40.0
 21
-62.5
 31
0.0
  0
LINE
  5
1074
100
AcDbEntity
  8
V0-OBRYS
  6
CONTINUOUS
 62
    90
100
AcDbLine
 10
-40.0
 20
-62.5
 30
0.0
 11
0.0
 21
-62.5
 31
0.0
  0
LINE
  5
1075
100
AcDbEntity
  8
V0-OBRYS
  6
CONTINUOUS
 62
    90
100
AcDbLine
 10
105.0
 20
-62.5
 30
0.0
 11
15.0
 21
-62.5
 31
0.0
  0
LINE
  5
1076
100
AcDbEntity
  8
V0-OBRYS
  6
CONTINUOUS
 62
    90
100
AcDbLine
 10
57.312982
 20
-67.04388
 30
0.0
 11
57.312982
 21
-69.253824
 31
0.0
  0
LINE
  5
1077
100
AcDbEntity
  8
V0-OBRYS
  6
CONTINUOUS
 62
    90
100
AcDbLine
 10
63.312982
 20
-67.04388
 30
0.0
 11
63.312982
 21
-69.253824
 31
0.0
  0
LINE
  5
1078
100
AcDbEntity
  8
V0-OBRYS
  6
CONTINUOUS
 62
    90
100
AcDbLine
 10
57.312982
 20
-69.253824
 30
0.0
 11
63.312982
 21
-69.253824
 31
0.0
  0
ARC
  5
1079
100
AcDbEntity
  8
V0-OBRYS
  6
CONTINUOUS
 62
    90
100
AcDbCircle
 10
10.0
 20
-62.5
 30
0.0
 40
5.0
100
AcDbArc
 50
270.0
 51
0.0
  0
LINE
  5
107A
100
AcDbEntity
  8
V0-OBRYS
  6
CONTINUOUS
 62
    90
100
AcDbLine
 10
5.0
 20
-67.5
 30
0.0
 11
10.0
 21
-67.5
 31
0.0
  0
ARC
  5
107B
100
AcDbEntity
  8
V0-OBRYS
  6
CONTINUOUS
 62
    90
100
AcDbCircle
 10
5.0
 20
-62.5
 30
0.0
 40
5.0
100
AcDbArc
 50
180.0
 51
270.0
  0
LWPOLYLINE
  5
107C
100
AcDbEntity
  8
V0-OBRYS
  6
CONTINUOUS
 62
    90
100
AcDbPolyline
 90
        4
 70
     1
 43
0.0
 10
51.91431
 20
-67.04388
 10
68.08569
 20
-67.04388
 10
68.08569
 20
-62.5
 10
51.91431
 20
-62.5
  0
LINE
  5
107D
100
AcDbEntity
  8
V0-OBRYS
  6
CONTINUOUS
 62
    90
100
AcDbLine
 10
160.0
 20
-62.5
 30
0.0
 11
120.0
 21
-62.5
 31
0.0
  0
LINE
  5
107E
100
AcDbEntity
  8
V0-OBRYS
  6
CONTINUOUS
 62
    90
100
AcDbLine
 10
115.0
 20
-67.5
 30
0.0
 11
110.0
 21
-67.5
 31
0.0
  0
ARC
  5
107F
100
AcDbEntity
  8
V0-OBRYS
  6
CONTINUOUS
 62
    90
100
AcDbCircle
 10
110.0
 20
-62.5
 30
0.0
 40
5.0
100
AcDbArc
 50
180.0
 51
270.0
  0
ARC
  5
1080
100
AcDbEntity
  8
V0-OBRYS
  6
CONTINUOUS
 62
    90
100
AcDbCircle
 10
115.0
 20
-62.5
 30
0.0
 40
5.0
100
AcDbArc
 50
270.0
 51
0.0
  0
LINE
  5
1081
100
AcDbEntity
  8
V0-OBRYS
  6
CONTINUOUS
 62
    90
100
AcDbLine
 10
195.0
 20
107.5
 30
0.0
 11
140.0
 21
107.5
 31
0.0
  0
LINE
  5
1082
100
AcDbEntity
  8
V0-OBRYS
  6
CONTINUOUS
 62
    90
100
AcDbLine
 10
195.0
 20
104.5
 30
0.0
 11
140.0
 21
104.5
 31
0.0
  0
LINE
  5
1083
100
AcDbEntity
  8
V0-VYPLNE
  6
DASHDOT
 62
    63
100
AcDbLine
 10
-45.0
 20
0.0
 30
0.0
 11
184.239482
 21
0.0
 31
0.0
  0
POINT
  5
1084
100
AcDbEntity
  8
V0-VYPLNE
  6
CONTINUOUS
 62
     7
100
AcDbPoint
 10
0.0
 20
0.0
 30
0.0
  0
LINE
  5
1085
100
AcDbEntity
  8
V0-OBRYS
  6
CONTINUOUS
 62
    90
100
AcDbLine
 10
-40.0
 20
62.5
 30
0.0
 11
0.0
 21
62.5
 31
0.0
  0
LINE
  5
1086
100
AcDbEntity
  8
V0-OBRYS
  6
CONTINUOUS
 62
    90
100
AcDbLine
 10
-40.0
 20
0.0
 30
0.0
 11
-40.0
 21
62.5
 31
0.0
  0
LINE
  5
1087
100
AcDbEntity
  8
V0-OBRYS
  6
CONTINUOUS
 62
    90
100
AcDbLine
 10
104.218046
 20
91.549002
 30
0.0
 11
104.218046
 21
62.360781
 31
0.0
  0
LINE
  5
1088
100
AcDbEntity
  8
V0-OBRYS
  6
CONTINUOUS
 62
    90
100
AcDbLine
 10
30.0
 20
91.549002
 30
0.0
 11
30.0
 21
34.389486
 31
0.0
  0
LINE
  5
1089
100
AcDbEntity
  8
V0-OBRYS
  6
DASHED
 62
    52
100
AcDbLine
 10
30.0
 20
62.5
 30
0.0
 11
105.377832
 21
62.5
 31
0.0
  0
LINE
  5
108A
100
AcDbEntity
  8
V0-OBRYS
  6
CONTINUOUS
 62
    90
100
AcDbLine
 10
30.0
 20
34.389486
 30
0.0
 11
105.377832
 21
34.389486
 31
0.0
  0
LINE
  5
108B
100
AcDbEntity
  8
V0-OBRYS
  6
CONTINUOUS
 62
    90
100
AcDbLine
 10
15.0
 20
62.5
 30
0.0
 11
15.0
 21
0.0
 31
0.0
  0
LINE
  5
108C
100
AcDbEntity
  8
V0-OBRYS
  6
CONTINUOUS
 62
    90
100
AcDbLine
 10
0.0
 20
0.0
 30
0.0
 11
0.0
 21
62.5
 31
0.0
  0
LINE
  5
108D
100
AcDbEntity
  8
V0-OBRYS
  6
CONTINUOUS
 62
    90
100
AcDbLine
 10
30.0
 20
62.5
 30
0.0
 11
15.0
 21
62.5
 31
0.0
  0
ARC
  5
108E
100
AcDbEntity
  8
V0-OBRYS
  6
CONTINUOUS
 62
    90
100
AcDbCircle
 10
10.0
 20
62.5
 30
0.0
 40
5.0
100
AcDbArc
 50
0.0
 51
90.0
  0
ARC
  5
108F
100
AcDbEntity
  8
V0-OBRYS
  6
CONTINUOUS
 62
    90
100
AcDbCircle
 10
5.0
 20
62.5
 30
0.0
 40
5.0
100
AcDbArc
 50
90.0
 51
180.0
  0
LINE
  5
1090
100
AcDbEntity
  8
V0-OBRYS
  6
CONTINUOUS
 62
    90
100
AcDbLine
 10
5.0
 20
67.5
 30
0.0
 11
10.0
 21
67.5
 31
0.0
  0
LWPOLYLINE
  5
1091
100
AcDbEntity
  8
V0-OBRYS
  6
DASHED
 62
    52
100
AcDbPolyline
 90
        4
 70
     1
 43
0.0
 10
51.91431
 20
62.5
 10
68.08569
 20
62.5
 10
68.08569
 20
67.04388
 10
51.91431
 20
67.04388
  0
LINE
  5
1092
100
AcDbEntity
  8
V0-OBRYS
  6
CONTINUOUS
100
AcDbLine
 10
51.744511
 20
62.5
 30
0.0
 11
60.0
 21
62.5
 31
0.0
  0
LINE
  5
1093
100
AcDbEntity
  8
V0-OBRYS
  6
CONTINUOUS
 62
    90
100
AcDbLine
 10
105.0
 20
62.5
 30
0.0
 11
105.0
 21
0.0
 31
0.0
  0
LINE
  5
1094
100
AcDbEntity
  8
V0-OBRYS
  6
CONTINUOUS
 62
    90
100
AcDbLine
 10
120.0
 20
0.0
 30
0.0
 11
120.0
 21
62.5
 31
0.0
  0
LINE
  5
1095
100
AcDbEntity
  8
V0-OBRYS
  6
CONTINUOUS
 62
    90
100
AcDbLine
 10
160.0
 20
0.0
 30
0.0
 11
160.0
 21
62.5
 31
0.0
  0
POINT
  5
1096
100
AcDbEntity
  8
V0-VYPLNE
  6
CONTINUOUS
 62
     7
100
AcDbPoint
 10
120.0
 20
0.0
 30
0.0
  0
LINE
  5
1097
100
AcDbEntity
  8
V0-OBRYS
  6
CONTINUOUS
 62
    90
100
AcDbLine
 10
160.0
 20
62.5
 30
0.0
 11
120.0
 21
62.5
 31
0.0
  0
LINE
  5
1098
100
AcDbEntity
  8
V0-OBRYS
  6
CONTINUOUS
 62
    90
100
AcDbLine
 10
115.0
 20
67.5
 30
0.0
 11
110.0
 21
67.5
 31
0.0
  0
ARC
  5
1099
100
AcDbEntity
  8
V0-OBRYS
  6
CONTINUOUS
 62
    90
100
AcDbCircle
 10
110.0
 20
62.5
 30
0.0
 40
5.0
100
AcDbArc
 50
90.0
 51
180.0
  0
ARC
  5
109A
100
AcDbEntity
  8
V0-OBRYS
  6
CONTINUOUS
 62
    90
100
AcDbCircle
 10
115.0
 20
62.5
 30
0.0
 40
5.0
100
AcDbArc
 50
0.0
 51
90.0
  0
LINE
  5
109B
100
AcDbEntity
  8
V0-OBRYS
  6
CONTINUOUS
 62
    90
100
AcDbLine
 10
92.639655
 20
98.523604
 30
0.0
 11
82.979031
 21
105.027417
 31
0.0
  0
LINE
  5
109C
100
AcDbEntity
  8
V0-OBRYS
  6
CONTINUOUS
 62
    90
100
AcDbLine
 10
81.508935
 20
102.090211
 30
0.0
 11
90.964439
 21
94.549002
 31
0.0
  0
LINE
  5
109D
100
AcDbEntity
  8
V0-OBRYS
  6
CONTINUOUS
 62
    90
100
AcDbLine
 10
115.094235
 20
94.549002
 30
0.0
 11
39.630263
 21
94.549002
 31
0.0
  0
LINE
  5
109E
100
AcDbEntity
  8
V0-OBRYS
  6
CONTINUOUS
 62
    90
100
AcDbLine
 10
115.827621
 20
91.549002
 30
0.0
 11
59.472173
 21
91.549002
 31
0.0
  0
LINE
  5
109F
100
AcDbEntity
  8
V0-OBRYS
  6
CONTINUOUS
 62
    90
100
AcDbLine
 10
73.0
 20
102.5
 30
0.0
 11
35.0
 21
102.5
 31
0.0
  0
LINE
  5
10A0
100
AcDbEntity
  8
V0-OBRYS
  6
CONTINUOUS
 62
    90
100
AcDbLine
 10
73.0
 20
99.5
 30
0.0
 11
39.630263
 21
99.5
 31
0.0
  0
LINE
  5
10A1
100
AcDbEntity
  8
V0-OBRYS
  6
CONTINUOUS
 62
    90
100
AcDbLine
 10
30.0
 20
91.549002
 30
0.0
 11
60.527827
 21
91.549002
 31
0.0
  0
LWPOLYLINE
  5
10A2
100
AcDbEntity
  8
DEFPOINTS
  6
CONTINUOUS
 62
    90
100
AcDbPolyline
 90
        6
 70
     1
 43
0.0
 10
30.369737
 20
94.351217
 10
35.0
 20
91.677933
 10
39.630263
 20
94.351217
 10
39.630263
 20
99.697785
 10
35.0
 20
102.371069
 10
30.369737
 20
99.697785
  0
ARC
  5
10A3
100
AcDbEntity
  8
V0-OBRYS
  6
CONTINUOUS
 62
    90
100
AcDbCircle
 10
35.0
 20
97.024501
 30
0.0
 40
5.475499
100
AcDbArc
 50
90.0
 51
270.0
  0
CIRCLE
  5
10A4
100
AcDbEntity
  8
DEFPOINTS
  6
CONTINUOUS
 62
    90
100
AcDbCircle
 10
35.0
 20
97.024501
 30
0.0
 40
4.584843
  0
CIRCLE
  5
10A5
100
AcDbEntity
  8
DEFPOINTS
  6
CONTINUOUS
 62
    90
100
AcDbCircle
 10
35.0
 20
97.024501
 30
0.0
 40
2.313801
  0
LINE
  5
10A6
100
AcDbEntity
  8
V0-OBRYS
  6
CONTINUOUS
 62
    90
100
AcDbLine
 10
82.979031
 20
105.027417
 30
0.0
 11
81.508935
 21
102.090211
 31
0.0
  0
LINE
  5
10A7
100
AcDbEntity
  8
V0-OBRYS
  6
CONTINUOUS
 62
    90
100
AcDbLine
 10
63.0
 20
102.5
 30
0.0
 11
63.0
 21
104.5
 31
0.0
  0
LINE
  5
10A8
100
AcDbEntity
  8
V0-OBRYS
  6
CONTINUOUS
 62
    90
100
AcDbLine
 10
57.0
 20
102.5
 30
0.0
 11
57.0
 21
104.5
 31
0.0
  0
LINE
  5
10A9
100
AcDbEntity
  8
V0-OBRYS
  6
CONTINUOUS
 62
    90
100
AcDbLine
 10
63.0
 20
94.5
 30
0.0
 11
63.0
 21
99.572606
 31
0.0
  0
LINE
  5
10AA
100
AcDbEntity
  8
V0-OBRYS
  6
CONTINUOUS
 62
    90
100
AcDbLine
 10
57.0
 20
94.5
 30
0.0
 11
57.0
 21
99.572606
 31
0.0
  0
LINE
  5
10AB
100
AcDbEntity
  8
V0-OBRYS
  6
CONTINUOUS
 62
    90
100
AcDbLine
 10
73.0
 20
102.5
 30
0.0
 11
73.0
 21
99.5
 31
0.0
  0
LINE
  5
10AC
100
AcDbEntity
  8
V0-OBRYS
  6
CONTINUOUS
 62
    90
100
AcDbLine
 10
63.0
 20
104.5
 30
0.0
 11
60.0
 21
104.5
 31
0.0
  0
LINE
  5
10AD
100
AcDbEntity
  8
V0-OBRYS
  6
CONTINUOUS
 62
    90
100
AcDbLine
 10
57.0
 20
104.5
 30
0.0
 11
60.0
 21
104.5
 31
0.0
  0
LINE
  5
10AE
100
AcDbEntity
  8
V0-OBRYS
  6
CONTINUOUS
 62
    90
100
AcDbLine
 10
140.0
 20
107.5
 30
0.0
 11
115.0
 21
94.5
 31
0.0
  0
LINE
  5
10AF
100
AcDbEntity
  8
V0-OBRYS
  6
CONTINUOUS
 62
    90
100
AcDbLine
 10
141.384058
 20
104.83835
 30
0.0
 11
115.827621
 21
91.549002
 31
0.0
  0
LINE
  5
10B0
100
AcDbEntity
  8
V0-OBRYS
  6
CONTINUOUS
 62
    90
100
AcDbLine
 10
107.020969
 20
105.027417
 30
0.0
 11
108.491065
 21
102.090211
 31
0.0
  0
LINE
  5
10B1
100
AcDbEntity
  8
V0-OBRYS
  6
CONTINUOUS
 62
    90
100
AcDbLine
 10
97.360345
 20
98.523604
 30
0.0
 11
107.020969
 21
105.027417
 31
0.0
  0
LINE
  5
10B2
100
AcDbEntity
  8
V0-VYPLNE
  6
DASHDOT
 62
    63
100
AcDbLine
 10
95.0
 20
107.5
 30
0.0
 11
95.0
 21
89.082585
 31
0.0
  0
LINE
  5
10B3
100
AcDbEntity
  8
V0-OBRYS
  6
CONTINUOUS
 62
    90
100
AcDbLine
 10
108.491065
 20
102.090211
 30
0.0
 11
99.035561
 21
94.549002
 31
0.0
  0
LINE
  5
10B4
100
AcDbEntity
  8
V0-OBRYS
  6
CONTINUOUS
 62
    90
100
AcDbLine
 10
97.360345
 20
98.523604
 30
0.0
 11
99.040453
 21
94.537396
 31
0.0
  0
LINE
  5
10B5
100
AcDbEntity
  8
V0-OBRYS
  6
CONTINUOUS
 62
    90
100
AcDbLine
 10
95.050194
 20
98.523604
 30
0.0
 11
97.360345
 21
98.523604
 31
0.0
  0
LINE
  5
10B6
100
AcDbEntity
  8
V0-OBRYS
  6
CONTINUOUS
 62
    90
100
AcDbLine
 10
92.639655
 20
98.523604
 30
0.0
 11
90.959547
 21
94.537396
 31
0.0
  0
LINE
  5
10B7
100
AcDbEntity
  8
V0-OBRYS
  6
CONTINUOUS
 62
    90
100
AcDbLine
 10
94.949806
 20
98.523604
 30
0.0
 11
92.639655
 21
98.523604
 31
0.0
  0
ENDBLK
  5
10B8
100
AcDbEntity
  8
0
100
AcDbBlockEnd
  0
ENDSEC
  0
SECTION
  2
ENTITIES
  0
DIMENSION
  5
A3E
100
AcDbEntity
  8
V0-VYPLNE
  6
CONTINUOUS
 62
    41
100
AcDbDimension
  2
*D2
 10
767.552254
 20
-110.495962
 30
0.0
 11
747.552254
 21
-110.495962
 31
0.0
 12
0.0
 22
-12.5
 32
0.0
 70
   160
  3
ED20
100
AcDbAlignedDimension
 13
727.552254
 23
-62.5
 33
0.0
 14
767.552254
 24
-62.5
 34
0.0
100
AcDbRotatedDimension
1001
ACAD
1000
DSTYLE
1002
{
1070
    40
1040
1.0
1002
}
  0
LINE
  5
A3F
100
AcDbEntity
  8
V0-OBRYS
  6
CONTINUOUS
 62
    90
100
AcDbLine
 10
727.552254
 20
-62.5
 30
0.0
 11
767.552254
 21
-62.5
 31
0.0
  0
LINE
  5
A40
100
AcDbEntity
  8
V0-OBRYS
  6
CONTINUOUS
 62
    90
100
AcDbLine
 10
727.552254
 20
62.5
 30
0.0
 11
767.552254
 21
62.5
 31
0.0
  0
LINE
  5
A41
100
AcDbEntity
  8
V0-VYPLNE
  6
DASHDOT
 62
    63
100
AcDbLine
 10
722.552254
 20
0.0
 30
0.0
 11
951.791735
 21
0.0
 31
0.0
  0
DIMENSION
  5
A42
100
AcDbEntity
  8
V0-VYPLNE
  6
CONTINUOUS
 62
    41
100
AcDbDimension
  2
*D1
 10
685.605302
 20
-62.5
 30
0.0
 11
685.605302
 21
-1.802349
 31
0.0
 70
   160
  1
%%c<>
  3
ED20
100
AcDbAlignedDimension
 13
727.552254
 23
62.5
 33
0.0
 14
727.552254
 24
-62.5
 34
0.0
 50
90.0
100
AcDbRotatedDimension
1001
ACAD
1000
DSTYLE
1002
{
1070
    40
1040
1.0
1002
}
  0
LINE
  5
A43
100
AcDbEntity
  8
V0-OBRYS
  6
CONTINUOUS
 62
    90
100
AcDbLine
 10
727.552254
 20
0.0
 30
0.0
 11
727.552254
 21
62.5
 31
0.0
  0
LINE
  5
A44
100
AcDbEntity
  8
V0-OBRYS
  6
CONTINUOUS
 62
    90
100
AcDbLine
 10
727.552254
 20
0.0
 30
0.0
 11
727.552254
 21
-62.5
 31
0.0
  0
POINT
  5
A45
100
AcDbEntity
  8
V0-VYPLNE
  6
CONTINUOUS
 62
     7
100
AcDbPoint
 10
767.552254
 20
0.0
 30
0.0
  0
LINE
  5
A46
100
AcDbEntity
  8
V0-OBRYS
  6
CONTINUOUS
 62
    90
100
AcDbLine
 10
767.552254
 20
0.0
 30
0.0
 11
767.552254
 21
62.5
 31
0.0
  0
LINE
  5
A47
100
AcDbEntity
  8
V0-OBRYS
  6
CONTINUOUS
 62
    90
100
AcDbLine
 10
782.552254
 20
62.5
 30
0.0
 11
782.552254
 21
0.0
 31
0.0
  0
LINE
  5
A48
100
AcDbEntity
  8
V0-OBRYS
  6
CONTINUOUS
 62
    90
100
AcDbLine
 10
782.552254
 20
-62.5
 30
0.0
 11
782.552254
 21
0.0
 31
0.0
  0
LINE
  5
A49
100
AcDbEntity
  8
V0-OBRYS
  6
CONTINUOUS
 62
    90
100
AcDbLine
 10
767.552254
 20
0.0
 30
0.0
 11
767.552254
 21
-62.5
 31
0.0
  0
ARC
  5
A4B
100
AcDbEntity
  8
V0-OBRYS
  6
CONTINUOUS
 62
    90
100
AcDbCircle
 10
772.552254
 20
-62.5
 30
0.0
 40
5.0
100
AcDbArc
 50
180.0
 51
270.0
  0
ARC
  5
A4C
100
AcDbEntity
  8
V0-OBRYS
  6
CONTINUOUS
 62
    90
100
AcDbCircle
 10
777.552254
 20
-62.5
 30
0.0
 40
5.0
100
AcDbArc
 50
270.0
 51
0.0
  0
LINE
  5
A4D
100
AcDbEntity
  8
V0-OBRYS
  6
CONTINUOUS
 62
    90
100
AcDbLine
 10
772.552254
 20
-67.5
 30
0.0
 11
777.552254
 21
-67.5
 31
0.0
  0
ARC
  5
A4F
100
AcDbEntity
  8
V0-OBRYS
  6
CONTINUOUS
 62
    90
100
AcDbCircle
 10
772.552254
 20
62.5
 30
0.0
 40
5.0
100
AcDbArc
 50
90.0
 51
180.0
  0
ARC
  5
A50
100
AcDbEntity
  8
V0-OBRYS
  6
CONTINUOUS
 62
    90
100
AcDbCircle
 10
777.552254
 20
62.5
 30
0.0
 40
5.0
100
AcDbArc
 50
0.0
 51
90.0
  0
LINE
  5
A51
100
AcDbEntity
  8
V0-OBRYS
  6
CONTINUOUS
 62
    90
100
AcDbLine
 10
772.552254
 20
67.5
 30
0.0
 11
777.552254
 21
67.5
 31
0.0
  0
LINE
  5
B85
100
AcDbEntity
  8
V0-OBRYS
  6
CONTINUOUS
 62
    90
100
AcDbLine
 10
872.552254
 20
-62.5
 30
0.0
 11
782.552254
 21
-62.5
 31
0.0
  0
LINE
  5
B86
100
AcDbEntity
  8
V0-OBRYS
  6
CONTINUOUS
 62
    90
100
AcDbLine
 10
797.552254
 20
62.5
 30
0.0
 11
782.552254
 21
62.5
 31
0.0
  0
LINE
  5
B88
100
AcDbEntity
  8
V0-OBRYS
  6
CONTINUOUS
 62
    90
100
AcDbLine
 10
927.552254
 20
0.0
 30
0.0
 11
927.552254
 21
62.5
 31
0.0
  0
LINE
  5
B89
100
AcDbEntity
  8
V0-OBRYS
  6
CONTINUOUS
 62
    90
100
AcDbLine
 10
887.552254
 20
0.0
 30
0.0
 11
887.552254
 21
62.5
 31
0.0
  0
LINE
  5
B8A
100
AcDbEntity
  8
V0-OBRYS
  6
CONTINUOUS
 62
    90
100
AcDbLine
 10
872.552254
 20
62.5
 30
0.0
 11
872.552254
 21
0.0
 31
0.0
  0
POINT
  5
B8B
100
AcDbEntity
  8
V0-VYPLNE
  6
CONTINUOUS
 62
     7
100
AcDbPoint
 10
887.552254
 20
0.0
 30
0.0
  0
LINE
  5
B8C
100
AcDbEntity
  8
V0-OBRYS
  6
CONTINUOUS
 62
    90
100
AcDbLine
 10
927.552254
 20
-62.5
 30
0.0
 11
887.552254
 21
-62.5
 31
0.0
  0
LINE
  5
B8D
100
AcDbEntity
  8
V0-OBRYS
  6
CONTINUOUS
 62
    90
100
AcDbLine
 10
927.552254
 20
0.0
 30
0.0
 11
927.552254
 21
-62.5
 31
0.0
  0
LINE
  5
B8E
100
AcDbEntity
  8
V0-OBRYS
  6
CONTINUOUS
 62
    90
100
AcDbLine
 10
887.552254
 20
0.0
 30
0.0
 11
887.552254
 21
-62.5
 31
0.0
  0
LINE
  5
B8F
100
AcDbEntity
  8
V0-OBRYS
  6
CONTINUOUS
 62
    90
100
AcDbLine
 10
872.552254
 20
-62.5
 30
0.0
 11
872.552254
 21
0.0
 31
0.0
  0
LINE
  5
B90
100
AcDbEntity
  8
V0-OBRYS
  6
CONTINUOUS
 62
    90
100
AcDbLine
 10
882.552254
 20
-67.5
 30
0.0
 11
877.552254
 21
-67.5
 31
0.0
  0
ARC
  5
B91
100
AcDbEntity
  8
V0-OBRYS
  6
CONTINUOUS
 62
    90
100
AcDbCircle
 10
882.552254
 20
-62.5
 30
0.0
 40
5.0
100
AcDbArc
 50
270.0
 51
0.0
  0
ARC
  5
B92
100
AcDbEntity
  8
V0-OBRYS
  6
CONTINUOUS
 62
    90
100
AcDbCircle
 10
877.552254
 20
-62.5
 30
0.0
 40
5.0
100
AcDbArc
 50
180.0
 51
270.0
  0
LINE
  5
B93
100
AcDbEntity
  8
V0-OBRYS
  6
CONTINUOUS
 62
    90
100
AcDbLine
 10
927.552254
 20
62.5
 30
0.0
 11
887.552254
 21
62.5
 31
0.0
  0
LINE
  5
B94
100
AcDbEntity
  8
V0-OBRYS
  6
CONTINUOUS
 62
    90
100
AcDbLine
 10
882.552254
 20
67.5
 30
0.0
 11
877.552254
 21
67.5
 31
0.0
  0
ARC
  5
B95
100
AcDbEntity
  8
V0-OBRYS
  6
CONTINUOUS
 62
    90
100
AcDbCircle
 10
882.552254
 20
62.5
 30
0.0
 40
5.0
100
AcDbArc
 50
0.0
 51
90.0
  0
ARC
  5
B96
100
AcDbEntity
  8
V0-OBRYS
  6
CONTINUOUS
 62
    90
100
AcDbCircle
 10
877.552254
 20
62.5
 30
0.0
 40
5.0
100
AcDbArc
 50
90.0
 51
180.0
  0
DIMENSION
  5
BA3
100
AcDbEntity
  8
DEFPOINTS
  6
CONTINUOUS
 62
    90
100
AcDbDimension
  2
*D3
 10
927.547962
 20
-152.724261
 30
0.0
 11
827.550108
 21
-141.222293
 31
0.0
 70
    32
  3
ED10
100
AcDbAlignedDimension
 13
727.552254
 23
-63.5
 33
0.0
 14
927.547962
 24
-63.5
 34
0.0
100
AcDbRotatedDimension
1001
ACAD
1000
DSTYLE
1002
{
1070
    40
1040
1.0
1002
}
  0
DIMENSION
  5
BC6
100
AcDbEntity
  8
DEFPOINTS
  6
CONTINUOUS
 62
    90
100
AcDbDimension
  2
*D4
 10
887.552254
 20
-110.482146
 30
0.0
 11
827.552254
 21
-98.980178
 31
0.0
 70
    32
  3
ED10
100
AcDbAlignedDimension
 13
767.552254
 23
-62.5
 33
0.0
 14
887.552254
 24
-62.5
 34
0.0
100
AcDbRotatedDimension
1001
ACAD
1000
DSTYLE
1002
{
1070
    40
1040
1.0
1002
}
  0
DIMENSION
  5
D29
100
AcDbEntity
  8
V0-VYPLNE
  6
CONTINUOUS
 62
    41
100
AcDbDimension
  2
*D11
 10
962.552254
 20
139.123177
 30
0.0
 11
895.052254
 21
139.123177
 31
0.0
 70
   160
  3
ED15
100
AcDbAlignedDimension
 13
827.552254
 23
104.5
 33
0.0
 14
962.552254
 24
107.5
 34
0.0
100
AcDbRotatedDimension
1001
ACAD
1000
DSTYLE
1002
{
1070
    40
1040
1.0
1070
   178
1070
    41
1070
   177
1070
    41
1070
   176
1070
    41
1002
}
  0
LINE
  5
D2A
100
AcDbEntity
  8
V0-OBRYS
  6
CONTINUOUS
 62
    90
100
AcDbLine
 10
859.773509
 20
-276.922239
 30
0.0
 11
957.552254
 21
-276.922239
 31
0.0
  0
LINE
  5
D2B
100
AcDbEntity
  8
V0-OBRYS
  6
CONTINUOUS
 62
    90
100
AcDbLine
 10
880.036142
 20
-256.922239
 30
0.0
 11
957.552254
 21
-256.922239
 31
0.0
  0
LINE
  5
D2C
100
AcDbEntity
  8
V0-OBRYS
  6
CONTINUOUS
 62
    90
100
AcDbLine
 10
908.936312
 20
104.83835
 30
0.0
 11
883.379874
 21
91.549002
 31
0.0
  0
LINE
  5
D2D
100
AcDbEntity
  8
V0-OBRYS
  6
CONTINUOUS
 62
    90
100
AcDbLine
 10
907.552254
 20
107.5
 30
0.0
 11
882.552254
 21
94.5
 31
0.0
  0
LINE
  5
D2E
100
AcDbEntity
  8
V0-VYPLNE
  6
DASHED
 62
    52
100
AcDbLine
 10
830.552254
 20
91.549002
 30
0.0
 11
830.865235
 21
-67.02964
 31
0.0
  0
LINE
  5
D2F
100
AcDbEntity
  8
V0-VYPLNE
  6
DASHED
 62
    52
100
AcDbLine
 10
824.552254
 20
91.549002
 30
0.0
 11
824.865235
 21
-67.02964
 31
0.0
  0
LINE
  5
D30
100
AcDbEntity
  8
V0-OBRYS
  6
CONTINUOUS
 62
    90
100
AcDbLine
 10
827.552254
 20
105.5
 30
0.0
 11
827.865235
 21
-72.016903
 31
0.0
  0
ARC
  5
D31
100
AcDbEntity
  8
V0-VYPLNE
  6
DASHDOT
 62
    63
100
AcDbCircle
 10
827.552254
 20
-266.922239
 30
0.0
 40
40.0
100
AcDbArc
 50
260.720854
 51
98.569564
  0
LINE
  5
D32
100
AcDbEntity
  8
V0-OBRYS
  6
CONTINUOUS
 62
    90
100
AcDbLine
 10
812.552254
 20
-260.709035
 30
0.0
 11
812.552254
 21
-216.922239
 31
0.0
  0
ARC
  5
D34
100
AcDbEntity
  8
V0-OBRYS
  6
CONTINUOUS
 62
    90
100
AcDbCircle
 10
827.552254
 20
-266.922239
 30
0.0
 40
43.0
100
AcDbArc
 50
13.447727
 51
90.0
  0
ARC
  5
D35
100
AcDbEntity
  8
V0-OBRYS
  6
CONTINUOUS
 62
    90
100
AcDbCircle
 10
827.552254
 20
-266.922239
 30
0.0
 40
37.0
100
AcDbArc
 50
15.68035
 51
90.0
  0
LINE
  5
D36
100
AcDbEntity
  8
V0-OBRYS
  6
CONTINUOUS
 62
    90
100
AcDbLine
 10
872.366246
 20
-316.922239
 30
0.0
 11
812.552254
 21
-316.922239
 31
0.0
  0
LINE
  5
D37
100
AcDbEntity
  8
V0-OBRYS
  6
CONTINUOUS
 62
    90
100
AcDbLine
 10
812.552254
 20
-256.922239
 30
0.0
 11
875.430933
 21
-256.922239
 31
0.0
  0
ARC
  5
D38
100
AcDbEntity
  8
V0-OBRYS
  6
CONTINUOUS
 62
    90
100
AcDbCircle
 10
827.552254
 20
-266.922239
 30
0.0
 40
43.0
100
AcDbArc
 50
270.0
 51
346.552273
  0
ARC
  5
D39
100
AcDbEntity
  8
V0-OBRYS
  6
CONTINUOUS
 62
    90
100
AcDbCircle
 10
827.552254
 20
-266.922239
 30
0.0
 40
37.0
100
AcDbArc
 50
270.0
 51
344.31965
  0
LINE
  5
D3A
100
AcDbEntity
  8
V0-OBRYS
  6
CONTINUOUS
 62
    90
100
AcDbLine
 10
812.552254
 20
-276.922239
 30
0.0
 11
855.430933
 21
-276.922239
 31
0.0
  0
LINE
  5
D3B
100
AcDbEntity
  8
V0-OBRYS
  6
CONTINUOUS
 62
    90
100
AcDbLine
 10
812.552254
 20
-316.922239
 30
0.0
 11
812.552254
 21
-270.941821
 31
0.0
  0
ARC
  5
D3C
100
AcDbEntity
  8
V0-OBRYS
  6
CONTINUOUS
 62
    90
100
AcDbCircle
 10
827.552254
 20
-306.922239
 30
0.0
 40
3.0
100
AcDbArc
 50
90.0
 51
270.0
  0
LINE
  5
D3D
100
AcDbEntity
  8
V0-OBRYS
  6
CONTINUOUS
 62
    90
100
AcDbLine
 10
812.552254
 20
-265.922239
 30
0.0
 11
822.653274
 21
-265.922239
 31
0.0
  0
LINE
  5
D3E
100
AcDbEntity
  8
V0-OBRYS
  6
CONTINUOUS
 62
    90
100
AcDbLine
 10
812.552254
 20
-267.922239
 30
0.0
 11
822.653274
 21
-267.922239
 31
0.0
  0
LINE
  5
D3F
100
AcDbEntity
  8
V0-OBRYS
  6
CONTINUOUS
 62
    90
100
AcDbLine
 10
813.856343
 20
-279.894076
 30
0.0
 11
822.109577
 21
-279.894076
 31
0.0
  0
LINE
  5
D40
100
AcDbEntity
  8
V0-OBRYS
  6
CONTINUOUS
 62
    90
100
AcDbLine
 10
813.856343
 20
-253.950402
 30
0.0
 11
822.109577
 21
-253.950402
 31
0.0
  0
LINE
  5
D41
100
AcDbEntity
  8
V0-OBRYS
  6
CONTINUOUS
 62
    90
100
AcDbLine
 10
812.552254
 20
-265.922239
 30
0.0
 11
812.552254
 21
-256.922239
 31
0.0
  0
LINE
  5
D42
100
AcDbEntity
  8
V0-OBRYS
  6
CONTINUOUS
 62
    90
100
AcDbLine
 10
812.552254
 20
-276.922239
 30
0.0
 11
812.552254
 21
-267.922239
 31
0.0
  0
LINE
  5
D43
100
AcDbEntity
  8
V0-OBRYS
  6
CONTINUOUS
 62
    90
100
AcDbLine
 10
813.856343
 20
-276.799013
 30
0.0
 11
813.856343
 21
-279.894076
 31
0.0
  0
LINE
  5
D44
100
AcDbEntity
  8
V0-OBRYS
  6
CONTINUOUS
 62
    90
100
AcDbLine
 10
815.746918
 20
-281.527216
 30
0.0
 11
815.746918
 21
-276.922239
 31
0.0
  0
LINE
  5
D45
100
AcDbEntity
  8
V0-OBRYS
  6
CONTINUOUS
 62
    90
100
AcDbLine
 10
819.787925
 20
-281.527216
 30
0.0
 11
819.787925
 21
-276.922239
 31
0.0
  0
LINE
  5
D46
100
AcDbEntity
  8
V0-OBRYS
  6
CONTINUOUS
 62
    90
100
AcDbLine
 10
815.746918
 20
-281.527216
 30
0.0
 11
819.787925
 21
-281.527216
 31
0.0
  0
LINE
  5
D47
100
AcDbEntity
  8
V0-OBRYS
  6
CONTINUOUS
 62
    90
100
AcDbLine
 10
815.746918
 20
-267.922239
 30
0.0
 11
815.746918
 21
-265.922239
 31
0.0
  0
LINE
  5
D48
100
AcDbEntity
  8
V0-OBRYS
  6
CONTINUOUS
 62
    90
100
AcDbLine
 10
819.787925
 20
-267.922239
 30
0.0
 11
819.787925
 21
-265.922239
 31
0.0
  0
LINE
  5
D49
100
AcDbEntity
  8
V0-OBRYS
  6
CONTINUOUS
 62
    90
100
AcDbLine
 10
813.856343
 20
-257.045465
 30
0.0
 11
813.856343
 21
-253.950402
 31
0.0
  0
LINE
  5
D4A
100
AcDbEntity
  8
V0-OBRYS
  6
CONTINUOUS
 62
    90
100
AcDbLine
 10
819.787925
 20
-254.038043
 30
0.0
 11
819.787925
 21
-256.961411
 31
0.0
  0
LINE
  5
D4B
100
AcDbEntity
  8
V0-OBRYS
  6
CONTINUOUS
 62
    90
100
AcDbLine
 10
815.746918
 20
-253.950824
 30
0.0
 11
815.746918
 21
-256.960145
 31
0.0
  0
LINE
  5
D4C
100
AcDbEntity
  8
V0-OBRYS
  6
CONTINUOUS
 62
    90
100
AcDbLine
 10
840.431184
 20
-256.935217
 30
0.0
 11
840.431184
 21
-276.822604
 31
0.0
  0
CIRCLE
  5
D4D
100
AcDbEntity
  8
V0-OBRYS
  6
CONTINUOUS
 62
    90
100
AcDbCircle
 10
827.552254
 20
-266.922239
 30
0.0
 40
5.0
  0
LINE
  5
D4E
100
AcDbEntity
  8
V0-OBRYS
  6
CONTINUOUS
 62
    90
100
AcDbLine
 10
822.109577
 20
-279.894076
 30
0.0
 11
822.109577
 21
-276.796481
 31
0.0
  0
LINE
  5
D4F
100
AcDbEntity
  8
V0-OBRYS
  6
CONTINUOUS
 62
    90
100
AcDbLine
 10
822.109577
 20
-253.950402
 30
0.0
 11
822.109577
 21
-257.047997
 31
0.0
  0
CIRCLE
  5
D53
100
AcDbEntity
  8
V0-OBRYS
  6
CONTINUOUS
 62
    90
100
AcDbCircle
 10
867.552254
 20
-266.922239
 30
0.0
 40
6.0
  0
CIRCLE
  5
D54
100
AcDbEntity
  8
V0-OBRYS
  6
CONTINUOUS
 62
    90
100
AcDbCircle
 10
867.552254
 20
-266.922239
 30
0.0
 40
3.0
  0
LINE
  5
D55
100
AcDbEntity
  8
V0-OBRYS
  6
CONTINUOUS
 62
    90
100
AcDbLine
 10
852.349458
 20
-280.003714
 30
0.0
 11
862.392627
 21
-269.960545
 31
0.0
  0
LINE
  5
D56
100
AcDbEntity
  8
V0-OBRYS
  6
CONTINUOUS
 62
    90
100
AcDbLine
 10
854.470778
 20
-282.125035
 30
0.0
 11
864.513947
 21
-272.081866
 31
0.0
  0
LINE
  5
D57
100
AcDbEntity
  8
V0-OBRYS
  6
CONTINUOUS
 62
    90
100
AcDbLine
 10
852.349458
 20
-280.003714
 30
0.0
 11
854.470778
 21
-282.125035
 31
0.0
  0
LINE
  5
D58
100
AcDbEntity
  8
V0-OBRYS
  6
CONTINUOUS
 62
    90
100
AcDbLine
 10
882.755049
 20
-253.840763
 30
0.0
 11
872.71188
 21
-263.883932
 31
0.0
  0
LINE
  5
D59
100
AcDbEntity
  8
V0-OBRYS
  6
CONTINUOUS
 62
    90
100
AcDbLine
 10
880.633729
 20
-251.719443
 30
0.0
 11
870.59056
 21
-261.762612
 31
0.0
  0
LINE
  5
D5A
100
AcDbEntity
  8
V0-OBRYS
  6
CONTINUOUS
 62
    90
100
AcDbLine
 10
880.633729
 20
-251.719443
 30
0.0
 11
882.755049
 21
-253.840763
 31
0.0
  0
LINE
  5
D5B
100
AcDbEntity
  8
V0-OBRYS
  6
CONTINUOUS
 62
    90
100
AcDbLine
 10
812.552254
 20
-216.922239
 30
0.0
 11
872.366246
 21
-216.922239
 31
0.0
  0
ARC
  5
D5C
100
AcDbEntity
  8
V0-OBRYS
  6
CONTINUOUS
 62
    90
100
AcDbCircle
 10
827.552254
 20
-226.922239
 30
0.0
 40
3.0
100
AcDbArc
 50
90.0
 51
270.0
  0
LWPOLYLINE
  5
D5D
100
AcDbEntity
  8
V0-OBRYS
  6
CONTINUOUS
 62
    90
100
AcDbPolyline
 90
        4
 70
     1
 43
0.0
 10
819.466563
 20
-67.04388
 10
835.637944
 20
-67.04388
 10
835.637944
 20
-62.5
 10
819.466563
 20
-62.5
  0
LINE
  5
D5E
100
AcDbEntity
  8
V0-OBRYS
  6
CONTINUOUS
 62
    90
100
AcDbLine
 10
830.865235
 20
-67.04388
 30
0.0
 11
830.865235
 21
-69.253824
 31
0.0
  0
LINE
  5
D5F
100
AcDbEntity
  8
V0-OBRYS
  6
CONTINUOUS
 62
    90
100
AcDbLine
 10
824.865235
 20
-67.04388
 30
0.0
 11
824.865235
 21
-69.253824
 31
0.0
  0
LINE
  5
D60
100
AcDbEntity
  8
V0-OBRYS
  6
CONTINUOUS
 62
    90
100
AcDbLine
 10
824.865235
 20
-69.253824
 30
0.0
 11
830.865235
 21
-69.253824
 31
0.0
  0
LINE
  5
D61
100
AcDbEntity
  8
V0-VYPLNE
  6
DASHDOT
 62
    63
100
AcDbLine
 10
862.552254
 20
107.5
 30
0.0
 11
862.552254
 21
89.082585
 31
0.0
  0
ARC
  5
D62
100
AcDbEntity
  8
V0-OBRYS
  6
CONTINUOUS
 62
    90
100
AcDbCircle
 10
802.552254
 20
97.024501
 30
0.0
 40
5.475499
100
AcDbArc
 50
90.0
 51
270.0
  0
LINE
  5
D63
100
AcDbEntity
  8
V0-OBRYS
  6
CONTINUOUS
 62
    90
100
AcDbLine
 10
883.379874
 20
91.549002
 30
0.0
 11
827.024427
 21
91.549002
 31
0.0
  0
LINE
  5
D64
100
AcDbEntity
  8
V0-OBRYS
  6
CONTINUOUS
100
AcDbLine
 10
819.296765
 20
62.5
 30
0.0
 11
827.552254
 21
62.5
 31
0.0
  0
LINE
  5
D65
100
AcDbEntity
  8
V0-OBRYS
  6
CONTINUOUS
 62
    90
100
AcDbLine
 10
797.552254
 20
91.549002
 30
0.0
 11
828.08008
 21
91.549002
 31
0.0
  0
LINE
  5
D66
100
AcDbEntity
  8
V0-OBRYS
  6
CONTINUOUS
 62
    90
100
AcDbLine
 10
797.552254
 20
91.549002
 30
0.0
 11
797.552254
 21
34.389486
 31
0.0
  0
LINE
  5
D67
100
AcDbEntity
  8
V0-OBRYS
  6
CONTINUOUS
 62
    90
100
AcDbLine
 10
871.770299
 20
91.549002
 30
0.0
 11
871.770299
 21
62.360781
 31
0.0
  0
LINE
  5
D68
100
AcDbEntity
  8
V0-OBRYS
  6
CONTINUOUS
 62
    90
100
AcDbLine
 10
882.646488
 20
94.549002
 30
0.0
 11
807.182517
 21
94.549002
 31
0.0
  0
LINE
  5
D69
100
AcDbEntity
  8
V0-OBRYS
  6
CONTINUOUS
 62
    90
100
AcDbLine
 10
840.552254
 20
99.5
 30
0.0
 11
807.182517
 21
99.5
 31
0.0
  0
LINE
  5
D6A
100
AcDbEntity
  8
V0-OBRYS
  6
CONTINUOUS
 62
    90
100
AcDbLine
 10
840.552254
 20
102.5
 30
0.0
 11
802.552254
 21
102.5
 31
0.0
  0
LINE
  5
D6C
100
AcDbEntity
  8
V0-OBRYS
  6
CONTINUOUS
 62
    90
100
AcDbLine
 10
824.552254
 20
104.5
 30
0.0
 11
827.552254
 21
104.5
 31
0.0
  0
LINE
  5
D6D
100
AcDbEntity
  8
V0-OBRYS
  6
CONTINUOUS
 62
    90
100
AcDbLine
 10
824.552254
 20
102.5
 30
0.0
 11
824.552254
 21
104.5
 31
0.0
  0
LINE
  5
D6E
100
AcDbEntity
  8
V0-OBRYS
  6
CONTINUOUS
 62
    90
100
AcDbLine
 10
824.552254
 20
94.5
 30
0.0
 11
824.552254
 21
99.572606
 31
0.0
  0
LINE
  5
D6F
100
AcDbEntity
  8
V0-OBRYS
  6
CONTINUOUS
 62
    90
100
AcDbLine
 10
830.552254
 20
94.5
 30
0.0
 11
830.552254
 21
99.572606
 31
0.0
  0
LINE
  5
D70
100
AcDbEntity
  8
V0-OBRYS
  6
CONTINUOUS
 62
    90
100
AcDbLine
 10
830.552254
 20
102.5
 30
0.0
 11
830.552254
 21
104.5
 31
0.0
  0
LINE
  5
D71
100
AcDbEntity
  8
V0-OBRYS
  6
CONTINUOUS
 62
    90
100
AcDbLine
 10
830.552254
 20
104.5
 30
0.0
 11
827.552254
 21
104.5
 31
0.0
  0
LINE
  5
D72
100
AcDbEntity
  8
V0-OBRYS
  6
CONTINUOUS
 62
    90
100
AcDbLine
 10
840.552254
 20
102.5
 30
0.0
 11
840.552254
 21
99.5
 31
0.0
  0
LINE
  5
D73
100
AcDbEntity
  8
V0-OBRYS
  6
CONTINUOUS
 62
    90
100
AcDbLine
 10
876.043319
 20
102.090211
 30
0.0
 11
866.587815
 21
94.549002
 31
0.0
  0
LINE
  5
D74
100
AcDbEntity
  8
V0-OBRYS
  6
CONTINUOUS
 62
    90
100
AcDbLine
 10
864.912598
 20
98.523604
 30
0.0
 11
874.573223
 21
105.027417
 31
0.0
  0
LINE
  5
D75
100
AcDbEntity
  8
V0-OBRYS
  6
CONTINUOUS
 62
    90
100
AcDbLine
 10
849.061188
 20
102.090211
 30
0.0
 11
858.516692
 21
94.549002
 31
0.0
  0
LINE
  5
D76
100
AcDbEntity
  8
V0-OBRYS
  6
CONTINUOUS
 62
    90
100
AcDbLine
 10
860.191909
 20
98.523604
 30
0.0
 11
850.531284
 21
105.027417
 31
0.0
  0
LINE
  5
D77
100
AcDbEntity
  8
V0-OBRYS
  6
CONTINUOUS
 62
    90
100
AcDbLine
 10
850.531284
 20
105.027417
 30
0.0
 11
849.061188
 21
102.090211
 31
0.0
  0
LINE
  5
D78
100
AcDbEntity
  8
V0-OBRYS
  6
CONTINUOUS
 62
    90
100
AcDbLine
 10
862.502059
 20
98.523604
 30
0.0
 11
860.191909
 21
98.523604
 31
0.0
  0
LINE
  5
D79
100
AcDbEntity
  8
V0-OBRYS
  6
CONTINUOUS
 62
    90
100
AcDbLine
 10
860.191909
 20
98.523604
 30
0.0
 11
858.511801
 21
94.537396
 31
0.0
  0
LINE
  5
D7A
100
AcDbEntity
  8
V0-OBRYS
  6
CONTINUOUS
 62
    90
100
AcDbLine
 10
862.602448
 20
98.523604
 30
0.0
 11
864.912598
 21
98.523604
 31
0.0
  0
LINE
  5
D7B
100
AcDbEntity
  8
V0-OBRYS
  6
CONTINUOUS
 62
    90
100
AcDbLine
 10
864.912598
 20
98.523604
 30
0.0
 11
866.592706
 21
94.537396
 31
0.0
  0
LINE
  5
D7C
100
AcDbEntity
  8
V0-OBRYS
  6
CONTINUOUS
 62
    90
100
AcDbLine
 10
874.573223
 20
105.027417
 30
0.0
 11
876.043319
 21
102.090211
 31
0.0
  0
LINE
  5
D7D
100
AcDbEntity
  8
V0-VYPLNE
  6
DASHDOT
 62
    63
100
AcDbLine
 10
1092.578783
 20
92.5
 30
0.0
 11
1092.578783
 21
-77.419281
 31
0.0
  0
LINE
  5
D7E
100
AcDbEntity
  8
V0-OBRYS
  6
CONTINUOUS
 62
    90
100
AcDbLine
 10
1089.578783
 20
62.28248
 30
0.0
 11
1089.578783
 21
-70.827564
 31
0.0
  0
LINE
  5
D7F
100
AcDbEntity
  8
V0-OBRYS
  6
CONTINUOUS
 62
    90
100
AcDbLine
 10
1095.578783
 20
62.483448
 30
0.0
 11
1095.578783
 21
-70.827564
 31
0.0
  0
LINE
  5
D80
100
AcDbEntity
  8
V0-OBRYS
  6
CONTINUOUS
 62
    90
100
AcDbLine
 10
957.552254
 20
-256.922239
 30
0.0
 11
962.552254
 21
-261.922239
 31
0.0
  0
LINE
  5
D81
100
AcDbEntity
  8
V0-OBRYS
  6
CONTINUOUS
 62
    90
100
AcDbLine
 10
962.552254
 20
-271.922239
 30
0.0
 11
957.552254
 21
-276.922239
 31
0.0
  0
LINE
  5
D82
100
AcDbEntity
  8
V0-OBRYS
  6
CONTINUOUS
 62
    90
100
AcDbLine
 10
962.552254
 20
-271.922239
 30
0.0
 11
962.552254
 21
-261.922239
 31
0.0
  0
LINE
  5
D84
100
AcDbEntity
  8
V0-OBRYS
  6
CONTINUOUS
 62
    90
100
AcDbLine
 10
1089.578783
 20
-70.827564
 30
0.0
 11
1095.578783
 21
-70.827564
 31
0.0
  0
DIMENSION
  5
D85
100
AcDbEntity
  8
V0-VYPLNE
  6
CONTINUOUS
 62
    41
100
AcDbDimension
  2
*D12
 10
978.883946
 20
62.5
 30
0.0
 11
969.883946
 21
85.0
 31
0.0
 70
    32
  3
ED15
100
AcDbAlignedDimension
 13
962.552254
 23
107.5
 33
0.0
 14
927.552254
 24
62.5
 34
0.0
 50
90.0
100
AcDbRotatedDimension
1001
ACAD
1000
DSTYLE
1002
{
1070
    40
1040
1.0
1070
   178
1070
    41
1070
   177
1070
    41
1070
   176
1070
    41
1002
}
  0
LINE
  5
D86
100
AcDbEntity
  8
V0-OBRYS
  6
CONTINUOUS
 62
    90
100
AcDbLine
 10
962.552254
 20
104.5
 30
0.0
 11
907.552254
 21
104.5
 31
0.0
  0
LINE
  5
D87
100
AcDbEntity
  8
V0-OBRYS
  6
CONTINUOUS
 62
    90
100
AcDbLine
 10
962.552254
 20
107.5
 30
0.0
 11
907.552254
 21
107.5
 31
0.0
  0
LINE
  5
D88
100
AcDbEntity
  8
V0-OBRYS
  6
CONTINUOUS
100
AcDbLine
 10
1100.171899
 20
59.503842
 30
0.0
 11
1085.617658
 21
59.503842
 31
0.0
  0
LINE
  5
D89
100
AcDbEntity
  8
V0-OBRYS
  6
CONTINUOUS
 62
    90
100
AcDbLine
 10
1082.282325
 20
104.879089
 30
0.0
 11
1091.61585
 21
104.879089
 31
0.0
  0
LINE
  5
D8A
100
AcDbEntity
  8
V0-OBRYS
  6
CONTINUOUS
 62
    90
100
AcDbLine
 10
1091.61585
 20
93.550352
 30
0.0
 11
1082.213489
 21
93.550352
 31
0.0
  0
LINE
  5
D8B
100
AcDbEntity
  8
V0-OBRYS
  6
CONTINUOUS
 62
    90
100
AcDbLine
 10
1042.578783
 20
92.5
 30
0.0
 11
1142.578783
 21
92.5
 31
0.0
  0
DIMENSION
  5
D8C
100
AcDbEntity
  8
V0-VYPLNE
  6
CONTINUOUS
 62
    63
100
AcDbDimension
  2
*D13
 10
1142.578783
 20
122.951469
 30
0.0
 11
1093.085064
 21
122.951469
 31
0.0
 12
-660.711937
 22
0.0
 32
0.0
 70
   160
  3
ED15
100
AcDbAlignedDimension
 13
1042.578783
 23
92.5
 33
0.0
 14
1142.578783
 24
92.5
 34
0.0
100
AcDbRotatedDimension
1001
ACAD
1000
DSTYLE
1002
{
1070
    40
1040
1.0
1070
   178
1070
    41
1070
   177
1070
    41
1070
   176
1070
    41
1002
}
  0
LINE
  5
D8D
100
AcDbEntity
  8
V0-OBRYS
  6
CONTINUOUS
 62
    90
100
AcDbLine
 10
1082.282325
 20
95.551484
 30
0.0
 11
1082.282325
 21
92.5
 31
0.0
  0
LINE
  5
D8E
100
AcDbEntity
  8
V0-OBRYS
  6
CONTINUOUS
 62
    90
100
AcDbLine
 10
1082.282325
 20
92.5
 30
0.0
 11
1082.282325
 21
104.879089
 31
0.0
  0
LINE
  5
D8F
100
AcDbEntity
  8
V0-OBRYS
  6
CONTINUOUS
 62
    90
100
AcDbLine
 10
1042.578783
 20
92.5
 30
0.0
 11
1042.578783
 21
45.345893
 31
0.0
  0
LINE
  5
D90
100
AcDbEntity
  8
V0-OBRYS
  6
CONTINUOUS
 62
    90
100
AcDbLine
 10
1079.242074
 20
96.745016
 30
0.0
 11
1082.251395
 21
96.745016
 31
0.0
  0
LINE
  5
D91
100
AcDbEntity
  8
V0-OBRYS
  6
CONTINUOUS
 62
    90
100
AcDbLine
 10
1082.282325
 20
94.854442
 30
0.0
 11
1079.241652
 21
94.854442
 31
0.0
  0
LINE
  5
D92
100
AcDbEntity
  8
V0-OBRYS
  6
CONTINUOUS
 62
    90
100
AcDbLine
 10
1079.241652
 20
103.107676
 30
0.0
 11
1082.339247
 21
103.107676
 31
0.0
  0
LINE
  5
D93
100
AcDbEntity
  8
V0-OBRYS
  6
CONTINUOUS
 62
    90
100
AcDbLine
 10
1079.329293
 20
100.786024
 30
0.0
 11
1082.252661
 21
100.786024
 31
0.0
  0
LINE
  5
D94
100
AcDbEntity
  8
V0-OBRYS
  6
CONTINUOUS
 62
    90
100
AcDbLine
 10
1079.241652
 20
94.854442
 30
0.0
 11
1079.241652
 21
103.107676
 31
0.0
  0
LINE
  5
D95
100
AcDbEntity
  8
V0-OBRYS
  6
CONTINUOUS
 62
    90
100
AcDbLine
 10
1102.31935
 20
95.551484
 30
0.0
 11
1102.31935
 21
92.5
 31
0.0
  0
LINE
  5
D96
100
AcDbEntity
  8
V0-OBRYS
  6
CONTINUOUS
 62
    90
100
AcDbLine
 10
1102.31935
 20
92.5
 30
0.0
 11
1102.31935
 21
104.879089
 31
0.0
  0
LINE
  5
D97
100
AcDbEntity
  8
V0-OBRYS
  6
CONTINUOUS
 62
    90
100
AcDbLine
 10
1091.61585
 20
93.550352
 30
0.0
 11
1091.61585
 21
104.879089
 31
0.0
  0
LINE
  5
D98
100
AcDbEntity
  8
V0-OBRYS
  6
CONTINUOUS
 62
    90
100
AcDbLine
 10
1093.61585
 20
93.550352
 30
0.0
 11
1093.61585
 21
104.879089
 31
0.0
  0
LINE
  5
D99
100
AcDbEntity
  8
V0-VYPLNE
  6
DASHED
 62
    52
100
AcDbLine
 10
1089.578783
 20
92.5
 30
0.0
 11
1089.578783
 21
63.086349
 31
0.0
  0
LINE
  5
D9A
100
AcDbEntity
  8
V0-VYPLNE
  6
DASHED
 62
    52
100
AcDbLine
 10
1095.578783
 20
92.5
 30
0.0
 11
1095.578783
 21
63.488284
 31
0.0
  0
LINE
  5
D9B
100
AcDbEntity
  8
V0-OBRYS
  6
CONTINUOUS
 62
    90
100
AcDbLine
 10
1102.213489
 20
93.550352
 30
0.0
 11
1093.61585
 21
93.550352
 31
0.0
  0
LINE
  5
D9C
100
AcDbEntity
  8
V0-OBRYS
  6
CONTINUOUS
 62
    90
100
AcDbLine
 10
1142.578783
 20
92.5
 30
0.0
 11
1142.578783
 21
45.345893
 31
0.0
  0
LINE
  5
D9D
100
AcDbEntity
  8
V0-OBRYS
  6
CONTINUOUS
 62
    90
100
AcDbLine
 10
1093.61585
 20
104.879089
 30
0.0
 11
1102.31935
 21
104.879089
 31
0.0
  0
LINE
  5
D9E
100
AcDbEntity
  8
V0-OBRYS
  6
CONTINUOUS
 62
    90
100
AcDbLine
 10
1093.61585
 20
96.795263
 30
0.0
 11
1091.61585
 21
96.795263
 31
0.0
  0
LINE
  5
D9F
100
AcDbEntity
  8
V0-OBRYS
  6
CONTINUOUS
 62
    90
100
AcDbLine
 10
1093.61585
 20
100.836271
 30
0.0
 11
1091.61585
 21
100.836271
 31
0.0
  0
LINE
  5
DA0
100
AcDbEntity
  8
V0-OBRYS
  6
CONTINUOUS
 62
    90
100
AcDbLine
 10
1102.31935
 20
94.854442
 30
0.0
 11
1105.185326
 21
94.854442
 31
0.0
  0
LINE
  5
DA1
100
AcDbEntity
  8
V0-OBRYS
  6
CONTINUOUS
 62
    90
100
AcDbLine
 10
1105.185326
 20
103.107676
 30
0.0
 11
1102.31935
 21
103.107676
 31
0.0
  0
LINE
  5
DA2
100
AcDbEntity
  8
V0-OBRYS
  6
CONTINUOUS
 62
    90
100
AcDbLine
 10
1106.818466
 20
96.745016
 30
0.0
 11
1102.31935
 21
96.745016
 31
0.0
  0
LINE
  5
DA3
100
AcDbEntity
  8
V0-OBRYS
  6
CONTINUOUS
 62
    90
100
AcDbLine
 10
1106.818466
 20
100.786024
 30
0.0
 11
1102.31935
 21
100.786024
 31
0.0
  0
LINE
  5
DA4
100
AcDbEntity
  8
V0-OBRYS
  6
CONTINUOUS
 62
    90
100
AcDbLine
 10
1106.818466
 20
96.745016
 30
0.0
 11
1106.818466
 21
100.786024
 31
0.0
  0
LINE
  5
DA5
100
AcDbEntity
  8
V0-OBRYS
  6
CONTINUOUS
 62
    90
100
AcDbLine
 10
1105.185326
 20
94.854442
 30
0.0
 11
1105.185326
 21
103.107676
 31
0.0
  0
LWPOLYLINE
  5
DA6
100
AcDbEntity
  8
V0-OBRYS
  6
DASHED
 62
    52
100
AcDbPolyline
 90
        4
 70
     1
 43
0.0
 10
819.466563
 20
62.5
 10
835.637944
 20
62.5
 10
835.637944
 20
67.04388
 10
819.466563
 20
67.04388
  0
MTEXT
  5
DA8
100
AcDbEntity
  8
V0-NAZVY
100
AcDbMText
 10
1094.914008
 20
-223.160171
 30
0.0
 40
25.0
 41
205.6405
 71
     5
 72
     5
  1
MSK-125
  7
ED10
  0
MTEXT
  5
DA9
100
AcDbEntity
  8
V0-ZBYTEK
 62
    51
100
AcDbMText
 10
1101.330167
 20
-259.805687
 30
0.0
 40
14.0
 41
396.5924
 71
     5
 72
     5
  1
KLAPKA SKRTICI
  7
ED10
  0
MTEXT
  5
DAA
100
AcDbEntity
  8
V0-ZBYTEK
100
AcDbMText
 10
1099.736254
 20
-290.110067
 30
0.0
 40
10.0
 41
157.0955
 71
     5
 72
     5
  1
S RUCNIM OVLADANIM KOVOVYM
  7
ED10
  0
LWPOLYLINE
  5
DF4
100
AcDbEntity
  8
DEFPOINTS
  6
CONTINUOUS
 62
    90
100
AcDbPolyline
 90
        6
 70
     1
 43
0.0
 10
797.92199
 20
94.351217
 10
802.552254
 20
91.677933
 10
807.182517
 20
94.351217
 10
807.182517
 20
99.697785
 10
802.552254
 20
102.371069
 10
797.92199
 20
99.697785
  0
CIRCLE
  5
DF5
100
AcDbEntity
  8
DEFPOINTS
  6
CONTINUOUS
 62
    90
100
AcDbCircle
 10
802.552254
 20
97.024501
 30
0.0
 40
2.313801
  0
CIRCLE
  5
DF6
100
AcDbEntity
  8
DEFPOINTS
  6
CONTINUOUS
 62
    90
100
AcDbCircle
 10
802.552254
 20
97.024501
 30
0.0
 40
4.584843
  0
LINE
  5
DF7
100
AcDbEntity
  8
V0-VYPLNE
  6
DASHDOT
 62
    63
100
AcDbLine
 10
722.366246
 20
-266.922239
 30
0.0
 11
927.366246
 21
-266.922239
 31
0.0
  0
LINE
  5
DF8
100
AcDbEntity
  8
V0-OBRYS
  6
CONTINUOUS
 62
    90
100
AcDbLine
 10
727.366246
 20
-204.422239
 30
0.0
 11
767.366246
 21
-204.422239
 31
0.0
  0
LINE
  5
DF9
100
AcDbEntity
  8
V0-OBRYS
  6
CONTINUOUS
 62
    90
100
AcDbLine
 10
727.366246
 20
-329.422239
 30
0.0
 11
767.366246
 21
-329.422239
 31
0.0
  0
LINE
  5
DFA
100
AcDbEntity
  8
V0-OBRYS
  6
CONTINUOUS
 62
    90
100
AcDbLine
 10
727.366246
 20
-266.922239
 30
0.0
 11
727.366246
 21
-204.422239
 31
0.0
  0
LINE
  5
DFB
100
AcDbEntity
  8
V0-OBRYS
  6
CONTINUOUS
 62
    90
100
AcDbLine
 10
727.366246
 20
-266.922239
 30
0.0
 11
727.366246
 21
-329.422239
 31
0.0
  0
LINE
  5
DFC
100
AcDbEntity
  8
V0-OBRYS
  6
CONTINUOUS
 62
    90
100
AcDbLine
 10
927.366246
 20
-204.422239
 30
0.0
 11
887.366246
 21
-204.422239
 31
0.0
  0
LINE
  5
DFD
100
AcDbEntity
  8
V0-OBRYS
  6
CONTINUOUS
 62
    90
100
AcDbLine
 10
927.366246
 20
-329.422239
 30
0.0
 11
887.366246
 21
-329.422239
 31
0.0
  0
POINT
  5
DFE
100
AcDbEntity
  8
V0-VYPLNE
  6
CONTINUOUS
 62
     7
100
AcDbPoint
 10
887.366246
 20
-266.922239
 30
0.0
  0
LINE
  5
DFF
100
AcDbEntity
  8
V0-OBRYS
  6
CONTINUOUS
 62
    90
100
AcDbLine
 10
872.366246
 20
-204.422239
 30
0.0
 11
872.366246
 21
-266.922239
 31
0.0
  0
LINE
  5
E00
100
AcDbEntity
  8
V0-OBRYS
  6
CONTINUOUS
 62
    90
100
AcDbLine
 10
887.366246
 20
-266.922239
 30
0.0
 11
887.366246
 21
-204.422239
 31
0.0
  0
LINE
  5
E01
100
AcDbEntity
  8
V0-OBRYS
  6
CONTINUOUS
 62
    90
100
AcDbLine
 10
782.366246
 20
-204.422239
 30
0.0
 11
782.366246
 21
-266.922239
 31
0.0
  0
LINE
  5
E02
100
AcDbEntity
  8
V0-OBRYS
  6
CONTINUOUS
 62
    90
100
AcDbLine
 10
767.366246
 20
-266.922239
 30
0.0
 11
767.366246
 21
-204.422239
 31
0.0
  0
POINT
  5
E03
100
AcDbEntity
  8
V0-VYPLNE
  6
CONTINUOUS
 62
     7
100
AcDbPoint
 10
767.366246
 20
-266.922239
 30
0.0
  0
LINE
  5
E06
100
AcDbEntity
  8
V0-OBRYS
  6
CONTINUOUS
 62
    90
100
AcDbLine
 10
872.366246
 20
-329.422239
 30
0.0
 11
782.366246
 21
-329.422239
 31
0.0
  0
LINE
  5
E07
100
AcDbEntity
  8
V0-OBRYS
  6
CONTINUOUS
 62
    90
100
AcDbLine
 10
767.366246
 20
-266.922239
 30
0.0
 11
767.366246
 21
-329.422239
 31
0.0
  0
LINE
  5
E08
100
AcDbEntity
  8
V0-OBRYS
  6
CONTINUOUS
 62
    90
100
AcDbLine
 10
782.366246
 20
-329.422239
 30
0.0
 11
782.366246
 21
-266.922239
 31
0.0
  0
ARC
  5
E09
100
AcDbEntity
  8
V0-OBRYS
  6
CONTINUOUS
 62
    90
100
AcDbCircle
 10
772.366246
 20
-329.422239
 30
0.0
 40
5.0
100
AcDbArc
 50
180.0
 51
270.0
  0
ARC
  5
E0A
100
AcDbEntity
  8
V0-OBRYS
  6
CONTINUOUS
 62
    90
100
AcDbCircle
 10
777.366246
 20
-329.422239
 30
0.0
 40
5.0
100
AcDbArc
 50
270.0
 51
0.0
  0
LINE
  5
E0B
100
AcDbEntity
  8
V0-OBRYS
  6
CONTINUOUS
 62
    90
100
AcDbLine
 10
772.366246
 20
-334.422239
 30
0.0
 11
777.366246
 21
-334.422239
 31
0.0
  0
LINE
  5
E0D
100
AcDbEntity
  8
V0-OBRYS
  6
CONTINUOUS
 62
    90
100
AcDbLine
 10
872.366246
 20
-329.422239
 30
0.0
 11
872.366246
 21
-266.922239
 31
0.0
  0
LINE
  5
E0E
100
AcDbEntity
  8
V0-OBRYS
  6
CONTINUOUS
 62
    90
100
AcDbLine
 10
887.366246
 20
-266.922239
 30
0.0
 11
887.366246
 21
-329.422239
 31
0.0
  0
LINE
  5
E10
100
AcDbEntity
  8
V0-OBRYS
  6
CONTINUOUS
 62
    90
100
AcDbLine
 10
882.366246
 20
-334.422239
 30
0.0
 11
877.366246
 21
-334.422239
 31
0.0
  0
ARC
  5
E11
100
AcDbEntity
  8
V0-OBRYS
  6
CONTINUOUS
 62
    90
100
AcDbCircle
 10
877.366246
 20
-329.422239
 30
0.0
 40
5.0
100
AcDbArc
 50
180.0
 51
270.0
  0
ARC
  5
E12
100
AcDbEntity
  8
V0-OBRYS
  6
CONTINUOUS
 62
    90
100
AcDbCircle
 10
882.366246
 20
-329.422239
 30
0.0
 40
5.0
100
AcDbArc
 50
270.0
 51
0.0
  0
LINE
  5
E15
100
AcDbEntity
  8
V0-OBRYS
  6
CONTINUOUS
 62
    90
100
AcDbLine
 10
872.366246
 20
-204.422239
 30
0.0
 11
782.366246
 21
-204.422239
 31
0.0
  0
ARC
  5
E16
100
AcDbEntity
  8
V0-OBRYS
  6
CONTINUOUS
 62
    90
100
AcDbCircle
 10
772.366246
 20
-204.422239
 30
0.0
 40
5.0
100
AcDbArc
 50
90.0
 51
180.0
  0
ARC
  5
E17
100
AcDbEntity
  8
V0-OBRYS
  6
CONTINUOUS
 62
    90
100
AcDbCircle
 10
777.366246
 20
-204.422239
 30
0.0
 40
5.0
100
AcDbArc
 50
0.0
 51
90.0
  0
LINE
  5
E18
100
AcDbEntity
  8
V0-OBRYS
  6
CONTINUOUS
 62
    90
100
AcDbLine
 10
772.366246
 20
-199.422239
 30
0.0
 11
777.366246
 21
-199.422239
 31
0.0
  0
LINE
  5
E19
100
AcDbEntity
  8
V0-OBRYS
  6
CONTINUOUS
 62
    90
100
AcDbLine
 10
882.366246
 20
-199.422239
 30
0.0
 11
877.366246
 21
-199.422239
 31
0.0
  0
ARC
  5
E1A
100
AcDbEntity
  8
V0-OBRYS
  6
CONTINUOUS
 62
    90
100
AcDbCircle
 10
877.366246
 20
-204.422239
 30
0.0
 40
5.0
100
AcDbArc
 50
90.0
 51
180.0
  0
ARC
  5
E1B
100
AcDbEntity
  8
V0-OBRYS
  6
CONTINUOUS
 62
    90
100
AcDbCircle
 10
882.366246
 20
-204.422239
 30
0.0
 40
5.0
100
AcDbArc
 50
0.0
 51
90.0
  0
LINE
  5
E1C
100
AcDbEntity
  8
V0-OBRYS
  6
CONTINUOUS
 62
    90
100
AcDbLine
 10
927.366246
 20
-266.922239
 30
0.0
 11
927.366246
 21
-204.422239
 31
0.0
  0
LINE
  5
E1D
100
AcDbEntity
  8
V0-OBRYS
  6
CONTINUOUS
 62
    90
100
AcDbLine
 10
927.366246
 20
-266.922239
 30
0.0
 11
927.366246
 21
-329.422239
 31
0.0
  0
CIRCLE
  5
E1F
100
AcDbEntity
  8
DEFPOINTS
  6
CONTINUOUS
 62
    90
100
AcDbCircle
 10
1092.578783
 20
0.0
 30
0.0
 40
62.5
  0
CIRCLE
  5
E20
100
AcDbEntity
  8
DEFPOINTS
  6
CONTINUOUS
 62
    90
100
AcDbCircle
 10
1092.578783
 20
0.0
 30
0.0
 40
67.5
  0
LINE
  5
E21
100
AcDbEntity
  8
V0-VYPLNE
  6
DASHDOT
 62
    63
100
AcDbLine
 10
1015.46862
 20
0.0
 30
0.0
 11
1166.618597
 21
0.0
 31
0.0
  0
LINE
  5
E22
100
AcDbEntity
  8
V0-OBRYS
  6
CONTINUOUS
 62
    90
100
AcDbLine
 10
1085.089254
 20
59.503842
 30
0.0
 11
1100.700303
 21
59.503842
 31
0.0
  0
LINE
  5
E23
100
AcDbEntity
  8
V0-OBRYS
  6
CONTINUOUS
 62
    90
100
AcDbLine
 10
1100.700303
 20
59.503842
 30
0.0
 11
1100.700303
 21
61.970081
 31
0.0
  0
LINE
  5
E25
100
AcDbEntity
  8
V0-OBRYS
  6
CONTINUOUS
 62
    90
100
AcDbLine
 10
1085.089254
 20
62.049633
 30
0.0
 11
1085.089254
 21
59.503842
 31
0.0
  0
LINE
  5
E27
100
AcDbEntity
  8
V0-OBRYS
  6
CONTINUOUS
 62
    90
100
AcDbLine
 10
1099.889813
 20
-62.070918
 30
0.0
 11
1099.889813
 21
-59.645103
 31
0.0
  0
LINE
  5
E28
100
AcDbEntity
  8
V0-OBRYS
  6
CONTINUOUS
 62
    90
100
AcDbLine
 10
1099.889813
 20
-59.645103
 30
0.0
 11
1084.278764
 21
-59.645103
 31
0.0
  0
LINE
  5
E29
100
AcDbEntity
  8
V0-OBRYS
  6
CONTINUOUS
 62
    90
100
AcDbLine
 10
1084.278764
 20
-59.645103
 30
0.0
 11
1084.278764
 21
-61.946426
 31
0.0
  0
ELLIPSE
  5
E2A
100
AcDbEntity
  8
DEFPOINTS
  6
CONTINUOUS
 62
    90
100
AcDbEllipse
 10
1092.66552
 20
-0.151935
 30
0.0
 11
0.0
 21
59.28112040485142
 31
0.0
210
0.0
220
0.0
230
1.0
 40
0.696751
 41
0.0
 42
6.283185307179586
  0
ELLIPSE
  5
E2B
100
AcDbEntity
  8
V0-OBRYS
  6
DASHED
 62
    52
100
AcDbEllipse
 10
827.418621
 20
0.135452
 30
0.0
 11
0.0
 21
59.14048499979822
 31
0.0
210
0.0
220
0.0
230
1.0
 40
0.589744
 41
0.0
 42
6.283185307179586
  0
LINE
  5
E2D
100
AcDbEntity
  8
V0-OBRYS
  6
CONTINUOUS
 62
    90
100
AcDbLine
 10
797.552254
 20
34.389486
 30
0.0
 11
872.930085
 21
34.389486
 31
0.0
  0
LINE
  5
E2E
100
AcDbEntity
  8
V0-OBRYS
  6
DASHED
 62
    52
100
AcDbLine
 10
797.552254
 20
62.5
 30
0.0
 11
872.930085
 21
62.5
 31
0.0
  0
LINE
  5
E39
100
AcDbEntity
  8
V0-VYPLNE
  6
DASHED
 62
    52
100
AcDbLine
 10
792.103775
 20
-319.3161
 30
0.0
 11
862.684496
 21
-215.820254
 31
0.0
  0
POINT
  5
F12
100
AcDbEntity
  8
V0-VYPLNE
  6
DASHED
 62
     7
100
AcDbPoint
 10
1092.578783
 20
0.0
 30
0.0
  0
MTEXT
  5
10C4
100
AcDbEntity
  8
V0-NAZVY
100
AcDbMText
 10
1096.175955
 20
-106.713769
 30
0.0
 40
17.5
 41
143.94835
 71
     5
 72
     5
  1
MSK-125
  7
ED10
  0
MTEXT
  5
10C5
100
AcDbEntity
  8
V0-NAZVY
100
AcDbMText
 10
821.108578
 20
165.763277
 30
0.0
 40
17.5
 41
143.94835
 71
     5
 72
     5
  1
MSK-125
  7
ED10
  0
MTEXT
  5
10C6
100
AcDbEntity
  8
V0-NAZVY
100
AcDbMText
 10
829.51675
 20
-349.182329
 30
0.0
 40
17.5
 41
143.94835
 71
     5
 72
     5
  1
MSK-125
  7
ED10
  0
VIEWPORT
  5
22
100
AcDbEntity
 67
     1
  8
0
100
AcDbViewport
 10
261.517699
 20
148.5
 30
0.0
 40
523.035398
 41
297.0
 68
    -1
 69
     1
1001
ACAD
1000
MVIEW
1002
{
1070
    16
1010
0.0
1020
0.0
1030
0.0
1010
0.0
1020
0.0
1030
1.0
1040
0.0
1040
297.0
1040
261.517699
1040
148.5
1040
50.0
1040
0.0
1040
0.0
1070
     0
1070
   100
1070
     1
1070
     1
1070
     0
1070
     0
1070
     0
1070
     0
1040
0.0
1040
0.0
1040
0.0
1040
1.0
1040
1.0
1040
10.0
1040
10.0
1070
     0
1002
{
1002
}
1002
}
  0
ENDSEC
  0
SECTION
  2
OBJECTS
  0
DICTIONARY
  5
C
100
AcDbDictionary
  3
ACAD_GROUP
350
D
  3
ACAD_MLINESTYLE
350
E
  3
ACDBVARIABLEDICTIONARY
350
5D
  0
DICTIONARY
  5
D
102
{ACAD_REACTORS
330
C
102
}
100
AcDbDictionary
  0
DICTIONARY
  5
E
102
{ACAD_REACTORS
330
C
102
}
100
AcDbDictionary
  3
STANDARD
350
13
  0
DICTIONARY
  5
5D
102
{ACAD_REACTORS
330
C
102
}
100
AcDbDictionary
  3
DIMADEC
350
5E
  3
SORTENTS
350
3D8
  0
MLINESTYLE
  5
13
102
{ACAD_REACTORS
330
E
102
}
100
AcDbMlineStyle
  2
STANDARD
 70
     0
  3

 62
     0
 51
90.0
 52
90.0
 71
     2
 49
0.5
 62
   256
  6
BYLAYER
 49
-0.5
 62
   256
  6
BYLAYER
  0
DICTIONARYVAR
  5
5E
102
{ACAD_REACTORS
330
5D
102
}
100
DictionaryVariables
280
     0
  1
0
  0
DICTIONARYVAR
  5
3D8
102
{ACAD_REACTORS
330
5D
102
}
100
DictionaryVariables
280
     0
  1
96
  0
ENDSEC
  0
EOF
