  0
SECTION
  2
HEADER
  9
$ACADVER
  1
AC1014
  9
$ACADMAINTVER
 70
     0
  9
$DWGCODEPAGE
  3
ANSI_1250
  9
$INSBASE
 10
0.0
 20
0.0
 30
0.0
  9
$EXTMIN
 10
94.595392
 20
-300.978922
 30
-0.001526
  9
$EXTMAX
 10
555.214581
 20
138.622905
 30
0.0
  9
$LIMMIN
 10
0.0
 20
0.0
  9
$LIMMAX
 10
420.0
 20
297.0
  9
$ORTHOMODE
 70
     0
  9
$REGENMODE
 70
     1
  9
$FILLMODE
 70
     1
  9
$QTEXTMODE
 70
     0
  9
$MIRRTEXT
 70
     1
  9
$DRAGMODE
 70
     2
  9
$LTSCALE
 40
1.0
  9
$OSMODE
 70
    15
  9
$ATTMODE
 70
     1
  9
$TEXTSIZE
 40
30.0
  9
$TRACEWID
 40
1.0
  9
$TEXTSTYLE
  7
ED15
  9
$CLAYER
  8
V0-OBRYS
  9
$CELTYPE
  6
CONTINUOUS
  9
$CECOLOR
 62
    90
  9
$CELTSCALE
 40
1.0
  9
$DELOBJ
 70
     1
  9
$DISPSILH
 70
     0
  9
$DIMSCALE
 40
0.0
  9
$DIMASZ
 40
15.0
  9
$DIMEXO
 40
1.0
  9
$DIMDLI
 40
3.75
  9
$DIMRND
 40
0.0
  9
$DIMDLE
 40
0.0
  9
$DIMEXE
 40
1.25
  9
$DIMTP
 40
0.0
  9
$DIMTM
 40
0.0
  9
$DIMTXT
 40
15.0
  9
$DIMCEN
 40
3.0
  9
$DIMTSZ
 40
0.0
  9
$DIMTOL
 70
     0
  9
$DIMLIM
 70
     0
  9
$DIMTIH
 70
     0
  9
$DIMTOH
 70
     0
  9
$DIMSE1
 70
     0
  9
$DIMSE2
 70
     0
  9
$DIMTAD
 70
     1
  9
$DIMZIN
 70
     8
  9
$DIMBLK
  1

  9
$DIMASO
 70
     1
  9
$DIMSHO
 70
     1
  9
$DIMPOST
  1

  9
$DIMAPOST
  1

  9
$DIMALT
 70
     0
  9
$DIMALTD
 70
     4
  9
$DIMALTF
 40
0.0394
  9
$DIMLFAC
 40
1.0
  9
$DIMTOFL
 70
     1
  9
$DIMTVP
 40
0.0
  9
$DIMTIX
 70
     0
  9
$DIMSOXD
 70
     0
  9
$DIMSAH
 70
     1
  9
$DIMBLK1
  1
_OPEN
  9
$DIMBLK2
  1
_OPEN
  9
$DIMSTYLE
  2
ED15
  9
$DIMCLRD
 70
    41
  9
$DIMCLRE
 70
    41
  9
$DIMCLRT
 70
    41
  9
$DIMTFAC
 40
1.0
  9
$DIMGAP
 40
1.5
  9
$DIMJUST
 70
     0
  9
$DIMSD1
 70
     0
  9
$DIMSD2
 70
     0
  9
$DIMTOLJ
 70
     1
  9
$DIMTZIN
 70
     8
  9
$DIMALTZ
 70
     0
  9
$DIMALTTZ
 70
     0
  9
$DIMFIT
 70
     3
  9
$DIMUPT
 70
     0
  9
$DIMUNIT
 70
     2
  9
$DIMDEC
 70
     0
  9
$DIMTDEC
 70
     1
  9
$DIMALTU
 70
     8
  9
$DIMALTTD
 70
     4
  9
$DIMTXSTY
  7
ED15
  9
$DIMAUNIT
 70
     0
  9
$LUNITS
 70
     2
  9
$LUPREC
 70
     4
  9
$SKETCHINC
 40
1.0
  9
$FILLETRAD
 40
10.0
  9
$AUNITS
 70
     0
  9
$AUPREC
 70
     0
  9
$MENU
  1
.
  9
$ELEVATION
 40
0.0
  9
$PELEVATION
 40
0.0
  9
$THICKNESS
 40
0.0
  9
$LIMCHECK
 70
     0
  9
$BLIPMODE
 70
     0
  9
$CHAMFERA
 40
5.0
  9
$CHAMFERB
 40
5.0
  9
$CHAMFERC
 40
20.0
  9
$CHAMFERD
 40
0.0
  9
$SKPOLY
 70
     1
  9
$TDCREATE
 40
2451196.643769328
  9
$TDUPDATE
 40
2453315.671238703
  9
$TDINDWG
 40
0.3168115625
  9
$TDUSRTIMER
 40
0.3168115625
  9
$USRTIMER
 70
     1
  9
$ANGBASE
 50
0.0
  9
$ANGDIR
 70
     0
  9
$PDMODE
 70
     3
  9
$PDSIZE
 40
20.0
  9
$PLINEWID
 40
0.0
  9
$COORDS
 70
     1
  9
$SPLFRAME
 70
     0
  9
$SPLINETYPE
 70
     6
  9
$SPLINESEGS
 70
     8
  9
$ATTDIA
 70
     0
  9
$ATTREQ
 70
     1
  9
$HANDLING
 70
     1
  9
$HANDSEED
  5
1487
  9
$SURFTAB1
 70
     6
  9
$SURFTAB2
 70
     6
  9
$SURFTYPE
 70
     6
  9
$SURFU
 70
     6
  9
$SURFV
 70
     6
  9
$UCSNAME
  2

  9
$UCSORG
 10
496.0195333651154
 20
-0.0000000000000568
 30
0.0
  9
$UCSXDIR
 10
1.0
 20
0.0
 30
0.0
  9
$UCSYDIR
 10
0.0
 20
1.0
 30
0.0
  9
$PUCSNAME
  2

  9
$PUCSORG
 10
0.0
 20
0.0
 30
0.0
  9
$PUCSXDIR
 10
1.0
 20
0.0
 30
0.0
  9
$PUCSYDIR
 10
0.0
 20
1.0
 30
0.0
  9
$USERI1
 70
     0
  9
$USERI2
 70
     0
  9
$USERI3
 70
     2
  9
$USERI4
 70
     2
  9
$USERI5
 70
     6
  9
$USERR1
 40
281.0
  9
$USERR2
 40
321.0
  9
$USERR3
 40
0.0
  9
$USERR4
 40
0.0
  9
$USERR5
 40
0.0
  9
$WORLDVIEW
 70
     1
  9
$SHADEDGE
 70
     3
  9
$SHADEDIF
 70
    70
  9
$TILEMODE
 70
     1
  9
$MAXACTVP
 70
    48
  9
$PINSBASE
 10
0.0
 20
0.0
 30
0.0
  9
$PLIMCHECK
 70
     0
  9
$PEXTMIN
 10
1.000000E+20
 20
1.000000E+20
 30
1.000000E+20
  9
$PEXTMAX
 10
-1.000000E+20
 20
-1.000000E+20
 30
-1.000000E+20
  9
$PLIMMIN
 10
0.0
 20
0.0
  9
$PLIMMAX
 10
420.0
 20
297.0
  9
$UNITMODE
 70
     0
  9
$VISRETAIN
 70
     0
  9
$PLINEGEN
 70
     0
  9
$PSLTSCALE
 70
     0
  9
$TREEDEPTH
 70
  3020
  9
$PICKSTYLE
 70
     1
  9
$CMLSTYLE
  2
STANDARD
  9
$CMLJUST
 70
     0
  9
$CMLSCALE
 40
1.0
  9
$PROXYGRAPHICS
 70
     1
  9
$MEASUREMENT
 70
     1
  0
ENDSEC
  0
SECTION
  2
CLASSES
  0
CLASS
  1
DICTIONARYVAR
  2
AcDbDictionaryVar
  3
"AutoCAD"
 90
        0
280
     0
281
     0
  0
CLASS
  1
LWPOLYLINE
  2
AcDbPolyline
  3
"AutoCAD"
 90
        0
280
     0
281
     1
  0
CLASS
  1
HATCH
  2
AcDbHatch
  3
"ACAD_SEDONA"
 90
        0
280
     0
281
     1
  0
ENDSEC
  0
SECTION
  2
TABLES
  0
TABLE
  2
VPORT
  5
8
100
AcDbSymbolTable
 70
     4
  0
VPORT
  5
1486
100
AcDbSymbolTableRecord
100
AcDbViewportTableRecord
  2
*ACTIVE
 70
     0
 10
0.0
 20
0.0
 11
1.0
 21
1.0
 12
322.811912
 22
-81.178009
 13
0.0
 23
0.0
 14
10.0
 24
10.0
 15
10.0
 25
10.0
 16
0.0
 26
0.0
 36
1.0
 17
0.0
 27
0.0
 37
0.0
 40
444.723401
 41
1.523346
 42
50.0
 43
0.0
 44
0.0
 50
0.0
 51
0.0
 71
     0
 72
   100
 73
     1
 74
     1
 75
     0
 76
     0
 77
     0
 78
     0
  0
ENDTAB
  0
TABLE
  2
LTYPE
  5
5
100
AcDbSymbolTable
 70
    46
  0
LTYPE
  5
14
100
AcDbSymbolTableRecord
100
AcDbLinetypeTableRecord
  2
BYBLOCK
 70
     0
  3

 72
    65
 73
     0
 40
0.0
  0
LTYPE
  5
15
100
AcDbSymbolTableRecord
100
AcDbLinetypeTableRecord
  2
BYLAYER
 70
     0
  3

 72
    65
 73
     0
 40
0.0
  0
LTYPE
  5
16
100
AcDbSymbolTableRecord
100
AcDbLinetypeTableRecord
  2
CONTINUOUS
 70
     0
  3
Solid line
 72
    65
 73
     0
 40
0.0
  0
LTYPE
  5
7F
100
AcDbSymbolTableRecord
100
AcDbLinetypeTableRecord
  2
DASHDOT
 70
     0
  3
Dash dot __ . __ . __ . __ . __ . __ . __ . __
 72
    65
 73
     4
 40
25.4
 49
12.7
 74
     0
 49
-6.35
 74
     0
 49
0.0
 74
     0
 49
-6.35
 74
     0
  0
LTYPE
  5
80
100
AcDbSymbolTableRecord
100
AcDbLinetypeTableRecord
  2
DASHED
 70
     0
  3
Dashed __ __ __ __ __ __ __ __ __ __ __ __ __ _
 72
    65
 73
     2
 40
19.05
 49
12.7
 74
     0
 49
-6.35
 74
     0
  0
LTYPE
  5
713
100
AcDbSymbolTableRecord
100
AcDbLinetypeTableRecord
  2
DOT2
 70
     0
  3
...............................................
 72
    65
 73
     2
 40
0.125
 49
0.0
 74
     0
 49
-0.125
 74
     0
  0
LTYPE
  5
714
100
AcDbSymbolTableRecord
100
AcDbLinetypeTableRecord
  2
ACAD_ISO02W100
 70
     0
  3
ISO dash __ __ __ __ __ __ __ __ __ __ __ __ __
 72
    65
 73
     2
 40
15.0
 49
12.0
 74
     0
 49
-3.0
 74
     0
  0
LTYPE
  5
715
100
AcDbSymbolTableRecord
100
AcDbLinetypeTableRecord
  2
ACAD_ISO03W100
 70
     0
  3
ISO dash space __    __    __    __    __    __
 72
    65
 73
     2
 40
30.0
 49
12.0
 74
     0
 49
-18.0
 74
     0
  0
LTYPE
  5
716
100
AcDbSymbolTableRecord
100
AcDbLinetypeTableRecord
  2
ACAD_ISO04W100
 70
     0
  3
ISO long-dash dot ____ . ____ . ____ . ____ . _
 72
    65
 73
     4
 40
30.5
 49
24.0
 74
     0
 49
-3.0
 74
     0
 49
0.5
 74
     0
 49
-3.0
 74
     0
  0
LTYPE
  5
717
100
AcDbSymbolTableRecord
100
AcDbLinetypeTableRecord
  2
ACAD_ISO05W100
 70
     0
  3
ISO long-dash double-dot ____ .. ____ .. ____ .
 72
    65
 73
     6
 40
34.0
 49
24.0
 74
     0
 49
-3.0
 74
     0
 49
0.5
 74
     0
 49
-3.0
 74
     0
 49
0.5
 74
     0
 49
-3.0
 74
     0
  0
LTYPE
  5
718
100
AcDbSymbolTableRecord
100
AcDbLinetypeTableRecord
  2
ACAD_ISO06W100
 70
     0
  3
ISO long-dash triple-dot ____ ... ____ ... ____
 72
    65
 73
     8
 40
37.5
 49
24.0
 74
     0
 49
-3.0
 74
     0
 49
0.5
 74
     0
 49
-3.0
 74
     0
 49
0.5
 74
     0
 49
-3.0
 74
     0
 49
0.5
 74
     0
 49
-3.0
 74
     0
  0
LTYPE
  5
719
100
AcDbSymbolTableRecord
100
AcDbLinetypeTableRecord
  2
ACAD_ISO07W100
 70
     0
  3
ISO dot . . . . . . . . . . . . . . . . . . . .
 72
    65
 73
     2
 40
3.5
 49
0.5
 74
     0
 49
-3.0
 74
     0
  0
LTYPE
  5
71A
100
AcDbSymbolTableRecord
100
AcDbLinetypeTableRecord
  2
ACAD_ISO08W100
 70
     0
  3
ISO long-dash short-dash ____ __ ____ __ ____ _
 72
    65
 73
     4
 40
36.0
 49
24.0
 74
     0
 49
-3.0
 74
     0
 49
6.0
 74
     0
 49
-3.0
 74
     0
  0
LTYPE
  5
71B
100
AcDbSymbolTableRecord
100
AcDbLinetypeTableRecord
  2
ACAD_ISO09W100
 70
     0
  3
ISO long-dash double-short-dash ____ __ __ ____
 72
    65
 73
     6
 40
45.0
 49
24.0
 74
     0
 49
-3.0
 74
     0
 49
6.0
 74
     0
 49
-3.0
 74
     0
 49
6.0
 74
     0
 49
-3.0
 74
     0
  0
LTYPE
  5
71C
100
AcDbSymbolTableRecord
100
AcDbLinetypeTableRecord
  2
ACAD_ISO10W100
 70
     0
  3
ISO dash dot __ . __ . __ . __ . __ . __ . __ .
 72
    65
 73
     4
 40
18.5
 49
12.0
 74
     0
 49
-3.0
 74
     0
 49
0.5
 74
     0
 49
-3.0
 74
     0
  0
LTYPE
  5
71D
100
AcDbSymbolTableRecord
100
AcDbLinetypeTableRecord
  2
ACAD_ISO11W100
 70
     0
  3
ISO double-dash dot __ __ . __ __ . __ __ . __ 
 72
    65
 73
     6
 40
33.5
 49
12.0
 74
     0
 49
-3.0
 74
     0
 49
12.0
 74
     0
 49
-3.0
 74
     0
 49
0.5
 74
     0
 49
-3.0
 74
     0
  0
LTYPE
  5
71E
100
AcDbSymbolTableRecord
100
AcDbLinetypeTableRecord
  2
ACAD_ISO12W100
 70
     0
  3
ISO dash double-dot __ . . __ . . __ . . __ . .
 72
    65
 73
     6
 40
22.0
 49
12.0
 74
     0
 49
-3.0
 74
     0
 49
0.5
 74
     0
 49
-3.0
 74
     0
 49
0.5
 74
     0
 49
-3.0
 74
     0
  0
LTYPE
  5
71F
100
AcDbSymbolTableRecord
100
AcDbLinetypeTableRecord
  2
ACAD_ISO13W100
 70
     0
  3
ISO double-dash double-dot __ __ . . __ __ . . 
 72
    65
 73
     8
 40
37.0
 49
12.0
 74
     0
 49
-3.0
 74
     0
 49
12.0
 74
     0
 49
-3.0
 74
     0
 49
0.5
 74
     0
 49
-3.0
 74
     0
 49
0.5
 74
     0
 49
-3.0
 74
     0
  0
LTYPE
  5
720
100
AcDbSymbolTableRecord
100
AcDbLinetypeTableRecord
  2
ACAD_ISO14W100
 70
     0
  3
ISO dash triple-dot __ . . . __ . . . __ . . . 
 72
    65
 73
     8
 40
25.5
 49
12.0
 74
     0
 49
-3.0
 74
     0
 49
0.5
 74
     0
 49
-3.0
 74
     0
 49
0.5
 74
     0
 49
-3.0
 74
     0
 49
0.5
 74
     0
 49
-3.0
 74
     0
  0
LTYPE
  5
721
100
AcDbSymbolTableRecord
100
AcDbLinetypeTableRecord
  2
ACAD_ISO15W100
 70
     0
  3
ISO double-dash triple-dot __ __ . . . __ __ . 
 72
    65
 73
    10
 40
40.5
 49
12.0
 74
     0
 49
-3.0
 74
     0
 49
12.0
 74
     0
 49
-3.0
 74
     0
 49
0.5
 74
     0
 49
-3.0
 74
     0
 49
0.5
 74
     0
 49
-3.0
 74
     0
 49
0.5
 74
     0
 49
-3.0
 74
     0
  0
LTYPE
  5
722
100
AcDbSymbolTableRecord
100
AcDbLinetypeTableRecord
  2
BATTING
 70
     0
  3
Batting SSSSSSSSSSSSSSSSSSSSSSSSSSSSSSSSSSSSSSS
 72
    65
 73
     4
 40
0.4001
 49
0.0001
 74
     0
 49
-0.1
 74
     4
 75
   134
340
743
 46
0.1
 50
0.0
 44
-0.1
 45
0.0
 49
-0.2
 74
     4
 75
   134
340
743
 46
0.1
 50
180.0
 44
0.1
 45
0.0
 49
-0.1
 74
     0
  0
LTYPE
  5
723
100
AcDbSymbolTableRecord
100
AcDbLinetypeTableRecord
  2
BORDER
 70
     0
  3
Border __ __ . __ __ . __ __ . __ __ . __ __ .
 72
    65
 73
     6
 40
1.75
 49
0.5
 74
     0
 49
-0.25
 74
     0
 49
0.5
 74
     0
 49
-0.25
 74
     0
 49
0.0
 74
     0
 49
-0.25
 74
     0
  0
LTYPE
  5
724
100
AcDbSymbolTableRecord
100
AcDbLinetypeTableRecord
  2
BORDER2
 70
     0
  3
Border (.5x) __.__.__.__.__.__.__.__.__.__.__.
 72
    65
 73
     6
 40
0.875
 49
0.25
 74
     0
 49
-0.125
 74
     0
 49
0.25
 74
     0
 49
-0.125
 74
     0
 49
0.0
 74
     0
 49
-0.125
 74
     0
  0
LTYPE
  5
725
100
AcDbSymbolTableRecord
100
AcDbLinetypeTableRecord
  2
BORDERX2
 70
     0
  3
Border (2x) ____  ____  .  ____  ____  .  ___
 72
    65
 73
     6
 40
3.5
 49
1.0
 74
     0
 49
-0.5
 74
     0
 49
1.0
 74
     0
 49
-0.5
 74
     0
 49
0.0
 74
     0
 49
-0.5
 74
     0
  0
LTYPE
  5
726
100
AcDbSymbolTableRecord
100
AcDbLinetypeTableRecord
  2
CENTER
 70
     0
  3
Center ____ _ ____ _ ____ _ ____ _ ____ _ ____
 72
    65
 73
     4
 40
2.0
 49
1.25
 74
     0
 49
-0.25
 74
     0
 49
0.25
 74
     0
 49
-0.25
 74
     0
  0
LTYPE
  5
727
100
AcDbSymbolTableRecord
100
AcDbLinetypeTableRecord
  2
CENTER2
 70
     0
  3
Center (.5x) ___ _ ___ _ ___ _ ___ _ ___ _ ___
 72
    65
 73
     4
 40
1.125
 49
0.75
 74
     0
 49
-0.125
 74
     0
 49
0.125
 74
     0
 49
-0.125
 74
     0
  0
LTYPE
  5
728
100
AcDbSymbolTableRecord
100
AcDbLinetypeTableRecord
  2
CENTERX2
 70
     0
  3
Center (2x) ________  __  ________  __  _____
 72
    65
 73
     4
 40
4.0
 49
2.5
 74
     0
 49
-0.5
 74
     0
 49
0.5
 74
     0
 49
-0.5
 74
     0
  0
LTYPE
  5
729
100
AcDbSymbolTableRecord
100
AcDbLinetypeTableRecord
  2
DASHDOT2
 70
     0
  3
Dash dot (.5x) _._._._._._._._._._._._._._._.
 72
    65
 73
     4
 40
0.5
 49
0.25
 74
     0
 49
-0.125
 74
     0
 49
0.0
 74
     0
 49
-0.125
 74
     0
  0
LTYPE
  5
72A
100
AcDbSymbolTableRecord
100
AcDbLinetypeTableRecord
  2
DASHDOTX2
 70
     0
  3
Dash dot (2x) ____  .  ____  .  ____  .  ___
 72
    65
 73
     4
 40
2.0
 49
1.0
 74
     0
 49
-0.5
 74
     0
 49
0.0
 74
     0
 49
-0.5
 74
     0
  0
LTYPE
  5
72B
100
AcDbSymbolTableRecord
100
AcDbLinetypeTableRecord
  2
DASHED2
 70
     0
  3
Dashed (.5x) _ _ _ _ _ _ _ _ _ _ _ _ _ _ _ _ _
 72
    65
 73
     2
 40
0.375
 49
0.25
 74
     0
 49
-0.125
 74
     0
  0
LTYPE
  5
72C
100
AcDbSymbolTableRecord
100
AcDbLinetypeTableRecord
  2
DASHEDX2
 70
     0
  3
Dashed (2x) ____  ____  ____  ____  ____  ___
 72
    65
 73
     2
 40
1.5
 49
1.0
 74
     0
 49
-0.5
 74
     0
  0
LTYPE
  5
72D
100
AcDbSymbolTableRecord
100
AcDbLinetypeTableRecord
  2
DIVIDE
 70
     0
  3
Divide ____ . . ____ . . ____ . . ____ . . ____
 72
    65
 73
     6
 40
1.25
 49
0.5
 74
     0
 49
-0.25
 74
     0
 49
0.0
 74
     0
 49
-0.25
 74
     0
 49
0.0
 74
     0
 49
-0.25
 74
     0
  0
LTYPE
  5
72E
100
AcDbSymbolTableRecord
100
AcDbLinetypeTableRecord
  2
DIVIDE2
 70
     0
  3
Divide (.5x) __..__..__..__..__..__..__..__.._
 72
    65
 73
     6
 40
0.625
 49
0.25
 74
     0
 49
-0.125
 74
     0
 49
0.0
 74
     0
 49
-0.125
 74
     0
 49
0.0
 74
     0
 49
-0.125
 74
     0
  0
LTYPE
  5
72F
100
AcDbSymbolTableRecord
100
AcDbLinetypeTableRecord
  2
DIVIDEX2
 70
     0
  3
Divide (2x) ________  .  .  ________  .  .  _
 72
    65
 73
     6
 40
2.5
 49
1.0
 74
     0
 49
-0.5
 74
     0
 49
0.0
 74
     0
 49
-0.5
 74
     0
 49
0.0
 74
     0
 49
-0.5
 74
     0
  0
LTYPE
  5
730
100
AcDbSymbolTableRecord
100
AcDbLinetypeTableRecord
  2
DOT
 70
     0
  3
Dot . . . . . . . . . . . . . . . . . . . . . .
 72
    65
 73
     2
 40
0.25
 49
0.0
 74
     0
 49
-0.25
 74
     0
  0
LTYPE
  5
731
100
AcDbSymbolTableRecord
100
AcDbLinetypeTableRecord
  2
DOTX2
 70
     0
  3
Dot (2x) .  .  .  .  .  .  .  .  .  .  .  .  . 
 72
    65
 73
     2
 40
0.5
 49
0.0
 74
     0
 49
-0.5
 74
     0
  0
LTYPE
  5
732
100
AcDbSymbolTableRecord
100
AcDbLinetypeTableRecord
  2
FENCELINE1
 70
     0
  3
Fenceline circle ----0-----0----0-----0----0---
 72
    65
 73
     4
 40
1.45
 49
0.25
 74
     0
 49
-0.1
 74
     4
 75
   133
340
743
 46
0.1
 50
0.0
 44
-0.1
 45
0.0
 49
-0.1
 74
     0
 49
1.0
 74
     0
  0
LTYPE
  5
733
100
AcDbSymbolTableRecord
100
AcDbLinetypeTableRecord
  2
FENCELINE2
 70
     0
  3
Fenceline square ----[]-----[]----[]-----[]----
 72
    65
 73
     4
 40
1.45
 49
0.25
 74
     0
 49
-0.1
 74
     4
 75
   132
340
743
 46
0.1
 50
0.0
 44
-0.1
 45
0.0
 49
-0.1
 74
     0
 49
1.0
 74
     0
  0
LTYPE
  5
734
100
AcDbSymbolTableRecord
100
AcDbLinetypeTableRecord
  2
GAS_LINE
 70
     0
  3
Gas line ----GAS----GAS----GAS----GAS----GAS---
 72
    65
 73
     3
 40
0.95
 49
0.5
 74
     0
 49
-0.2
 74
     2
 75
     0
340
10
 46
0.1
 50
0.0
 44
-0.1
 45
-0.05
  9
GAS
 49
-0.25
 74
     0
  0
LTYPE
  5
735
100
AcDbSymbolTableRecord
100
AcDbLinetypeTableRecord
  2
HIDDEN
 70
     0
  3
Hidden __ __ __ __ __ __ __ __ __ __ __ __ __ _
 72
    65
 73
     2
 40
0.375
 49
0.25
 74
     0
 49
-0.125
 74
     0
  0
LTYPE
  5
736
100
AcDbSymbolTableRecord
100
AcDbLinetypeTableRecord
  2
HIDDEN2
 70
     0
  3
Hidden (.5x) _ _ _ _ _ _ _ _ _ _ _ _ _ _ _ _ _
 72
    65
 73
     2
 40
0.1875
 49
0.125
 74
     0
 49
-0.0625
 74
     0
  0
LTYPE
  5
737
100
AcDbSymbolTableRecord
100
AcDbLinetypeTableRecord
  2
HIDDENX2
 70
     0
  3
Hidden (2x) ____ ____ ____ ____ ____ ____ ____
 72
    65
 73
     2
 40
0.75
 49
0.5
 74
     0
 49
-0.25
 74
     0
  0
LTYPE
  5
738
100
AcDbSymbolTableRecord
100
AcDbLinetypeTableRecord
  2
HOT_WATER_SUPPLY
 70
     0
  3
Hot water supply ---- HW ---- HW ---- HW ----
 72
    65
 73
     3
 40
0.9
 49
0.5
 74
     0
 49
-0.2
 74
     2
 75
     0
340
10
 46
0.1
 50
0.0
 44
-0.1
 45
-0.05
  9
HW
 49
-0.2
 74
     0
  0
LTYPE
  5
739
100
AcDbSymbolTableRecord
100
AcDbLinetypeTableRecord
  2
PHANTOM
 70
     0
  3
Phantom ______  __  __  ______  __  __  ______
 72
    65
 73
     6
 40
2.5
 49
1.25
 74
     0
 49
-0.25
 74
     0
 49
0.25
 74
     0
 49
-0.25
 74
     0
 49
0.25
 74
     0
 49
-0.25
 74
     0
  0
LTYPE
  5
73A
100
AcDbSymbolTableRecord
100
AcDbLinetypeTableRecord
  2
PHANTOM2
 70
     0
  3
Phantom (.5x) ___ _ _ ___ _ _ ___ _ _ ___ _ _
 72
    65
 73
     6
 40
1.25
 49
0.625
 74
     0
 49
-0.125
 74
     0
 49
0.125
 74
     0
 49
-0.125
 74
     0
 49
0.125
 74
     0
 49
-0.125
 74
     0
  0
LTYPE
  5
73B
100
AcDbSymbolTableRecord
100
AcDbLinetypeTableRecord
  2
PHANTOMX2
 70
     0
  3
Phantom (2x) ____________    ____    ____   _
 72
    65
 73
     6
 40
5.0
 49
2.5
 74
     0
 49
-0.5
 74
     0
 49
0.5
 74
     0
 49
-0.5
 74
     0
 49
0.5
 74
     0
 49
-0.5
 74
     0
  0
LTYPE
  5
73C
100
AcDbSymbolTableRecord
100
AcDbLinetypeTableRecord
  2
TRACKS
 70
     0
  3
Tracks -|-|-|-|-|-|-|-|-|-|-|-|-|-|-|-|-|-|-|-|
 72
    65
 73
     2
 40
0.3
 49
0.15
 74
     4
 75
   130
340
743
 46
0.25
 50
0.0
 44
0.0
 45
0.0
 49
0.15
 74
     0
  0
LTYPE
  5
73D
100
AcDbSymbolTableRecord
100
AcDbLinetypeTableRecord
  2
ZIGZAG
 70
     0
  3
Zig zag /\/\/\/\/\/\/\/\/\/\/\/\/\/\/\/\/\/\/\/
 72
    65
 73
     4
 40
0.8001
 49
0.0001
 74
     0
 49
-0.2
 74
     4
 75
   131
340
743
 46
0.2
 50
0.0
 44
-0.2
 45
0.0
 49
-0.4
 74
     4
 75
   131
340
743
 46
0.2
 50
180.0
 44
0.2
 45
0.0
 49
-0.2
 74
     0
  0
ENDTAB
  0
TABLE
  2
LAYER
  5
2
100
AcDbSymbolTable
 70
     6
  0
LAYER
  5
F
100
AcDbSymbolTableRecord
100
AcDbLayerTableRecord
  2
0
 70
     0
 62
     7
  6
CONTINUOUS
  0
LAYER
  5
9E
100
AcDbSymbolTableRecord
100
AcDbLayerTableRecord
  2
DEFPOINTS
 70
     0
 62
     7
  6
CONTINUOUS
  0
LAYER
  5
377
100
AcDbSymbolTableRecord
100
AcDbLayerTableRecord
  2
V0-OBRYS
 70
     0
 62
    90
  6
CONTINUOUS
  0
LAYER
  5
378
100
AcDbSymbolTableRecord
100
AcDbLayerTableRecord
  2
V0-VYPLNE
 70
     0
 62
    63
  6
DASHDOT
  0
LAYER
  5
37A
100
AcDbSymbolTableRecord
100
AcDbLayerTableRecord
  2
V0-NAZVY
 70
     0
 62
   210
  6
CONTINUOUS
  0
LAYER
  5
559
100
AcDbSymbolTableRecord
100
AcDbLayerTableRecord
  2
V0-ZBYTEK
 70
     0
 62
    51
  6
CONTINUOUS
  0
ENDTAB
  0
TABLE
  2
STYLE
  5
3
100
AcDbSymbolTable
 70
     7
  0
STYLE
  5
10
100
AcDbSymbolTableRecord
100
AcDbTextStyleTableRecord
  2
STANDARD
 70
     0
 40
7.0
 41
1.0
 50
0.0
 71
     0
 42
20.0
  3
ISOCP.shx
  4

  0
STYLE
  5
331
100
AcDbSymbolTableRecord
100
AcDbTextStyleTableRecord
  2
ED30
 70
     0
 40
30.0
 41
1.0
 50
0.0
 71
     0
 42
30.0
  3
ISOCP.shx
  4

  0
STYLE
  5
5D2
100
AcDbSymbolTableRecord
100
AcDbTextStyleTableRecord
  2
ED20
 70
     0
 40
20.0
 41
1.0
 50
0.0
 71
     0
 42
20.0
  3
isocp.shx
  4

  0
STYLE
  5
64F
100
AcDbSymbolTableRecord
100
AcDbTextStyleTableRecord
  2
ED40
 70
     0
 40
40.0
 41
1.0
 50
0.0
 71
     0
 42
20.0
  3
isocp.shx
  4

  0
STYLE
  5
650
100
AcDbSymbolTableRecord
100
AcDbTextStyleTableRecord
  2
ED10
 70
     0
 40
10.0
 41
1.0
 50
0.0
 71
     0
 42
20.0
  3
isocp.shx
  4

  0
STYLE
  5
743
100
AcDbSymbolTableRecord
100
AcDbTextStyleTableRecord
  2

 70
     1
 40
0.0
 41
1.0
 50
0.0
 71
     0
 42
0.2
  3
ltypeshp.shx
  4

  0
STYLE
  5
D8C
100
AcDbSymbolTableRecord
100
AcDbTextStyleTableRecord
  2
ED15
 70
     0
 40
15.0
 41
1.0
 50
0.0
 71
     0
 42
30.0
  3
isocp.shx
  4

  0
ENDTAB
  0
TABLE
  2
VIEW
  5
6
100
AcDbSymbolTable
 70
     0
  0
ENDTAB
  0
TABLE
  2
UCS
  5
7
100
AcDbSymbolTable
 70
     0
  0
ENDTAB
  0
TABLE
  2
APPID
  5
9
100
AcDbSymbolTable
 70
     5
  0
APPID
  5
11
100
AcDbSymbolTableRecord
100
AcDbRegAppTableRecord
  2
ACAD
 70
     0
  0
APPID
  5
744
100
AcDbSymbolTableRecord
100
AcDbRegAppTableRecord
  2
CONTENTTABDATA
 70
     0
  0
APPID
  5
745
100
AcDbSymbolTableRecord
100
AcDbRegAppTableRecord
  2
CONTENTCURRENTTAB
 70
     0
  0
APPID
  5
746
100
AcDbSymbolTableRecord
100
AcDbRegAppTableRecord
  2
CONTENTBLOCKDESCRIPTION
 70
     0
  0
APPID
  5
130F
100
AcDbSymbolTableRecord
100
AcDbRegAppTableRecord
  2
CONTENTBLOCKICON
 70
     0
  0
ENDTAB
  0
TABLE
  2
DIMSTYLE
  5
A
100
AcDbSymbolTable
 70
     6
  0
DIMSTYLE
105
1D
100
AcDbSymbolTableRecord
100
AcDbDimStyleTableRecord
  2
STANDARD
 70
     0
  3

  4

  5

  6
_OPEN
  7
_OPEN
 40
0.0
 41
15.0
 42
0.625
 43
3.75
 44
1.25
 45
0.0
 46
0.0
 47
0.0
 48
0.0
140
15.0
141
2.5
142
0.0
143
0.0394
144
1.0
145
0.0
146
1.0
147
3.0
 71
     0
 72
     0
 73
     0
 74
     0
 75
     0
 76
     0
 77
     1
 78
     8
170
     0
171
     4
172
     1
173
     1
174
     0
175
     0
176
     0
177
     0
178
     0
270
     2
271
     0
272
     1
273
     8
274
     4
340
331
275
     0
280
     0
281
     0
282
     0
283
     1
284
     8
285
     0
286
     0
287
     3
288
     0
  0
DIMSTYLE
105
397
100
AcDbSymbolTableRecord
100
AcDbDimStyleTableRecord
  2
ED40
 70
     0
  3

  4

  5

  6
_OPEN
  7
_OPEN
 40
0.0
 41
35.0
 42
1.0
 43
3.75
 44
1.25
 45
0.0
 46
0.0
 47
0.0
 48
0.0
140
40.0
141
3.0
142
0.0
143
0.0394
144
1.0
145
0.0
146
1.0
147
3.0
 71
     0
 72
     0
 73
     0
 74
     0
 75
     0
 76
     0
 77
     1
 78
     8
170
     0
171
     4
172
     1
173
     1
174
     0
175
     0
176
     0
177
     0
178
     0
270
     2
271
     0
272
     1
273
     8
274
     4
340
64F
275
     0
280
     0
281
     0
282
     0
283
     1
284
     8
285
     0
286
     0
287
     3
288
     0
  0
DIMSTYLE
105
656
100
AcDbSymbolTableRecord
100
AcDbDimStyleTableRecord
  2
ED30
 70
     0
  3

  4

  5

  6
_OPEN
  7
_OPEN
 40
0.0
 41
25.0
 42
1.0
 43
3.75
 44
1.25
 45
0.0
 46
0.0
 47
0.0
 48
0.0
140
30.0
141
3.0
142
0.0
143
0.0394
144
1.0
145
0.0
146
1.0
147
2.0
 71
     0
 72
     0
 73
     0
 74
     0
 75
     0
 76
     0
 77
     1
 78
     8
170
     0
171
     4
172
     1
173
     1
174
     0
175
     0
176
     0
177
     0
178
     0
270
     2
271
     0
272
     1
273
     8
274
     4
340
331
275
     0
280
     0
281
     0
282
     0
283
     1
284
     8
285
     0
286
     0
287
     3
288
     0
  0
DIMSTYLE
105
657
102
{ACAD_REACTORS
330
950
330
95F
330
96C
330
9A0
102
}
100
AcDbSymbolTableRecord
100
AcDbDimStyleTableRecord
  2
ED20
 70
     0
  3

  4

  5

  6
_OPEN
  7
_OPEN
 40
0.0
 41
20.0
 42
1.0
 43
3.75
 44
1.25
 45
0.0
 46
0.0
 47
0.0
 48
0.0
140
20.0
141
3.0
142
0.0
143
0.0394
144
1.0
145
0.0
146
1.0
147
1.5
 71
     0
 72
     0
 73
     0
 74
     0
 75
     0
 76
     0
 77
     1
 78
     8
170
     0
171
     4
172
     1
173
     1
174
     0
175
     0
176
     0
177
     0
178
     0
270
     2
271
     0
272
     1
273
     8
274
     4
340
5D2
275
     0
280
     0
281
     0
282
     0
283
     1
284
     8
285
     0
286
     0
287
     3
288
     0
  0
DIMSTYLE
105
658
100
AcDbSymbolTableRecord
100
AcDbDimStyleTableRecord
  2
ED10
 70
     0
  3

  4

  5

  6
_OPEN
  7
_OPEN
 40
0.0
 41
15.0
 42
1.0
 43
3.75
 44
1.25
 45
0.0
 46
0.0
 47
0.0
 48
0.0
140
10.0
141
3.0
142
0.0
143
0.0394
144
1.0
145
0.0
146
1.0
147
1.5
 71
     0
 72
     0
 73
     0
 74
     0
 75
     0
 76
     0
 77
     1
 78
     8
170
     0
171
     4
172
     1
173
     1
174
     0
175
     0
176
     0
177
     0
178
     0
270
     2
271
     0
272
     1
273
     8
274
     4
340
5D2
275
     0
280
     0
281
     0
282
     0
283
     1
284
     8
285
     0
286
     0
287
     3
288
     0
  0
DIMSTYLE
105
DE9
102
{ACAD_REACTORS
330
FB5
330
FC2
102
}
100
AcDbSymbolTableRecord
100
AcDbDimStyleTableRecord
  2
ED15
 70
     0
  3

  4

  5

  6
_OPEN
  7
_OPEN
 40
0.0
 41
15.0
 42
1.0
 43
3.75
 44
1.25
 45
0.0
 46
0.0
 47
0.0
 48
0.0
140
15.0
141
3.0
142
0.0
143
0.0394
144
1.0
145
0.0
146
1.0
147
1.5
 71
     0
 72
     0
 73
     0
 74
     0
 75
     0
 76
     0
 77
     1
 78
     8
170
     0
171
     4
172
     1
173
     1
174
     0
175
     0
176
     0
177
     0
178
     0
270
     2
271
     0
272
     1
273
     8
274
     4
340
D8C
275
     0
280
     0
281
     0
282
     0
283
     1
284
     8
285
     0
286
     0
287
     3
288
     0
  0
ENDTAB
  0
TABLE
  2
BLOCK_RECORD
  5
1
100
AcDbSymbolTable
 70
     8
  0
BLOCK_RECORD
  5
1A
100
AcDbSymbolTableRecord
100
AcDbBlockTableRecord
  2
*MODEL_SPACE
  0
BLOCK_RECORD
  5
17
100
AcDbSymbolTableRecord
100
AcDbBlockTableRecord
  2
*PAPER_SPACE
  0
BLOCK_RECORD
  5
90
100
AcDbSymbolTableRecord
100
AcDbBlockTableRecord
  2
_OPEN
  0
BLOCK_RECORD
  5
944
100
AcDbSymbolTableRecord
100
AcDbBlockTableRecord
  2
*D1
  0
BLOCK_RECORD
  5
951
100
AcDbSymbolTableRecord
100
AcDbBlockTableRecord
  2
*D2
  0
BLOCK_RECORD
  5
960
100
AcDbSymbolTableRecord
100
AcDbBlockTableRecord
  2
*D3
  0
BLOCK_RECORD
  5
994
100
AcDbSymbolTableRecord
100
AcDbBlockTableRecord
  2
*D4
  0
BLOCK_RECORD
  5
FA9
100
AcDbSymbolTableRecord
100
AcDbBlockTableRecord
  2
*D5
  0
BLOCK_RECORD
  5
FB6
100
AcDbSymbolTableRecord
100
AcDbBlockTableRecord
  2
*D6
  0
BLOCK_RECORD
  5
120A
100
AcDbSymbolTableRecord
100
AcDbBlockTableRecord
  2
*D7
  0
ENDTAB
  0
ENDSEC
  0
SECTION
  2
BLOCKS
  0
BLOCK
  5
1B
100
AcDbEntity
  8
0
100
AcDbBlockBegin
  2
*MODEL_SPACE
 70
     0
 10
0.0
 20
0.0
 30
0.0
  3
*MODEL_SPACE
  1

  0
ENDBLK
  5
1C
100
AcDbEntity
  8
0
100
AcDbBlockEnd
  0
BLOCK
  5
18
100
AcDbEntity
 67
     1
  8
0
100
AcDbBlockBegin
  2
*PAPER_SPACE
 70
     0
 10
0.0
 20
0.0
 30
0.0
  3
*PAPER_SPACE
  1

  0
ENDBLK
  5
19
100
AcDbEntity
 67
     1
  8
0
100
AcDbBlockEnd
  0
BLOCK
  5
91
100
AcDbEntity
  8
0
100
AcDbBlockBegin
  2
_OPEN
 70
     0
 10
0.0
 20
0.0
 30
0.0
  3
_OPEN
  1

  0
LINE
  5
92
100
AcDbEntity
  8
0
  6
BYBLOCK
 62
     0
100
AcDbLine
 10
-1.0
 20
0.166667
 30
0.0
 11
0.0
 21
0.0
 31
0.0
  0
LINE
  5
93
100
AcDbEntity
  8
0
  6
BYBLOCK
 62
     0
100
AcDbLine
 10
0.0
 20
0.0
 30
0.0
 11
-1.0
 21
-0.166667
 31
0.0
  0
LINE
  5
94
100
AcDbEntity
  8
0
  6
BYBLOCK
 62
     0
100
AcDbLine
 10
0.0
 20
0.0
 30
0.0
 11
-1.0
 21
0.0
 31
0.0
  0
ENDBLK
  5
95
100
AcDbEntity
  8
0
100
AcDbBlockEnd
  0
BLOCK
  5
1461
100
AcDbEntity
  8
0
100
AcDbBlockBegin
  2
*D1
 70
     1
 10
0.0
 20
0.0
 30
0.0
  3
*D1
  1

  0
LINE
  5
1462
100
AcDbEntity
  8
0
  6
BYBLOCK
 62
     0
100
AcDbLine
 10
139.0
 20
40.0
 30
0.0
 11
109.106026
 21
40.0
 31
0.0
  0
LINE
  5
1463
100
AcDbEntity
  8
0
  6
BYBLOCK
 62
     0
100
AcDbLine
 10
139.0
 20
-40.0
 30
0.0
 11
109.106026
 21
-40.0
 31
0.0
  0
LINE
  5
1464
100
AcDbEntity
  8
0
  6
BYBLOCK
 62
     0
100
AcDbLine
 10
110.356026
 20
25.0
 30
0.0
 11
110.356026
 21
-25.0
 31
0.0
  0
INSERT
  5
1465
100
AcDbEntity
  8
0
  6
BYBLOCK
 62
     0
100
AcDbBlockReference
  2
_OPEN
 10
110.356026
 20
40.0
 30
0.0
 41
15.0
 42
15.0
 43
15.0
 50
90.0
  0
INSERT
  5
1466
100
AcDbEntity
  8
0
  6
BYBLOCK
 62
     0
100
AcDbBlockReference
  2
_OPEN
 10
110.356026
 20
-40.0
 30
0.0
 41
15.0
 42
15.0
 43
15.0
 50
270.0
  0
MTEXT
  5
1467
100
AcDbEntity
  8
0
  6
BYBLOCK
 62
     0
100
AcDbMText
 10
101.356026
 20
0.0
 30
0.0
 40
15.0
 41
0.0
 71
     5
 72
     1
  1
\A1;\U+220580
  7
ED15
 11
0.0
 21
1.0
 31
0.0
  0
POINT
  5
1468
100
AcDbEntity
  8
DEFPOINTS
  6
BYBLOCK
 62
     0
100
AcDbPoint
 10
140.0
 20
40.0
 30
0.0
  0
POINT
  5
1469
100
AcDbEntity
  8
DEFPOINTS
  6
BYBLOCK
 62
     0
100
AcDbPoint
 10
140.0
 20
-40.0
 30
0.0
  0
POINT
  5
146A
100
AcDbEntity
  8
DEFPOINTS
  6
BYBLOCK
 62
     0
100
AcDbPoint
 10
110.356026
 20
-40.0
 30
0.0
  0
ENDBLK
  5
146B
100
AcDbEntity
  8
0
100
AcDbBlockEnd
  0
BLOCK
  5
146C
100
AcDbEntity
  8
0
100
AcDbBlockBegin
  2
*D2
 70
     1
 10
0.0
 20
0.0
 30
0.0
  3
*D2
  1

  0
LINE
  5
146D
100
AcDbEntity
  8
0
  6
BYBLOCK
 62
     0
100
AcDbLine
 10
140.0
 20
-26.0
 30
0.0
 11
140.0
 21
-77.361274
 31
0.0
  0
LINE
  5
146E
100
AcDbEntity
  8
0
  6
BYBLOCK
 62
     0
100
AcDbLine
 10
180.0
 20
-41.0
 30
0.0
 11
180.0
 21
-77.361274
 31
0.0
  0
LINE
  5
146F
100
AcDbEntity
  8
0
  6
BYBLOCK
 62
     0
100
AcDbLine
 10
155.0
 20
-76.111274
 30
0.0
 11
165.0
 21
-76.111274
 31
0.0
  0
INSERT
  5
1470
100
AcDbEntity
  8
0
  6
BYBLOCK
 62
     0
100
AcDbBlockReference
  2
_OPEN
 10
140.0
 20
-76.111274
 30
0.0
 41
15.0
 42
15.0
 43
15.0
 50
180.0
  0
INSERT
  5
1471
100
AcDbEntity
  8
0
  6
BYBLOCK
 62
     0
100
AcDbBlockReference
  2
_OPEN
 10
180.0
 20
-76.111274
 30
0.0
 41
15.0
 42
15.0
 43
15.0
  0
MTEXT
  5
1472
100
AcDbEntity
  8
0
  6
BYBLOCK
 62
     0
100
AcDbMText
 10
160.0
 20
-67.111274
 30
0.0
 40
15.0
 41
0.0
 71
     5
 72
     1
  1
\A1;40
  7
ED15
  0
POINT
  5
1473
100
AcDbEntity
  8
DEFPOINTS
  6
BYBLOCK
 62
     0
100
AcDbPoint
 10
140.0
 20
-25.0
 30
0.0
  0
POINT
  5
1474
100
AcDbEntity
  8
DEFPOINTS
  6
BYBLOCK
 62
     0
100
AcDbPoint
 10
180.0
 20
-40.0
 30
0.0
  0
POINT
  5
1475
100
AcDbEntity
  8
DEFPOINTS
  6
BYBLOCK
 62
     0
100
AcDbPoint
 10
180.0
 20
-76.111274
 30
0.0
  0
ENDBLK
  5
1476
100
AcDbEntity
  8
0
100
AcDbBlockEnd
  0
BLOCK
  5
E6C
100
AcDbEntity
  8
0
100
AcDbBlockBegin
  2
*D3
 70
     1
 10
0.0
 20
0.0
 30
0.0
  3
*D3
  1

  0
LINE
  5
E6D
100
AcDbEntity
  8
0
  6
BYBLOCK
 62
     0
100
AcDbLine
 10
180.0
 20
-85.111274
 30
0.0
 11
180.0
 21
-84.861274
 31
0.0
  0
LINE
  5
E6E
100
AcDbEntity
  8
0
  6
BYBLOCK
 62
     0
100
AcDbLine
 10
300.0
 20
-51.0
 30
0.0
 11
300.0
 21
-87.361274
 31
0.0
  0
LINE
  5
E6F
100
AcDbEntity
  8
0
  6
BYBLOCK
 62
     0
100
AcDbLine
 10
195.0
 20
-86.111274
 30
0.0
 11
285.0
 21
-86.111274
 31
0.0
  0
INSERT
  5
E70
100
AcDbEntity
  8
0
  6
BYBLOCK
 62
     0
100
AcDbBlockReference
  2
_OPEN
 10
180.0
 20
-86.111274
 30
0.0
 41
15.0
 42
15.0
 43
15.0
 50
180.0
  0
INSERT
  5
E71
100
AcDbEntity
  8
0
  6
BYBLOCK
 62
     0
100
AcDbBlockReference
  2
_OPEN
 10
300.0
 20
-86.111274
 30
0.0
 41
15.0
 42
15.0
 43
15.0
  0
MTEXT
  5
E72
100
AcDbEntity
  8
0
  6
BYBLOCK
 62
     0
100
AcDbMText
 10
240.0
 20
-77.109797
 30
0.0
 40
15.0
 41
0.0
 71
     5
 72
     1
  1
\A1;120
  7
ED15
  0
POINT
  5
E73
100
AcDbEntity
  8
DEFPOINTS
  6
BYBLOCK
 62
     0
100
AcDbPoint
 10
180.0
 20
-86.111274
 30
0.0
  0
POINT
  5
E74
100
AcDbEntity
  8
DEFPOINTS
  6
BYBLOCK
 62
     0
100
AcDbPoint
 10
300.0
 20
-50.0
 30
0.0
  0
POINT
  5
E75
100
AcDbEntity
  8
DEFPOINTS
  6
BYBLOCK
 62
     0
100
AcDbPoint
 10
300.0
 20
-86.111274
 30
0.0
  0
ENDBLK
  5
E76
100
AcDbEntity
  8
0
100
AcDbBlockEnd
  0
BLOCK
  5
1456
100
AcDbEntity
  8
0
100
AcDbBlockBegin
  2
*D4
 70
     1
 10
0.0
 20
0.0
 30
0.0
  3
*D4
  1

  0
LINE
  5
1457
100
AcDbEntity
  8
0
  6
BYBLOCK
 62
     0
100
AcDbLine
 10
140.0
 20
-41.0
 30
0.0
 11
140.0
 21
-104.13613
 31
0.0
  0
LINE
  5
1458
100
AcDbEntity
  8
0
  6
BYBLOCK
 62
     0
100
AcDbLine
 10
340.0
 20
-26.0
 30
0.0
 11
340.0
 21
-104.13613
 31
0.0
  0
LINE
  5
1459
100
AcDbEntity
  8
0
  6
BYBLOCK
 62
     0
100
AcDbLine
 10
155.0
 20
-102.88613
 30
0.0
 11
325.0
 21
-102.88613
 31
0.0
  0
INSERT
  5
145A
100
AcDbEntity
  8
0
  6
BYBLOCK
 62
     0
100
AcDbBlockReference
  2
_OPEN
 10
140.0
 20
-102.88613
 30
0.0
 41
15.0
 42
15.0
 43
15.0
 50
180.0
  0
INSERT
  5
145B
100
AcDbEntity
  8
0
  6
BYBLOCK
 62
     0
100
AcDbBlockReference
  2
_OPEN
 10
340.0
 20
-102.88613
 30
0.0
 41
15.0
 42
15.0
 43
15.0
  0
MTEXT
  5
145C
100
AcDbEntity
  8
0
  6
BYBLOCK
 62
     0
100
AcDbMText
 10
240.0
 20
-93.884654
 30
0.0
 40
15.0
 41
0.0
 71
     5
 72
     1
  1
\A1;200
  7
ED15
  0
POINT
  5
145D
100
AcDbEntity
  8
DEFPOINTS
  6
BYBLOCK
 62
     0
100
AcDbPoint
 10
140.0
 20
-40.0
 30
0.0
  0
POINT
  5
145E
100
AcDbEntity
  8
DEFPOINTS
  6
BYBLOCK
 62
     0
100
AcDbPoint
 10
340.0
 20
-25.0
 30
0.0
  0
POINT
  5
145F
100
AcDbEntity
  8
DEFPOINTS
  6
BYBLOCK
 62
     0
100
AcDbPoint
 10
340.0
 20
-102.88613
 30
0.0
  0
ENDBLK
  5
1460
100
AcDbEntity
  8
0
100
AcDbBlockEnd
  0
BLOCK
  5
FAA
100
AcDbEntity
  8
0
100
AcDbBlockBegin
  2
*D5
 70
     1
 10
0.0
 20
0.0
 30
0.0
  3
*D5
  1

  0
LINE
  5
FAB
100
AcDbEntity
  8
0
  6
BYBLOCK
 62
    41
100
AcDbLine
 10
376.0
 20
95.0
 30
0.0
 11
392.581692
 21
95.0
 31
0.0
  0
LINE
  5
FAC
100
AcDbEntity
  8
0
  6
BYBLOCK
 62
    41
100
AcDbLine
 10
341.0
 20
50.0
 30
0.0
 11
392.581692
 21
50.0
 31
0.0
  0
LINE
  5
FAD
100
AcDbEntity
  8
0
  6
BYBLOCK
 62
    41
100
AcDbLine
 10
391.331692
 20
80.0
 30
0.0
 11
391.331692
 21
65.0
 31
0.0
  0
INSERT
  5
FAE
100
AcDbEntity
  8
0
  6
BYBLOCK
 62
    41
100
AcDbBlockReference
  2
_OPEN
 10
391.331692
 20
95.0
 30
0.0
 41
15.0
 42
15.0
 43
15.0
 50
90.0
  0
INSERT
  5
FAF
100
AcDbEntity
  8
0
  6
BYBLOCK
 62
    41
100
AcDbBlockReference
  2
_OPEN
 10
391.331692
 20
50.0
 30
0.0
 41
15.0
 42
15.0
 43
15.0
 50
270.0
  0
MTEXT
  5
FB0
100
AcDbEntity
  8
0
  6
BYBLOCK
 62
    41
100
AcDbMText
 10
382.331692
 20
72.5
 30
0.0
 40
15.0
 41
0.0
 71
     5
 72
     1
  1
\A1;45
  7
ED15
 11
0.0
 21
1.0
 31
0.0
  0
POINT
  5
FB1
100
AcDbEntity
  8
DEFPOINTS
  6
BYBLOCK
 62
     0
100
AcDbPoint
 10
375.0
 20
95.0
 30
0.0
  0
POINT
  5
FB2
100
AcDbEntity
  8
DEFPOINTS
  6
BYBLOCK
 62
     0
100
AcDbPoint
 10
340.0
 20
50.0
 30
0.0
  0
POINT
  5
FB3
100
AcDbEntity
  8
DEFPOINTS
  6
BYBLOCK
 62
     0
100
AcDbPoint
 10
391.331692
 20
50.0
 30
0.0
  0
ENDBLK
  5
FB4
100
AcDbEntity
  8
0
100
AcDbBlockEnd
  0
BLOCK
  5
FB7
100
AcDbEntity
  8
0
100
AcDbBlockBegin
  2
*D6
 70
     1
 10
0.0
 20
0.0
 30
0.0
  3
*D6
  1

  0
LINE
  5
FB8
100
AcDbEntity
  8
0
  6
BYBLOCK
 62
    41
100
AcDbLine
 10
240.0
 20
93.0
 30
0.0
 11
240.0
 21
115.593692
 31
0.0
  0
LINE
  5
FB9
100
AcDbEntity
  8
0
  6
BYBLOCK
 62
    41
100
AcDbLine
 10
375.0
 20
96.0
 30
0.0
 11
375.0
 21
115.593692
 31
0.0
  0
LINE
  5
FBA
100
AcDbEntity
  8
0
  6
BYBLOCK
 62
    41
100
AcDbLine
 10
255.0
 20
114.343692
 30
0.0
 11
360.0
 21
114.343692
 31
0.0
  0
INSERT
  5
FBB
100
AcDbEntity
  8
0
  6
BYBLOCK
 62
    41
100
AcDbBlockReference
  2
_OPEN
 10
240.0
 20
114.343692
 30
0.0
 41
15.0
 42
15.0
 43
15.0
 50
180.0
  0
INSERT
  5
FBC
100
AcDbEntity
  8
0
  6
BYBLOCK
 62
    41
100
AcDbBlockReference
  2
_OPEN
 10
375.0
 20
114.343692
 30
0.0
 41
15.0
 42
15.0
 43
15.0
  0
MTEXT
  5
FBD
100
AcDbEntity
  8
0
  6
BYBLOCK
 62
    41
100
AcDbMText
 10
307.5
 20
123.343692
 30
0.0
 40
15.0
 41
0.0
 71
     5
 72
     1
  1
\A1;135
  7
ED15
  0
POINT
  5
FBE
100
AcDbEntity
  8
DEFPOINTS
  6
BYBLOCK
 62
     0
100
AcDbPoint
 10
240.0
 20
92.0
 30
0.0
  0
POINT
  5
FBF
100
AcDbEntity
  8
DEFPOINTS
  6
BYBLOCK
 62
     0
100
AcDbPoint
 10
375.0
 20
95.0
 30
0.0
  0
POINT
  5
FC0
100
AcDbEntity
  8
DEFPOINTS
  6
BYBLOCK
 62
     0
100
AcDbPoint
 10
375.0
 20
114.343692
 30
0.0
  0
ENDBLK
  5
FC1
100
AcDbEntity
  8
0
100
AcDbBlockEnd
  0
BLOCK
  5
1477
100
AcDbEntity
  8
0
100
AcDbBlockBegin
  2
*D7
 70
     1
 10
0.0
 20
0.0
 30
0.0
  3
*D7
  1

  0
LINE
  5
1478
100
AcDbEntity
  8
0
  6
BYBLOCK
 62
    41
100
AcDbLine
 10
456.019533
 20
65.0
 30
0.0
 11
456.019533
 21
89.611175
 31
0.0
  0
LINE
  5
1479
100
AcDbEntity
  8
0
  6
BYBLOCK
 62
    41
100
AcDbLine
 10
536.019533
 20
65.0
 30
0.0
 11
536.019533
 21
89.611175
 31
0.0
  0
LINE
  5
147A
100
AcDbEntity
  8
0
  6
BYBLOCK
 62
    41
100
AcDbLine
 10
471.019533
 20
88.361175
 30
0.0
 11
521.019533
 21
88.361175
 31
0.0
  0
INSERT
  5
147B
100
AcDbEntity
  8
0
  6
BYBLOCK
 62
    41
100
AcDbBlockReference
  2
_OPEN
 10
456.019533
 20
88.361175
 30
0.0
 41
15.0
 42
15.0
 43
15.0
 50
180.0
  0
INSERT
  5
147C
100
AcDbEntity
  8
0
  6
BYBLOCK
 62
    41
100
AcDbBlockReference
  2
_OPEN
 10
536.019533
 20
88.361175
 30
0.0
 41
15.0
 42
15.0
 43
15.0
  0
MTEXT
  5
147D
100
AcDbEntity
  8
0
  6
BYBLOCK
 62
    41
100
AcDbMText
 10
496.424558
 20
97.361175
 30
0.0
 40
15.0
 41
0.0
 71
     5
 72
     1
  1
\A1;80
  7
ED15
  0
POINT
  5
147E
100
AcDbEntity
  8
DEFPOINTS
  6
BYBLOCK
 62
     0
100
AcDbPoint
 10
456.019533
 20
64.0
 30
0.0
  0
POINT
  5
147F
100
AcDbEntity
  8
DEFPOINTS
  6
BYBLOCK
 62
     0
100
AcDbPoint
 10
536.019533
 20
64.0
 30
0.0
  0
POINT
  5
1480
100
AcDbEntity
  8
DEFPOINTS
  6
BYBLOCK
 62
     0
100
AcDbPoint
 10
536.019533
 20
88.361175
 30
0.0
  0
ENDBLK
  5
1481
100
AcDbEntity
  8
0
100
AcDbBlockEnd
  0
ENDSEC
  0
SECTION
  2
ENTITIES
  0
LINE
  5
8CD
100
AcDbEntity
  8
V0-VYPLNE
100
AcDbLine
 10
240.0
 20
-283.656576
 30
0.0
 11
240.0
 21
-170.798233
 31
0.0
  0
LINE
  5
8CE
100
AcDbEntity
  8
V0-OBRYS
100
AcDbLine
 10
185.0
 20
0.0
 30
0.0
 11
185.0
 21
45.0
 31
0.0
  0
LINE
  5
8CF
100
AcDbEntity
  8
V0-OBRYS
100
AcDbLine
 10
185.0
 20
40.0
 30
0.0
 11
210.0
 21
40.0
 31
0.0
  0
LINE
  5
8D5
100
AcDbEntity
  8
V0-OBRYS
100
AcDbLine
 10
140.0
 20
0.0
 30
0.0
 11
140.0
 21
40.0
 31
0.0
  0
LINE
  5
8D6
100
AcDbEntity
  8
V0-OBRYS
100
AcDbLine
 10
140.0
 20
40.0
 30
0.0
 11
180.0
 21
40.0
 31
0.0
  0
LINE
  5
8D7
100
AcDbEntity
  8
V0-OBRYS
100
AcDbLine
 10
180.0
 20
45.0
 30
0.0
 11
180.0
 21
0.0
 31
0.0
  0
LINE
  5
8D8
100
AcDbEntity
  8
V0-OBRYS
100
AcDbLine
 10
180.0
 20
45.0
 30
0.0
 11
185.0
 21
45.0
 31
0.0
  0
LINE
  5
8DE
100
AcDbEntity
  8
V0-OBRYS
100
AcDbLine
 10
140.0
 20
0.0
 30
0.0
 11
140.0
 21
40.0
 31
0.0
  0
LINE
  5
8DF
100
AcDbEntity
  8
V0-OBRYS
100
AcDbLine
 10
185.0
 20
0.0
 30
0.0
 11
185.0
 21
45.0
 31
0.0
  0
LINE
  5
8E0
100
AcDbEntity
  8
V0-OBRYS
100
AcDbLine
 10
180.0
 20
45.0
 30
0.0
 11
180.0
 21
0.0
 31
0.0
  0
LINE
  5
8E5
100
AcDbEntity
  8
V0-OBRYS
100
AcDbLine
 10
140.0
 20
40.0
 30
0.0
 11
180.0
 21
40.0
 31
0.0
  0
LINE
  5
8E8
100
AcDbEntity
  8
V0-OBRYS
100
AcDbLine
 10
185.0
 20
40.0
 30
0.0
 11
190.0
 21
40.0
 31
0.0
  0
LINE
  5
8EA
100
AcDbEntity
  8
V0-OBRYS
100
AcDbLine
 10
180.0
 20
45.0
 30
0.0
 11
185.0
 21
45.0
 31
0.0
  0
LINE
  5
8EB
100
AcDbEntity
  8
V0-VYPLNE
100
AcDbLine
 10
240.0
 20
0.0
 30
0.0
 11
140.0
 21
0.0
 31
0.0
  0
LINE
  5
8EC
100
AcDbEntity
  8
V0-VYPLNE
100
AcDbLine
 10
240.0
 20
0.0
 30
0.0
 11
340.0
 21
0.0
 31
0.0
  0
LINE
  5
8F5
100
AcDbEntity
  8
V0-OBRYS
100
AcDbLine
 10
300.0
 20
45.0
 30
0.0
 11
300.0
 21
0.0
 31
0.0
  0
LINE
  5
8F6
100
AcDbEntity
  8
V0-OBRYS
100
AcDbLine
 10
295.0
 20
0.0
 30
0.0
 11
295.0
 21
45.0
 31
0.0
  0
LINE
  5
8F7
100
AcDbEntity
  8
V0-OBRYS
100
AcDbLine
 10
340.0
 20
0.0
 30
0.0
 11
340.0
 21
40.0
 31
0.0
  0
LINE
  5
8F8
100
AcDbEntity
  8
V0-OBRYS
100
AcDbLine
 10
295.0
 20
0.0
 30
0.0
 11
295.0
 21
45.0
 31
0.0
  0
LINE
  5
8F9
100
AcDbEntity
  8
V0-OBRYS
100
AcDbLine
 10
300.0
 20
45.0
 30
0.0
 11
300.0
 21
0.0
 31
0.0
  0
LINE
  5
8FA
100
AcDbEntity
  8
V0-OBRYS
100
AcDbLine
 10
340.0
 20
0.0
 30
0.0
 11
340.0
 21
40.0
 31
0.0
  0
LINE
  5
8FD
100
AcDbEntity
  8
V0-OBRYS
100
AcDbLine
 10
300.0
 20
45.0
 30
0.0
 11
295.0
 21
45.0
 31
0.0
  0
LINE
  5
8FE
100
AcDbEntity
  8
V0-OBRYS
100
AcDbLine
 10
300.0
 20
45.0
 30
0.0
 11
295.0
 21
45.0
 31
0.0
  0
LINE
  5
8FF
100
AcDbEntity
  8
V0-OBRYS
100
AcDbLine
 10
340.0
 20
40.0
 30
0.0
 11
300.0
 21
40.0
 31
0.0
  0
LINE
  5
900
100
AcDbEntity
  8
V0-OBRYS
100
AcDbLine
 10
340.0
 20
40.0
 30
0.0
 11
300.0
 21
40.0
 31
0.0
  0
LINE
  5
903
100
AcDbEntity
  8
V0-OBRYS
100
AcDbLine
 10
295.0
 20
40.0
 30
0.0
 11
290.0
 21
40.0
 31
0.0
  0
LINE
  5
904
100
AcDbEntity
  8
V0-OBRYS
100
AcDbLine
 10
295.0
 20
40.0
 30
0.0
 11
290.0
 21
40.0
 31
0.0
  0
LINE
  5
910
100
AcDbEntity
  8
V0-OBRYS
100
AcDbLine
 10
180.0
 20
-45.0
 30
0.0
 11
180.0
 21
0.0
 31
0.0
  0
LINE
  5
911
100
AcDbEntity
  8
V0-OBRYS
100
AcDbLine
 10
185.0
 20
0.0
 30
0.0
 11
185.0
 21
-45.0
 31
0.0
  0
LINE
  5
912
100
AcDbEntity
  8
V0-OBRYS
100
AcDbLine
 10
140.0
 20
0.0
 30
0.0
 11
140.0
 21
-40.0
 31
0.0
  0
LINE
  5
913
100
AcDbEntity
  8
V0-OBRYS
100
AcDbLine
 10
185.0
 20
0.0
 30
0.0
 11
185.0
 21
-45.0
 31
0.0
  0
LINE
  5
914
100
AcDbEntity
  8
V0-OBRYS
100
AcDbLine
 10
180.0
 20
-45.0
 30
0.0
 11
180.0
 21
0.0
 31
0.0
  0
LINE
  5
915
100
AcDbEntity
  8
V0-OBRYS
100
AcDbLine
 10
140.0
 20
0.0
 30
0.0
 11
140.0
 21
-40.0
 31
0.0
  0
LINE
  5
918
100
AcDbEntity
  8
V0-OBRYS
100
AcDbLine
 10
180.0
 20
-45.0
 30
0.0
 11
185.0
 21
-45.0
 31
0.0
  0
LINE
  5
919
100
AcDbEntity
  8
V0-OBRYS
100
AcDbLine
 10
180.0
 20
-45.0
 30
0.0
 11
185.0
 21
-45.0
 31
0.0
  0
LINE
  5
91A
100
AcDbEntity
  8
V0-OBRYS
100
AcDbLine
 10
140.0
 20
-40.0
 30
0.0
 11
180.0
 21
-40.0
 31
0.0
  0
LINE
  5
91B
100
AcDbEntity
  8
V0-OBRYS
100
AcDbLine
 10
140.0
 20
-40.0
 30
0.0
 11
180.0
 21
-40.0
 31
0.0
  0
LINE
  5
91E
100
AcDbEntity
  8
V0-OBRYS
100
AcDbLine
 10
185.0
 20
-40.0
 30
0.0
 11
190.0
 21
-40.0
 31
0.0
  0
LINE
  5
91F
100
AcDbEntity
  8
V0-OBRYS
100
AcDbLine
 10
185.0
 20
-40.0
 30
0.0
 11
295.0
 21
-40.0
 31
0.0
  0
LINE
  5
923
100
AcDbEntity
  8
V0-OBRYS
100
AcDbLine
 10
340.0
 20
0.0
 30
0.0
 11
340.0
 21
-40.0
 31
0.0
  0
LINE
  5
924
100
AcDbEntity
  8
V0-OBRYS
100
AcDbLine
 10
300.0
 20
-45.0
 30
0.0
 11
300.0
 21
0.0
 31
0.0
  0
LINE
  5
925
100
AcDbEntity
  8
V0-OBRYS
100
AcDbLine
 10
295.0
 20
0.0
 30
0.0
 11
295.0
 21
-45.0
 31
0.0
  0
LINE
  5
926
100
AcDbEntity
  8
V0-OBRYS
100
AcDbLine
 10
340.0
 20
0.0
 30
0.0
 11
340.0
 21
-40.0
 31
0.0
  0
LINE
  5
927
100
AcDbEntity
  8
V0-OBRYS
100
AcDbLine
 10
295.0
 20
0.0
 30
0.0
 11
295.0
 21
-45.0
 31
0.0
  0
LINE
  5
928
100
AcDbEntity
  8
V0-OBRYS
100
AcDbLine
 10
300.0
 20
-45.0
 30
0.0
 11
300.0
 21
0.0
 31
0.0
  0
LINE
  5
934
100
AcDbEntity
  8
V0-OBRYS
100
AcDbLine
 10
340.0
 20
-40.0
 30
0.0
 11
300.0
 21
-40.0
 31
0.0
  0
LINE
  5
935
100
AcDbEntity
  8
V0-OBRYS
100
AcDbLine
 10
340.0
 20
-40.0
 30
0.0
 11
300.0
 21
-40.0
 31
0.0
  0
LINE
  5
93A
100
AcDbEntity
  8
V0-OBRYS
100
AcDbLine
 10
300.0
 20
-45.0
 30
0.0
 11
295.0
 21
-45.0
 31
0.0
  0
LINE
  5
93B
100
AcDbEntity
  8
V0-OBRYS
100
AcDbLine
 10
300.0
 20
-45.0
 30
0.0
 11
295.0
 21
-45.0
 31
0.0
  0
DIMENSION
  5
950
100
AcDbEntity
  8
V0-VYPLNE
  6
CONTINUOUS
 62
    41
100
AcDbDimension
  2
*D1
 10
110.356026
 20
-40.0
 30
0.0
 11
101.356026
 21
0.0
 31
0.0
 70
    32
  1
%%c<>
  3
ED15
100
AcDbAlignedDimension
 13
140.0
 23
40.0
 33
0.0
 14
140.0
 24
-40.0
 34
0.0
 50
90.0
100
AcDbRotatedDimension
1001
ACAD
1000
DSTYLE
1002
{
1070
    40
1040
1.0
1002
}
  0
DIMENSION
  5
95F
100
AcDbEntity
  8
V0-VYPLNE
  6
CONTINUOUS
 62
    41
100
AcDbDimension
  2
*D2
 10
180.0
 20
-76.111274
 30
0.0
 11
160.0
 21
-67.111274
 31
0.0
 70
    32
  3
ED15
100
AcDbAlignedDimension
 13
140.0
 23
-25.0
 33
0.0
 14
180.0
 24
-40.0
 34
0.0
100
AcDbRotatedDimension
1001
ACAD
1000
DSTYLE
1002
{
1070
    40
1040
1.0
1002
}
  0
DIMENSION
  5
96C
100
AcDbEntity
  8
V0-VYPLNE
  6
CONTINUOUS
 62
    41
100
AcDbDimension
  2
*D3
 10
300.0
 20
-76.111274
 30
0.0
 11
240.0
 21
-77.109797
 31
0.0
 12
0.0
 22
10.0
 32
0.0
 70
    32
  3
ED15
100
AcDbAlignedDimension
 13
180.0
 23
-76.111274
 33
0.0
 14
300.0
 24
-40.0
 34
0.0
100
AcDbRotatedDimension
1001
ACAD
1000
DSTYLE
1002
{
1070
    40
1040
1.0
1002
}
  0
DIMENSION
  5
9A0
100
AcDbEntity
  8
V0-VYPLNE
  6
CONTINUOUS
 62
    41
100
AcDbDimension
  2
*D4
 10
340.0
 20
-102.88613
 30
0.0
 11
240.0
 21
-93.884654
 31
0.0
 70
    32
  3
ED15
100
AcDbAlignedDimension
 13
140.0
 23
-40.0
 33
0.0
 14
340.0
 24
-25.0
 34
0.0
100
AcDbRotatedDimension
1001
ACAD
1000
DSTYLE
1002
{
1070
    40
1040
1.0
1002
}
  0
LINE
  5
B5E
100
AcDbEntity
  8
V0-VYPLNE
100
AcDbLine
 10
496.019533
 20
0.0
 30
0.0
 11
496.019533
 21
72.833546
 31
0.0
  0
LINE
  5
B5F
100
AcDbEntity
  8
V0-VYPLNE
100
AcDbLine
 10
496.019533
 20
0.0
 30
0.0
 11
496.019533
 21
-48.001695
 31
0.0
  0
LINE
  5
B74
100
AcDbEntity
  8
V0-VYPLNE
100
AcDbLine
 10
451.495739
 20
0.0
 30
0.0
 11
536.019533
 21
0.0
 31
0.0
  0
CIRCLE
  5
B75
100
AcDbEntity
  8
V0-OBRYS
  6
CONTINUOUS
 62
    90
100
AcDbCircle
 10
496.019533
 20
0.0
 30
0.0
 40
40.0
  0
CIRCLE
  5
B76
100
AcDbEntity
  8
V0-OBRYS
  6
CONTINUOUS
 62
    90
100
AcDbCircle
 10
496.019533
 20
0.0
 30
0.0
 40
44.0
  0
LINE
  5
B7D
100
AcDbEntity
  8
V0-OBRYS
100
AcDbLine
 10
180.0
 20
-265.571658
 30
0.0
 11
180.0
 21
-220.571658
 31
0.0
  0
LINE
  5
B7E
100
AcDbEntity
  8
V0-OBRYS
100
AcDbLine
 10
185.0
 20
-220.571658
 30
0.0
 11
185.0
 21
-265.571658
 31
0.0
  0
LINE
  5
B7F
100
AcDbEntity
  8
V0-OBRYS
100
AcDbLine
 10
185.0
 20
-220.571658
 30
0.0
 11
185.0
 21
-265.571658
 31
0.0
  0
LINE
  5
B80
100
AcDbEntity
  8
V0-OBRYS
100
AcDbLine
 10
180.0
 20
-265.571658
 30
0.0
 11
180.0
 21
-220.571658
 31
0.0
  0
LINE
  5
B81
100
AcDbEntity
  8
V0-OBRYS
100
AcDbLine
 10
275.857864
 20
-260.571658
 30
0.0
 11
185.0
 21
-260.571658
 31
0.0
  0
LINE
  5
B82
100
AcDbEntity
  8
V0-OBRYS
100
AcDbLine
 10
295.0
 20
-180.571658
 30
0.0
 11
185.0
 21
-180.571658
 31
0.0
  0
LINE
  5
B83
100
AcDbEntity
  8
V0-VYPLNE
100
AcDbLine
 10
375.0
 20
-220.571658
 30
0.0
 11
140.0
 21
-220.571658
 31
0.0
  0
LINE
  5
B84
100
AcDbEntity
  8
V0-OBRYS
100
AcDbLine
 10
140.0
 20
-220.571658
 30
0.0
 11
140.0
 21
-180.571658
 31
0.0
  0
LINE
  5
B85
100
AcDbEntity
  8
V0-OBRYS
100
AcDbLine
 10
180.0
 20
-175.571658
 30
0.0
 11
180.0
 21
-220.571658
 31
0.0
  0
LINE
  5
B86
100
AcDbEntity
  8
V0-OBRYS
100
AcDbLine
 10
185.0
 20
-220.571658
 30
0.0
 11
185.0
 21
-175.571658
 31
0.0
  0
LINE
  5
B87
100
AcDbEntity
  8
V0-OBRYS
100
AcDbLine
 10
140.0
 20
-220.571658
 30
0.0
 11
140.0
 21
-180.571658
 31
0.0
  0
LINE
  5
B88
100
AcDbEntity
  8
V0-OBRYS
100
AcDbLine
 10
185.0
 20
-220.571658
 30
0.0
 11
185.0
 21
-175.571658
 31
0.0
  0
LINE
  5
B89
100
AcDbEntity
  8
V0-OBRYS
100
AcDbLine
 10
180.0
 20
-175.571658
 30
0.0
 11
180.0
 21
-220.571658
 31
0.0
  0
LINE
  5
B8A
100
AcDbEntity
  8
V0-OBRYS
100
AcDbLine
 10
140.0
 20
-180.571658
 30
0.0
 11
180.0
 21
-180.571658
 31
0.0
  0
LINE
  5
B8B
100
AcDbEntity
  8
V0-OBRYS
100
AcDbLine
 10
140.0
 20
-180.571658
 30
0.0
 11
180.0
 21
-180.571658
 31
0.0
  0
LINE
  5
B8C
100
AcDbEntity
  8
V0-OBRYS
100
AcDbLine
 10
180.0
 20
-175.571658
 30
0.0
 11
185.0
 21
-175.571658
 31
0.0
  0
LINE
  5
B8D
100
AcDbEntity
  8
V0-OBRYS
100
AcDbLine
 10
180.0
 20
-175.571658
 30
0.0
 11
185.0
 21
-175.571658
 31
0.0
  0
LINE
  5
B8E
100
AcDbEntity
  8
V0-OBRYS
100
AcDbLine
 10
140.0
 20
-220.571658
 30
0.0
 11
140.0
 21
-260.571658
 31
0.0
  0
LINE
  5
B8F
100
AcDbEntity
  8
V0-OBRYS
100
AcDbLine
 10
140.0
 20
-220.571658
 30
0.0
 11
140.0
 21
-260.571658
 31
0.0
  0
LINE
  5
B90
100
AcDbEntity
  8
V0-OBRYS
100
AcDbLine
 10
140.0
 20
-260.571658
 30
0.0
 11
180.0
 21
-260.571658
 31
0.0
  0
LINE
  5
B91
100
AcDbEntity
  8
V0-OBRYS
100
AcDbLine
 10
140.0
 20
-260.571658
 30
0.0
 11
180.0
 21
-260.571658
 31
0.0
  0
LINE
  5
B94
100
AcDbEntity
  8
V0-OBRYS
100
AcDbLine
 10
180.0
 20
-265.571658
 30
0.0
 11
185.0
 21
-265.571658
 31
0.0
  0
LINE
  5
B95
100
AcDbEntity
  8
V0-OBRYS
100
AcDbLine
 10
180.0
 20
-265.571658
 30
0.0
 11
185.0
 21
-265.571658
 31
0.0
  0
LINE
  5
B96
100
AcDbEntity
  8
V0-OBRYS
100
AcDbLine
 10
287.70271
 20
-257.257949
 30
0.0
 11
287.70271
 21
-228.571658
 31
0.0
  0
LINE
  5
B97
100
AcDbEntity
  8
V0-OBRYS
100
AcDbLine
 10
283.70271
 20
-228.571658
 30
0.0
 11
283.70271
 21
-253.257949
 31
0.0
  0
LINE
  5
B98
100
AcDbEntity
  8
V0-OBRYS
100
AcDbLine
 10
283.70271
 20
-228.571658
 30
0.0
 11
283.70271
 21
-253.257949
 31
0.0
  0
LINE
  5
B99
100
AcDbEntity
  8
V0-OBRYS
100
AcDbLine
 10
300.0
 20
-265.571658
 30
0.0
 11
300.0
 21
-230.571658
 31
0.0
  0
LINE
  5
B9A
100
AcDbEntity
  8
V0-OBRYS
100
AcDbLine
 10
295.0
 20
-210.571658
 30
0.0
 11
295.0
 21
-175.571658
 31
0.0
  0
LINE
  5
B9B
100
AcDbEntity
  8
V0-OBRYS
100
AcDbLine
 10
300.0
 20
-175.571658
 30
0.0
 11
300.0
 21
-210.571658
 31
0.0
  0
LINE
  5
B9C
100
AcDbEntity
  8
V0-OBRYS
100
AcDbLine
 10
340.0
 20
-210.571658
 30
0.0
 11
340.0
 21
-180.571658
 31
0.0
  0
LINE
  5
B9D
100
AcDbEntity
  8
V0-OBRYS
100
AcDbLine
 10
295.0
 20
-210.571658
 30
0.0
 11
295.0
 21
-175.571658
 31
0.0
  0
LINE
  5
B9E
100
AcDbEntity
  8
V0-OBRYS
100
AcDbLine
 10
300.0
 20
-175.571658
 30
0.0
 11
300.0
 21
-210.571658
 31
0.0
  0
LINE
  5
B9F
100
AcDbEntity
  8
V0-OBRYS
100
AcDbLine
 10
340.0
 20
-210.571658
 30
0.0
 11
340.0
 21
-180.571658
 31
0.0
  0
LINE
  5
BA0
100
AcDbEntity
  8
V0-OBRYS
100
AcDbLine
 10
340.0
 20
-180.571658
 30
0.0
 11
300.0
 21
-180.571658
 31
0.0
  0
LINE
  5
BA1
100
AcDbEntity
  8
V0-OBRYS
100
AcDbLine
 10
340.0
 20
-180.571658
 30
0.0
 11
300.0
 21
-180.571658
 31
0.0
  0
LINE
  5
BA2
100
AcDbEntity
  8
V0-OBRYS
100
AcDbLine
 10
300.0
 20
-175.571658
 30
0.0
 11
295.0
 21
-175.571658
 31
0.0
  0
LINE
  5
BA3
100
AcDbEntity
  8
V0-OBRYS
100
AcDbLine
 10
300.0
 20
-175.571658
 30
0.0
 11
295.0
 21
-175.571658
 31
0.0
  0
LINE
  5
BA4
100
AcDbEntity
  8
V0-OBRYS
100
AcDbLine
 10
340.0
 20
-230.571658
 30
0.0
 11
340.0
 21
-260.571658
 31
0.0
  0
LINE
  5
BA5
100
AcDbEntity
  8
V0-OBRYS
100
AcDbLine
 10
340.0
 20
-230.571658
 30
0.0
 11
340.0
 21
-260.571658
 31
0.0
  0
LINE
  5
BA6
100
AcDbEntity
  8
V0-OBRYS
100
AcDbLine
 10
340.0
 20
-260.571658
 30
0.0
 11
304.142136
 21
-260.571658
 31
0.0
  0
LINE
  5
BA7
100
AcDbEntity
  8
V0-OBRYS
100
AcDbLine
 10
340.0
 20
-260.571658
 30
0.0
 11
300.0
 21
-260.571658
 31
0.0
  0
LINE
  5
C4C
100
AcDbEntity
  8
V0-VYPLNE
100
AcDbLine
 10
240.0
 20
-47.855642
 30
0.0
 11
240.0
 21
82.8201
 31
0.0
  0
LINE
  5
C81
100
AcDbEntity
  8
V0-VYPLNE
100
AcDbLine
 10
446.708228
 20
0.0
 30
0.0
 11
537.239764
 21
0.0
 31
0.0
  0
MTEXT
  5
CA4
100
AcDbEntity
  8
V0-ZBYTEK
 62
    51
100
AcDbMText
 10
488.609581
 20
-207.4036
 30
0.0
 40
14.0
 41
396.5924
 71
     5
 72
     5
  1
KLAPKA SKRTICI
  7
ED10
  0
MTEXT
  5
CA5
100
AcDbEntity
  8
V0-ZBYTEK
100
AcDbMText
 10
487.015668
 20
-237.707981
 30
0.0
 40
10.0
 41
157.0955
 71
     5
 72
     5
  1
S RUCNIM OVLADANIM KOVOVYM
  7
ED10
  0
MTEXT
  5
CA6
100
AcDbEntity
  8
V0-NAZVY
100
AcDbMText
 10
482.193422
 20
-170.758085
 30
0.0
 40
25.0
 41
205.6405
 71
     5
 72
     5
  1
MSK-80
  7
ED10
  0
POINT
  5
CB7
100
AcDbEntity
  8
V0-VYPLNE
  6
CONTINUOUS
 62
    41
100
AcDbPoint
 10
180.0
 20
0.0
 30
0.0
  0
POINT
  5
CB8
100
AcDbEntity
  8
V0-VYPLNE
  6
CONTINUOUS
 62
    41
100
AcDbPoint
 10
180.0
 20
-220.571658
 30
0.0
  0
POINT
  5
CB9
100
AcDbEntity
  8
V0-VYPLNE
  6
CONTINUOUS
 62
    41
100
AcDbPoint
 10
287.70271
 20
-220.571658
 30
0.0
  0
POINT
  5
CBA
100
AcDbEntity
  8
V0-VYPLNE
  6
CONTINUOUS
 62
    41
100
AcDbPoint
 10
300.0
 20
0.0
 30
0.0
  0
POINT
  5
CBD
100
AcDbEntity
  8
V0-VYPLNE
  6
CONTINUOUS
 62
    41
100
AcDbPoint
 10
496.019533
 20
0.0
 30
0.0
  0
LINE
  5
E98
100
AcDbEntity
  8
V0-OBRYS
  6
CONTINUOUS
 62
    90
100
AcDbLine
 10
210.0
 20
69.049002
 30
0.0
 11
240.527827
 21
69.049002
 31
0.0
  0
LINE
  5
E99
100
AcDbEntity
  8
V0-OBRYS
  6
CONTINUOUS
 62
    90
100
AcDbLine
 10
210.0
 20
69.049002
 30
0.0
 11
210.0
 21
10.832082
 31
0.0
  0
LINE
  5
E9A
100
AcDbEntity
  8
V0-OBRYS
100
AcDbLine
 10
295.0
 20
40.0
 30
0.0
 11
290.0
 21
40.0
 31
0.0
  0
LINE
  5
E9B
100
AcDbEntity
  8
V0-OBRYS
  6
CONTINUOUS
 62
    90
100
AcDbLine
 10
295.827621
 20
69.049002
 30
0.0
 11
239.472173
 21
69.049002
 31
0.0
  0
LINE
  5
E9C
100
AcDbEntity
  8
V0-OBRYS
  6
CONTINUOUS
 62
    90
100
AcDbLine
 10
290.0
 20
69.049002
 30
0.0
 11
290.0
 21
10.832082
 31
0.0
  0
LINE
  5
E9E
100
AcDbEntity
  8
V0-OBRYS
  6
CONTINUOUS
 62
    90
100
AcDbLine
 10
295.094235
 20
72.049002
 30
0.0
 11
219.489507
 21
72.049002
 31
0.0
  0
LINE
  5
EB4
100
AcDbEntity
  8
V0-VYPLNE
  6
DASHED
 62
    52
100
AcDbLine
 10
237.0
 20
69.049002
 30
0.0
 11
237.0
 21
-42.988114
 31
0.0
  0
LINE
  5
EB6
100
AcDbEntity
  8
V0-VYPLNE
  6
DASHED
 62
    52
100
AcDbLine
 10
243.0
 20
69.049002
 30
0.0
 11
243.0
 21
-42.988114
 31
0.0
  0
ELLIPSE
  5
EB7
100
AcDbEntity
  8
V0-VYPLNE
  6
DASHED
 62
    52
100
AcDbEllipse
 10
240.0
 20
0.0
 30
0.0
 11
-0.0000000000000284
 21
48.0
 31
0.0
210
0.0
220
0.0
230
1.0
 40
0.760986
 41
0.0
 42
6.283185307179586
  0
ELLIPSE
  5
EB9
100
AcDbEntity
  8
V0-VYPLNE
  6
DASHED
 62
    52
100
AcDbEllipse
 10
496.019533
 20
0.0
 30
0.0
 11
-0.0000000000000227
 21
38.4
 31
0.0
210
0.0
220
0.0
230
1.0
 40
0.760986
 41
0.0
 42
6.283185307179586
  0
LINE
  5
EBC
100
AcDbEntity
  8
V0-OBRYS
  6
CONTINUOUS
 62
    90
100
AcDbLine
 10
493.619533
 20
39.825984
 30
0.0
 11
493.619533
 21
-39.927935
 31
0.0
  0
LINE
  5
EBD
100
AcDbEntity
  8
V0-OBRYS
  6
CONTINUOUS
 62
    90
100
AcDbLine
 10
498.419533
 20
39.986758
 30
0.0
 11
498.419533
 21
-39.927935
 31
0.0
  0
LINE
  5
EC0
100
AcDbEntity
  8
V0-OBRYS
  6
DASHED
 62
    90
100
AcDbLine
 10
493.619533
 20
-45.938108
 30
0.0
 11
498.419533
 21
-45.938108
 31
0.0
  0
LINE
  5
F8C
100
AcDbEntity
  8
V0-OBRYS
  6
CONTINUOUS
 62
    90
100
AcDbLine
 10
375.0
 20
85.0
 30
0.0
 11
320.0
 21
85.0
 31
0.0
  0
LINE
  5
F8D
100
AcDbEntity
  8
V0-OBRYS
  6
CONTINUOUS
 62
    90
100
AcDbLine
 10
320.0
 20
85.0
 30
0.0
 11
295.0
 21
72.0
 31
0.0
  0
LINE
  5
F8E
100
AcDbEntity
  8
V0-OBRYS
  6
CONTINUOUS
 62
    90
100
AcDbLine
 10
375.0
 20
82.0
 30
0.0
 11
320.0
 21
82.0
 31
0.0
  0
LINE
  5
F8F
100
AcDbEntity
  8
V0-OBRYS
  6
CONTINUOUS
 62
    90
100
AcDbLine
 10
321.384058
 20
82.33835
 30
0.0
 11
295.827621
 21
69.049002
 31
0.0
  0
LINE
  5
F90
100
AcDbEntity
  8
V0-OBRYS
  6
CONTINUOUS
 62
    90
100
AcDbLine
 10
253.0
 20
80.0
 30
0.0
 11
215.0
 21
80.0
 31
0.0
  0
LINE
  5
F91
100
AcDbEntity
  8
V0-OBRYS
  6
CONTINUOUS
 62
    90
100
AcDbLine
 10
253.0
 20
77.0
 30
0.0
 11
219.489507
 21
77.0
 31
0.0
  0
ARC
  5
F94
100
AcDbEntity
  8
V0-OBRYS
  6
CONTINUOUS
 62
    90
100
AcDbCircle
 10
215.0
 20
74.524501
 30
0.0
 40
5.475499
100
AcDbArc
 50
90.0
 51
270.0
  0
LINE
  5
F96
100
AcDbEntity
  8
V0-OBRYS
  6
CONTINUOUS
 62
    90
100
AcDbLine
 10
253.0
 20
80.0
 30
0.0
 11
253.0
 21
77.0
 31
0.0
  0
LINE
  5
F97
100
AcDbEntity
  8
V0-OBRYS
  6
CONTINUOUS
 62
    90
100
AcDbLine
 10
237.0
 20
72.0
 30
0.0
 11
237.0
 21
77.072606
 31
0.0
  0
LINE
  5
F98
100
AcDbEntity
  8
V0-OBRYS
  6
CONTINUOUS
 62
    90
100
AcDbLine
 10
237.0
 20
80.0
 30
0.0
 11
237.0
 21
82.0
 31
0.0
  0
LINE
  5
F99
100
AcDbEntity
  8
V0-OBRYS
  6
CONTINUOUS
 62
    90
100
AcDbLine
 10
237.0
 20
82.0
 30
0.0
 11
240.0
 21
82.0
 31
0.0
  0
LINE
  5
F9A
100
AcDbEntity
  8
V0-OBRYS
  6
CONTINUOUS
 62
    90
100
AcDbLine
 10
243.0
 20
82.0
 30
0.0
 11
240.0
 21
82.0
 31
0.0
  0
LINE
  5
F9B
100
AcDbEntity
  8
V0-OBRYS
  6
CONTINUOUS
 62
    90
100
AcDbLine
 10
243.0
 20
80.0
 30
0.0
 11
243.0
 21
82.0
 31
0.0
  0
LINE
  5
F9C
100
AcDbEntity
  8
V0-OBRYS
  6
CONTINUOUS
 62
    90
100
AcDbLine
 10
243.0
 20
72.0
 30
0.0
 11
243.0
 21
77.072606
 31
0.0
  0
LINE
  5
F9D
100
AcDbEntity
  8
V0-VYPLNE
  6
DASHDOT
 62
    63
100
AcDbLine
 10
275.0
 20
85.0
 30
0.0
 11
275.0
 21
66.582585
 31
0.0
  0
LINE
  5
F9F
100
AcDbEntity
  8
V0-OBRYS
  6
CONTINUOUS
 62
    90
100
AcDbLine
 10
274.949806
 20
76.023604
 30
0.0
 11
272.639655
 21
76.023604
 31
0.0
  0
LINE
  5
FA0
100
AcDbEntity
  8
V0-OBRYS
  6
CONTINUOUS
 62
    90
100
AcDbLine
 10
272.639655
 20
76.023604
 30
0.0
 11
270.959547
 21
72.037396
 31
0.0
  0
LINE
  5
FA1
100
AcDbEntity
  8
V0-OBRYS
  6
CONTINUOUS
 62
    90
100
AcDbLine
 10
272.639655
 20
76.023604
 30
0.0
 11
262.979031
 21
82.527417
 31
0.0
  0
LINE
  5
FA2
100
AcDbEntity
  8
V0-OBRYS
  6
CONTINUOUS
 62
    90
100
AcDbLine
 10
262.979031
 20
82.527417
 30
0.0
 11
261.508935
 21
79.590211
 31
0.0
  0
LINE
  5
FA3
100
AcDbEntity
  8
V0-OBRYS
  6
CONTINUOUS
 62
    90
100
AcDbLine
 10
261.508935
 20
79.590211
 30
0.0
 11
270.964439
 21
72.049002
 31
0.0
  0
LINE
  5
FA4
100
AcDbEntity
  8
V0-OBRYS
  6
CONTINUOUS
 62
    90
100
AcDbLine
 10
277.360345
 20
76.023604
 30
0.0
 11
287.020969
 21
82.527417
 31
0.0
  0
LINE
  5
FA5
100
AcDbEntity
  8
V0-OBRYS
  6
CONTINUOUS
 62
    90
100
AcDbLine
 10
277.360345
 20
76.023604
 30
0.0
 11
279.040453
 21
72.037396
 31
0.0
  0
LINE
  5
FA6
100
AcDbEntity
  8
V0-OBRYS
  6
CONTINUOUS
 62
    90
100
AcDbLine
 10
288.491065
 20
79.590211
 30
0.0
 11
279.035561
 21
72.049002
 31
0.0
  0
LINE
  5
FA7
100
AcDbEntity
  8
V0-OBRYS
  6
CONTINUOUS
 62
    90
100
AcDbLine
 10
287.020969
 20
82.527417
 30
0.0
 11
288.491065
 21
79.590211
 31
0.0
  0
LINE
  5
FA8
100
AcDbEntity
  8
V0-OBRYS
  6
CONTINUOUS
 62
    90
100
AcDbLine
 10
275.050194
 20
76.023604
 30
0.0
 11
277.360345
 21
76.023604
 31
0.0
  0
DIMENSION
  5
FB5
100
AcDbEntity
  8
V0-VYPLNE
  6
CONTINUOUS
 62
    41
100
AcDbDimension
  2
*D5
 10
391.331692
 20
40.0
 30
0.0
 11
382.331692
 21
72.5
 31
0.0
 12
0.0
 22
-10.0
 32
0.0
 70
    32
  3
ED15
100
AcDbAlignedDimension
 13
375.0
 23
85.0
 33
0.0
 14
340.0
 24
40.0
 34
0.0
 50
90.0
100
AcDbRotatedDimension
1001
ACAD
1000
DSTYLE
1002
{
1070
    40
1040
1.0
1070
   178
1070
    41
1070
   177
1070
    41
1070
   176
1070
    41
1002
}
  0
DIMENSION
  5
FC2
100
AcDbEntity
  8
V0-VYPLNE
  6
CONTINUOUS
 62
    41
100
AcDbDimension
  2
*D6
 10
375.0
 20
104.343692
 30
0.0
 11
307.5
 21
123.343692
 31
0.0
 12
0.0
 22
-10.0
 32
0.0
 70
    32
  3
ED15
100
AcDbAlignedDimension
 13
240.0
 23
82.0
 33
0.0
 14
375.0
 24
85.0
 34
0.0
100
AcDbRotatedDimension
1001
ACAD
1000
DSTYLE
1002
{
1070
    40
1040
1.0
1070
   178
1070
    41
1070
   177
1070
    41
1070
   176
1070
    41
1002
}
  0
LINE
  5
FD0
100
AcDbEntity
  8
V0-OBRYS
  6
CONTINUOUS
 62
    90
100
AcDbLine
 10
225.0
 20
-180.571658
 30
0.0
 11
295.0
 21
-180.571658
 31
0.0
  0
LINE
  5
FD1
100
AcDbEntity
  8
V0-OBRYS
  6
CONTINUOUS
 62
    90
100
AcDbLine
 10
295.0
 20
-180.571658
 30
0.0
 11
295.0
 21
-210.571658
 31
0.0
  0
LINE
  5
FD3
100
AcDbEntity
  8
V0-OBRYS
  6
CONTINUOUS
 62
    90
100
AcDbLine
 10
225.0
 20
-260.571658
 30
0.0
 11
225.0
 21
-224.59124
 31
0.0
  0
LINE
  5
FE2
100
AcDbEntity
  8
V0-OBRYS
  6
CONTINUOUS
 62
    90
100
AcDbLine
 10
275.857864
 20
-260.571658
 30
0.0
 11
225.0
 21
-260.571658
 31
0.0
  0
LINE
  5
FE4
100
AcDbEntity
  8
V0-OBRYS
  6
CONTINUOUS
 62
    90
100
AcDbLine
 10
225.0
 20
-214.358454
 30
0.0
 11
225.0
 21
-180.571658
 31
0.0
  0
LINE
  5
105D
100
AcDbEntity
  8
V0-VYPLNE
  6
DASHED
 62
    52
100
AcDbLine
 10
243.0
 20
-42.988114
 30
0.0
 11
237.0
 21
-42.988114
 31
0.0
  0
LINE
  5
105E
100
AcDbEntity
  8
V0-OBRYS
  6
CONTINUOUS
 62
    90
100
AcDbLine
 10
498.419533
 20
-43.934497
 30
0.0
 11
498.419533
 21
-45.938108
 31
0.0
  0
LINE
  5
105F
100
AcDbEntity
  8
V0-OBRYS
  6
CONTINUOUS
 62
    90
100
AcDbLine
 10
493.619533
 20
-43.934497
 30
0.0
 11
493.619533
 21
-45.938108
 31
0.0
  0
LINE
  5
1182
100
AcDbEntity
  8
V0-OBRYS
  6
CONTINUOUS
 62
    90
100
AcDbLine
 10
456.019533
 20
64.0
 30
0.0
 11
536.019533
 21
64.0
 31
0.0
  0
LINE
  5
1183
100
AcDbEntity
  8
V0-OBRYS
  6
CONTINUOUS
 62
    90
100
AcDbLine
 10
487.782367
 20
66.441187
 30
0.0
 11
487.782367
 21
64.0
 31
0.0
  0
LINE
  5
1184
100
AcDbEntity
  8
V0-OBRYS
  6
CONTINUOUS
 62
    90
100
AcDbLine
 10
503.811987
 20
66.441187
 30
0.0
 11
503.811987
 21
64.0
 31
0.0
  0
DIMENSION
  5
11AA
100
AcDbEntity
  8
V0-VYPLNE
  6
CONTINUOUS
 62
    63
100
AcDbDimension
  2
*D7
 10
536.019533
 20
88.361175
 30
0.0
 11
496.424558
 21
88.361175
 31
0.0
 70
   160
  3
ED15
100
AcDbAlignedDimension
 13
456.019533
 23
64.0
 33
0.0
 14
536.019533
 24
64.0
 34
0.0
100
AcDbRotatedDimension
1001
ACAD
1000
DSTYLE
1002
{
1070
    40
1040
1.0
1070
   178
1070
    41
1070
   177
1070
    41
1070
   176
1070
    41
1002
}
  0
LINE
  5
11AB
100
AcDbEntity
  8
V0-OBRYS
  6
CONTINUOUS
 62
    90
100
AcDbLine
 10
295.0
 20
-260.571658
 30
0.0
 11
225.0
 21
-260.571658
 31
0.0
  0
LINE
  5
11AC
100
AcDbEntity
  8
V0-OBRYS
  6
CONTINUOUS
 62
    90
100
AcDbLine
 10
283.864947
 20
-210.106477
 30
0.0
 11
275.830412
 21
-218.141013
 31
0.0
  0
LINE
  5
11AD
100
AcDbEntity
  8
V0-OBRYS
  6
CONTINUOUS
 62
    90
100
AcDbLine
 10
282.167891
 20
-208.409421
 30
0.0
 11
274.133356
 21
-216.443956
 31
0.0
  0
LINE
  5
11AE
100
AcDbEntity
  8
V0-OBRYS
  6
CONTINUOUS
 62
    90
100
AcDbLine
 10
225.0
 20
-180.571658
 30
0.0
 11
295.0
 21
-180.571658
 31
0.0
  0
ARC
  5
11AF
100
AcDbEntity
  8
V0-VYPLNE
  6
DASHDOT
 62
    63
100
AcDbCircle
 10
239.70271
 20
-220.571658
 30
0.0
 40
32.0
100
AcDbArc
 50
260.720854
 51
98.569564
  0
LINE
  5
11B0
100
AcDbEntity
  8
V0-OBRYS
  6
CONTINUOUS
 62
    90
100
AcDbLine
 10
227.70271
 20
-212.571658
 30
0.0
 11
278.005654
 21
-212.571658
 31
0.0
  0
ARC
  5
11B1
100
AcDbEntity
  8
V0-OBRYS
  6
CONTINUOUS
 62
    90
100
AcDbCircle
 10
239.70271
 20
-220.571658
 30
0.0
 40
34.4
100
AcDbArc
 50
270.0
 51
346.552273
  0
ARC
  5
11B2
100
AcDbEntity
  8
V0-OBRYS
  6
CONTINUOUS
 62
    90
100
AcDbCircle
 10
239.70271
 20
-220.571658
 30
0.0
 40
29.6
100
AcDbArc
 50
270.0
 51
344.31965
  0
LINE
  5
11B3
100
AcDbEntity
  8
V0-OBRYS
  6
CONTINUOUS
 62
    90
100
AcDbLine
 10
265.479715
 20
-228.571658
 30
0.0
 11
343.70271
 21
-228.571658
 31
0.0
  0
LINE
  5
11B4
100
AcDbEntity
  8
V0-OBRYS
  6
CONTINUOUS
 62
    90
100
AcDbLine
 10
225.0
 20
-214.358454
 30
0.0
 11
225.0
 21
-180.571658
 31
0.0
  0
LINE
  5
11B5
100
AcDbEntity
  8
V0-OBRYS
  6
CONTINUOUS
 62
    90
100
AcDbLine
 10
225.0
 20
-260.571658
 30
0.0
 11
225.0
 21
-224.59124
 31
0.0
  0
LINE
  5
11B6
100
AcDbEntity
  8
V0-OBRYS
  6
CONTINUOUS
 62
    90
100
AcDbLine
 10
227.70271
 20
-219.771658
 30
0.0
 11
235.783527
 21
-219.771658
 31
0.0
  0
LINE
  5
11B7
100
AcDbEntity
  8
V0-OBRYS
  6
CONTINUOUS
 62
    90
100
AcDbLine
 10
227.70271
 20
-221.371658
 30
0.0
 11
235.783527
 21
-221.371658
 31
0.0
  0
LINE
  5
11B8
100
AcDbEntity
  8
V0-OBRYS
  6
CONTINUOUS
 62
    90
100
AcDbLine
 10
227.70271
 20
-219.771658
 30
0.0
 11
227.70271
 21
-212.571658
 31
0.0
  0
LINE
  5
11B9
100
AcDbEntity
  8
V0-OBRYS
  6
CONTINUOUS
 62
    90
100
AcDbLine
 10
230.258442
 20
-221.371658
 30
0.0
 11
230.258442
 21
-219.771658
 31
0.0
  0
LINE
  5
11BA
100
AcDbEntity
  8
V0-OBRYS
  6
CONTINUOUS
 62
    90
100
AcDbLine
 10
227.70271
 20
-228.571658
 30
0.0
 11
262.005654
 21
-228.571658
 31
0.0
  0
LINE
  5
11BB
100
AcDbEntity
  8
V0-OBRYS
  6
CONTINUOUS
 62
    90
100
AcDbLine
 10
228.745982
 20
-230.949127
 30
0.0
 11
235.34857
 21
-230.949127
 31
0.0
  0
LINE
  5
11BC
100
AcDbEntity
  8
V0-OBRYS
  6
CONTINUOUS
 62
    90
100
AcDbLine
 10
230.258442
 20
-232.255639
 30
0.0
 11
230.258442
 21
-228.571658
 31
0.0
  0
LINE
  5
11BD
100
AcDbEntity
  8
V0-OBRYS
  6
CONTINUOUS
 62
    90
100
AcDbLine
 10
233.491248
 20
-232.255639
 30
0.0
 11
233.491248
 21
-228.571658
 31
0.0
  0
LINE
  5
11BE
100
AcDbEntity
  8
V0-OBRYS
  6
CONTINUOUS
 62
    90
100
AcDbLine
 10
230.258442
 20
-232.255639
 30
0.0
 11
233.491248
 21
-232.255639
 31
0.0
  0
LINE
  5
11BF
100
AcDbEntity
  8
V0-OBRYS
  6
CONTINUOUS
 62
    90
100
AcDbLine
 10
235.34857
 20
-230.949127
 30
0.0
 11
235.34857
 21
-228.471051
 31
0.0
  0
LINE
  5
11C0
100
AcDbEntity
  8
V0-OBRYS
  6
CONTINUOUS
 62
    90
100
AcDbLine
 10
227.70271
 20
-228.571658
 30
0.0
 11
227.70271
 21
-221.371658
 31
0.0
  0
LINE
  5
11C1
100
AcDbEntity
  8
V0-OBRYS
  6
CONTINUOUS
 62
    90
100
AcDbLine
 10
228.745982
 20
-228.473077
 30
0.0
 11
228.745982
 21
-230.949127
 31
0.0
  0
CIRCLE
  5
11C2
100
AcDbEntity
  8
V0-OBRYS
  6
CONTINUOUS
 62
    90
100
AcDbCircle
 10
239.70271
 20
-220.571658
 30
0.0
 40
4.0
  0
LINE
  5
11C3
100
AcDbEntity
  8
V0-OBRYS
  6
CONTINUOUS
 62
    90
100
AcDbLine
 10
259.540474
 20
-231.036838
 30
0.0
 11
267.575009
 21
-223.002303
 31
0.0
  0
LINE
  5
11C4
100
AcDbEntity
  8
V0-OBRYS
  6
CONTINUOUS
 62
    90
100
AcDbLine
 10
261.23753
 20
-232.733894
 30
0.0
 11
269.272065
 21
-224.699359
 31
0.0
  0
ARC
  5
11C5
100
AcDbEntity
  8
V0-OBRYS
  6
CONTINUOUS
 62
    90
100
AcDbCircle
 10
239.70271
 20
-252.571658
 30
0.0
 40
2.4
100
AcDbArc
 50
90.0
 51
270.0
  0
LINE
  5
11C6
100
AcDbEntity
  8
V0-OBRYS
  6
CONTINUOUS
 62
    90
100
AcDbLine
 10
259.540474
 20
-231.036838
 30
0.0
 11
261.23753
 21
-232.733894
 31
0.0
  0
CIRCLE
  5
11C7
100
AcDbEntity
  8
V0-OBRYS
  6
CONTINUOUS
 62
    90
100
AcDbCircle
 10
271.70271
 20
-220.571658
 30
0.0
 40
4.8
  0
CIRCLE
  5
11C8
100
AcDbEntity
  8
V0-OBRYS
  6
CONTINUOUS
 62
    90
100
AcDbCircle
 10
271.70271
 20
-220.571658
 30
0.0
 40
2.4
  0
LINE
  5
11C9
100
AcDbEntity
  8
V0-OBRYS
  6
CONTINUOUS
 62
    90
100
AcDbLine
 10
228.745982
 20
-210.194188
 30
0.0
 11
235.34857
 21
-210.194188
 31
0.0
  0
LINE
  5
11CA
100
AcDbEntity
  8
V0-OBRYS
  6
CONTINUOUS
 62
    90
100
AcDbLine
 10
233.491248
 20
-210.264301
 30
0.0
 11
233.491248
 21
-212.602996
 31
0.0
  0
LINE
  5
11CB
100
AcDbEntity
  8
V0-OBRYS
  6
CONTINUOUS
 62
    90
100
AcDbLine
 10
233.491248
 20
-221.371658
 30
0.0
 11
233.491248
 21
-219.771658
 31
0.0
  0
LINE
  5
11CC
100
AcDbEntity
  8
V0-OBRYS
  6
CONTINUOUS
 62
    90
100
AcDbLine
 10
230.258442
 20
-210.194526
 30
0.0
 11
230.258442
 21
-212.601982
 31
0.0
  0
LINE
  5
11CD
100
AcDbEntity
  8
V0-OBRYS
  6
CONTINUOUS
 62
    90
100
AcDbLine
 10
228.745982
 20
-212.670238
 30
0.0
 11
228.745982
 21
-210.194188
 31
0.0
  0
LINE
  5
11CE
100
AcDbEntity
  8
V0-OBRYS
  6
CONTINUOUS
 62
    90
100
AcDbLine
 10
235.34857
 20
-210.194188
 30
0.0
 11
235.34857
 21
-212.672264
 31
0.0
  0
ARC
  5
11CF
100
AcDbEntity
  8
V0-OBRYS
  6
CONTINUOUS
 62
    90
100
AcDbCircle
 10
239.70271
 20
-188.571658
 30
0.0
 40
2.4
100
AcDbArc
 50
90.0
 51
270.0
  0
LINE
  5
11D0
100
AcDbEntity
  8
V0-OBRYS
  6
CONTINUOUS
 62
    90
100
AcDbLine
 10
295.0
 20
-180.571658
 30
0.0
 11
295.0
 21
-210.571658
 31
0.0
  0
LINE
  5
11D1
100
AcDbEntity
  8
V0-OBRYS
  6
CONTINUOUS
 62
    90
100
AcDbLine
 10
281.689821
 20
-212.571658
 30
0.0
 11
343.70271
 21
-212.571658
 31
0.0
  0
LINE
  5
11D2
100
AcDbEntity
  8
V0-OBRYS
  6
CONTINUOUS
 62
    90
100
AcDbLine
 10
343.70271
 20
-212.571658
 30
0.0
 11
347.70271
 21
-216.571658
 31
0.0
  0
LINE
  5
11D3
100
AcDbEntity
  8
V0-OBRYS
  6
CONTINUOUS
 62
    90
100
AcDbLine
 10
347.70271
 20
-224.571658
 30
0.0
 11
347.70271
 21
-216.571658
 31
0.0
  0
LINE
  5
11D4
100
AcDbEntity
  8
V0-OBRYS
  6
CONTINUOUS
 62
    90
100
AcDbLine
 10
347.70271
 20
-224.571658
 30
0.0
 11
343.70271
 21
-228.571658
 31
0.0
  0
LINE
  5
11D5
100
AcDbEntity
  8
V0-OBRYS
100
AcDbLine
 10
283.70271
 20
-228.571658
 30
0.0
 11
283.70271
 21
-253.257949
 31
0.0
  0
LINE
  5
11D6
100
AcDbEntity
  8
V0-OBRYS
100
AcDbLine
 10
283.70271
 20
-228.571658
 30
0.0
 11
283.70271
 21
-253.257949
 31
0.0
  0
LINE
  5
11D7
100
AcDbEntity
  8
V0-OBRYS
  6
CONTINUOUS
 62
    90
100
AcDbLine
 10
282.167891
 20
-208.409421
 30
0.0
 11
283.864947
 21
-210.106477
 31
0.0
  0
ARC
  5
11D8
100
AcDbEntity
  8
V0-OBRYS
  6
CONTINUOUS
 62
    90
100
AcDbCircle
 10
239.70271
 20
-220.571658
 30
0.0
 40
34.4
100
AcDbArc
 50
13.447727
 51
90.0
  0
ARC
  5
11D9
100
AcDbEntity
  8
V0-OBRYS
  6
CONTINUOUS
 62
    90
100
AcDbCircle
 10
239.70271
 20
-220.571658
 30
0.0
 40
29.6
100
AcDbArc
 50
15.68035
 51
90.0
  0
LINE
  5
11DA
100
AcDbEntity
  8
V0-OBRYS
  6
CONTINUOUS
 62
    90
100
AcDbLine
 10
295.0
 20
-230.571658
 30
0.0
 11
295.0
 21
-265.571658
 31
0.0
  0
LINE
  5
11DB
100
AcDbEntity
  8
V0-OBRYS
  6
CONTINUOUS
 62
    90
100
AcDbLine
 10
456.019533
 20
64.0
 30
0.0
 11
456.019533
 21
18.330303
 31
0.0
  0
LINE
  5
11DC
100
AcDbEntity
  8
V0-OBRYS
  6
CONTINUOUS
 62
    90
100
AcDbLine
 10
536.019533
 20
64.0
 30
0.0
 11
536.019533
 21
18.330303
 31
0.0
  0
LINE
  5
11DD
100
AcDbEntity
  8
V0-OBRYS
  6
CONTINUOUS
 62
    90
100
AcDbLine
 10
487.782367
 20
73.903271
 30
0.0
 11
495.249187
 21
73.903271
 31
0.0
  0
LINE
  5
11DE
100
AcDbEntity
  8
V0-OBRYS
  6
CONTINUOUS
 62
    90
100
AcDbLine
 10
487.782367
 20
64.0
 30
0.0
 11
487.782367
 21
73.903271
 31
0.0
  0
LINE
  5
11DF
100
AcDbEntity
  8
V0-OBRYS
  6
CONTINUOUS
 62
    90
100
AcDbLine
 10
503.811987
 20
64.0
 30
0.0
 11
503.811987
 21
73.903271
 31
0.0
  0
LINE
  5
11E0
100
AcDbEntity
  8
V0-OBRYS
  6
CONTINUOUS
 62
    90
100
AcDbLine
 10
485.349828
 20
65.883553
 30
0.0
 11
485.349828
 21
72.486141
 31
0.0
  0
LINE
  5
11E1
100
AcDbEntity
  8
V0-OBRYS
  6
CONTINUOUS
 62
    90
100
AcDbLine
 10
507.411279
 20
67.396013
 30
0.0
 11
507.411279
 21
70.628819
 31
0.0
  0
LINE
  5
11E2
100
AcDbEntity
  8
V0-OBRYS
  6
CONTINUOUS
 62
    90
100
AcDbLine
 10
506.104767
 20
65.883553
 30
0.0
 11
506.104767
 21
72.486141
 31
0.0
  0
LINE
  5
11E3
100
AcDbEntity
  8
V0-OBRYS
  6
CONTINUOUS
 62
    90
100
AcDbLine
 10
495.249187
 20
64.840282
 30
0.0
 11
495.249187
 21
73.903271
 31
0.0
  0
LINE
  5
11E4
100
AcDbEntity
  8
V0-OBRYS
  6
CONTINUOUS
 62
    90
100
AcDbLine
 10
496.849187
 20
64.840282
 30
0.0
 11
496.849187
 21
73.903271
 31
0.0
  0
LINE
  5
11E5
100
AcDbEntity
  8
V0-OBRYS
  6
CONTINUOUS
 62
    90
100
AcDbLine
 10
503.727298
 20
64.840282
 30
0.0
 11
496.849187
 21
64.840282
 31
0.0
  0
LINE
  5
11E6
100
AcDbEntity
  8
V0-OBRYS
  6
CONTINUOUS
 62
    90
100
AcDbLine
 10
507.411279
 20
67.396013
 30
0.0
 11
503.811987
 21
67.396013
 31
0.0
  0
LINE
  5
11E7
100
AcDbEntity
  8
V0-OBRYS
  6
CONTINUOUS
 62
    90
100
AcDbLine
 10
503.811987
 20
65.883553
 30
0.0
 11
506.104767
 21
65.883553
 31
0.0
  0
LINE
  5
11E8
100
AcDbEntity
  8
V0-OBRYS
  6
CONTINUOUS
 62
    90
100
AcDbLine
 10
495.249187
 20
64.840282
 30
0.0
 11
487.727298
 21
64.840282
 31
0.0
  0
LINE
  5
11E9
100
AcDbEntity
  8
V0-OBRYS
  6
CONTINUOUS
 62
    90
100
AcDbLine
 10
496.849187
 20
67.436211
 30
0.0
 11
495.249187
 21
67.436211
 31
0.0
  0
LINE
  5
11EA
100
AcDbEntity
  8
V0-OBRYS
  6
CONTINUOUS
 62
    90
100
AcDbLine
 10
485.350166
 20
67.396013
 30
0.0
 11
487.757623
 21
67.396013
 31
0.0
  0
LINE
  5
11EB
100
AcDbEntity
  8
V0-OBRYS
  6
CONTINUOUS
 62
    90
100
AcDbLine
 10
487.782367
 20
65.883553
 30
0.0
 11
485.349828
 21
65.883553
 31
0.0
  0
LINE
  5
11EC
100
AcDbEntity
  8
V0-OBRYS
  6
CONTINUOUS
 62
    90
100
AcDbLine
 10
506.104767
 20
72.486141
 30
0.0
 11
503.811987
 21
72.486141
 31
0.0
  0
LINE
  5
11ED
100
AcDbEntity
  8
V0-OBRYS
  6
CONTINUOUS
 62
    90
100
AcDbLine
 10
507.411279
 20
70.628819
 30
0.0
 11
503.811987
 21
70.628819
 31
0.0
  0
LINE
  5
11EE
100
AcDbEntity
  8
V0-OBRYS
  6
CONTINUOUS
 62
    90
100
AcDbLine
 10
496.849187
 20
70.669017
 30
0.0
 11
495.249187
 21
70.669017
 31
0.0
  0
LINE
  5
11EF
100
AcDbEntity
  8
V0-OBRYS
  6
CONTINUOUS
 62
    90
100
AcDbLine
 10
485.349828
 20
72.486141
 30
0.0
 11
487.827904
 21
72.486141
 31
0.0
  0
LINE
  5
11F0
100
AcDbEntity
  8
V0-OBRYS
  6
CONTINUOUS
 62
    90
100
AcDbLine
 10
485.419941
 20
70.628819
 30
0.0
 11
487.758636
 21
70.628819
 31
0.0
  0
LINE
  5
11F1
100
AcDbEntity
  8
V0-OBRYS
  6
CONTINUOUS
 62
    90
100
AcDbLine
 10
496.849187
 20
73.903271
 30
0.0
 11
503.811987
 21
73.903271
 31
0.0
  0
LINE
  5
1239
100
AcDbEntity
  8
V0-OBRYS
  6
CONTINUOUS
 62
    90
100
AcDbLine
 10
210.0
 20
10.832082
 30
0.0
 11
290.0
 21
10.832082
 31
0.0
  0
LINE
  5
123A
100
AcDbEntity
  8
V0-VYPLNE
  6
DASHED
 62
    52
100
AcDbLine
 10
275.188331
 20
-248.927726
 30
0.0
 11
206.444741
 21
-193.995676
 31
0.0
  0
LINE
  5
123C
100
AcDbEntity
  8
V0-OBRYS
100
AcDbLine
 10
300.0
 20
-265.571658
 30
0.0
 11
295.0
 21
-265.571658
 31
0.0
  0
LINE
  5
123D
100
AcDbEntity
  8
V0-OBRYS
  6
CONTINUOUS
 62
    90
100
AcDbLine
 10
283.70271
 20
-228.571658
 30
0.0
 11
283.70271
 21
-253.257949
 31
0.0
  0
LINE
  5
123E
100
AcDbEntity
  8
V0-OBRYS
  6
CONTINUOUS
 62
    90
100
AcDbLine
 10
250.030085
 20
-212.51284
 30
0.0
 11
250.030085
 21
-228.46807
 31
0.0
  0
LWPOLYLINE
  5
1245
100
AcDbEntity
  8
V0-OBRYS
  6
CONTINUOUS
 62
    90
100
AcDbPolyline
 90
        6
 70
     1
 43
0.0
 10
210.510493
 20
71.932483
 10
215.0
 20
69.340465
 10
219.489507
 20
71.932483
 10
219.489507
 20
77.116519
 10
215.0
 20
79.708537
 10
210.510493
 20
77.116519
  0
CIRCLE
  5
1246
100
AcDbEntity
  8
V0-OBRYS
  6
CONTINUOUS
 62
    90
100
AcDbCircle
 10
215.0
 20
74.524501
 30
0.0
 40
2.095397
  0
CIRCLE
  5
1247
100
AcDbEntity
  8
V0-OBRYS
  6
CONTINUOUS
 62
    90
100
AcDbCircle
 10
215.0
 20
74.524501
 30
0.0
 40
4.489507
  0
MTEXT
  5
1482
100
AcDbEntity
  8
V0-NAZVY
100
AcDbMText
 10
487.824607
 20
-76.959666
 30
0.0
 40
17.5
 41
143.94835
 71
     5
 72
     5
  1
MSK-80
  7
ED10
  0
MTEXT
  5
1483
100
AcDbEntity
  8
V0-NAZVY
100
AcDbMText
 10
162.052485
 20
98.339074
 30
0.0
 40
17.5
 41
143.94835
 71
     5
 72
     5
  1
MSK-80
  7
ED10
  0
MTEXT
  5
1484
100
AcDbEntity
  8
V0-NAZVY
100
AcDbMText
 10
237.230668
 20
-154.678318
 30
0.0
 40
17.5
 41
143.94835
 71
     5
 72
     5
  1
MSK-80
  7
ED10
  0
VIEWPORT
  5
22
100
AcDbEntity
 67
     1
  8
0
100
AcDbViewport
 10
261.517699
 20
148.5
 30
0.0
 40
523.035398
 41
297.0
 68
    -1
 69
     1
1001
ACAD
1000
MVIEW
1002
{
1070
    16
1010
0.0
1020
0.0
1030
0.0
1010
0.0
1020
0.0
1030
1.0
1040
0.0
1040
297.0
1040
261.517699
1040
148.5
1040
50.0
1040
0.0
1040
0.0
1070
     0
1070
   100
1070
     1
1070
     1
1070
     0
1070
     0
1070
     0
1070
     0
1040
0.0
1040
0.0
1040
0.0
1040
1.0
1040
1.0
1040
10.0
1040
10.0
1070
     0
1002
{
1002
}
1002
}
  0
ENDSEC
  0
SECTION
  2
OBJECTS
  0
DICTIONARY
  5
C
100
AcDbDictionary
  3
ACAD_GROUP
350
D
  3
ACAD_MLINESTYLE
350
E
  3
ACDBVARIABLEDICTIONARY
350
5D
  0
DICTIONARY
  5
D
102
{ACAD_REACTORS
330
C
102
}
100
AcDbDictionary
  0
DICTIONARY
  5
E
102
{ACAD_REACTORS
330
C
102
}
100
AcDbDictionary
  3
STANDARD
350
13
  0
DICTIONARY
  5
5D
102
{ACAD_REACTORS
330
C
102
}
100
AcDbDictionary
  3
DIMADEC
350
5E
  3
SORTENTS
350
3D8
  0
MLINESTYLE
  5
13
102
{ACAD_REACTORS
330
E
102
}
100
AcDbMlineStyle
  2
STANDARD
 70
     0
  3

 62
     0
 51
90.0
 52
90.0
 71
     2
 49
0.5
 62
   256
  6
BYLAYER
 49
-0.5
 62
   256
  6
BYLAYER
  0
DICTIONARYVAR
  5
5E
102
{ACAD_REACTORS
330
5D
102
}
100
DictionaryVariables
280
     0
  1
0
  0
DICTIONARYVAR
  5
3D8
102
{ACAD_REACTORS
330
5D
102
}
100
DictionaryVariables
280
     0
  1
96
  0
ENDSEC
  0
EOF
