  0
SECTION
  2
HEADER
  9
$ACADVER
  1
AC1014
  9
$ACADMAINTVER
 70
     0
  9
$DWGCODEPAGE
  3
ANSI_1250
  9
$INSBASE
 10
0.0
 20
0.0
 30
0.0
  9
$EXTMIN
 10
0.0
 20
-495.619423
 30
0.0
  9
$EXTMAX
 10
880.15208
 20
222.593638
 30
0.0
  9
$LIMMIN
 10
0.0
 20
0.0
  9
$LIMMAX
 10
420.0
 20
297.0
  9
$ORTHOMODE
 70
     0
  9
$REGENMODE
 70
     1
  9
$FILLMODE
 70
     1
  9
$QTEXTMODE
 70
     0
  9
$MIRRTEXT
 70
     1
  9
$DRAGMODE
 70
     2
  9
$LTSCALE
 40
1.0
  9
$OSMODE
 70
    37
  9
$ATTMODE
 70
     1
  9
$TEXTSIZE
 40
2.5
  9
$TRACEWID
 40
1.0
  9
$TEXTSTYLE
  7
STANDARD
  9
$CLAYER
  8
0
  9
$CELTYPE
  6
BYLAYER
  9
$CECOLOR
 62
   256
  9
$CELTSCALE
 40
1.0
  9
$DELOBJ
 70
     1
  9
$DISPSILH
 70
     0
  9
$DIMSCALE
 40
1.0
  9
$DIMASZ
 40
25.0
  9
$DIMEXO
 40
0.625
  9
$DIMDLI
 40
3.75
  9
$DIMRND
 40
0.0
  9
$DIMDLE
 40
0.0
  9
$DIMEXE
 40
1.25
  9
$DIMTP
 40
0.0
  9
$DIMTM
 40
0.0
  9
$DIMTXT
 40
25.0
  9
$DIMCEN
 40
2.5
  9
$DIMTSZ
 40
0.0
  9
$DIMTOL
 70
     0
  9
$DIMLIM
 70
     0
  9
$DIMTIH
 70
     0
  9
$DIMTOH
 70
     0
  9
$DIMSE1
 70
     0
  9
$DIMSE2
 70
     0
  9
$DIMTAD
 70
     1
  9
$DIMZIN
 70
     8
  9
$DIMBLK
  1

  9
$DIMASO
 70
     1
  9
$DIMSHO
 70
     1
  9
$DIMPOST
  1

  9
$DIMAPOST
  1

  9
$DIMALT
 70
     0
  9
$DIMALTD
 70
     4
  9
$DIMALTF
 40
0.0394
  9
$DIMLFAC
 40
1.0
  9
$DIMTOFL
 70
     0
  9
$DIMTVP
 40
0.0
  9
$DIMTIX
 70
     0
  9
$DIMSOXD
 70
     0
  9
$DIMSAH
 70
     1
  9
$DIMBLK1
  1
_OPEN
  9
$DIMBLK2
  1
_OPEN
  9
$DIMSTYLE
  2
STANDARD
  9
$DIMCLRD
 70
     0
  9
$DIMCLRE
 70
     0
  9
$DIMCLRT
 70
     0
  9
$DIMTFAC
 40
1.0
  9
$DIMGAP
 40
3.0
  9
$DIMJUST
 70
     0
  9
$DIMSD1
 70
     0
  9
$DIMSD2
 70
     0
  9
$DIMTOLJ
 70
     1
  9
$DIMTZIN
 70
     0
  9
$DIMALTZ
 70
     0
  9
$DIMALTTZ
 70
     0
  9
$DIMFIT
 70
     3
  9
$DIMUPT
 70
     0
  9
$DIMUNIT
 70
     2
  9
$DIMDEC
 70
     0
  9
$DIMTDEC
 70
     4
  9
$DIMALTU
 70
     8
  9
$DIMALTTD
 70
     4
  9
$DIMTXSTY
  7
STANDARD
  9
$DIMAUNIT
 70
     0
  9
$LUNITS
 70
     2
  9
$LUPREC
 70
     4
  9
$SKETCHINC
 40
1.0
  9
$FILLETRAD
 40
10.0
  9
$AUNITS
 70
     0
  9
$AUPREC
 70
     0
  9
$MENU
  1
.
  9
$ELEVATION
 40
0.0
  9
$PELEVATION
 40
0.0
  9
$THICKNESS
 40
0.0
  9
$LIMCHECK
 70
     0
  9
$BLIPMODE
 70
     0
  9
$CHAMFERA
 40
10.0
  9
$CHAMFERB
 40
10.0
  9
$CHAMFERC
 40
20.0
  9
$CHAMFERD
 40
0.0
  9
$SKPOLY
 70
     0
  9
$TDCREATE
 40
2451201.446247917
  9
$TDUPDATE
 40
2453315.460195868
  9
$TDINDWG
 40
0.0438107870
  9
$TDUSRTIMER
 40
0.0438107870
  9
$USRTIMER
 70
     1
  9
$ANGBASE
 50
0.0
  9
$ANGDIR
 70
     0
  9
$PDMODE
 70
     3
  9
$PDSIZE
 40
15.0
  9
$PLINEWID
 40
0.0
  9
$COORDS
 70
     1
  9
$SPLFRAME
 70
     0
  9
$SPLINETYPE
 70
     6
  9
$SPLINESEGS
 70
     8
  9
$ATTDIA
 70
     0
  9
$ATTREQ
 70
     1
  9
$HANDLING
 70
     1
  9
$HANDSEED
  5
6F4
  9
$SURFTAB1
 70
     6
  9
$SURFTAB2
 70
     6
  9
$SURFTYPE
 70
     6
  9
$SURFU
 70
     6
  9
$SURFV
 70
     6
  9
$UCSNAME
  2

  9
$UCSORG
 10
99.09939180019136
 20
-366.6194225898761
 30
0.0
  9
$UCSXDIR
 10
1.0
 20
0.0
 30
0.0
  9
$UCSYDIR
 10
0.0
 20
1.0
 30
0.0
  9
$PUCSNAME
  2

  9
$PUCSORG
 10
0.0
 20
0.0
 30
0.0
  9
$PUCSXDIR
 10
1.0
 20
0.0
 30
0.0
  9
$PUCSYDIR
 10
0.0
 20
1.0
 30
0.0
  9
$USERI1
 70
     0
  9
$USERI2
 70
     0
  9
$USERI3
 70
     0
  9
$USERI4
 70
     0
  9
$USERI5
 70
     0
  9
$USERR1
 40
0.0
  9
$USERR2
 40
0.0
  9
$USERR3
 40
0.0
  9
$USERR4
 40
0.0
  9
$USERR5
 40
0.0
  9
$WORLDVIEW
 70
     1
  9
$SHADEDGE
 70
     3
  9
$SHADEDIF
 70
    70
  9
$TILEMODE
 70
     1
  9
$MAXACTVP
 70
    48
  9
$PINSBASE
 10
0.0
 20
0.0
 30
0.0
  9
$PLIMCHECK
 70
     0
  9
$PEXTMIN
 10
1.000000E+20
 20
1.000000E+20
 30
1.000000E+20
  9
$PEXTMAX
 10
-1.000000E+20
 20
-1.000000E+20
 30
-1.000000E+20
  9
$PLIMMIN
 10
0.0
 20
0.0
  9
$PLIMMAX
 10
420.0
 20
297.0
  9
$UNITMODE
 70
     0
  9
$VISRETAIN
 70
     1
  9
$PLINEGEN
 70
     0
  9
$PSLTSCALE
 70
     1
  9
$TREEDEPTH
 70
  3020
  9
$PICKSTYLE
 70
     1
  9
$CMLSTYLE
  2
STANDARD
  9
$CMLJUST
 70
     0
  9
$CMLSCALE
 40
20.0
  9
$PROXYGRAPHICS
 70
     1
  9
$MEASUREMENT
 70
     1
  0
ENDSEC
  0
SECTION
  2
CLASSES
  0
ENDSEC
  0
SECTION
  2
TABLES
  0
TABLE
  2
VPORT
  5
8
100
AcDbSymbolTable
 70
     2
  0
VPORT
  5
6F3
100
AcDbSymbolTableRecord
100
AcDbViewportTableRecord
  2
*ACTIVE
 70
     0
 10
0.0
 20
0.0
 11
1.0
 21
1.0
 12
440.076042
 22
-74.517926
 13
0.0
 23
0.0
 14
10.0
 24
10.0
 15
10.0
 25
10.0
 16
0.0
 26
0.0
 36
1.0
 17
0.0
 27
0.0
 37
0.0
 40
850.977718
 41
1.523346
 42
50.0
 43
0.0
 44
0.0
 50
0.0
 51
0.0
 71
     0
 72
   100
 73
     1
 74
     1
 75
     0
 76
     0
 77
     0
 78
     0
  0
ENDTAB
  0
TABLE
  2
LTYPE
  5
5
100
AcDbSymbolTable
 70
     2
  0
LTYPE
  5
12
100
AcDbSymbolTableRecord
100
AcDbLinetypeTableRecord
  2
BYBLOCK
 70
     0
  3

 72
    65
 73
     0
 40
0.0
  0
LTYPE
  5
13
100
AcDbSymbolTableRecord
100
AcDbLinetypeTableRecord
  2
BYLAYER
 70
     0
  3

 72
    65
 73
     0
 40
0.0
  0
LTYPE
  5
14
100
AcDbSymbolTableRecord
100
AcDbLinetypeTableRecord
  2
CONTINUOUS
 70
     0
  3
Solid line
 72
    65
 73
     0
 40
0.0
  0
LTYPE
  5
75
100
AcDbSymbolTableRecord
100
AcDbLinetypeTableRecord
  2
DASHDOT
 70
     0
  3
__ . __ . __ . __ . __ . __ . __ . __ . __ . __
 72
    65
 73
     4
 40
1.0
 49
0.5
 74
     0
 49
-0.25
 74
     0
 49
0.0
 74
     0
 49
-0.25
 74
     0
  0
ENDTAB
  0
TABLE
  2
LAYER
  5
2
100
AcDbSymbolTable
 70
     7
  0
LAYER
  5
E
100
AcDbSymbolTableRecord
100
AcDbLayerTableRecord
  2
0
 70
     0
 62
     7
  6
CONTINUOUS
  0
LAYER
  5
8A
100
AcDbSymbolTableRecord
100
AcDbLayerTableRecord
  2
KOTY
 70
     0
 62
    41
  6
CONTINUOUS
  0
LAYER
  5
242
100
AcDbSymbolTableRecord
100
AcDbLayerTableRecord
  2
DEFPOINTS
 70
     0
 62
     7
  6
CONTINUOUS
  0
LAYER
  5
6CB
100
AcDbSymbolTableRecord
100
AcDbLayerTableRecord
  2
V0-OBRYS
 70
     0
 62
    90
  6
CONTINUOUS
  0
LAYER
  5
6CC
100
AcDbSymbolTableRecord
100
AcDbLayerTableRecord
  2
V0-VYPLNE
 70
     0
 62
    52
  6
CONTINUOUS
  0
LAYER
  5
6CD
100
AcDbSymbolTableRecord
100
AcDbLayerTableRecord
  2
V0-NAZVY
 70
     0
 62
   210
  6
CONTINUOUS
  0
LAYER
  5
6CE
100
AcDbSymbolTableRecord
100
AcDbLayerTableRecord
  2
V0-ZBYTEK
 70
     0
 62
    51
  6
CONTINUOUS
  0
ENDTAB
  0
TABLE
  2
STYLE
  5
3
100
AcDbSymbolTable
 70
     3
  0
STYLE
  5
F
100
AcDbSymbolTableRecord
100
AcDbTextStyleTableRecord
  2
STANDARD
 70
     0
 40
0.0
 41
1.0
 50
0.0
 71
     0
 42
2.5
  3
txt
  4

  0
STYLE
  5
93
100
AcDbSymbolTableRecord
100
AcDbTextStyleTableRecord
  2
SIMPLEX
 70
     0
 40
0.0
 41
1.0
 50
0.0
 71
     0
 42
0.2
  3
SIMPLEX
  4

  0
STYLE
  5
6D0
100
AcDbSymbolTableRecord
100
AcDbTextStyleTableRecord
  2
ED
 70
     0
 40
20.0
 41
1.0
 50
0.0
 71
     0
 42
2.5
  3
ISOCP.shx
  4

  0
ENDTAB
  0
TABLE
  2
VIEW
  5
6
100
AcDbSymbolTable
 70
     0
  0
ENDTAB
  0
TABLE
  2
UCS
  5
7
100
AcDbSymbolTable
 70
     0
  0
ENDTAB
  0
TABLE
  2
APPID
  5
9
100
AcDbSymbolTable
 70
     1
  0
APPID
  5
10
100
AcDbSymbolTableRecord
100
AcDbRegAppTableRecord
  2
ACAD
 70
     0
  0
ENDTAB
  0
TABLE
  2
DIMSTYLE
  5
A
100
AcDbSymbolTable
 70
     1
  0
DIMSTYLE
105
1D
102
{ACAD_REACTORS
330
261
330
26E
330
286
330
247
330
254
330
599
102
}
100
AcDbSymbolTableRecord
100
AcDbDimStyleTableRecord
  2
STANDARD
 70
     0
  3

  4

  5

  6

  7

 40
1.0
 41
0.18
 42
0.0625
 43
0.38
 44
0.18
 45
0.0
 46
0.0
 47
0.0
 48
0.0
140
0.18
141
0.09
142
0.0
143
25.4
144
1.0
145
0.0
146
1.0
147
0.09
 71
     0
 72
     0
 73
     1
 74
     1
 75
     0
 76
     0
 77
     0
 78
     0
170
     0
171
     2
172
     0
173
     0
174
     0
175
     0
176
     0
177
     0
178
     0
270
     2
271
     4
272
     4
273
     2
274
     2
340
F
275
     0
280
     0
281
     0
282
     0
283
     1
284
     0
285
     0
286
     0
287
     3
288
     0
  0
ENDTAB
  0
TABLE
  2
BLOCK_RECORD
  5
1
100
AcDbSymbolTable
 70
     8
  0
BLOCK_RECORD
  5
18
100
AcDbSymbolTableRecord
100
AcDbBlockTableRecord
  2
*MODEL_SPACE
  0
BLOCK_RECORD
  5
15
100
AcDbSymbolTableRecord
100
AcDbBlockTableRecord
  2
*PAPER_SPACE
  0
BLOCK_RECORD
  5
234
100
AcDbSymbolTableRecord
100
AcDbBlockTableRecord
  2
_OPEN
  0
BLOCK_RECORD
  5
23A
100
AcDbSymbolTableRecord
100
AcDbBlockTableRecord
  2
*D1
  0
BLOCK_RECORD
  5
248
100
AcDbSymbolTableRecord
100
AcDbBlockTableRecord
  2
*D2
  0
BLOCK_RECORD
  5
255
100
AcDbSymbolTableRecord
100
AcDbBlockTableRecord
  2
*D3
  0
BLOCK_RECORD
  5
262
100
AcDbSymbolTableRecord
100
AcDbBlockTableRecord
  2
*D4
  0
BLOCK_RECORD
  5
27A
100
AcDbSymbolTableRecord
100
AcDbBlockTableRecord
  2
*D5
  0
BLOCK_RECORD
  5
58C
100
AcDbSymbolTableRecord
100
AcDbBlockTableRecord
  2
*D6
  0
BLOCK_RECORD
  5
6D7
100
AcDbSymbolTableRecord
100
AcDbBlockTableRecord
  2
ABBB
  0
ENDTAB
  0
ENDSEC
  0
SECTION
  2
BLOCKS
  0
BLOCK
  5
19
100
AcDbEntity
  8
0
100
AcDbBlockBegin
  2
*MODEL_SPACE
 70
     0
 10
0.0
 20
0.0
 30
0.0
  3
*MODEL_SPACE
  1

  0
ENDBLK
  5
1A
100
AcDbEntity
  8
0
100
AcDbBlockEnd
  0
BLOCK
  5
16
100
AcDbEntity
 67
     1
  8
0
100
AcDbBlockBegin
  2
*PAPER_SPACE
 70
     0
 10
0.0
 20
0.0
 30
0.0
  3
*PAPER_SPACE
  1

  0
ENDBLK
  5
17
100
AcDbEntity
 67
     1
  8
0
100
AcDbBlockEnd
  0
BLOCK
  5
235
100
AcDbEntity
  8
0
100
AcDbBlockBegin
  2
_OPEN
 70
     0
 10
0.0
 20
0.0
 30
0.0
  3
_OPEN
  1

  0
LINE
  5
236
100
AcDbEntity
  8
0
  6
BYBLOCK
 62
     0
100
AcDbLine
 10
-1.0
 20
0.166667
 30
0.0
 11
0.0
 21
0.0
 31
0.0
  0
LINE
  5
237
100
AcDbEntity
  8
0
  6
BYBLOCK
 62
     0
100
AcDbLine
 10
0.0
 20
0.0
 30
0.0
 11
-1.0
 21
-0.166667
 31
0.0
  0
LINE
  5
238
100
AcDbEntity
  8
0
  6
BYBLOCK
 62
     0
100
AcDbLine
 10
0.0
 20
0.0
 30
0.0
 11
-1.0
 21
0.0
 31
0.0
  0
ENDBLK
  5
239
100
AcDbEntity
  8
0
100
AcDbBlockEnd
  0
BLOCK
  5
5F4
100
AcDbEntity
  8
0
100
AcDbBlockBegin
  2
*D1
 70
     1
 10
0.0
 20
0.0
 30
0.0
  3
*D1
  1

  0
LINE
  5
5F5
100
AcDbEntity
  8
0
  6
BYBLOCK
 62
     0
100
AcDbLine
 10
50.0
 20
-100.625
 30
0.0
 11
50.0
 21
-216.408729
 31
0.0
  0
LINE
  5
5F6
100
AcDbEntity
  8
0
  6
BYBLOCK
 62
     0
100
AcDbLine
 10
430.0
 20
-100.625
 30
0.0
 11
430.0
 21
-216.408729
 31
0.0
  0
LINE
  5
5F7
100
AcDbEntity
  8
0
  6
BYBLOCK
 62
     0
100
AcDbLine
 10
75.0
 20
-215.158729
 30
0.0
 11
405.0
 21
-215.158729
 31
0.0
  0
INSERT
  5
5F8
100
AcDbEntity
  8
0
  6
BYBLOCK
 62
     0
100
AcDbBlockReference
  2
_OPEN
 10
50.0
 20
-215.158729
 30
0.0
 41
25.0
 42
25.0
 43
25.0
 50
180.0
  0
INSERT
  5
5F9
100
AcDbEntity
  8
0
  6
BYBLOCK
 62
     0
100
AcDbBlockReference
  2
_OPEN
 10
430.0
 20
-215.158729
 30
0.0
 41
25.0
 42
25.0
 43
25.0
  0
MTEXT
  5
5FA
100
AcDbEntity
  8
0
  6
BYBLOCK
 62
     0
100
AcDbMText
 10
239.441548
 20
-199.658729
 30
0.0
 40
25.0
 41
0.0
 71
     5
 72
     1
  1
\A1;380
  0
POINT
  5
5FB
100
AcDbEntity
  8
DEFPOINTS
  6
BYBLOCK
 62
     0
100
AcDbPoint
 10
50.0
 20
-100.0
 30
0.0
  0
POINT
  5
5FC
100
AcDbEntity
  8
DEFPOINTS
  6
BYBLOCK
 62
     0
100
AcDbPoint
 10
430.0
 20
-100.0
 30
0.0
  0
POINT
  5
5FD
100
AcDbEntity
  8
DEFPOINTS
  6
BYBLOCK
 62
     0
100
AcDbPoint
 10
430.0
 20
-215.158729
 30
0.0
  0
ENDBLK
  5
5FE
100
AcDbEntity
  8
0
100
AcDbBlockEnd
  0
BLOCK
  5
448
100
AcDbEntity
  8
0
100
AcDbBlockBegin
  2
*D2
 70
     1
 10
0.0
 20
0.0
 30
0.0
  3
*D2
  1

  0
LINE
  5
449
100
AcDbEntity
  8
0
  6
BYBLOCK
 62
     0
100
AcDbLine
 10
430.625
 20
100.0
 30
0.0
 11
487.342865
 21
100.0
 31
0.0
  0
LINE
  5
44A
100
AcDbEntity
  8
0
  6
BYBLOCK
 62
     0
100
AcDbLine
 10
430.625
 20
-100.0
 30
0.0
 11
487.342865
 21
-100.0
 31
0.0
  0
LINE
  5
44B
100
AcDbEntity
  8
0
  6
BYBLOCK
 62
     0
100
AcDbLine
 10
486.092865
 20
75.0
 30
0.0
 11
486.092865
 21
-75.0
 31
0.0
  0
INSERT
  5
44C
100
AcDbEntity
  8
0
  6
BYBLOCK
 62
     0
100
AcDbBlockReference
  2
_OPEN
 10
486.092865
 20
100.0
 30
0.0
 41
25.0
 42
25.0
 43
25.0
 50
90.0
  0
INSERT
  5
44D
100
AcDbEntity
  8
0
  6
BYBLOCK
 62
     0
100
AcDbBlockReference
  2
_OPEN
 10
486.092865
 20
-100.0
 30
0.0
 41
25.0
 42
25.0
 43
25.0
 50
270.0
  0
MTEXT
  5
44E
100
AcDbEntity
  8
0
  6
BYBLOCK
 62
     0
100
AcDbMText
 10
470.592865
 20
0.0
 30
0.0
 40
25.0
 41
0.0
 71
     5
 72
     1
  1
\A1;\U+2205200
 11
0.0
 21
1.0
 31
0.0
  0
POINT
  5
44F
100
AcDbEntity
  8
DEFPOINTS
  6
BYBLOCK
 62
     0
100
AcDbPoint
 10
430.0
 20
100.0
 30
0.0
  0
POINT
  5
450
100
AcDbEntity
  8
DEFPOINTS
  6
BYBLOCK
 62
     0
100
AcDbPoint
 10
430.0
 20
-100.0
 30
0.0
  0
POINT
  5
451
100
AcDbEntity
  8
DEFPOINTS
  6
BYBLOCK
 62
     0
100
AcDbPoint
 10
486.092865
 20
-100.0
 30
0.0
  0
ENDBLK
  5
452
100
AcDbEntity
  8
0
100
AcDbBlockEnd
  0
BLOCK
  5
627
100
AcDbEntity
  8
0
100
AcDbBlockBegin
  2
*D3
 70
     1
 10
0.0
 20
0.0
 30
0.0
  3
*D3
  1

  0
LINE
  5
628
100
AcDbEntity
  8
0
  6
BYBLOCK
 62
     0
100
AcDbLine
 10
568.5
 20
-150.625
 30
0.0
 11
568.5
 21
-190.626043
 31
0.0
  0
LINE
  5
629
100
AcDbEntity
  8
0
  6
BYBLOCK
 62
     0
100
AcDbLine
 10
826.5
 20
-150.625
 30
0.0
 11
826.5
 21
-190.626043
 31
0.0
  0
LINE
  5
62A
100
AcDbEntity
  8
0
  6
BYBLOCK
 62
     0
100
AcDbLine
 10
593.5
 20
-189.376043
 30
0.0
 11
801.5
 21
-189.376043
 31
0.0
  0
INSERT
  5
62B
100
AcDbEntity
  8
0
  6
BYBLOCK
 62
     0
100
AcDbBlockReference
  2
_OPEN
 10
568.5
 20
-189.376043
 30
0.0
 41
25.0
 42
25.0
 43
25.0
 50
180.0
  0
INSERT
  5
62C
100
AcDbEntity
  8
0
  6
BYBLOCK
 62
     0
100
AcDbBlockReference
  2
_OPEN
 10
826.5
 20
-189.376043
 30
0.0
 41
25.0
 42
25.0
 43
25.0
  0
MTEXT
  5
62D
100
AcDbEntity
  8
0
  6
BYBLOCK
 62
     0
100
AcDbMText
 10
697.5
 20
-173.876043
 30
0.0
 40
25.0
 41
0.0
 71
     5
 72
     1
  1
\A1;258
  0
POINT
  5
62E
100
AcDbEntity
  8
DEFPOINTS
  6
BYBLOCK
 62
     0
100
AcDbPoint
 10
568.5
 20
-150.0
 30
0.0
  0
POINT
  5
62F
100
AcDbEntity
  8
DEFPOINTS
  6
BYBLOCK
 62
     0
100
AcDbPoint
 10
826.5
 20
-150.0
 30
0.0
  0
POINT
  5
630
100
AcDbEntity
  8
DEFPOINTS
  6
BYBLOCK
 62
     0
100
AcDbPoint
 10
826.5
 20
-189.376043
 30
0.0
  0
ENDBLK
  5
631
100
AcDbEntity
  8
0
100
AcDbBlockEnd
  0
BLOCK
  5
31E
100
AcDbEntity
  8
0
100
AcDbBlockBegin
  2
*D4
 70
     1
 10
0.0
 20
0.0
 30
0.0
  3
*D4
  1

  0
LINE
  5
31F
100
AcDbEntity
  8
0
  6
BYBLOCK
 62
     0
100
AcDbLine
 10
827.625
 20
154.646317
 30
0.0
 11
874.735414
 21
154.646317
 31
0.0
  0
LINE
  5
320
100
AcDbEntity
  8
0
  6
BYBLOCK
 62
     0
100
AcDbLine
 10
824.625
 20
-150.625
 30
0.0
 11
874.735414
 21
-150.625
 31
0.0
  0
LINE
  5
321
100
AcDbEntity
  8
0
  6
BYBLOCK
 62
     0
100
AcDbLine
 10
873.485414
 20
129.646317
 30
0.0
 11
873.485414
 21
-125.625
 31
0.0
  0
INSERT
  5
322
100
AcDbEntity
  8
0
  6
BYBLOCK
 62
     0
100
AcDbBlockReference
  2
_OPEN
 10
873.485414
 20
154.646317
 30
0.0
 41
25.0
 42
25.0
 43
25.0
 50
90.0
  0
INSERT
  5
323
100
AcDbEntity
  8
0
  6
BYBLOCK
 62
     0
100
AcDbBlockReference
  2
_OPEN
 10
873.485414
 20
-150.625
 30
0.0
 41
25.0
 42
25.0
 43
25.0
 50
270.0
  0
MTEXT
  5
324
100
AcDbEntity
  8
0
  6
BYBLOCK
 62
     0
100
AcDbMText
 10
857.985414
 20
2.010658
 30
0.0
 40
25.0
 41
0.0
 71
     5
 72
     1
  1
\A1;305
 11
0.0
 21
1.0
 31
0.0
  0
POINT
  5
325
100
AcDbEntity
  8
DEFPOINTS
  6
BYBLOCK
 62
     0
100
AcDbPoint
 10
827.0
 20
154.646317
 30
0.0
  0
POINT
  5
326
100
AcDbEntity
  8
DEFPOINTS
  6
BYBLOCK
 62
     0
100
AcDbPoint
 10
824.0
 20
-150.625
 30
0.0
  0
POINT
  5
327
100
AcDbEntity
  8
DEFPOINTS
  6
BYBLOCK
 62
     0
100
AcDbPoint
 10
873.485414
 20
-150.625
 30
0.0
  0
ENDBLK
  5
328
100
AcDbEntity
  8
0
100
AcDbBlockEnd
  0
BLOCK
  5
27B
100
AcDbEntity
  8
0
100
AcDbBlockBegin
  2
*D5
 70
     1
 10
0.0
 20
0.0
 30
0.0
  3
*D5
  1

  0
LINE
  5
27C
100
AcDbEntity
  8
0
  6
BYBLOCK
 62
     0
100
AcDbLine
 10
590.0
 20
139.540421
 30
0.0
 11
590.0
 21
192.522357
 31
0.0
  0
LINE
  5
27D
100
AcDbEntity
  8
0
  6
BYBLOCK
 62
     0
100
AcDbLine
 10
805.0
 20
139.540421
 30
0.0
 11
805.0
 21
192.522357
 31
0.0
  0
LINE
  5
27E
100
AcDbEntity
  8
0
  6
BYBLOCK
 62
     0
100
AcDbLine
 10
615.0
 20
191.272357
 30
0.0
 11
780.0
 21
191.272357
 31
0.0
  0
INSERT
  5
27F
100
AcDbEntity
  8
0
  6
BYBLOCK
 62
     0
100
AcDbBlockReference
  2
_OPEN
 10
590.0
 20
191.272357
 30
0.0
 41
25.0
 42
25.0
 43
25.0
 50
180.0
  0
INSERT
  5
280
100
AcDbEntity
  8
0
  6
BYBLOCK
 62
     0
100
AcDbBlockReference
  2
_OPEN
 10
805.0
 20
191.272357
 30
0.0
 41
25.0
 42
25.0
 43
25.0
  0
MTEXT
  5
281
100
AcDbEntity
  8
0
  6
BYBLOCK
 62
     0
100
AcDbMText
 10
697.5
 20
206.772357
 30
0.0
 40
25.0
 41
0.0
 71
     5
 72
     1
  1
\A1;215
  0
POINT
  5
282
100
AcDbEntity
  8
DEFPOINTS
  6
BYBLOCK
 62
     0
100
AcDbPoint
 10
590.0
 20
138.915421
 30
0.0
  0
POINT
  5
283
100
AcDbEntity
  8
DEFPOINTS
  6
BYBLOCK
 62
     0
100
AcDbPoint
 10
805.0
 20
138.915421
 30
0.0
  0
POINT
  5
284
100
AcDbEntity
  8
DEFPOINTS
  6
BYBLOCK
 62
     0
100
AcDbPoint
 10
805.0
 20
191.272357
 30
0.0
  0
ENDBLK
  5
285
100
AcDbEntity
  8
0
100
AcDbBlockEnd
  0
BLOCK
  5
60B
100
AcDbEntity
  8
0
100
AcDbBlockBegin
  2
*D6
 70
     1
 10
0.0
 20
0.0
 30
0.0
  3
*D6
  1

  0
LINE
  5
60C
100
AcDbEntity
  8
0
  6
BYBLOCK
 62
     0
100
AcDbLine
 10
50.0
 20
-101.25
 30
0.0
 11
50.0
 21
-183.524254
 31
0.0
  0
LINE
  5
60D
100
AcDbEntity
  8
0
  6
BYBLOCK
 62
     0
100
AcDbLine
 10
90.0
 20
-100.625
 30
0.0
 11
90.0
 21
-183.524254
 31
0.0
  0
LINE
  5
60E
100
AcDbEntity
  8
0
  6
BYBLOCK
 62
     0
100
AcDbLine
 10
25.0
 20
-182.274254
 30
0.0
 11
0.0
 21
-182.274254
 31
0.0
  0
LINE
  5
60F
100
AcDbEntity
  8
0
  6
BYBLOCK
 62
     0
100
AcDbLine
 10
115.0
 20
-182.274254
 30
0.0
 11
140.0
 21
-182.274254
 31
0.0
  0
INSERT
  5
610
100
AcDbEntity
  8
0
  6
BYBLOCK
 62
     0
100
AcDbBlockReference
  2
_OPEN
 10
50.0
 20
-182.274254
 30
0.0
 41
25.0
 42
25.0
 43
25.0
  0
INSERT
  5
611
100
AcDbEntity
  8
0
  6
BYBLOCK
 62
     0
100
AcDbBlockReference
  2
_OPEN
 10
90.0
 20
-182.274254
 30
0.0
 41
25.0
 42
25.0
 43
25.0
 50
180.0
  0
MTEXT
  5
612
100
AcDbEntity
  8
0
  6
BYBLOCK
 62
     0
100
AcDbMText
 10
70.0
 20
-166.774254
 30
0.0
 40
25.0
 41
0.0
 71
     5
 72
     1
  1
\A1;40
  0
POINT
  5
613
100
AcDbEntity
  8
DEFPOINTS
  6
BYBLOCK
 62
     0
100
AcDbPoint
 10
50.0
 20
-100.625
 30
0.0
  0
POINT
  5
614
100
AcDbEntity
  8
DEFPOINTS
  6
BYBLOCK
 62
     0
100
AcDbPoint
 10
90.0
 20
-100.0
 30
0.0
  0
POINT
  5
615
100
AcDbEntity
  8
DEFPOINTS
  6
BYBLOCK
 62
     0
100
AcDbPoint
 10
90.0
 20
-182.274254
 30
0.0
  0
ENDBLK
  5
616
100
AcDbEntity
  8
0
100
AcDbBlockEnd
  0
BLOCK
  5
6D8
100
AcDbEntity
  8
0
100
AcDbBlockBegin
  2
ABBB
 70
     0
 10
0.0
 20
0.0
 30
0.0
  3
ABBB
  1

  0
ENDBLK
  5
6D9
100
AcDbEntity
  8
0
100
AcDbBlockEnd
  0
ENDSEC
  0
SECTION
  2
ENTITIES
  0
LINE
  5
124
100
AcDbEntity
  8
V0-VYPLNE
  6
DASHDOT
 62
    63
 48
20.0
100
AcDbLine
 10
445.195923
 20
0.0
 30
0.0
 11
42.080452
 21
0.0
 31
0.0
  0
LINE
  5
125
100
AcDbEntity
  8
V0-VYPLNE
  6
DASHDOT
 62
    63
 48
20.0
100
AcDbLine
 10
444.295315
 20
-366.619423
 30
0.0
 11
41.179844
 21
-366.619423
 31
0.0
  0
TEXT
  5
126
100
AcDbEntity
  8
V0-ZBYTEK
  6
CONTINUOUS
 62
    51
100
AcDbText
 10
576.769752
 20
-391.255775
 30
0.0
 40
15.0
  1
PRO KRUHOVA POTRUBI
  7
SIMPLEX
 72
     1
 11
711.412609
 21
-391.255775
 31
0.0
100
AcDbText
  0
TEXT
  5
127
100
AcDbEntity
  8
V0-ZBYTEK
  6
CONTINUOUS
 62
   130
100
AcDbText
 10
567.244171
 20
-357.041267
 30
0.0
 40
25.0
  1
VODNI OHRIVAC
  7
SIMPLEX
 72
     1
 11
711.29179
 21
-357.041267
 31
0.0
100
AcDbText
  0
LINE
  5
128
100
AcDbEntity
  8
V0-OBRYS
  6
CONTINUOUS
 62
    90
100
AcDbLine
 10
244.656948
 20
-366.200386
 30
0.0
 11
244.656948
 21
-337.810493
 31
0.0
  0
LINE
  5
129
100
AcDbEntity
  8
V0-OBRYS
  6
CONTINUOUS
 62
    90
100
AcDbLine
 10
244.656948
 20
-337.810493
 30
0.0
 11
278.73489
 21
-367.870399
 31
0.0
  0
LINE
  5
12A
100
AcDbEntity
  8
V0-OBRYS
  6
CONTINUOUS
 62
    90
100
AcDbLine
 10
243.934814
 20
-0.572205
 30
0.0
 11
243.934814
 21
27.817688
 31
0.0
  0
LINE
  5
12B
100
AcDbEntity
  8
V0-OBRYS
  6
CONTINUOUS
 62
    90
100
AcDbLine
 10
243.934814
 20
27.817688
 30
0.0
 11
278.012756
 21
-2.242249
 31
0.0
  0
LINE
  5
12C
100
AcDbEntity
  8
V0-OBRYS
  6
CONTINUOUS
 62
    90
100
AcDbLine
 10
243.934814
 20
0.0
 30
0.0
 11
243.934814
 21
-28.389893
 31
0.0
  0
LINE
  5
12D
100
AcDbEntity
  8
V0-OBRYS
  6
CONTINUOUS
 62
    90
100
AcDbLine
 10
243.934814
 20
-28.389893
 30
0.0
 11
278.012756
 21
1.669983
 31
0.0
  0
LINE
  5
12F
100
AcDbEntity
  8
V0-OBRYS
  6
CONTINUOUS
 62
    90
100
AcDbLine
 10
90.0
 20
127.5
 30
0.0
 11
50.0
 21
127.5
 31
0.0
  0
LINE
  5
130
100
AcDbEntity
  8
V0-OBRYS
  6
CONTINUOUS
 62
    90
100
AcDbLine
 10
90.0
 20
132.5
 30
0.0
 11
50.0
 21
132.5
 31
0.0
  0
LINE
  5
131
100
AcDbEntity
  8
V0-OBRYS
  6
CONTINUOUS
 62
    90
100
AcDbLine
 10
50.0
 20
132.5
 30
0.0
 11
50.0
 21
127.5
 31
0.0
  0
LINE
  5
132
100
AcDbEntity
  8
V0-OBRYS
  6
CONTINUOUS
 62
    90
100
AcDbLine
 10
90.0
 20
0.0
 30
0.0
 11
90.0
 21
145.0
 31
0.0
  0
LINE
  5
133
100
AcDbEntity
  8
V0-OBRYS
  6
CONTINUOUS
 62
    90
100
AcDbLine
 10
84.513985
 20
154.646317
 30
0.0
 11
85.0
 21
154.646317
 31
0.0
  0
LINE
  5
134
100
AcDbEntity
  8
V0-OBRYS
  6
CONTINUOUS
 62
    90
100
AcDbLine
 10
85.0
 20
154.646317
 30
0.0
 11
85.0
 21
145.0
 31
0.0
  0
LINE
  5
135
100
AcDbEntity
  8
V0-OBRYS
  6
CONTINUOUS
 62
    90
100
AcDbLine
 10
395.0
 20
154.646317
 30
0.0
 11
395.0
 21
145.0
 31
0.0
  0
LINE
  5
136
100
AcDbEntity
  8
V0-OBRYS
  6
CONTINUOUS
 62
    90
100
AcDbLine
 10
85.0
 20
145.0
 30
0.0
 11
395.0
 21
145.0
 31
0.0
  0
LINE
  5
137
100
AcDbEntity
  8
V0-OBRYS
  6
CONTINUOUS
 62
    90
100
AcDbLine
 10
395.0
 20
155.0
 30
0.0
 11
85.0
 21
155.0
 31
0.0
  0
LINE
  5
138
100
AcDbEntity
  8
V0-VYPLNE
  6
DASHDOT
 62
    63
 48
20.0
100
AcDbLine
 10
95.379578
 20
130.0
 30
0.0
 11
42.700928
 21
130.0
 31
0.0
  0
LINE
  5
139
100
AcDbEntity
  8
V0-OBRYS
  6
CONTINUOUS
 62
    90
100
AcDbLine
 10
90.0
 20
-150.0
 30
0.0
 11
90.0
 21
0.0
 31
0.0
  0
LINE
  5
13A
100
AcDbEntity
  8
V0-OBRYS
  6
CONTINUOUS
 62
    90
100
AcDbLine
 10
90.0
 20
-150.0
 30
0.0
 11
390.0
 21
-150.0
 31
0.0
  0
LINE
  5
13B
100
AcDbEntity
  8
V0-OBRYS
  6
CONTINUOUS
 62
    90
100
AcDbLine
 10
390.0
 20
-150.0
 30
0.0
 11
390.0
 21
145.0
 31
0.0
  0
LINE
  5
13C
100
AcDbEntity
  8
V0-OBRYS
  6
CONTINUOUS
 62
    90
100
AcDbLine
 10
50.0
 20
0.0
 30
0.0
 11
50.0
 21
100.0
 31
0.0
  0
LINE
  5
13D
100
AcDbEntity
  8
V0-OBRYS
  6
CONTINUOUS
 62
    90
100
AcDbLine
 10
59.345802
 20
0.0
 30
0.0
 11
59.345802
 21
103.220367
 31
0.0
  0
LINE
  5
13E
100
AcDbEntity
  8
V0-OBRYS
  6
CONTINUOUS
 62
    90
100
AcDbLine
 10
59.345802
 20
103.220367
 30
0.0
 11
64.130844
 21
103.220367
 31
0.0
  0
LINE
  5
13F
100
AcDbEntity
  8
V0-OBRYS
  6
CONTINUOUS
 62
    90
100
AcDbLine
 10
64.130844
 20
103.220367
 30
0.0
 11
64.130844
 21
-0.100907
 31
0.0
  0
LINE
  5
140
100
AcDbEntity
  8
V0-OBRYS
  6
CONTINUOUS
 62
    90
100
AcDbLine
 10
59.358932
 20
100.0
 30
0.0
 11
50.0
 21
100.0
 31
0.0
  0
LINE
  5
141
100
AcDbEntity
  8
V0-OBRYS
  6
CONTINUOUS
 62
    90
100
AcDbLine
 10
64.146248
 20
100.0
 30
0.0
 11
90.0
 21
100.0
 31
0.0
  0
LINE
  5
142
100
AcDbEntity
  8
V0-OBRYS
  6
CONTINUOUS
 62
    90
100
AcDbLine
 10
430.0
 20
0.0
 30
0.0
 11
430.0
 21
100.0
 31
0.0
  0
LINE
  5
143
100
AcDbEntity
  8
V0-OBRYS
  6
CONTINUOUS
 62
    90
100
AcDbLine
 10
420.654205
 20
0.0
 30
0.0
 11
420.654205
 21
103.220367
 31
0.0
  0
LINE
  5
144
100
AcDbEntity
  8
V0-OBRYS
  6
CONTINUOUS
 62
    90
100
AcDbLine
 10
420.654205
 20
103.220367
 30
0.0
 11
415.869141
 21
103.220367
 31
0.0
  0
LINE
  5
145
100
AcDbEntity
  8
V0-OBRYS
  6
CONTINUOUS
 62
    90
100
AcDbLine
 10
415.869141
 20
103.220367
 30
0.0
 11
415.869141
 21
-0.100906
 31
0.0
  0
LINE
  5
146
100
AcDbEntity
  8
V0-OBRYS
  6
CONTINUOUS
 62
    90
100
AcDbLine
 10
420.641052
 20
100.0
 30
0.0
 11
430.0
 21
100.0
 31
0.0
  0
LINE
  5
147
100
AcDbEntity
  8
V0-OBRYS
  6
CONTINUOUS
 62
    90
100
AcDbLine
 10
415.85376
 20
100.0
 30
0.0
 11
390.0
 21
100.0
 31
0.0
  0
LINE
  5
148
100
AcDbEntity
  8
V0-OBRYS
  6
CONTINUOUS
 62
    90
100
AcDbLine
 10
50.0
 20
0.0
 30
0.0
 11
50.0
 21
-100.0
 31
0.0
  0
LINE
  5
149
100
AcDbEntity
  8
V0-OBRYS
  6
CONTINUOUS
 62
    90
100
AcDbLine
 10
59.345802
 20
0.0
 30
0.0
 11
59.345802
 21
-103.220367
 31
0.0
  0
LINE
  5
14A
100
AcDbEntity
  8
V0-OBRYS
  6
CONTINUOUS
 62
    90
100
AcDbLine
 10
59.345802
 20
-103.220367
 30
0.0
 11
64.130844
 21
-103.220367
 31
0.0
  0
LINE
  5
14B
100
AcDbEntity
  8
V0-OBRYS
  6
CONTINUOUS
 62
    90
100
AcDbLine
 10
64.130844
 20
-103.220367
 30
0.0
 11
64.130844
 21
0.100907
 31
0.0
  0
LINE
  5
14C
100
AcDbEntity
  8
V0-OBRYS
  6
CONTINUOUS
 62
    90
100
AcDbLine
 10
59.358932
 20
-100.0
 30
0.0
 11
50.0
 21
-100.0
 31
0.0
  0
LINE
  5
14D
100
AcDbEntity
  8
V0-OBRYS
  6
CONTINUOUS
 62
    90
100
AcDbLine
 10
64.146248
 20
-100.0
 30
0.0
 11
90.0
 21
-100.0
 31
0.0
  0
LINE
  5
14E
100
AcDbEntity
  8
V0-OBRYS
  6
CONTINUOUS
 62
    90
100
AcDbLine
 10
430.0
 20
0.0
 30
0.0
 11
430.0
 21
-100.0
 31
0.0
  0
LINE
  5
14F
100
AcDbEntity
  8
V0-OBRYS
  6
CONTINUOUS
 62
    90
100
AcDbLine
 10
420.654205
 20
0.0
 30
0.0
 11
420.654205
 21
-103.220367
 31
0.0
  0
LINE
  5
150
100
AcDbEntity
  8
V0-OBRYS
  6
CONTINUOUS
 62
    90
100
AcDbLine
 10
420.654205
 20
-103.220367
 30
0.0
 11
415.869141
 21
-103.220367
 31
0.0
  0
LINE
  5
151
100
AcDbEntity
  8
V0-OBRYS
  6
CONTINUOUS
 62
    90
100
AcDbLine
 10
415.869141
 20
-103.220367
 30
0.0
 11
415.869141
 21
0.100906
 31
0.0
  0
LINE
  5
152
100
AcDbEntity
  8
V0-OBRYS
  6
CONTINUOUS
 62
    90
100
AcDbLine
 10
420.641052
 20
-100.0
 30
0.0
 11
430.0
 21
-100.0
 31
0.0
  0
LINE
  5
153
100
AcDbEntity
  8
V0-OBRYS
  6
CONTINUOUS
 62
    90
100
AcDbLine
 10
415.85376
 20
-100.0
 30
0.0
 11
390.0
 21
-100.0
 31
0.0
  0
LINE
  5
154
100
AcDbEntity
  8
V0-OBRYS
  6
CONTINUOUS
 62
    90
100
AcDbLine
 10
389.099392
 20
-237.619423
 30
0.0
 11
89.099392
 21
-237.619423
 31
0.0
  0
LINE
  5
155
100
AcDbEntity
  8
V0-OBRYS
  6
CONTINUOUS
 62
    90
100
AcDbLine
 10
89.099392
 20
-237.973106
 30
0.0
 11
89.099392
 21
-366.619423
 31
0.0
  0
LINE
  5
156
100
AcDbEntity
  8
V0-OBRYS
  6
CONTINUOUS
 62
    90
100
AcDbLine
 10
389.099392
 20
-237.973106
 30
0.0
 11
389.099392
 21
-366.619423
 31
0.0
  0
LINE
  5
158
100
AcDbEntity
  8
V0-OBRYS
  6
CONTINUOUS
 62
    90
100
AcDbLine
 10
49.099392
 20
-366.619423
 30
0.0
 11
49.099392
 21
-266.619423
 31
0.0
  0
LINE
  5
159
100
AcDbEntity
  8
V0-OBRYS
  6
CONTINUOUS
 62
    90
100
AcDbLine
 10
58.445194
 20
-366.619423
 30
0.0
 11
58.445194
 21
-263.399055
 31
0.0
  0
LINE
  5
15A
100
AcDbEntity
  8
V0-OBRYS
  6
CONTINUOUS
 62
    90
100
AcDbLine
 10
58.445194
 20
-263.399055
 30
0.0
 11
63.230236
 21
-263.399055
 31
0.0
  0
LINE
  5
15B
100
AcDbEntity
  8
V0-OBRYS
  6
CONTINUOUS
 62
    90
100
AcDbLine
 10
63.230236
 20
-263.399055
 30
0.0
 11
63.230236
 21
-366.720344
 31
0.0
  0
LINE
  5
15C
100
AcDbEntity
  8
V0-OBRYS
  6
CONTINUOUS
 62
    90
100
AcDbLine
 10
58.458324
 20
-266.619423
 30
0.0
 11
49.099392
 21
-266.619423
 31
0.0
  0
LINE
  5
15D
100
AcDbEntity
  8
V0-OBRYS
  6
CONTINUOUS
 62
    90
100
AcDbLine
 10
429.099392
 20
-366.619423
 30
0.0
 11
429.099392
 21
-266.619423
 31
0.0
  0
LINE
  5
15E
100
AcDbEntity
  8
V0-OBRYS
  6
CONTINUOUS
 62
    90
100
AcDbLine
 10
419.753597
 20
-366.619423
 30
0.0
 11
419.753597
 21
-263.399055
 31
0.0
  0
LINE
  5
15F
100
AcDbEntity
  8
V0-OBRYS
  6
CONTINUOUS
 62
    90
100
AcDbLine
 10
419.753597
 20
-263.399055
 30
0.0
 11
414.968532
 21
-263.399055
 31
0.0
  0
LINE
  5
160
100
AcDbEntity
  8
V0-OBRYS
  6
CONTINUOUS
 62
    90
100
AcDbLine
 10
414.968532
 20
-263.399055
 30
0.0
 11
414.968532
 21
-366.720314
 31
0.0
  0
LINE
  5
161
100
AcDbEntity
  8
V0-OBRYS
  6
CONTINUOUS
 62
    90
100
AcDbLine
 10
419.740444
 20
-266.619423
 30
0.0
 11
429.099392
 21
-266.619423
 31
0.0
  0
LINE
  5
162
100
AcDbEntity
  8
V0-OBRYS
  6
CONTINUOUS
 62
    90
100
AcDbLine
 10
49.099392
 20
-366.619423
 30
0.0
 11
49.099392
 21
-466.619423
 31
0.0
  0
LINE
  5
163
100
AcDbEntity
  8
V0-OBRYS
  6
CONTINUOUS
 62
    90
100
AcDbLine
 10
58.445194
 20
-366.619423
 30
0.0
 11
58.445194
 21
-469.83979
 31
0.0
  0
LINE
  5
164
100
AcDbEntity
  8
V0-OBRYS
  6
CONTINUOUS
 62
    90
100
AcDbLine
 10
58.445194
 20
-469.83979
 30
0.0
 11
63.230236
 21
-469.83979
 31
0.0
  0
LINE
  5
165
100
AcDbEntity
  8
V0-OBRYS
  6
CONTINUOUS
 62
    90
100
AcDbLine
 10
63.230236
 20
-469.83979
 30
0.0
 11
63.230236
 21
-366.518501
 31
0.0
  0
LINE
  5
166
100
AcDbEntity
  8
V0-OBRYS
  6
CONTINUOUS
 62
    90
100
AcDbLine
 10
58.458324
 20
-466.619423
 30
0.0
 11
49.099392
 21
-466.619423
 31
0.0
  0
LINE
  5
167
100
AcDbEntity
  8
V0-OBRYS
  6
CONTINUOUS
 62
    90
100
AcDbLine
 10
429.099392
 20
-366.619423
 30
0.0
 11
429.099392
 21
-466.619423
 31
0.0
  0
LINE
  5
168
100
AcDbEntity
  8
V0-OBRYS
  6
CONTINUOUS
 62
    90
100
AcDbLine
 10
419.753597
 20
-366.619423
 30
0.0
 11
419.753597
 21
-469.83979
 31
0.0
  0
LINE
  5
169
100
AcDbEntity
  8
V0-OBRYS
  6
CONTINUOUS
 62
    90
100
AcDbLine
 10
419.753597
 20
-469.83979
 30
0.0
 11
414.968532
 21
-469.83979
 31
0.0
  0
LINE
  5
16A
100
AcDbEntity
  8
V0-OBRYS
  6
CONTINUOUS
 62
    90
100
AcDbLine
 10
414.968532
 20
-469.83979
 30
0.0
 11
414.968532
 21
-366.518531
 31
0.0
  0
LINE
  5
16B
100
AcDbEntity
  8
V0-OBRYS
  6
CONTINUOUS
 62
    90
100
AcDbLine
 10
419.740444
 20
-466.619423
 30
0.0
 11
429.099392
 21
-466.619423
 31
0.0
  0
LINE
  5
16C
100
AcDbEntity
  8
V0-OBRYS
  6
CONTINUOUS
 62
    90
100
AcDbLine
 10
389.099392
 20
-495.619423
 30
0.0
 11
89.099392
 21
-495.619423
 31
0.0
  0
LINE
  5
16D
100
AcDbEntity
  8
V0-OBRYS
  6
CONTINUOUS
 62
    90
100
AcDbLine
 10
89.099392
 20
-495.265724
 30
0.0
 11
89.099392
 21
-366.619423
 31
0.0
  0
LINE
  5
16E
100
AcDbEntity
  8
V0-OBRYS
  6
CONTINUOUS
 62
    90
100
AcDbLine
 10
389.099392
 20
-495.265724
 30
0.0
 11
389.099392
 21
-366.619423
 31
0.0
  0
LINE
  5
16F
100
AcDbEntity
  8
V0-OBRYS
  6
CONTINUOUS
 62
    90
100
AcDbLine
 10
244.656948
 20
-367.038459
 30
0.0
 11
244.656948
 21
-395.428352
 31
0.0
  0
LINE
  5
170
100
AcDbEntity
  8
V0-OBRYS
  6
CONTINUOUS
 62
    90
100
AcDbLine
 10
244.656948
 20
-395.428352
 30
0.0
 11
278.73489
 21
-365.368446
 31
0.0
  0
LINE
  5
171
100
AcDbEntity
  8
V0-OBRYS
  6
CONTINUOUS
 62
    90
100
AcDbLine
 10
49.099392
 20
-256.619423
 30
0.0
 11
49.099392
 21
-261.619423
 31
0.0
  0
LINE
  5
172
100
AcDbEntity
  8
V0-OBRYS
  6
CONTINUOUS
 62
    90
100
AcDbLine
 10
89.099392
 20
-261.619423
 30
0.0
 11
49.099392
 21
-261.619423
 31
0.0
  0
LINE
  5
173
100
AcDbEntity
  8
V0-OBRYS
  6
CONTINUOUS
 62
    90
100
AcDbLine
 10
89.099392
 20
-256.619423
 30
0.0
 11
49.099392
 21
-256.619423
 31
0.0
  0
LINE
  5
174
100
AcDbEntity
  8
V0-VYPLNE
  6
DASHDOT
 62
    63
 48
20.0
100
AcDbLine
 10
89.099392
 20
-259.119423
 30
0.0
 11
41.80032
 21
-259.119423
 31
0.0
  0
LINE
  5
175
100
AcDbEntity
  8
V0-OBRYS
  6
CONTINUOUS
 62
    90
100
AcDbLine
 10
49.099392
 20
-476.619423
 30
0.0
 11
49.099392
 21
-471.619423
 31
0.0
  0
LINE
  5
176
100
AcDbEntity
  8
V0-OBRYS
  6
CONTINUOUS
 62
    90
100
AcDbLine
 10
89.099392
 20
-471.619423
 30
0.0
 11
49.099392
 21
-471.619423
 31
0.0
  0
LINE
  5
177
100
AcDbEntity
  8
V0-OBRYS
  6
CONTINUOUS
 62
    90
100
AcDbLine
 10
89.099392
 20
-476.619423
 30
0.0
 11
49.099392
 21
-476.619423
 31
0.0
  0
LINE
  5
178
100
AcDbEntity
  8
V0-VYPLNE
  6
DASHDOT
 62
    63
 48
20.0
100
AcDbLine
 10
89.099392
 20
-474.119423
 30
0.0
 11
41.80032
 21
-474.119423
 31
0.0
  0
LINE
  5
179
100
AcDbEntity
  8
V0-OBRYS
  6
CONTINUOUS
 62
    90
100
AcDbLine
 10
63.24564
 20
-266.619423
 30
0.0
 11
89.099392
 21
-266.619423
 31
0.0
  0
LINE
  5
17A
100
AcDbEntity
  8
V0-OBRYS
  6
CONTINUOUS
 62
    90
100
AcDbLine
 10
63.24564
 20
-466.619423
 30
0.0
 11
89.099392
 21
-466.619423
 31
0.0
  0
LINE
  5
17B
100
AcDbEntity
  8
V0-OBRYS
  6
CONTINUOUS
 62
    90
100
AcDbLine
 10
414.953152
 20
-266.619423
 30
0.0
 11
389.099392
 21
-266.619423
 31
0.0
  0
LINE
  5
17C
100
AcDbEntity
  8
V0-OBRYS
  6
CONTINUOUS
 62
    90
100
AcDbLine
 10
414.953152
 20
-466.619423
 30
0.0
 11
389.099392
 21
-466.619423
 31
0.0
  0
TEXT
  5
17D
100
AcDbEntity
  8
V0-NAZVY
  6
CONTINUOUS
 62
   210
100
AcDbText
 10
183.473942
 20
50.0
 30
0.0
 40
20.0
  1
MBW-200
  7
SIMPLEX
 72
     1
 11
254.426323
 21
50.0
 31
0.0
100
AcDbText
  0
TEXT
  5
17E
100
AcDbEntity
  8
V0-NAZVY
  6
CONTINUOUS
 62
   210
100
AcDbText
 10
182.573334
 20
-326.619423
 30
0.0
 40
20.0
  1
MBW-200
  7
SIMPLEX
 72
     1
 11
253.525715
 21
-326.619423
 31
0.0
100
AcDbText
  0
TEXT
  5
17F
100
AcDbEntity
  8
V0-NAZVY
  6
CONTINUOUS
 62
   210
100
AcDbText
 10
608.941755
 20
-308.163398
 30
0.0
 40
30.0
  1
MBW-200
  7
SIMPLEX
 72
     1
 11
715.370327
 21
-308.163398
 31
0.0
100
AcDbText
  0
LINE
  5
180
100
AcDbEntity
  8
V0-OBRYS
  6
CONTINUOUS
 62
    90
100
AcDbLine
 10
565.5
 20
154.646317
 30
0.0
 11
565.5
 21
145.203781
 31
0.0
  0
LINE
  5
181
100
AcDbEntity
  8
V0-OBRYS
  6
CONTINUOUS
 62
    90
100
AcDbLine
 10
565.5
 20
154.646317
 30
0.0
 11
700.0
 21
154.646317
 31
0.0
  0
LINE
  5
182
100
AcDbEntity
  8
V0-OBRYS
  6
CONTINUOUS
 62
    90
100
AcDbLine
 10
565.5
 20
144.646317
 30
0.0
 11
700.0
 21
144.646317
 31
0.0
  0
LINE
  5
183
100
AcDbEntity
  8
V0-OBRYS
  6
CONTINUOUS
 62
    90
100
AcDbLine
 10
568.5
 20
-150.0
 30
0.0
 11
700.0
 21
-150.0
 31
0.0
  0
LINE
  5
184
100
AcDbEntity
  8
V0-OBRYS
  6
CONTINUOUS
 62
    90
100
AcDbLine
 10
700.0
 20
-140.0
 30
0.0
 11
578.5
 21
-140.0
 31
0.0
  0
LINE
  5
185
100
AcDbEntity
  8
V0-OBRYS
  6
CONTINUOUS
 62
    90
100
AcDbLine
 10
568.5
 20
-150.0
 30
0.0
 11
568.5
 21
144.646317
 31
0.0
  0
LINE
  5
186
100
AcDbEntity
  8
V0-OBRYS
  6
CONTINUOUS
 62
    90
100
AcDbLine
 10
578.5
 20
-140.0
 30
0.0
 11
578.5
 21
144.646317
 31
0.0
  0
LINE
  5
187
100
AcDbEntity
  8
V0-OBRYS
  6
CONTINUOUS
 62
    90
100
AcDbLine
 10
829.5
 20
154.646317
 30
0.0
 11
829.5
 21
145.203781
 31
0.0
  0
LINE
  5
188
100
AcDbEntity
  8
V0-OBRYS
  6
CONTINUOUS
 62
    90
100
AcDbLine
 10
829.5
 20
154.646317
 30
0.0
 11
700.0
 21
154.646317
 31
0.0
  0
LINE
  5
189
100
AcDbEntity
  8
V0-OBRYS
  6
CONTINUOUS
 62
    90
100
AcDbLine
 10
829.5
 20
144.646317
 30
0.0
 11
700.0
 21
144.646317
 31
0.0
  0
LINE
  5
18A
100
AcDbEntity
  8
V0-OBRYS
  6
CONTINUOUS
 62
    90
100
AcDbLine
 10
826.5
 20
-150.0
 30
0.0
 11
700.0
 21
-150.0
 31
0.0
  0
LINE
  5
18B
100
AcDbEntity
  8
V0-OBRYS
  6
CONTINUOUS
 62
    90
100
AcDbLine
 10
700.0
 20
-140.0
 30
0.0
 11
816.5
 21
-140.0
 31
0.0
  0
LINE
  5
18C
100
AcDbEntity
  8
V0-OBRYS
  6
CONTINUOUS
 62
    90
100
AcDbLine
 10
826.5
 20
-150.0
 30
0.0
 11
826.5
 21
144.646317
 31
0.0
  0
LINE
  5
18D
100
AcDbEntity
  8
V0-OBRYS
  6
CONTINUOUS
 62
    90
100
AcDbLine
 10
816.5
 20
-140.0
 30
0.0
 11
816.5
 21
144.646317
 31
0.0
  0
TEXT
  5
18E
100
AcDbEntity
  8
V0-NAZVY
  6
CONTINUOUS
 62
   210
100
AcDbText
 10
634.023289
 20
108.876328
 30
0.0
 40
20.0
  1
MBW-200
  7
SIMPLEX
 72
     1
 11
704.97567
 21
108.876328
 31
0.0
100
AcDbText
  0
CIRCLE
  5
18F
100
AcDbEntity
  8
V0-OBRYS
  6
CONTINUOUS
 62
    90
100
AcDbCircle
 10
700.0
 20
0.0
 30
0.0
 40
80.0
  0
CIRCLE
  5
190
100
AcDbEntity
  8
V0-OBRYS
  6
CONTINUOUS
 62
    90
100
AcDbCircle
 10
700.0
 20
0.0
 30
0.0
 40
86.070984
  0
LINE
  5
1A4
100
AcDbEntity
  8
V0-VYPLNE
  6
DASHDOT
 62
    63
 48
20.0
100
AcDbLine
 10
568.5
 20
0.0
 30
0.0
 11
797.991333
 21
0.0
 31
0.0
  0
LINE
  5
1A6
100
AcDbEntity
  8
V0-VYPLNE
  6
DASHDOT
 62
    63
 48
20.0
100
AcDbLine
 10
700.0
 20
86.070984
 30
0.0
 11
700.0
 21
-86.070984
 31
0.0
  0
CIRCLE
  5
1A8
100
AcDbEntity
  8
V0-OBRYS
  6
CONTINUOUS
 62
    90
100
AcDbCircle
 10
590.0
 20
129.646317
 30
0.0
 40
3.832092
  0
CIRCLE
  5
1A9
100
AcDbEntity
  8
V0-OBRYS
  6
CONTINUOUS
 62
    90
100
AcDbCircle
 10
590.0
 20
129.646317
 30
0.0
 40
5.0
  0
LINE
  5
1AA
100
AcDbEntity
  8
V0-VYPLNE
  6
DASHDOT
 62
    63
 48
20.0
100
AcDbLine
 10
590.0
 20
141.061737
 30
0.0
 11
590.0
 21
115.347916
 31
0.0
  0
LINE
  5
1AB
100
AcDbEntity
  8
V0-VYPLNE
  6
DASHDOT
 62
    63
 48
20.0
100
AcDbLine
 10
570.008972
 20
129.646317
 30
0.0
 11
603.694031
 21
129.646317
 31
0.0
  0
CIRCLE
  5
1AC
100
AcDbEntity
  8
V0-OBRYS
  6
CONTINUOUS
 62
    90
100
AcDbCircle
 10
805.0
 20
129.646317
 30
0.0
 40
3.832092
  0
CIRCLE
  5
1AD
100
AcDbEntity
  8
V0-OBRYS
  6
CONTINUOUS
 62
    90
100
AcDbCircle
 10
805.0
 20
129.646317
 30
0.0
 40
5.0
  0
LINE
  5
1AE
100
AcDbEntity
  8
V0-VYPLNE
  6
DASHDOT
 62
    63
 48
20.0
100
AcDbLine
 10
805.0
 20
141.061737
 30
0.0
 11
805.0
 21
115.347916
 31
0.0
  0
LINE
  5
1AF
100
AcDbEntity
  8
V0-VYPLNE
  6
DASHDOT
 62
    63
 48
20.0
100
AcDbLine
 10
824.991028
 20
129.646317
 30
0.0
 11
791.305969
 21
129.646317
 31
0.0
  0
LINE
  5
1B0
100
AcDbEntity
  8
V0-VYPLNE
  6
CONTINUOUS
 62
    52
100
AcDbLine
 10
647.200012
 20
60.101246
 30
0.0
 11
647.200012
 21
-60.101246
 31
0.0
  0
LINE
  5
1B2
100
AcDbEntity
  8
V0-VYPLNE
  6
CONTINUOUS
 62
    52
100
AcDbLine
 10
666.400012
 20
-72.60193
 30
0.0
 11
666.400012
 21
72.60193
 31
0.0
  0
LINE
  5
1B4
100
AcDbEntity
  8
V0-VYPLNE
  6
CONTINUOUS
 62
    52
100
AcDbLine
 10
659.176325
 20
-67.898756
 30
0.0
 11
666.40002
 21
-67.898756
 31
0.0
  0
LINE
  5
1B5
100
AcDbEntity
  8
V0-VYPLNE
  6
CONTINUOUS
 62
    52
100
AcDbLine
 10
647.200014
 20
-59.898756
 30
0.0
 11
666.400019
 21
-59.898756
 31
0.0
  0
LINE
  5
1B6
100
AcDbEntity
  8
V0-VYPLNE
  6
CONTINUOUS
 62
    52
100
AcDbLine
 10
647.200014
 20
-51.898756
 30
0.0
 11
666.400019
 21
-51.898756
 31
0.0
  0
LINE
  5
1B7
100
AcDbEntity
  8
V0-VYPLNE
  6
CONTINUOUS
 62
    52
100
AcDbLine
 10
647.200013
 20
-43.898756
 30
0.0
 11
666.400019
 21
-43.898756
 31
0.0
  0
LINE
  5
1B8
100
AcDbEntity
  8
V0-VYPLNE
  6
CONTINUOUS
 62
    52
100
AcDbLine
 10
647.200013
 20
-35.898756
 30
0.0
 11
666.400019
 21
-35.898756
 31
0.0
  0
LINE
  5
1B9
100
AcDbEntity
  8
V0-VYPLNE
  6
CONTINUOUS
 62
    52
100
AcDbLine
 10
647.200013
 20
-27.898755
 30
0.0
 11
666.400017
 21
-27.898755
 31
0.0
  0
LINE
  5
1BA
100
AcDbEntity
  8
V0-VYPLNE
  6
CONTINUOUS
 62
    52
100
AcDbLine
 10
647.200013
 20
-19.898755
 30
0.0
 11
666.400017
 21
-19.898755
 31
0.0
  0
LINE
  5
1BB
100
AcDbEntity
  8
V0-VYPLNE
  6
CONTINUOUS
 62
    52
100
AcDbLine
 10
647.200013
 20
-11.898755
 30
0.0
 11
666.400017
 21
-11.898755
 31
0.0
  0
LINE
  5
1BC
100
AcDbEntity
  8
V0-VYPLNE
  6
CONTINUOUS
 62
    52
100
AcDbLine
 10
647.200013
 20
-3.898755
 30
0.0
 11
666.400017
 21
-3.898755
 31
0.0
  0
LINE
  5
1BD
100
AcDbEntity
  8
V0-VYPLNE
  6
CONTINUOUS
 62
    52
100
AcDbLine
 10
647.200013
 20
4.101245
 30
0.0
 11
666.400017
 21
4.101245
 31
0.0
  0
LINE
  5
1BE
100
AcDbEntity
  8
V0-VYPLNE
  6
CONTINUOUS
 62
    52
100
AcDbLine
 10
647.200013
 20
12.101245
 30
0.0
 11
666.400016
 21
12.101245
 31
0.0
  0
LINE
  5
1BF
100
AcDbEntity
  8
V0-VYPLNE
  6
CONTINUOUS
 62
    52
100
AcDbLine
 10
647.200013
 20
20.101245
 30
0.0
 11
666.400016
 21
20.101245
 31
0.0
  0
LINE
  5
1C0
100
AcDbEntity
  8
V0-VYPLNE
  6
CONTINUOUS
 62
    52
100
AcDbLine
 10
647.200013
 20
28.101245
 30
0.0
 11
666.400016
 21
28.101245
 31
0.0
  0
LINE
  5
1C1
100
AcDbEntity
  8
V0-VYPLNE
  6
CONTINUOUS
 62
    52
100
AcDbLine
 10
647.200012
 20
36.101246
 30
0.0
 11
666.400016
 21
36.101246
 31
0.0
  0
LINE
  5
1C2
100
AcDbEntity
  8
V0-VYPLNE
  6
CONTINUOUS
 62
    52
100
AcDbLine
 10
647.200012
 20
44.101246
 30
0.0
 11
666.400012
 21
44.101246
 31
0.0
  0
LINE
  5
1C3
100
AcDbEntity
  8
V0-VYPLNE
  6
CONTINUOUS
 62
    52
100
AcDbLine
 10
647.200012
 20
52.101246
 30
0.0
 11
666.400012
 21
52.101246
 31
0.0
  0
LINE
  5
1C4
100
AcDbEntity
  8
V0-VYPLNE
  6
CONTINUOUS
 62
    52
100
AcDbLine
 10
647.200012
 20
60.101246
 30
0.0
 11
666.400012
 21
60.101246
 31
0.0
  0
LINE
  5
1C5
100
AcDbEntity
  8
V0-VYPLNE
  6
CONTINUOUS
 62
    52
100
AcDbLine
 10
659.487341
 20
68.101246
 30
0.0
 11
666.400012
 21
68.101246
 31
0.0
  0
LINE
  5
1CA
100
AcDbEntity
  8
V0-VYPLNE
  6
CONTINUOUS
 62
    52
100
AcDbLine
 10
637.599976
 20
-50.062362
 30
0.0
 11
637.599976
 21
50.062359
 31
0.0
  0
LINE
  5
1CB
100
AcDbEntity
  8
V0-VYPLNE
  6
CONTINUOUS
 62
    52
100
AcDbLine
 10
635.267505
 20
-45.937643
 30
0.0
 11
637.599977
 21
-45.937643
 31
0.0
  0
LINE
  5
1CC
100
AcDbEntity
  8
V0-VYPLNE
  6
CONTINUOUS
 62
    52
100
AcDbLine
 10
630.743616
 20
-37.937642
 30
0.0
 11
637.599977
 21
-37.937642
 31
0.0
  0
LINE
  5
1CD
100
AcDbEntity
  8
V0-VYPLNE
  6
CONTINUOUS
 62
    52
100
AcDbLine
 10
626.219729
 20
-29.937642
 30
0.0
 11
637.599977
 21
-29.937642
 31
0.0
  0
LINE
  5
1CE
100
AcDbEntity
  8
V0-VYPLNE
  6
CONTINUOUS
 62
    52
100
AcDbLine
 10
623.425151
 20
-21.937642
 30
0.0
 11
637.599976
 21
-21.937642
 31
0.0
  0
LINE
  5
1CF
100
AcDbEntity
  8
V0-VYPLNE
  6
CONTINUOUS
 62
    52
100
AcDbLine
 10
622.176092
 20
-13.937642
 30
0.0
 11
637.599976
 21
-13.937642
 31
0.0
  0
LINE
  5
1D0
100
AcDbEntity
  8
V0-VYPLNE
  6
CONTINUOUS
 62
    52
100
AcDbLine
 10
620.927032
 20
-5.937642
 30
0.0
 11
637.599976
 21
-5.937642
 31
0.0
  0
LINE
  5
1D1
100
AcDbEntity
  8
V0-VYPLNE
  6
CONTINUOUS
 62
    52
100
AcDbLine
 10
620.386422
 20
2.062358
 30
0.0
 11
637.599976
 21
2.062358
 31
0.0
  0
LINE
  5
1D2
100
AcDbEntity
  8
V0-VYPLNE
  6
CONTINUOUS
 62
    52
100
AcDbLine
 10
621.885457
 20
10.062358
 30
0.0
 11
637.599976
 21
10.062358
 31
0.0
  0
LINE
  5
1D3
100
AcDbEntity
  8
V0-VYPLNE
  6
CONTINUOUS
 62
    52
100
AcDbLine
 10
623.384489
 20
18.062358
 30
0.0
 11
637.599976
 21
18.062358
 31
0.0
  0
LINE
  5
1D4
100
AcDbEntity
  8
V0-VYPLNE
  6
CONTINUOUS
 62
    52
100
AcDbLine
 10
624.883522
 20
26.062358
 30
0.0
 11
637.599976
 21
26.062358
 31
0.0
  0
LINE
  5
1D5
100
AcDbEntity
  8
V0-VYPLNE
  6
CONTINUOUS
 62
    52
100
AcDbLine
 10
628.169494
 20
34.062359
 30
0.0
 11
637.599976
 21
34.062359
 31
0.0
  0
LINE
  5
1D6
100
AcDbEntity
  8
V0-VYPLNE
  6
CONTINUOUS
 62
    52
100
AcDbLine
 10
632.884735
 20
42.062359
 30
0.0
 11
637.599976
 21
42.062359
 31
0.0
  0
LINE
  5
1D7
100
AcDbEntity
  8
V0-VYPLNE
  6
CONTINUOUS
 62
    52
100
AcDbLine
 10
676.0
 20
76.31514
 30
0.0
 11
675.845215
 21
76.351834
 31
0.0
  0
LINE
  5
1D8
100
AcDbEntity
  8
V0-VYPLNE
  6
CONTINUOUS
 62
    52
100
AcDbLine
 10
675.845215
 20
76.351834
 30
0.0
 11
676.0
 21
76.31514
 31
0.0
  0
LINE
  5
1D9
100
AcDbEntity
  8
V0-VYPLNE
  6
CONTINUOUS
 62
    52
100
AcDbLine
 10
676.0
 20
76.31514
 30
0.0
 11
676.0
 21
-76.315136
 31
0.0
  0
LINE
  5
1DB
100
AcDbEntity
  8
V0-VYPLNE
  6
CONTINUOUS
 62
    52
100
AcDbLine
 10
695.2
 20
-79.855871
 30
0.0
 11
695.2
 21
79.855875
 31
0.0
  0
LINE
  5
1DD
100
AcDbEntity
  8
V0-VYPLNE
  6
CONTINUOUS
 62
    52
100
AcDbLine
 10
676.000002
 20
-75.684862
 30
0.0
 11
695.199999
 21
-75.684862
 31
0.0
  0
LINE
  5
1DE
100
AcDbEntity
  8
V0-VYPLNE
  6
CONTINUOUS
 62
    52
100
AcDbLine
 10
676.000002
 20
-67.684862
 30
0.0
 11
695.199999
 21
-67.684862
 31
0.0
  0
LINE
  5
1DF
100
AcDbEntity
  8
V0-VYPLNE
  6
CONTINUOUS
 62
    52
100
AcDbLine
 10
676.000002
 20
-59.684862
 30
0.0
 11
695.199999
 21
-59.684862
 31
0.0
  0
LINE
  5
1E0
100
AcDbEntity
  8
V0-VYPLNE
  6
CONTINUOUS
 62
    52
100
AcDbLine
 10
676.000002
 20
-51.684862
 30
0.0
 11
695.199999
 21
-51.684862
 31
0.0
  0
LINE
  5
1E1
100
AcDbEntity
  8
V0-VYPLNE
  6
CONTINUOUS
 62
    52
100
AcDbLine
 10
676.000001
 20
-43.684862
 30
0.0
 11
695.199999
 21
-43.684862
 31
0.0
  0
LINE
  5
1E2
100
AcDbEntity
  8
V0-VYPLNE
  6
CONTINUOUS
 62
    52
100
AcDbLine
 10
676.000001
 20
-35.684862
 30
0.0
 11
695.199999
 21
-35.684862
 31
0.0
  0
LINE
  5
1E3
100
AcDbEntity
  8
V0-VYPLNE
  6
CONTINUOUS
 62
    52
100
AcDbLine
 10
676.000001
 20
-27.684862
 30
0.0
 11
695.199999
 21
-27.684862
 31
0.0
  0
LINE
  5
1E4
100
AcDbEntity
  8
V0-VYPLNE
  6
CONTINUOUS
 62
    52
100
AcDbLine
 10
676.000001
 20
-19.684862
 30
0.0
 11
695.199999
 21
-19.684862
 31
0.0
  0
LINE
  5
1E5
100
AcDbEntity
  8
V0-VYPLNE
  6
CONTINUOUS
 62
    52
100
AcDbLine
 10
676.000001
 20
-11.684862
 30
0.0
 11
695.199999
 21
-11.684862
 31
0.0
  0
LINE
  5
1E6
100
AcDbEntity
  8
V0-VYPLNE
  6
CONTINUOUS
 62
    52
100
AcDbLine
 10
676.000001
 20
-3.684861
 30
0.0
 11
695.199999
 21
-3.684861
 31
0.0
  0
LINE
  5
1E7
100
AcDbEntity
  8
V0-VYPLNE
  6
CONTINUOUS
 62
    52
100
AcDbLine
 10
676.000001
 20
4.315139
 30
0.0
 11
695.2
 21
4.315139
 31
0.0
  0
LINE
  5
1E8
100
AcDbEntity
  8
V0-VYPLNE
  6
CONTINUOUS
 62
    52
100
AcDbLine
 10
676.000001
 20
12.315139
 30
0.0
 11
695.2
 21
12.315139
 31
0.0
  0
LINE
  5
1E9
100
AcDbEntity
  8
V0-VYPLNE
  6
CONTINUOUS
 62
    52
100
AcDbLine
 10
676.000001
 20
20.315139
 30
0.0
 11
695.2
 21
20.315139
 31
0.0
  0
LINE
  5
1EA
100
AcDbEntity
  8
V0-VYPLNE
  6
CONTINUOUS
 62
    52
100
AcDbLine
 10
676.000001
 20
28.315139
 30
0.0
 11
695.2
 21
28.315139
 31
0.0
  0
LINE
  5
1EB
100
AcDbEntity
  8
V0-VYPLNE
  6
CONTINUOUS
 62
    52
100
AcDbLine
 10
676.0
 20
36.315139
 30
0.0
 11
695.2
 21
36.315139
 31
0.0
  0
LINE
  5
1EC
100
AcDbEntity
  8
V0-VYPLNE
  6
CONTINUOUS
 62
    52
100
AcDbLine
 10
676.0
 20
44.315139
 30
0.0
 11
695.2
 21
44.315139
 31
0.0
  0
LINE
  5
1ED
100
AcDbEntity
  8
V0-VYPLNE
  6
CONTINUOUS
 62
    52
100
AcDbLine
 10
676.0
 20
52.315139
 30
0.0
 11
695.2
 21
52.315139
 31
0.0
  0
LINE
  5
1EE
100
AcDbEntity
  8
V0-VYPLNE
  6
CONTINUOUS
 62
    52
100
AcDbLine
 10
676.0
 20
60.31514
 30
0.0
 11
695.2
 21
60.31514
 31
0.0
  0
LINE
  5
1EF
100
AcDbEntity
  8
V0-VYPLNE
  6
CONTINUOUS
 62
    52
100
AcDbLine
 10
676.0
 20
68.31514
 30
0.0
 11
695.2
 21
68.31514
 31
0.0
  0
LINE
  5
1F0
100
AcDbEntity
  8
V0-VYPLNE
  6
CONTINUOUS
 62
    52
100
AcDbLine
 10
676.0
 20
76.31514
 30
0.0
 11
676.0
 21
76.31514
 31
0.0
  0
LINE
  5
1F1
100
AcDbEntity
  8
V0-VYPLNE
  6
CONTINUOUS
 62
    52
100
AcDbLine
 10
676.0
 20
76.31514
 30
0.0
 11
695.2
 21
76.31514
 31
0.0
  0
LINE
  5
1F2
100
AcDbEntity
  8
V0-VYPLNE
  6
CONTINUOUS
 62
    52
100
AcDbLine
 10
724.0
 20
76.31514
 30
0.0
 11
724.154785
 21
76.351834
 31
0.0
  0
LINE
  5
1F3
100
AcDbEntity
  8
V0-VYPLNE
  6
CONTINUOUS
 62
    52
100
AcDbLine
 10
724.154785
 20
76.351834
 30
0.0
 11
724.0
 21
76.31514
 31
0.0
  0
LINE
  5
1F4
100
AcDbEntity
  8
V0-VYPLNE
  6
CONTINUOUS
 62
    52
100
AcDbLine
 10
724.0
 20
76.31514
 30
0.0
 11
724.0
 21
-76.315136
 31
0.0
  0
LINE
  5
1F6
100
AcDbEntity
  8
V0-VYPLNE
  6
CONTINUOUS
 62
    52
100
AcDbLine
 10
704.8
 20
-79.855871
 30
0.0
 11
704.8
 21
79.855875
 31
0.0
  0
LINE
  5
1F8
100
AcDbEntity
  8
V0-VYPLNE
  6
CONTINUOUS
 62
    52
100
AcDbLine
 10
723.999998
 20
-75.684862
 30
0.0
 11
704.800001
 21
-75.684862
 31
0.0
  0
LINE
  5
1F9
100
AcDbEntity
  8
V0-VYPLNE
  6
CONTINUOUS
 62
    52
100
AcDbLine
 10
723.999998
 20
-67.684862
 30
0.0
 11
704.800001
 21
-67.684862
 31
0.0
  0
LINE
  5
1FA
100
AcDbEntity
  8
V0-VYPLNE
  6
CONTINUOUS
 62
    52
100
AcDbLine
 10
723.999998
 20
-59.684862
 30
0.0
 11
704.800001
 21
-59.684862
 31
0.0
  0
LINE
  5
1FB
100
AcDbEntity
  8
V0-VYPLNE
  6
CONTINUOUS
 62
    52
100
AcDbLine
 10
723.999998
 20
-51.684862
 30
0.0
 11
704.800001
 21
-51.684862
 31
0.0
  0
LINE
  5
1FC
100
AcDbEntity
  8
V0-VYPLNE
  6
CONTINUOUS
 62
    52
100
AcDbLine
 10
723.999999
 20
-43.684862
 30
0.0
 11
704.800001
 21
-43.684862
 31
0.0
  0
LINE
  5
1FD
100
AcDbEntity
  8
V0-VYPLNE
  6
CONTINUOUS
 62
    52
100
AcDbLine
 10
723.999999
 20
-35.684862
 30
0.0
 11
704.800001
 21
-35.684862
 31
0.0
  0
LINE
  5
1FE
100
AcDbEntity
  8
V0-VYPLNE
  6
CONTINUOUS
 62
    52
100
AcDbLine
 10
723.999999
 20
-27.684862
 30
0.0
 11
704.800001
 21
-27.684862
 31
0.0
  0
LINE
  5
1FF
100
AcDbEntity
  8
V0-VYPLNE
  6
CONTINUOUS
 62
    52
100
AcDbLine
 10
723.999999
 20
-19.684862
 30
0.0
 11
704.800001
 21
-19.684862
 31
0.0
  0
LINE
  5
200
100
AcDbEntity
  8
V0-VYPLNE
  6
CONTINUOUS
 62
    52
100
AcDbLine
 10
723.999999
 20
-11.684862
 30
0.0
 11
704.800001
 21
-11.684862
 31
0.0
  0
LINE
  5
201
100
AcDbEntity
  8
V0-VYPLNE
  6
CONTINUOUS
 62
    52
100
AcDbLine
 10
723.999999
 20
-3.684861
 30
0.0
 11
704.800001
 21
-3.684861
 31
0.0
  0
LINE
  5
202
100
AcDbEntity
  8
V0-VYPLNE
  6
CONTINUOUS
 62
    52
100
AcDbLine
 10
723.999999
 20
4.315139
 30
0.0
 11
704.8
 21
4.315139
 31
0.0
  0
LINE
  5
203
100
AcDbEntity
  8
V0-VYPLNE
  6
CONTINUOUS
 62
    52
100
AcDbLine
 10
723.999999
 20
12.315139
 30
0.0
 11
704.8
 21
12.315139
 31
0.0
  0
LINE
  5
204
100
AcDbEntity
  8
V0-VYPLNE
  6
CONTINUOUS
 62
    52
100
AcDbLine
 10
723.999999
 20
20.315139
 30
0.0
 11
704.8
 21
20.315139
 31
0.0
  0
LINE
  5
205
100
AcDbEntity
  8
V0-VYPLNE
  6
CONTINUOUS
 62
    52
100
AcDbLine
 10
723.999999
 20
28.315139
 30
0.0
 11
704.8
 21
28.315139
 31
0.0
  0
LINE
  5
206
100
AcDbEntity
  8
V0-VYPLNE
  6
CONTINUOUS
 62
    52
100
AcDbLine
 10
724.0
 20
36.315139
 30
0.0
 11
704.8
 21
36.315139
 31
0.0
  0
LINE
  5
207
100
AcDbEntity
  8
V0-VYPLNE
  6
CONTINUOUS
 62
    52
100
AcDbLine
 10
724.0
 20
44.315139
 30
0.0
 11
704.8
 21
44.315139
 31
0.0
  0
LINE
  5
208
100
AcDbEntity
  8
V0-VYPLNE
  6
CONTINUOUS
 62
    52
100
AcDbLine
 10
724.0
 20
52.315139
 30
0.0
 11
704.8
 21
52.315139
 31
0.0
  0
LINE
  5
209
100
AcDbEntity
  8
V0-VYPLNE
  6
CONTINUOUS
 62
    52
100
AcDbLine
 10
724.0
 20
60.31514
 30
0.0
 11
704.8
 21
60.31514
 31
0.0
  0
LINE
  5
20A
100
AcDbEntity
  8
V0-VYPLNE
  6
CONTINUOUS
 62
    52
100
AcDbLine
 10
724.0
 20
68.31514
 30
0.0
 11
704.8
 21
68.31514
 31
0.0
  0
LINE
  5
20B
100
AcDbEntity
  8
V0-VYPLNE
  6
CONTINUOUS
 62
    52
100
AcDbLine
 10
724.0
 20
76.31514
 30
0.0
 11
724.0
 21
76.31514
 31
0.0
  0
LINE
  5
20C
100
AcDbEntity
  8
V0-VYPLNE
  6
CONTINUOUS
 62
    52
100
AcDbLine
 10
724.0
 20
76.31514
 30
0.0
 11
704.8
 21
76.31514
 31
0.0
  0
LINE
  5
20D
100
AcDbEntity
  8
V0-VYPLNE
  6
CONTINUOUS
 62
    52
100
AcDbLine
 10
752.799988
 20
60.101246
 30
0.0
 11
752.799988
 21
-60.101246
 31
0.0
  0
LINE
  5
20F
100
AcDbEntity
  8
V0-VYPLNE
  6
CONTINUOUS
 62
    52
100
AcDbLine
 10
733.599988
 20
-72.60193
 30
0.0
 11
733.599988
 21
72.60193
 31
0.0
  0
LINE
  5
211
100
AcDbEntity
  8
V0-VYPLNE
  6
CONTINUOUS
 62
    52
100
AcDbLine
 10
740.823675
 20
-67.898756
 30
0.0
 11
733.59998
 21
-67.898756
 31
0.0
  0
LINE
  5
212
100
AcDbEntity
  8
V0-VYPLNE
  6
CONTINUOUS
 62
    52
100
AcDbLine
 10
752.799986
 20
-59.898756
 30
0.0
 11
733.599981
 21
-59.898756
 31
0.0
  0
LINE
  5
213
100
AcDbEntity
  8
V0-VYPLNE
  6
CONTINUOUS
 62
    52
100
AcDbLine
 10
752.799986
 20
-51.898756
 30
0.0
 11
733.599981
 21
-51.898756
 31
0.0
  0
LINE
  5
214
100
AcDbEntity
  8
V0-VYPLNE
  6
CONTINUOUS
 62
    52
100
AcDbLine
 10
752.799987
 20
-43.898756
 30
0.0
 11
733.599981
 21
-43.898756
 31
0.0
  0
LINE
  5
215
100
AcDbEntity
  8
V0-VYPLNE
  6
CONTINUOUS
 62
    52
100
AcDbLine
 10
752.799987
 20
-35.898756
 30
0.0
 11
733.599981
 21
-35.898756
 31
0.0
  0
LINE
  5
216
100
AcDbEntity
  8
V0-VYPLNE
  6
CONTINUOUS
 62
    52
100
AcDbLine
 10
752.799987
 20
-27.898755
 30
0.0
 11
733.599983
 21
-27.898755
 31
0.0
  0
LINE
  5
217
100
AcDbEntity
  8
V0-VYPLNE
  6
CONTINUOUS
 62
    52
100
AcDbLine
 10
752.799987
 20
-19.898755
 30
0.0
 11
733.599983
 21
-19.898755
 31
0.0
  0
LINE
  5
218
100
AcDbEntity
  8
V0-VYPLNE
  6
CONTINUOUS
 62
    52
100
AcDbLine
 10
752.799987
 20
-11.898755
 30
0.0
 11
733.599983
 21
-11.898755
 31
0.0
  0
LINE
  5
219
100
AcDbEntity
  8
V0-VYPLNE
  6
CONTINUOUS
 62
    52
100
AcDbLine
 10
752.799987
 20
-3.898755
 30
0.0
 11
733.599983
 21
-3.898755
 31
0.0
  0
LINE
  5
21A
100
AcDbEntity
  8
V0-VYPLNE
  6
CONTINUOUS
 62
    52
100
AcDbLine
 10
752.799987
 20
4.101245
 30
0.0
 11
733.599983
 21
4.101245
 31
0.0
  0
LINE
  5
21B
100
AcDbEntity
  8
V0-VYPLNE
  6
CONTINUOUS
 62
    52
100
AcDbLine
 10
752.799987
 20
12.101245
 30
0.0
 11
733.599984
 21
12.101245
 31
0.0
  0
LINE
  5
21C
100
AcDbEntity
  8
V0-VYPLNE
  6
CONTINUOUS
 62
    52
100
AcDbLine
 10
752.799987
 20
20.101245
 30
0.0
 11
733.599984
 21
20.101245
 31
0.0
  0
LINE
  5
21D
100
AcDbEntity
  8
V0-VYPLNE
  6
CONTINUOUS
 62
    52
100
AcDbLine
 10
752.799987
 20
28.101245
 30
0.0
 11
733.599984
 21
28.101245
 31
0.0
  0
LINE
  5
21E
100
AcDbEntity
  8
V0-VYPLNE
  6
CONTINUOUS
 62
    52
100
AcDbLine
 10
752.799988
 20
36.101246
 30
0.0
 11
733.599984
 21
36.101246
 31
0.0
  0
LINE
  5
21F
100
AcDbEntity
  8
V0-VYPLNE
  6
CONTINUOUS
 62
    52
100
AcDbLine
 10
752.799988
 20
44.101246
 30
0.0
 11
733.599988
 21
44.101246
 31
0.0
  0
LINE
  5
220
100
AcDbEntity
  8
V0-VYPLNE
  6
CONTINUOUS
 62
    52
100
AcDbLine
 10
752.799988
 20
52.101246
 30
0.0
 11
733.599988
 21
52.101246
 31
0.0
  0
LINE
  5
221
100
AcDbEntity
  8
V0-VYPLNE
  6
CONTINUOUS
 62
    52
100
AcDbLine
 10
752.799988
 20
60.101246
 30
0.0
 11
733.599988
 21
60.101246
 31
0.0
  0
LINE
  5
222
100
AcDbEntity
  8
V0-VYPLNE
  6
CONTINUOUS
 62
    52
100
AcDbLine
 10
740.512659
 20
68.101246
 30
0.0
 11
733.599988
 21
68.101246
 31
0.0
  0
LINE
  5
227
100
AcDbEntity
  8
V0-VYPLNE
  6
CONTINUOUS
 62
    52
100
AcDbLine
 10
762.400024
 20
-50.062366
 30
0.0
 11
762.400024
 21
50.062355
 31
0.0
  0
LINE
  5
228
100
AcDbEntity
  8
V0-VYPLNE
  6
CONTINUOUS
 62
    52
100
AcDbLine
 10
764.732495
 20
-45.937646
 30
0.0
 11
762.400023
 21
-45.937646
 31
0.0
  0
LINE
  5
229
100
AcDbEntity
  8
V0-VYPLNE
  6
CONTINUOUS
 62
    52
100
AcDbLine
 10
769.256384
 20
-37.937646
 30
0.0
 11
762.400023
 21
-37.937646
 31
0.0
  0
LINE
  5
22A
100
AcDbEntity
  8
V0-VYPLNE
  6
CONTINUOUS
 62
    52
100
AcDbLine
 10
773.780271
 20
-29.937646
 30
0.0
 11
762.400023
 21
-29.937646
 31
0.0
  0
LINE
  5
22B
100
AcDbEntity
  8
V0-VYPLNE
  6
CONTINUOUS
 62
    52
100
AcDbLine
 10
776.574849
 20
-21.937646
 30
0.0
 11
762.400024
 21
-21.937646
 31
0.0
  0
LINE
  5
22C
100
AcDbEntity
  8
V0-VYPLNE
  6
CONTINUOUS
 62
    52
100
AcDbLine
 10
777.823908
 20
-13.937646
 30
0.0
 11
762.400024
 21
-13.937646
 31
0.0
  0
LINE
  5
22D
100
AcDbEntity
  8
V0-VYPLNE
  6
CONTINUOUS
 62
    52
100
AcDbLine
 10
779.072968
 20
-5.937646
 30
0.0
 11
762.400024
 21
-5.937646
 31
0.0
  0
LINE
  5
22E
100
AcDbEntity
  8
V0-VYPLNE
  6
CONTINUOUS
 62
    52
100
AcDbLine
 10
779.613578
 20
2.062354
 30
0.0
 11
762.400024
 21
2.062354
 31
0.0
  0
LINE
  5
22F
100
AcDbEntity
  8
V0-VYPLNE
  6
CONTINUOUS
 62
    52
100
AcDbLine
 10
778.114543
 20
10.062354
 30
0.0
 11
762.400024
 21
10.062354
 31
0.0
  0
LINE
  5
230
100
AcDbEntity
  8
V0-VYPLNE
  6
CONTINUOUS
 62
    52
100
AcDbLine
 10
776.615511
 20
18.062355
 30
0.0
 11
762.400024
 21
18.062355
 31
0.0
  0
LINE
  5
231
100
AcDbEntity
  8
V0-VYPLNE
  6
CONTINUOUS
 62
    52
100
AcDbLine
 10
775.116478
 20
26.062355
 30
0.0
 11
762.400024
 21
26.062355
 31
0.0
  0
LINE
  5
232
100
AcDbEntity
  8
V0-VYPLNE
  6
CONTINUOUS
 62
    52
100
AcDbLine
 10
771.830506
 20
34.062355
 30
0.0
 11
762.400024
 21
34.062355
 31
0.0
  0
LINE
  5
233
100
AcDbEntity
  8
V0-VYPLNE
  6
CONTINUOUS
 62
    52
100
AcDbLine
 10
767.115265
 20
42.062355
 30
0.0
 11
762.400024
 21
42.062355
 31
0.0
  0
DIMENSION
  5
247
100
AcDbEntity
  8
V0-VYPLNE
  6
CONTINUOUS
 62
    41
100
AcDbDimension
  2
*D1
 10
430.0
 20
-215.158729
 30
0.0
 11
239.441548
 21
-215.158729
 31
0.0
 70
   160
  3
STANDARD
100
AcDbAlignedDimension
 13
50.0
 23
-100.0
 33
0.0
 14
430.0
 24
-100.0
 34
0.0
100
AcDbRotatedDimension
1001
ACAD
1000
DSTYLE
1002
{
1070
    78
1070
     8
1070
   140
1040
25.0
1070
    74
1070
     0
1070
    73
1070
     0
1070
    77
1070
     1
1070
   173
1070
     1
1070
   147
1040
3.0
1070
    42
1040
0.625
1070
    44
1040
1.25
1070
    43
1040
3.75
1070
   271
1070
     0
1070
   141
1040
2.5
1070
     7
1000
_OPEN
1070
     6
1000
_OPEN
1070
    41
1040
25.0
1070
   273
1070
     8
1070
   274
1070
     4
1070
   143
1040
0.0394
1070
   171
1070
     4
1002
}
  0
DIMENSION
  5
254
100
AcDbEntity
  8
V0-VYPLNE
  6
CONTINUOUS
 62
    41
100
AcDbDimension
  2
*D2
 10
486.092865
 20
-100.0
 30
0.0
 11
470.592865
 21
0.0
 31
0.0
 70
    32
  1
%%c<>
  3
STANDARD
100
AcDbAlignedDimension
 13
430.0
 23
100.0
 33
0.0
 14
430.0
 24
-100.0
 34
0.0
 50
90.0
100
AcDbRotatedDimension
1001
ACAD
1000
DSTYLE
1002
{
1070
    78
1070
     8
1070
   140
1040
25.0
1070
    74
1070
     0
1070
    73
1070
     0
1070
    77
1070
     1
1070
   173
1070
     1
1070
   147
1040
3.0
1070
    42
1040
0.625
1070
    44
1040
1.25
1070
    43
1040
3.75
1070
   271
1070
     0
1070
   141
1040
2.5
1070
     7
1000
_OPEN
1070
     6
1000
_OPEN
1070
    41
1040
25.0
1070
   273
1070
     8
1070
   274
1070
     4
1070
   143
1040
0.0394
1070
   171
1070
     4
1002
}
  0
DIMENSION
  5
261
100
AcDbEntity
  8
V0-VYPLNE
  6
CONTINUOUS
 62
    41
100
AcDbDimension
  2
*D3
 10
826.5
 20
-189.376043
 30
0.0
 11
697.5
 21
-173.876043
 31
0.0
 70
    32
  3
STANDARD
100
AcDbAlignedDimension
 13
568.5
 23
-150.0
 33
0.0
 14
826.5
 24
-150.0
 34
0.0
100
AcDbRotatedDimension
1001
ACAD
1000
DSTYLE
1002
{
1070
    78
1070
     8
1070
   140
1040
25.0
1070
    74
1070
     0
1070
    73
1070
     0
1070
    77
1070
     1
1070
   173
1070
     1
1070
   147
1040
3.0
1070
    42
1040
0.625
1070
    44
1040
1.25
1070
    43
1040
3.75
1070
   271
1070
     0
1070
   141
1040
2.5
1070
     7
1000
_OPEN
1070
     6
1000
_OPEN
1070
    41
1040
25.0
1070
   273
1070
     8
1070
   274
1070
     4
1070
   143
1040
0.0394
1070
   171
1070
     4
1002
}
  0
DIMENSION
  5
26E
100
AcDbEntity
  8
V0-VYPLNE
  6
CONTINUOUS
 62
    41
100
AcDbDimension
  2
*D4
 10
875.985414
 20
-150.625
 30
0.0
 11
857.985414
 21
2.010658
 31
0.0
 12
2.5
 22
0.0
 32
0.0
 70
    32
  3
STANDARD
100
AcDbAlignedDimension
 13
829.5
 23
154.646317
 33
0.0
 14
826.5
 24
-150.625
 34
0.0
 50
90.0
100
AcDbRotatedDimension
1001
ACAD
1000
DSTYLE
1002
{
1070
    78
1070
     8
1070
   140
1040
25.0
1070
    74
1070
     0
1070
    73
1070
     0
1070
    77
1070
     1
1070
   173
1070
     1
1070
   147
1040
3.0
1070
    42
1040
0.625
1070
    44
1040
1.25
1070
    43
1040
3.75
1070
   271
1070
     0
1070
   141
1040
2.5
1070
     7
1000
_OPEN
1070
     6
1000
_OPEN
1070
    41
1040
25.0
1070
   273
1070
     8
1070
   274
1070
     4
1070
   143
1040
0.0394
1070
   171
1070
     4
1002
}
  0
DIMENSION
  5
286
100
AcDbEntity
  8
V0-VYPLNE
  6
CONTINUOUS
 62
    41
100
AcDbDimension
  2
*D5
 10
805.0
 20
193.418673
 30
0.0
 11
697.5
 21
206.772357
 31
0.0
 12
0.0
 22
2.146317
 32
0.0
 70
    32
  3
STANDARD
100
AcDbAlignedDimension
 13
590.0
 23
141.061737
 33
0.0
 14
805.0
 24
141.061737
 34
0.0
100
AcDbRotatedDimension
1001
ACAD
1000
DSTYLE
1002
{
1070
    78
1070
     8
1070
   140
1040
25.0
1070
    74
1070
     0
1070
    73
1070
     0
1070
    77
1070
     1
1070
   173
1070
     1
1070
   147
1040
3.0
1070
    42
1040
0.625
1070
    44
1040
1.25
1070
    43
1040
3.75
1070
   271
1070
     0
1070
   141
1040
2.5
1070
     7
1000
_OPEN
1070
     6
1000
_OPEN
1070
    41
1040
25.0
1070
   273
1070
     8
1070
   274
1070
     4
1070
   143
1040
0.0394
1070
   171
1070
     4
1002
}
  0
LEADER
  5
58A
100
AcDbEntity
  8
V0-VYPLNE
  6
CONTINUOUS
 62
    41
100
AcDbLeader
  3
STANDARD
 73
     0
 75
     1
 40
25.0
 41
54.166667
 76
     3
 10
587.199964
 20
133.587797
 30
0.0
 10
557.460811
 20
194.593638
 30
0.0
 10
532.460811
 20
194.593638
 30
0.0
 77
    41
340
58B
1001
ACAD
1000
DSTYLE
1002
{
1070
    78
1070
     8
1070
   140
1040
25.0
1070
    74
1070
     0
1070
    73
1070
     0
1070
    77
1070
     1
1070
   173
1070
     1
1070
   147
1040
3.0
1070
    42
1040
0.625
1070
    44
1040
1.25
1070
    43
1040
3.75
1070
   271
1070
     0
1070
   141
1040
2.5
1070
     7
1000
_OPEN
1070
     6
1000
_OPEN
1070
    41
1040
25.0
1070
   273
1070
     8
1070
   274
1070
     4
1070
   143
1040
0.0394
1070
   171
1070
     4
1002
}
  0
MTEXT
  5
58B
102
{ACAD_REACTORS
330
58A
102
}
100
AcDbEntity
  8
V0-VYPLNE
  6
CONTINUOUS
 62
    41
100
AcDbMText
 10
529.460811
 20
210.093638
 30
0.0
 40
25.0
 41
0.0
 71
     6
 72
     1
  1
\A1;%%c10
  0
DIMENSION
  5
599
100
AcDbEntity
  8
V0-VYPLNE
  6
CONTINUOUS
 62
    41
100
AcDbDimension
  2
*D6
 10
90.0
 20
-182.274254
 30
0.0
 11
70.0
 21
-182.274254
 31
0.0
 70
   160
  3
STANDARD
100
AcDbAlignedDimension
 13
50.0
 23
-100.625
 33
0.0
 14
90.0
 24
-100.0
 34
0.0
100
AcDbRotatedDimension
1001
ACAD
1000
DSTYLE
1002
{
1070
    78
1070
     8
1070
   140
1040
25.0
1070
    74
1070
     0
1070
    73
1070
     0
1070
    77
1070
     1
1070
   173
1070
     1
1070
   147
1040
3.0
1070
    42
1040
0.625
1070
    44
1040
1.25
1070
    43
1040
3.75
1070
   271
1070
     0
1070
   141
1040
2.5
1070
     7
1000
_OPEN
1070
     6
1000
_OPEN
1070
    41
1040
25.0
1070
   273
1070
     8
1070
   274
1070
     4
1070
   143
1040
0.0394
1070
   171
1070
     4
1002
}
  0
INSERT
  5
6DB
100
AcDbEntity
  8
KOTY
100
AcDbBlockReference
  2
ABBB
 10
-160.913577
 20
176.834204
 30
0.0
  0
POINT
  5
6DF
100
AcDbEntity
  8
V0-VYPLNE
100
AcDbPoint
 10
90.0
 20
0.0
 30
0.0
  0
POINT
  5
6E0
100
AcDbEntity
  8
V0-VYPLNE
100
AcDbPoint
 10
89.099392
 20
-366.619423
 30
0.0
  0
POINT
  5
6E1
100
AcDbEntity
  8
V0-VYPLNE
100
AcDbPoint
 10
700.0
 20
0.0
 30
0.0
  0
ENDSEC
  0
SECTION
  2
OBJECTS
  0
DICTIONARY
  5
C
100
AcDbDictionary
  3
ACAD_GROUP
350
D
  3
ACAD_MLINESTYLE
350
1B
  0
DICTIONARY
  5
D
102
{ACAD_REACTORS
330
C
102
}
100
AcDbDictionary
  0
DICTIONARY
  5
1B
102
{ACAD_REACTORS
330
C
102
}
100
AcDbDictionary
  3
STANDARD
350
1C
  0
MLINESTYLE
  5
1C
102
{ACAD_REACTORS
330
1B
102
}
100
AcDbMlineStyle
  2
STANDARD
 70
     0
  3

 62
   256
 51
90.0
 52
90.0
 71
     2
 49
0.5
 62
   256
  6
BYLAYER
 49
-0.5
 62
   256
  6
BYLAYER
  0
ENDSEC
  0
EOF
