  0
SECTION
  2
HEADER
  9
$ACADVER
  1
AC1014
  9
$ACADMAINTVER
 70
     0
  9
$DWGCODEPAGE
  3
ANSI_1250
  9
$INSBASE
 10
0.0
 20
0.0
 30
0.0
  9
$EXTMIN
 10
-152.5
 20
-1494.870041
 30
0.0
  9
$EXTMAX
 10
2405.054297
 20
1121.061703
 30
0.0
  9
$LIMMIN
 10
0.0
 20
0.0
  9
$LIMMAX
 10
12.0
 20
9.0
  9
$ORTHOMODE
 70
     0
  9
$REGENMODE
 70
     1
  9
$FILLMODE
 70
     1
  9
$QTEXTMODE
 70
     0
  9
$MIRRTEXT
 70
     1
  9
$DRAGMODE
 70
     2
  9
$LTSCALE
 40
1.0
  9
$OSMODE
 70
    45
  9
$ATTMODE
 70
     1
  9
$TEXTSIZE
 40
30.0
  9
$TRACEWID
 40
0.05
  9
$TEXTSTYLE
  7
ED30
  9
$CLAYER
  8
V0-ZBYTEK
  9
$CELTYPE
  6
CONTINUOUS
  9
$CECOLOR
 62
    41
  9
$CELTSCALE
 40
1.0
  9
$DELOBJ
 70
     1
  9
$DISPSILH
 70
     0
  9
$DIMSCALE
 40
1.0
  9
$DIMASZ
 40
35.0
  9
$DIMEXO
 40
1.0
  9
$DIMDLI
 40
3.75
  9
$DIMRND
 40
0.0
  9
$DIMDLE
 40
0.0
  9
$DIMEXE
 40
1.25
  9
$DIMTP
 40
0.0
  9
$DIMTM
 40
0.0
  9
$DIMTXT
 40
40.0
  9
$DIMCEN
 40
3.0
  9
$DIMTSZ
 40
0.0
  9
$DIMTOL
 70
     0
  9
$DIMLIM
 70
     0
  9
$DIMTIH
 70
     0
  9
$DIMTOH
 70
     0
  9
$DIMSE1
 70
     0
  9
$DIMSE2
 70
     0
  9
$DIMTAD
 70
     1
  9
$DIMZIN
 70
     8
  9
$DIMBLK
  1

  9
$DIMASO
 70
     1
  9
$DIMSHO
 70
     1
  9
$DIMPOST
  1

  9
$DIMAPOST
  1

  9
$DIMALT
 70
     0
  9
$DIMALTD
 70
     4
  9
$DIMALTF
 40
0.0394
  9
$DIMLFAC
 40
1.0
  9
$DIMTOFL
 70
     1
  9
$DIMTVP
 40
0.0
  9
$DIMTIX
 70
     0
  9
$DIMSOXD
 70
     0
  9
$DIMSAH
 70
     1
  9
$DIMBLK1
  1
_OPEN
  9
$DIMBLK2
  1
_OPEN
  9
$DIMSTYLE
  2
ED40
  9
$DIMCLRD
 70
    41
  9
$DIMCLRE
 70
    41
  9
$DIMCLRT
 70
    41
  9
$DIMTFAC
 40
1.0
  9
$DIMGAP
 40
4.0
  9
$DIMJUST
 70
     0
  9
$DIMSD1
 70
     0
  9
$DIMSD2
 70
     0
  9
$DIMTOLJ
 70
     1
  9
$DIMTZIN
 70
     8
  9
$DIMALTZ
 70
     0
  9
$DIMALTTZ
 70
     0
  9
$DIMFIT
 70
     3
  9
$DIMUPT
 70
     0
  9
$DIMUNIT
 70
     2
  9
$DIMDEC
 70
     0
  9
$DIMTDEC
 70
     1
  9
$DIMALTU
 70
     8
  9
$DIMALTTD
 70
     4
  9
$DIMTXSTY
  7
ED40
  9
$DIMAUNIT
 70
     0
  9
$LUNITS
 70
     2
  9
$LUPREC
 70
     2
  9
$SKETCHINC
 40
0.1
  9
$FILLETRAD
 40
10.0
  9
$AUNITS
 70
     1
  9
$AUPREC
 70
     4
  9
$MENU
  1
.
  9
$ELEVATION
 40
0.0
  9
$PELEVATION
 40
0.0
  9
$THICKNESS
 40
0.0
  9
$LIMCHECK
 70
     0
  9
$BLIPMODE
 70
     0
  9
$CHAMFERA
 40
0.5
  9
$CHAMFERB
 40
0.5
  9
$CHAMFERC
 40
1.0
  9
$CHAMFERD
 40
0.0
  9
$SKPOLY
 70
     1
  9
$TDCREATE
 40
2452928.619548032
  9
$TDUPDATE
 40
2452932.861946875
  9
$TDINDWG
 40
0.3632560185
  9
$TDUSRTIMER
 40
0.3632560185
  9
$USRTIMER
 70
     1
  9
$ANGBASE
 50
0.0
  9
$ANGDIR
 70
     0
  9
$PDMODE
 70
     0
  9
$PDSIZE
 40
0.0
  9
$PLINEWID
 40
0.0
  9
$COORDS
 70
     1
  9
$SPLFRAME
 70
     0
  9
$SPLINETYPE
 70
     6
  9
$SPLINESEGS
 70
     8
  9
$ATTDIA
 70
     0
  9
$ATTREQ
 70
     1
  9
$HANDLING
 70
     1
  9
$HANDSEED
  5
EEB
  9
$SURFTAB1
 70
     6
  9
$SURFTAB2
 70
     6
  9
$SURFTYPE
 70
     6
  9
$SURFU
 70
     6
  9
$SURFV
 70
     6
  9
$UCSNAME
  2

  9
$UCSORG
 10
0.0
 20
0.0
 30
0.0
  9
$UCSXDIR
 10
1.0
 20
0.0
 30
0.0
  9
$UCSYDIR
 10
0.0
 20
1.0
 30
0.0
  9
$PUCSNAME
  2

  9
$PUCSORG
 10
0.0
 20
0.0
 30
0.0
  9
$PUCSXDIR
 10
1.0
 20
0.0
 30
0.0
  9
$PUCSYDIR
 10
0.0
 20
1.0
 30
0.0
  9
$USERI1
 70
     0
  9
$USERI2
 70
     0
  9
$USERI3
 70
     2
  9
$USERI4
 70
     2
  9
$USERI5
 70
     6
  9
$USERR1
 40
281.0
  9
$USERR2
 40
321.0
  9
$USERR3
 40
0.0
  9
$USERR4
 40
0.0
  9
$USERR5
 40
0.0
  9
$WORLDVIEW
 70
     1
  9
$SHADEDGE
 70
     3
  9
$SHADEDIF
 70
    70
  9
$TILEMODE
 70
     1
  9
$MAXACTVP
 70
    48
  9
$PINSBASE
 10
0.0
 20
0.0
 30
0.0
  9
$PLIMCHECK
 70
     0
  9
$PEXTMIN
 10
1.000000E+20
 20
1.000000E+20
 30
1.000000E+20
  9
$PEXTMAX
 10
-1.000000E+20
 20
-1.000000E+20
 30
-1.000000E+20
  9
$PLIMMIN
 10
0.0
 20
0.0
  9
$PLIMMAX
 10
12.0
 20
9.0
  9
$UNITMODE
 70
     0
  9
$VISRETAIN
 70
     1
  9
$PLINEGEN
 70
     0
  9
$PSLTSCALE
 70
     1
  9
$TREEDEPTH
 70
  3020
  9
$PICKSTYLE
 70
     0
  9
$CMLSTYLE
  2
STANDARD
  9
$CMLJUST
 70
     0
  9
$CMLSCALE
 40
1.0
  9
$PROXYGRAPHICS
 70
     1
  9
$MEASUREMENT
 70
     0
  0
ENDSEC
  0
SECTION
  2
CLASSES
  0
CLASS
  1
LWPOLYLINE
  2
AcDbPolyline
  3
"AutoCAD"
 90
        0
280
     0
281
     1
  0
ENDSEC
  0
SECTION
  2
TABLES
  0
TABLE
  2
VPORT
  5
8
100
AcDbSymbolTable
 70
     4
  0
VPORT
  5
EEA
100
AcDbSymbolTableRecord
100
AcDbViewportTableRecord
  2
*ACTIVE
 70
     0
 10
0.0
 20
0.0
 11
1.0
 21
1.0
 12
1353.16073
 22
-81.948768
 13
0.0
 23
0.0
 14
25.0
 24
25.0
 15
25.0
 25
25.0
 16
0.0
 26
0.0
 36
1.0
 17
0.0
 27
0.0
 37
0.0
 40
2946.308712
 41
1.75
 42
50.0
 43
0.0
 44
0.0
 50
0.0
 51
0.0
 71
     0
 72
   100
 73
     1
 74
     1
 75
     0
 76
     0
 77
     0
 78
     0
  0
ENDTAB
  0
TABLE
  2
LTYPE
  5
5
100
AcDbSymbolTable
 70
     3
  0
LTYPE
  5
13
100
AcDbSymbolTableRecord
100
AcDbLinetypeTableRecord
  2
BYBLOCK
 70
     0
  3

 72
    65
 73
     0
 40
0.0
  0
LTYPE
  5
14
100
AcDbSymbolTableRecord
100
AcDbLinetypeTableRecord
  2
BYLAYER
 70
     0
  3

 72
    65
 73
     0
 40
0.0
  0
LTYPE
  5
15
100
AcDbSymbolTableRecord
100
AcDbLinetypeTableRecord
  2
CONTINUOUS
 70
     0
  3
Solid line
 72
    65
 73
     0
 40
0.0
  0
LTYPE
  5
15D
100
AcDbSymbolTableRecord
100
AcDbLinetypeTableRecord
  2
DASHDOT
 70
     0
  3
Dash dot __ . __ . __ . __ . __ . __ . __ . __
 72
    65
 73
     4
 40
25.4
 49
12.7
 74
     0
 49
-6.35
 74
     0
 49
0.0
 74
     0
 49
-6.35
 74
     0
  0
LTYPE
  5
15E
100
AcDbSymbolTableRecord
100
AcDbLinetypeTableRecord
  2
DASHED
 70
     0
  3
Dashed __ __ __ __ __ __ __ __ __ __ __ __ __ _
 72
    65
 73
     2
 40
19.05
 49
12.7
 74
     0
 49
-6.35
 74
     0
  0
ENDTAB
  0
TABLE
  2
LAYER
  5
2
100
AcDbSymbolTable
 70
     7
  0
LAYER
  5
F
100
AcDbSymbolTableRecord
100
AcDbLayerTableRecord
  2
0
 70
     0
 62
     7
  6
CONTINUOUS
  0
LAYER
  5
15F
100
AcDbSymbolTableRecord
100
AcDbLayerTableRecord
  2
DEFPOINTS
 70
     0
 62
     7
  6
CONTINUOUS
  0
LAYER
  5
160
100
AcDbSymbolTableRecord
100
AcDbLayerTableRecord
  2
V0-OBRYS
 70
     0
 62
    90
  6
CONTINUOUS
  0
LAYER
  5
161
100
AcDbSymbolTableRecord
100
AcDbLayerTableRecord
  2
V0-VYPLNE
 70
     0
 62
    63
  6
DASHDOT
  0
LAYER
  5
162
100
AcDbSymbolTableRecord
100
AcDbLayerTableRecord
  2
V0-NAZVY
 70
     0
 62
   210
  6
CONTINUOUS
  0
LAYER
  5
163
100
AcDbSymbolTableRecord
100
AcDbLayerTableRecord
  2
V0-ZBYTEK
 70
     0
 62
    52
  6
CONTINUOUS
  0
LAYER
  5
4CF
100
AcDbSymbolTableRecord
100
AcDbLayerTableRecord
  2
V0-KOTY
 70
     0
 62
    41
  6
CONTINUOUS
  0
ENDTAB
  0
TABLE
  2
STYLE
  5
3
100
AcDbSymbolTable
 70
     8
  0
STYLE
  5
10
100
AcDbSymbolTableRecord
100
AcDbTextStyleTableRecord
  2
STANDARD
 70
     0
 40
20.0
 41
1.0
 50
0.0
 71
     0
 42
20.0
  3
ARIAL.TTF
  4

1001
ACAD
1000
Arial
1071
       34
  0
STYLE
  5
164
100
AcDbSymbolTableRecord
100
AcDbTextStyleTableRecord
  2
ED20
 70
     0
 40
20.0
 41
1.0
 50
0.0
 71
     0
 42
2.5
  3
ISOCP.shx
  4

  0
STYLE
  5
165
100
AcDbSymbolTableRecord
100
AcDbTextStyleTableRecord
  2
ED10
 70
     0
 40
10.0
 41
1.0
 50
0.0
 71
     0
 42
10.0
  3
ISOCP.shx
  4

  0
STYLE
  5
166
100
AcDbSymbolTableRecord
100
AcDbTextStyleTableRecord
  2
ED30
 70
     0
 40
30.0
 41
1.0
 50
0.0
 71
     0
 42
30.0
  3
technic_.ttf
  4

1001
ACAD
1000
Technic
1071
      514
  0
STYLE
  5
167
100
AcDbSymbolTableRecord
100
AcDbTextStyleTableRecord
  2
ED40
 70
     0
 40
40.0
 41
1.0
 50
0.0
 71
     0
 42
40.0
  3
technic_.ttf
  4

1001
ACAD
1000
Technic
1071
      514
  0
STYLE
  5
576
100
AcDbSymbolTableRecord
100
AcDbTextStyleTableRecord
  2
ED50
 70
     0
 40
50.0
 41
1.0
 50
0.0
 71
     0
 42
20.0
  3
technic_.ttf
  4

1001
ACAD
1000
Technic
1071
      514
  0
STYLE
  5
5BD
100
AcDbSymbolTableRecord
100
AcDbTextStyleTableRecord
  2
ED50A
 70
     0
 40
50.0
 41
1.0
 50
0.0
 71
     0
 42
20.0
  3
technic_.ttf
  4

1001
ACAD
1000
Technic
1071
      514
  0
STYLE
  5
610
100
AcDbSymbolTableRecord
100
AcDbTextStyleTableRecord
  2
ED50B
 70
     0
 40
50.0
 41
1.0
 50
0.0
 71
     0
 42
50.0
  3
technic_.ttf
  4

1001
ACAD
1000
Technic
1071
      514
  0
ENDTAB
  0
TABLE
  2
VIEW
  5
6
100
AcDbSymbolTable
 70
     0
  0
ENDTAB
  0
TABLE
  2
UCS
  5
7
100
AcDbSymbolTable
 70
     0
  0
ENDTAB
  0
TABLE
  2
APPID
  5
9
100
AcDbSymbolTable
 70
     5
  0
APPID
  5
11
100
AcDbSymbolTableRecord
100
AcDbRegAppTableRecord
  2
ACAD
 70
     0
  0
APPID
  5
16C
100
AcDbSymbolTableRecord
100
AcDbRegAppTableRecord
  2
CONTENTBLOCKICON
 70
     0
  0
APPID
  5
16D
100
AcDbSymbolTableRecord
100
AcDbRegAppTableRecord
  2
CONTENTBLOCKDESCRIPTION
 70
     0
  0
APPID
  5
16E
100
AcDbSymbolTableRecord
100
AcDbRegAppTableRecord
  2
CONTENTTABDATA
 70
     0
  0
APPID
  5
16F
100
AcDbSymbolTableRecord
100
AcDbRegAppTableRecord
  2
CONTENTCURRENTTAB
 70
     0
  0
ENDTAB
  0
TABLE
  2
DIMSTYLE
  5
A
100
AcDbSymbolTable
 70
     5
  0
DIMSTYLE
105
1D
100
AcDbSymbolTableRecord
100
AcDbDimStyleTableRecord
  2
STANDARD
 70
     0
  3

  4

  5

  6
_OPEN
  7
_OPEN
 40
1.0
 41
20.0
 42
1.0
 43
3.75
 44
2.25
 45
0.0
 46
0.0
 47
0.0
 48
0.0
140
20.0
141
3.0
142
0.0
143
0.0394
144
1.0
145
0.0
146
1.0
147
1.5
 71
     0
 72
     0
 73
     0
 74
     0
 75
     0
 76
     0
 77
     1
 78
     8
170
     0
171
     4
172
     1
173
     1
174
     0
175
     0
176
     0
177
     0
178
     0
270
     2
271
     2
272
     1
273
     8
274
     4
340
166
275
     0
280
     0
281
     0
282
     0
283
     1
284
     8
285
     0
286
     0
287
     3
288
     0
  0
DIMSTYLE
105
168
102
{ACAD_REACTORS
330
D90
102
}
100
AcDbSymbolTableRecord
100
AcDbDimStyleTableRecord
  2
ED40
 70
     0
  3

  4

  5

  6
_OPEN
  7
_OPEN
 40
1.0
 41
35.0
 42
1.0
 43
3.75
 44
1.25
 45
0.0
 46
0.0
 47
0.0
 48
0.0
140
40.0
141
3.0
142
0.0
143
0.0394
144
1.0
145
0.0
146
1.0
147
4.0
 71
     0
 72
     0
 73
     0
 74
     0
 75
     0
 76
     0
 77
     1
 78
     8
170
     0
171
     4
172
     1
173
     1
174
     0
175
     0
176
    41
177
    41
178
    41
270
     2
271
     0
272
     1
273
     8
274
     4
340
167
275
     0
280
     0
281
     0
282
     0
283
     1
284
     8
285
     0
286
     0
287
     3
288
     0
  0
DIMSTYLE
105
169
102
{ACAD_REACTORS
330
927
330
941
330
94E
330
A8D
330
A89
102
}
100
AcDbSymbolTableRecord
100
AcDbDimStyleTableRecord
  2
ED30
 70
     0
  3

  4

  5

  6
_OPEN
  7
_OPEN
 40
1.0
 41
25.0
 42
1.0
 43
3.75
 44
1.25
 45
0.0
 46
0.0
 47
0.0
 48
0.0
140
30.0
141
3.0
142
0.0
143
0.0394
144
1.0
145
0.0
146
1.0
147
4.0
 71
     0
 72
     0
 73
     0
 74
     0
 75
     0
 76
     0
 77
     1
 78
     8
170
     0
171
     4
172
     1
173
     1
174
     0
175
     0
176
     1
177
     1
178
     1
270
     2
271
     0
272
     1
273
     8
274
     4
340
166
275
     0
280
     0
281
     0
282
     0
283
     1
284
     8
285
     0
286
     0
287
     3
288
     0
  0
DIMSTYLE
105
16A
102
{ACAD_REACTORS
330
90F
102
}
100
AcDbSymbolTableRecord
100
AcDbDimStyleTableRecord
  2
ED20
 70
     0
  3

  4

  5

  6
_OPEN
  7
_OPEN
 40
0.0
 41
20.0
 42
1.0
 43
3.75
 44
1.25
 45
0.0
 46
0.0
 47
0.0
 48
0.0
140
20.0
141
3.0
142
0.0
143
0.0394
144
1.0
145
0.0
146
1.0
147
1.5
 71
     0
 72
     0
 73
     0
 74
     0
 75
     0
 76
     0
 77
     1
 78
     8
170
     0
171
     4
172
     1
173
     1
174
     0
175
     0
176
     0
177
     0
178
     0
270
     2
271
     0
272
     1
273
     8
274
     4
340
164
275
     0
280
     0
281
     0
282
     0
283
     1
284
     8
285
     0
286
     0
287
     3
288
     0
  0
DIMSTYLE
105
16B
102
{ACAD_REACTORS
330
194
330
195
330
196
330
1AC
330
1AD
102
}
100
AcDbSymbolTableRecord
100
AcDbDimStyleTableRecord
  2
ED10
 70
     0
  3

  4

  5

  6
_OPEN
  7
_OPEN
 40
0.0
 41
15.0
 42
1.0
 43
3.75
 44
1.25
 45
0.0
 46
0.0
 47
0.0
 48
0.0
140
10.0
141
3.0
142
0.0
143
0.0394
144
1.0
145
0.0
146
1.0
147
1.5
 71
     0
 72
     0
 73
     0
 74
     0
 75
     0
 76
     0
 77
     1
 78
     8
170
     0
171
     4
172
     1
173
     1
174
     0
175
     0
176
     1
177
     1
178
     1
270
     2
271
     0
272
     1
273
     8
274
     4
340
164
275
     0
280
     0
281
     0
282
     0
283
     1
284
     8
285
     0
286
     0
287
     3
288
     0
  0
ENDTAB
  0
TABLE
  2
BLOCK_RECORD
  5
1
100
AcDbSymbolTable
 70
    16
  0
BLOCK_RECORD
  5
19
100
AcDbSymbolTableRecord
100
AcDbBlockTableRecord
  2
*MODEL_SPACE
  0
BLOCK_RECORD
  5
16
100
AcDbSymbolTableRecord
100
AcDbBlockTableRecord
  2
*PAPER_SPACE
  0
BLOCK_RECORD
  5
118
100
AcDbSymbolTableRecord
100
AcDbBlockTableRecord
  2
_OPEN
  0
BLOCK_RECORD
  5
11E
100
AcDbSymbolTableRecord
100
AcDbBlockTableRecord
  2
A10_100
  0
BLOCK_RECORD
  5
121
100
AcDbSymbolTableRecord
100
AcDbBlockTableRecord
  2
*D2
  0
BLOCK_RECORD
  5
12D
100
AcDbSymbolTableRecord
100
AcDbBlockTableRecord
  2
*D3
  0
BLOCK_RECORD
  5
139
100
AcDbSymbolTableRecord
100
AcDbBlockTableRecord
  2
*D4
  0
BLOCK_RECORD
  5
145
100
AcDbSymbolTableRecord
100
AcDbBlockTableRecord
  2
*D5
  0
BLOCK_RECORD
  5
151
100
AcDbSymbolTableRecord
100
AcDbBlockTableRecord
  2
*D6
  0
BLOCK_RECORD
  5
170
100
AcDbSymbolTableRecord
100
AcDbBlockTableRecord
  2
CTVB-140
  0
BLOCK_RECORD
  5
903
100
AcDbSymbolTableRecord
100
AcDbBlockTableRecord
  2
*D8
  0
BLOCK_RECORD
  5
91B
100
AcDbSymbolTableRecord
100
AcDbBlockTableRecord
  2
*D9
  0
BLOCK_RECORD
  5
935
100
AcDbSymbolTableRecord
100
AcDbBlockTableRecord
  2
*D10
  0
BLOCK_RECORD
  5
942
100
AcDbSymbolTableRecord
100
AcDbBlockTableRecord
  2
*D11
  0
BLOCK_RECORD
  5
AC0
100
AcDbSymbolTableRecord
100
AcDbBlockTableRecord
  2
*D12
  0
BLOCK_RECORD
  5
ACC
100
AcDbSymbolTableRecord
100
AcDbBlockTableRecord
  2
*D13
  0
BLOCK_RECORD
  5
D84
100
AcDbSymbolTableRecord
100
AcDbBlockTableRecord
  2
*D14
  0
ENDTAB
  0
ENDSEC
  0
SECTION
  2
BLOCKS
  0
BLOCK
  5
1A
100
AcDbEntity
  8
0
100
AcDbBlockBegin
  2
*MODEL_SPACE
 70
     0
 10
0.0
 20
0.0
 30
0.0
  3
*MODEL_SPACE
  1

  0
ENDBLK
  5
1B
100
AcDbEntity
  8
0
100
AcDbBlockEnd
  0
BLOCK
  5
17
100
AcDbEntity
 67
     1
  8
0
100
AcDbBlockBegin
  2
*PAPER_SPACE
 70
     0
 10
0.0
 20
0.0
 30
0.0
  3
*PAPER_SPACE
  1

  0
ENDBLK
  5
18
100
AcDbEntity
 67
     1
  8
0
100
AcDbBlockEnd
  0
BLOCK
  5
11C
100
AcDbEntity
  8
0
100
AcDbBlockBegin
  2
_OPEN
 70
     0
 10
0.0
 20
0.0
 30
0.0
  3
_OPEN
  1

  0
LINE
  5
119
100
AcDbEntity
  8
0
  6
BYBLOCK
 62
     0
100
AcDbLine
 10
-1.0
 20
0.166667
 30
0.0
 11
0.0
 21
0.0
 31
0.0
  0
LINE
  5
11A
100
AcDbEntity
  8
0
  6
BYBLOCK
 62
     0
100
AcDbLine
 10
0.0
 20
0.0
 30
0.0
 11
-1.0
 21
-0.166667
 31
0.0
  0
LINE
  5
11B
100
AcDbEntity
  8
0
  6
BYBLOCK
 62
     0
100
AcDbLine
 10
0.0
 20
0.0
 30
0.0
 11
-1.0
 21
0.0
 31
0.0
  0
ENDBLK
  5
11D
100
AcDbEntity
  8
0
100
AcDbBlockEnd
  0
BLOCK
  5
11F
100
AcDbEntity
  8
0
 62
    52
100
AcDbBlockBegin
  2
A10_100
 70
     0
 10
0.0
 20
0.0
 30
0.0
  3
A10_100
  1

  0
ENDBLK
  5
120
100
AcDbEntity
  8
0
 62
    52
100
AcDbBlockEnd
  0
BLOCK
  5
12B
100
AcDbEntity
  8
0
100
AcDbBlockBegin
  2
*D2
 70
     1
 10
0.0
 20
0.0
 30
0.0
  3
*D2
  1

  0
LINE
  5
122
100
AcDbEntity
  8
0
  6
BYBLOCK
 62
     0
100
AcDbLine
 10
116.141239
 20
-277.166006
 30
0.0
 11
116.141239
 21
-317.305819
 31
0.0
  0
LINE
  5
123
100
AcDbEntity
  8
0
  6
BYBLOCK
 62
     0
100
AcDbLine
 10
296.141239
 20
-277.166006
 30
0.0
 11
296.141239
 21
-317.305819
 31
0.0
  0
LINE
  5
124
100
AcDbEntity
  8
0
  6
BYBLOCK
 62
     0
100
AcDbLine
 10
131.141239
 20
-316.055819
 30
0.0
 11
281.141239
 21
-316.055819
 31
0.0
  0
INSERT
  5
125
100
AcDbEntity
  8
0
  6
BYBLOCK
 62
     0
100
AcDbBlockReference
  2
_OPEN
 10
116.141239
 20
-316.055819
 30
0.0
 41
15.0
 42
15.0
 43
15.0
 50
180.0
  0
INSERT
  5
126
100
AcDbEntity
  8
0
  6
BYBLOCK
 62
     0
100
AcDbBlockReference
  2
_OPEN
 10
296.141239
 20
-316.055819
 30
0.0
 41
15.0
 42
15.0
 43
15.0
  0
MTEXT
  5
127
100
AcDbEntity
  8
0
  6
BYBLOCK
 62
     0
100
AcDbMText
 10
206.141239
 20
-304.555819
 30
0.0
 40
20.0
 41
0.0
 71
     5
 72
     1
  1
\A1;\U+2205180
  7
ED20
  0
POINT
  5
128
100
AcDbEntity
  8
DEFPOINTS
  6
BYBLOCK
 62
     0
100
AcDbPoint
 10
116.141239
 20
-276.166006
 30
0.0
  0
POINT
  5
129
100
AcDbEntity
  8
DEFPOINTS
  6
BYBLOCK
 62
     0
100
AcDbPoint
 10
296.141239
 20
-276.166006
 30
0.0
  0
POINT
  5
12A
100
AcDbEntity
  8
DEFPOINTS
  6
BYBLOCK
 62
     0
100
AcDbPoint
 10
296.141239
 20
-316.055819
 30
0.0
  0
ENDBLK
  5
12C
100
AcDbEntity
  8
0
100
AcDbBlockEnd
  0
BLOCK
  5
137
100
AcDbEntity
  8
0
100
AcDbBlockBegin
  2
*D3
 70
     1
 10
0.0
 20
0.0
 30
0.0
  3
*D3
  1

  0
LINE
  5
12E
100
AcDbEntity
  8
0
  6
BYBLOCK
 62
     0
100
AcDbLine
 10
83.641239
 20
-277.166006
 30
0.0
 11
83.641239
 21
-350.636793
 31
0.0
  0
LINE
  5
12F
100
AcDbEntity
  8
0
  6
BYBLOCK
 62
     0
100
AcDbLine
 10
328.641239
 20
-277.166006
 30
0.0
 11
328.641239
 21
-350.636793
 31
0.0
  0
LINE
  5
130
100
AcDbEntity
  8
0
  6
BYBLOCK
 62
     0
100
AcDbLine
 10
98.641239
 20
-349.386793
 30
0.0
 11
313.641239
 21
-349.386793
 31
0.0
  0
INSERT
  5
131
100
AcDbEntity
  8
0
  6
BYBLOCK
 62
     0
100
AcDbBlockReference
  2
_OPEN
 10
83.641239
 20
-349.386793
 30
0.0
 41
15.0
 42
15.0
 43
15.0
 50
180.0
  0
INSERT
  5
132
100
AcDbEntity
  8
0
  6
BYBLOCK
 62
     0
100
AcDbBlockReference
  2
_OPEN
 10
328.641239
 20
-349.386793
 30
0.0
 41
15.0
 42
15.0
 43
15.0
  0
MTEXT
  5
133
100
AcDbEntity
  8
0
  6
BYBLOCK
 62
     0
100
AcDbMText
 10
206.141239
 20
-337.884825
 30
0.0
 40
20.0
 41
0.0
 71
     5
 72
     1
  1
\A1;245
  7
ED20
  0
POINT
  5
134
100
AcDbEntity
  8
DEFPOINTS
  6
BYBLOCK
 62
     0
100
AcDbPoint
 10
83.641239
 20
-276.166006
 30
0.0
  0
POINT
  5
135
100
AcDbEntity
  8
DEFPOINTS
  6
BYBLOCK
 62
     0
100
AcDbPoint
 10
328.641239
 20
-276.166006
 30
0.0
  0
POINT
  5
136
100
AcDbEntity
  8
DEFPOINTS
  6
BYBLOCK
 62
     0
100
AcDbPoint
 10
328.641239
 20
-349.386793
 30
0.0
  0
ENDBLK
  5
138
100
AcDbEntity
  8
0
100
AcDbBlockEnd
  0
BLOCK
  5
143
100
AcDbEntity
  8
0
100
AcDbBlockBegin
  2
*D4
 70
     1
 10
0.0
 20
0.0
 30
0.0
  3
*D4
  1

  0
LINE
  5
13A
100
AcDbEntity
  8
0
  6
BYBLOCK
 62
     0
100
AcDbLine
 10
56.141239
 20
-277.166006
 30
0.0
 11
56.141239
 21
-383.967768
 31
0.0
  0
LINE
  5
13B
100
AcDbEntity
  8
0
  6
BYBLOCK
 62
     0
100
AcDbLine
 10
356.141239
 20
-277.166006
 30
0.0
 11
356.141239
 21
-383.967768
 31
0.0
  0
LINE
  5
13C
100
AcDbEntity
  8
0
  6
BYBLOCK
 62
     0
100
AcDbLine
 10
71.141239
 20
-382.717768
 30
0.0
 11
341.141239
 21
-382.717768
 31
0.0
  0
INSERT
  5
13D
100
AcDbEntity
  8
0
  6
BYBLOCK
 62
     0
100
AcDbBlockReference
  2
_OPEN
 10
56.141239
 20
-382.717768
 30
0.0
 41
15.0
 42
15.0
 43
15.0
 50
180.0
  0
INSERT
  5
13E
100
AcDbEntity
  8
0
  6
BYBLOCK
 62
     0
100
AcDbBlockReference
  2
_OPEN
 10
356.141239
 20
-382.717768
 30
0.0
 41
15.0
 42
15.0
 43
15.0
  0
MTEXT
  5
13F
100
AcDbEntity
  8
0
  6
BYBLOCK
 62
     0
100
AcDbMText
 10
206.141239
 20
-371.217768
 30
0.0
 40
20.0
 41
0.0
 71
     5
 72
     1
  1
\A1;300
  7
ED20
  0
POINT
  5
140
100
AcDbEntity
  8
DEFPOINTS
  6
BYBLOCK
 62
     0
100
AcDbPoint
 10
56.141239
 20
-276.166006
 30
0.0
  0
POINT
  5
141
100
AcDbEntity
  8
DEFPOINTS
  6
BYBLOCK
 62
     0
100
AcDbPoint
 10
356.141239
 20
-276.166006
 30
0.0
  0
POINT
  5
142
100
AcDbEntity
  8
DEFPOINTS
  6
BYBLOCK
 62
     0
100
AcDbPoint
 10
356.141239
 20
-382.717768
 30
0.0
  0
ENDBLK
  5
144
100
AcDbEntity
  8
0
100
AcDbBlockEnd
  0
BLOCK
  5
14F
100
AcDbEntity
  8
0
100
AcDbBlockBegin
  2
*D5
 70
     1
 10
0.0
 20
0.0
 30
0.0
  3
*D5
  1

  0
LINE
  5
146
100
AcDbEntity
  8
0
  6
BYBLOCK
 62
     0
100
AcDbLine
 10
329.141239
 20
82.833994
 30
0.0
 11
465.133529
 21
82.833994
 31
0.0
  0
LINE
  5
147
100
AcDbEntity
  8
0
  6
BYBLOCK
 62
     0
100
AcDbLine
 10
357.141239
 20
-276.166006
 30
0.0
 11
465.133529
 21
-276.166006
 31
0.0
  0
LINE
  5
148
100
AcDbEntity
  8
0
  6
BYBLOCK
 62
     0
100
AcDbLine
 10
463.883529
 20
67.833994
 30
0.0
 11
463.883529
 21
-261.166006
 31
0.0
  0
INSERT
  5
149
100
AcDbEntity
  8
0
  6
BYBLOCK
 62
     0
100
AcDbBlockReference
  2
_OPEN
 10
463.883529
 20
82.833994
 30
0.0
 41
15.0
 42
15.0
 43
15.0
 50
90.0
  0
INSERT
  5
14A
100
AcDbEntity
  8
0
  6
BYBLOCK
 62
     0
100
AcDbBlockReference
  2
_OPEN
 10
463.883529
 20
-276.166006
 30
0.0
 41
15.0
 42
15.0
 43
15.0
 50
270.0
  0
MTEXT
  5
14B
100
AcDbEntity
  8
0
  6
BYBLOCK
 62
     0
100
AcDbMText
 10
452.383529
 20
-96.666006
 30
0.0
 40
20.0
 41
0.0
 71
     5
 72
     1
  1
\A1;359
  7
ED20
 11
0.0
 21
1.0
 31
0.0
  0
POINT
  5
14C
100
AcDbEntity
  8
DEFPOINTS
  6
BYBLOCK
 62
     0
100
AcDbPoint
 10
328.141239
 20
82.833994
 30
0.0
  0
POINT
  5
14D
100
AcDbEntity
  8
DEFPOINTS
  6
BYBLOCK
 62
     0
100
AcDbPoint
 10
356.141239
 20
-276.166006
 30
0.0
  0
POINT
  5
14E
100
AcDbEntity
  8
DEFPOINTS
  6
BYBLOCK
 62
     0
100
AcDbPoint
 10
463.883529
 20
-276.166006
 30
0.0
  0
ENDBLK
  5
150
100
AcDbEntity
  8
0
100
AcDbBlockEnd
  0
BLOCK
  5
15B
100
AcDbEntity
  8
0
100
AcDbBlockBegin
  2
*D6
 70
     1
 10
0.0
 20
0.0
 30
0.0
  3
*D6
  1

  0
LINE
  5
152
100
AcDbEntity
  8
0
  6
BYBLOCK
 62
     0
100
AcDbLine
 10
-4.358761
 20
64.833994
 30
0.0
 11
-4.358761
 21
119.21742
 31
0.0
  0
LINE
  5
153
100
AcDbEntity
  8
0
  6
BYBLOCK
 62
     0
100
AcDbLine
 10
416.641239
 20
64.833994
 30
0.0
 11
416.641239
 21
119.21742
 31
0.0
  0
LINE
  5
154
100
AcDbEntity
  8
0
  6
BYBLOCK
 62
     0
100
AcDbLine
 10
10.641239
 20
117.96742
 30
0.0
 11
401.641239
 21
117.96742
 31
0.0
  0
INSERT
  5
155
100
AcDbEntity
  8
0
  6
BYBLOCK
 62
     0
100
AcDbBlockReference
  2
_OPEN
 10
-4.358761
 20
117.96742
 30
0.0
 41
15.0
 42
15.0
 43
15.0
 50
180.0
  0
INSERT
  5
156
100
AcDbEntity
  8
0
  6
BYBLOCK
 62
     0
100
AcDbBlockReference
  2
_OPEN
 10
416.641239
 20
117.96742
 30
0.0
 41
15.0
 42
15.0
 43
15.0
  0
MTEXT
  5
157
100
AcDbEntity
  8
0
  6
BYBLOCK
 62
     0
100
AcDbMText
 10
206.141239
 20
129.469388
 30
0.0
 40
20.0
 41
0.0
 71
     5
 72
     1
  1
\A1;\U+2205421
  7
ED20
  0
POINT
  5
158
100
AcDbEntity
  8
DEFPOINTS
  6
BYBLOCK
 62
     0
100
AcDbPoint
 10
-4.358761
 20
63.833994
 30
0.0
  0
POINT
  5
159
100
AcDbEntity
  8
DEFPOINTS
  6
BYBLOCK
 62
     0
100
AcDbPoint
 10
416.641239
 20
63.833994
 30
0.0
  0
POINT
  5
15A
100
AcDbEntity
  8
DEFPOINTS
  6
BYBLOCK
 62
     0
100
AcDbPoint
 10
416.641239
 20
117.96742
 30
0.0
  0
ENDBLK
  5
15C
100
AcDbEntity
  8
0
100
AcDbBlockEnd
  0
BLOCK
  5
1D1
100
AcDbEntity
  8
0
100
AcDbBlockBegin
  2
CTVB-140
 70
     0
 10
0.0
 20
0.0
 30
0.0
  3
CTVB-140
  1

  0
LINE
  5
171
100
AcDbEntity
  8
V0-VYPLNE
  6
DASHDOT
 62
    63
100
AcDbLine
 10
210.886013
 20
-415.758355
 30
0.0
 11
210.886013
 21
-901.724889
 31
0.0
  0
CIRCLE
  5
172
100
AcDbEntity
  8
V0-VYPLNE
  6
DASHED
 62
    56
100
AcDbCircle
 10
333.386013
 20
-531.943251
 30
0.0
 40
3.5
  0
LINE
  5
173
100
AcDbEntity
  8
V0-VYPLNE
 62
    63
100
AcDbLine
 10
333.386013
 20
-546.943251
 30
0.0
 11
333.386013
 21
-516.943251
 31
0.0
  0
LINE
  5
174
100
AcDbEntity
  8
V0-VYPLNE
100
AcDbLine
 10
83.641239
 20
-286.166006
 30
0.0
 11
83.641239
 21
-247.953346
 31
0.0
  0
LINE
  5
175
100
AcDbEntity
  8
V0-VYPLNE
100
AcDbLine
 10
328.641239
 20
-286.166006
 30
0.0
 11
328.641239
 21
-250.005887
 31
0.0
  0
MTEXT
  5
176
100
AcDbEntity
  8
V0-NAZVY
  6
CONTINUOUS
100
AcDbMText
 10
638.857504
 20
-607.831836
 30
0.0
 40
40.0
 41
243.1951
 71
     1
 72
     5
  1
CTVB-140
  7
ED40
  0
MTEXT
  5
177
100
AcDbEntity
  8
V0-NAZVY
  6
CONTINUOUS
 62
    51
100
AcDbMText
 10
750.321925
 20
-694.919112
 30
0.0
 40
30.0
 41
480.3103
 71
     5
 72
     5
  1
STRESNI VENTILATOR
  7
ED30
  0
MTEXT
  5
178
100
AcDbEntity
  8
V0-NAZVY
  6
CONTINUOUS
 62
    51
100
AcDbMText
 10
759.441753
 20
-754.665035
 30
0.0
 40
20.0
 41
366.8193
 71
     5
 72
     5
  1
VERTIKALNI  VYFUK
  7
ED20
  0
POINT
  5
179
100
AcDbEntity
  8
V0-VYPLNE
  6
CONTINUOUS
 62
    41
100
AcDbPoint
 10
210.886013
 20
-654.443251
 30
0.0
  0
POINT
  5
17A
100
AcDbEntity
  8
V0-VYPLNE
  6
CONTINUOUS
 62
    41
100
AcDbPoint
 10
206.141239
 20
-276.166006
 30
0.0
  0
LINE
  5
17B
100
AcDbEntity
  8
V0-VYPLNE
  6
DASHDOT
 62
    63
100
AcDbLine
 10
-27.798883
 20
-654.443251
 30
0.0
 11
458.167652
 21
-654.443251
 31
0.0
  0
LINE
  5
17C
100
AcDbEntity
  8
V0-VYPLNE
 62
    63
100
AcDbLine
 10
348.386013
 20
-531.943251
 30
0.0
 11
318.386013
 21
-531.943251
 31
0.0
  0
LINE
  5
17D
100
AcDbEntity
  8
V0-VYPLNE
 62
    63
100
AcDbLine
 10
103.386013
 20
-531.943251
 30
0.0
 11
73.386013
 21
-531.943251
 31
0.0
  0
LINE
  5
17E
100
AcDbEntity
  8
V0-VYPLNE
 62
    63
100
AcDbLine
 10
88.386013
 20
-516.943251
 30
0.0
 11
88.386013
 21
-546.943251
 31
0.0
  0
CIRCLE
  5
17F
100
AcDbEntity
  8
V0-VYPLNE
  6
DASHED
 62
    56
100
AcDbCircle
 10
88.386013
 20
-531.943251
 30
0.0
 40
3.5
  0
LINE
  5
180
100
AcDbEntity
  8
V0-VYPLNE
 62
    63
100
AcDbLine
 10
88.386013
 20
-761.943251
 30
0.0
 11
88.386013
 21
-791.943251
 31
0.0
  0
LINE
  5
181
100
AcDbEntity
  8
V0-VYPLNE
 62
    63
100
AcDbLine
 10
73.386013
 20
-776.943251
 30
0.0
 11
103.386013
 21
-776.943251
 31
0.0
  0
CIRCLE
  5
182
100
AcDbEntity
  8
V0-VYPLNE
  6
DASHED
 62
    56
100
AcDbCircle
 10
88.386013
 20
-776.943251
 30
0.0
 40
3.5
  0
LINE
  5
183
100
AcDbEntity
  8
V0-VYPLNE
 62
    63
100
AcDbLine
 10
318.386013
 20
-776.943251
 30
0.0
 11
348.386013
 21
-776.943251
 31
0.0
  0
LINE
  5
184
100
AcDbEntity
  8
V0-VYPLNE
 62
    63
100
AcDbLine
 10
333.386013
 20
-791.943251
 30
0.0
 11
333.386013
 21
-761.943251
 31
0.0
  0
CIRCLE
  5
185
100
AcDbEntity
  8
V0-VYPLNE
  6
DASHED
 62
    56
100
AcDbCircle
 10
333.386013
 20
-776.943251
 30
0.0
 40
3.5
  0
LINE
  5
186
100
AcDbEntity
  8
V0-VYPLNE
  6
DASHED
 62
    52
100
AcDbLine
 10
360.886013
 20
-504.443251
 30
0.0
 11
60.886013
 21
-504.443251
 31
0.0
  0
LINE
  5
187
100
AcDbEntity
  8
V0-VYPLNE
  6
DASHED
 62
    52
100
AcDbLine
 10
60.886013
 20
-504.443251
 30
0.0
 11
60.886013
 21
-804.443251
 31
0.0
  0
LINE
  5
188
100
AcDbEntity
  8
V0-VYPLNE
  6
DASHED
 62
    52
100
AcDbLine
 10
60.886013
 20
-804.443251
 30
0.0
 11
360.886013
 21
-804.443251
 31
0.0
  0
LINE
  5
189
100
AcDbEntity
  8
V0-VYPLNE
  6
DASHED
 62
    52
100
AcDbLine
 10
360.886013
 20
-804.443251
 30
0.0
 11
360.886013
 21
-504.443251
 31
0.0
  0
LINE
  5
18A
100
AcDbEntity
  8
V0-OBRYS
  6
CONTINUOUS
 62
    90
100
AcDbLine
 10
56.141239
 20
-276.166006
 30
0.0
 11
356.141239
 21
-276.166006
 31
0.0
  0
LINE
  5
18B
100
AcDbEntity
  8
V0-OBRYS
  6
CONTINUOUS
 62
    90
100
AcDbLine
 10
356.141239
 20
-276.166006
 30
0.0
 11
356.141239
 21
-261.166006
 31
0.0
  0
LINE
  5
18C
100
AcDbEntity
  8
V0-OBRYS
  6
CONTINUOUS
 62
    90
100
AcDbLine
 10
356.141239
 20
-261.166006
 30
0.0
 11
56.141239
 21
-261.166006
 31
0.0
  0
LINE
  5
18D
100
AcDbEntity
  8
V0-OBRYS
  6
CONTINUOUS
 62
    90
100
AcDbLine
 10
56.141239
 20
-261.166006
 30
0.0
 11
56.141239
 21
-276.166006
 31
0.0
  0
LINE
  5
18E
100
AcDbEntity
  8
V0-OBRYS
  6
CONTINUOUS
 62
    90
100
AcDbLine
 10
71.141239
 20
-261.166006
 30
0.0
 11
71.141239
 21
-258.166006
 31
0.0
  0
LINE
  5
18F
100
AcDbEntity
  8
V0-OBRYS
  6
CONTINUOUS
 62
    90
100
AcDbLine
 10
71.141239
 20
-258.166006
 30
0.0
 11
341.141239
 21
-258.166006
 31
0.0
  0
LINE
  5
190
100
AcDbEntity
  8
V0-OBRYS
  6
CONTINUOUS
 62
    90
100
AcDbLine
 10
341.141239
 20
-258.166006
 30
0.0
 11
341.141239
 21
-261.166006
 31
0.0
  0
LINE
  5
191
100
AcDbEntity
  8
V0-OBRYS
  6
CONTINUOUS
 62
    90
100
AcDbLine
 10
296.141239
 20
-256.166006
 30
0.0
 11
296.141239
 21
-276.166006
 31
0.0
  0
LINE
  5
192
100
AcDbEntity
  8
V0-OBRYS
  6
CONTINUOUS
 62
    90
100
AcDbLine
 10
116.141239
 20
-256.166006
 30
0.0
 11
116.141239
 21
-276.166006
 31
0.0
  0
INSERT
  5
193
100
AcDbEntity
  8
V0-VYPLNE
  6
CONTINUOUS
 62
    52
100
AcDbBlockReference
  2
A10_100
 10
1091.344077
 20
-456.786598
 30
0.0
  0
DIMENSION
  5
194
100
AcDbEntity
  8
V0-VYPLNE
  6
CONTINUOUS
 62
    41
100
AcDbDimension
  2
*D2
 10
296.141239
 20
-316.055819
 30
0.0
 11
206.141239
 21
-304.555819
 31
0.0
 70
    32
  1
%%c<>
  3
ED10
100
AcDbAlignedDimension
 13
116.141239
 23
-276.166006
 33
0.0
 14
296.141239
 24
-276.166006
 34
0.0
100
AcDbRotatedDimension
1001
ACAD
1000
DSTYLE
1002
{
1070
    40
1040
1.0
1002
}
  0
DIMENSION
  5
195
100
AcDbEntity
  8
V0-VYPLNE
  6
CONTINUOUS
 62
    41
100
AcDbDimension
  2
*D3
 10
328.641239
 20
-349.386793
 30
0.0
 11
206.141239
 21
-337.884825
 31
0.0
 70
    32
  3
ED10
100
AcDbAlignedDimension
 13
83.641239
 23
-276.166006
 33
0.0
 14
328.641239
 24
-276.166006
 34
0.0
100
AcDbRotatedDimension
1001
ACAD
1000
DSTYLE
1002
{
1070
    40
1040
1.0
1002
}
  0
DIMENSION
  5
196
100
AcDbEntity
  8
V0-VYPLNE
  6
CONTINUOUS
 62
    41
100
AcDbDimension
  2
*D4
 10
356.141239
 20
-382.717768
 30
0.0
 11
206.141239
 21
-371.217768
 31
0.0
 70
    32
  3
ED10
100
AcDbAlignedDimension
 13
56.141239
 23
-276.166006
 33
0.0
 14
356.141239
 24
-276.166006
 34
0.0
100
AcDbRotatedDimension
1001
ACAD
1000
DSTYLE
1002
{
1070
    40
1040
1.0
1002
}
  0
LEADER
  5
197
100
AcDbEntity
  8
V0-VYPLNE
  6
CONTINUOUS
 62
    41
100
AcDbLeader
  3
ED10
 73
     0
 75
     1
 40
20.0
 41
176.015748
 76
     3
 10
83.641239
 20
-258.166006
 30
0.0
 10
63.207441
 20
-228.234664
 30
0.0
 10
48.207441
 20
-228.234664
 30
0.0
 77
    41
340
198
1001
ACAD
1000
DSTYLE
1002
{
1070
    40
1040
1.0
1002
}
  0
MTEXT
  5
198
102
{ACAD_REACTORS
330
197
102
}
100
AcDbEntity
  8
V0-VYPLNE
  6
CONTINUOUS
 62
    41
100
AcDbMText
 10
46.707441
 20
-216.734664
 30
0.0
 40
20.0
 41
0.0
 71
     6
 72
     1
  1
\A1;4 OTVORY %%c 10
  7
ED20
  0
MTEXT
  5
199
100
AcDbEntity
  8
V0-NAZVY
  6
CONTINUOUS
100
AcDbMText
 10
120.654832
 20
-886.495339
 30
0.0
 40
28.0
 41
170.2366
 71
     1
 72
     5
  1
CTVB-140
  7
ED40
  0
LINE
  5
19A
100
AcDbEntity
  8
V0-VYPLNE
  6
CONTINUOUS
 62
    41
100
AcDbLine
 10
169.128239
 20
-379.006444
 30
0.0
 11
179.589412
 21
-360.357616
 31
0.0
  0
LWPOLYLINE
  5
19B
100
AcDbEntity
  8
V0-VYPLNE
  6
CONTINUOUS
 62
    41
100
AcDbPolyline
 90
        4
 70
     1
 43
0.0
 10
169.206224
 20
-375.210449
 10
180.331062
 20
-375.210449
 10
180.331062
 20
-364.095856
 10
169.206224
 20
-364.095856
  0
LWPOLYLINE
  5
19C
100
AcDbEntity
  8
V0-VYPLNE
  6
CONTINUOUS
 62
    41
100
AcDbPolyline
 90
        4
 70
     1
 43
0.0
 10
169.206224
 20
-343.159068
 10
180.331062
 20
-343.159068
 10
180.331062
 20
-332.044475
 10
169.206224
 20
-332.044475
  0
LINE
  5
19D
100
AcDbEntity
  8
V0-VYPLNE
  6
CONTINUOUS
 62
    41
100
AcDbLine
 10
169.128239
 20
-346.955063
 30
0.0
 11
179.589412
 21
-328.306235
 31
0.0
  0
LINE
  5
19E
100
AcDbEntity
  8
V0-OBRYS
  6
CONTINUOUS
 62
    90
100
AcDbLine
 10
206.141239
 20
82.833994
 30
0.0
 11
328.141239
 21
82.833994
 31
0.0
  0
LINE
  5
19F
100
AcDbEntity
  8
V0-OBRYS
  6
CONTINUOUS
 62
    90
100
AcDbLine
 10
145.240984
 20
91.626723
 30
0.0
 11
145.240984
 21
91.626723
 31
0.0
  0
LINE
  5
1A0
100
AcDbEntity
  8
V0-OBRYS
  6
CONTINUOUS
 62
    90
100
AcDbLine
 10
416.641239
 20
-14.950778
 30
0.0
 11
416.641239
 21
63.833994
 31
0.0
  0
LINE
  5
1A1
100
AcDbEntity
  8
V0-OBRYS
  6
CONTINUOUS
 62
    90
100
AcDbLine
 10
206.141239
 20
63.833994
 30
0.0
 11
416.641239
 21
63.833994
 31
0.0
  0
LINE
  5
1A2
100
AcDbEntity
  8
V0-VYPLNE
100
AcDbLine
 10
206.141239
 20
82.833994
 30
0.0
 11
206.141239
 21
-309.929383
 31
0.0
  0
ARC
  5
1A3
100
AcDbEntity
  8
V0-OBRYS
  6
CONTINUOUS
 62
    90
100
AcDbCircle
 10
-54.136707
 20
44.659442
 30
0.0
 40
474.536882
100
AcDbArc
 50
320.346034
 51
352.783573
  0
LINE
  5
1A4
100
AcDbEntity
  8
V0-OBRYS
  6
CONTINUOUS
 62
    90
100
AcDbLine
 10
336.141239
 20
74.833994
 30
0.0
 11
336.141239
 21
63.833994
 31
0.0
  0
ARC
  5
1A5
100
AcDbEntity
  8
V0-OBRYS
  6
CONTINUOUS
 62
    90
100
AcDbCircle
 10
328.141239
 20
74.833994
 30
0.0
 40
8.0
100
AcDbArc
 50
0.0
 51
90.0
  0
LINE
  5
1A6
100
AcDbEntity
  8
V0-OBRYS
  6
CONTINUOUS
 62
    90
100
AcDbLine
 10
206.141239
 20
63.833994
 30
0.0
 11
-4.358761
 21
63.833994
 31
0.0
  0
ARC
  5
1A7
100
AcDbEntity
  8
V0-OBRYS
  6
CONTINUOUS
 62
    90
100
AcDbCircle
 10
466.419185
 20
44.659442
 30
0.0
 40
474.536882
100
AcDbArc
 50
187.216427
 51
219.653966
  0
LINE
  5
1A8
100
AcDbEntity
  8
V0-OBRYS
  6
CONTINUOUS
 62
    90
100
AcDbLine
 10
206.141239
 20
82.833994
 30
0.0
 11
84.141239
 21
82.833994
 31
0.0
  0
ARC
  5
1A9
100
AcDbEntity
  8
V0-OBRYS
  6
CONTINUOUS
 62
    90
100
AcDbCircle
 10
84.141239
 20
74.833994
 30
0.0
 40
8.0
100
AcDbArc
 50
90.0
 51
180.0
  0
LINE
  5
1AA
100
AcDbEntity
  8
V0-OBRYS
  6
CONTINUOUS
 62
    90
100
AcDbLine
 10
76.141239
 20
74.833994
 30
0.0
 11
76.141239
 21
63.833994
 31
0.0
  0
LINE
  5
1AB
100
AcDbEntity
  8
V0-OBRYS
  6
CONTINUOUS
 62
    90
100
AcDbLine
 10
-4.358761
 20
-14.950778
 30
0.0
 11
-4.358761
 21
63.833994
 31
0.0
  0
DIMENSION
  5
1AC
100
AcDbEntity
  8
V0-VYPLNE
  6
CONTINUOUS
 62
    41
100
AcDbDimension
  2
*D5
 10
463.883529
 20
-276.166006
 30
0.0
 11
452.383529
 21
-96.666006
 31
0.0
 70
    32
  3
ED10
100
AcDbAlignedDimension
 13
328.141239
 23
82.833994
 33
0.0
 14
356.141239
 24
-276.166006
 34
0.0
 50
90.0
100
AcDbRotatedDimension
1001
ACAD
1000
DSTYLE
1002
{
1070
    40
1040
1.0
1002
}
  0
DIMENSION
  5
1AD
100
AcDbEntity
  8
V0-VYPLNE
  6
CONTINUOUS
 62
    41
100
AcDbDimension
  2
*D6
 10
416.641239
 20
117.96742
 30
0.0
 11
206.141239
 21
129.469388
 31
0.0
 70
    32
  1
%%c<>
  3
ED10
100
AcDbAlignedDimension
 13
-4.358761
 23
63.833994
 33
0.0
 14
416.641239
 24
63.833994
 34
0.0
100
AcDbRotatedDimension
1001
ACAD
1000
DSTYLE
1002
{
1070
    40
1040
1.0
1002
}
  0
CIRCLE
  5
1AE
100
AcDbEntity
  8
V0-OBRYS
  6
CONTINUOUS
 62
    90
100
AcDbCircle
 10
210.886013
 20
-654.443251
 30
0.0
 40
210.5
  0
CIRCLE
  5
1AF
100
AcDbEntity
  8
V0-OBRYS
  6
CONTINUOUS
 62
    90
100
AcDbCircle
 10
210.886013
 20
-654.443251
 30
0.0
 40
106.340105
  0
LINE
  5
1B0
100
AcDbEntity
  8
V0-OBRYS
  6
CONTINUOUS
 62
    90
100
AcDbLine
 10
309.13941
 20
-610.29754
 30
0.0
 11
417.750772
 21
-610.29754
 31
0.0
  0
LINE
  5
1B1
100
AcDbEntity
  8
V0-OBRYS
  6
CONTINUOUS
 62
    90
100
AcDbLine
 10
309.13941
 20
-698.588962
 30
0.0
 11
417.750772
 21
-698.588962
 31
0.0
  0
LINE
  5
1B2
100
AcDbEntity
  8
V0-OBRYS
  6
CONTINUOUS
 62
    90
100
AcDbLine
 10
759.301448
 20
63.833994
 30
0.0
 11
969.801448
 21
63.833994
 31
0.0
  0
ARC
  5
1B3
100
AcDbEntity
  8
V0-OBRYS
  6
CONTINUOUS
 62
    90
100
AcDbCircle
 10
499.023502
 20
44.659442
 30
0.0
 40
474.536882
100
AcDbArc
 50
320.346034
 51
352.783573
  0
LINE
  5
1B4
100
AcDbEntity
  8
V0-OBRYS
  6
CONTINUOUS
 62
    90
100
AcDbLine
 10
909.301448
 20
-261.166006
 30
0.0
 11
609.301448
 21
-261.166006
 31
0.0
  0
LINE
  5
1B5
100
AcDbEntity
  8
V0-OBRYS
  6
CONTINUOUS
 62
    90
100
AcDbLine
 10
609.301448
 20
-276.166006
 30
0.0
 11
909.301448
 21
-276.166006
 31
0.0
  0
LINE
  5
1B6
100
AcDbEntity
  8
V0-OBRYS
  6
CONTINUOUS
 62
    90
100
AcDbLine
 10
548.801448
 20
-14.950778
 30
0.0
 11
548.801448
 21
63.833994
 31
0.0
  0
LINE
  5
1B7
100
AcDbEntity
  8
V0-OBRYS
  6
CONTINUOUS
 62
    90
100
AcDbLine
 10
624.301448
 20
-258.166006
 30
0.0
 11
894.301448
 21
-258.166006
 31
0.0
  0
ARC
  5
1B8
100
AcDbEntity
  8
V0-OBRYS
  6
CONTINUOUS
 62
    90
100
AcDbCircle
 10
1019.579394
 20
44.659442
 30
0.0
 40
474.536882
100
AcDbArc
 50
187.216427
 51
219.653966
  0
LINE
  5
1B9
100
AcDbEntity
  8
V0-VYPLNE
100
AcDbLine
 10
636.801448
 20
-286.166006
 30
0.0
 11
636.801448
 21
-247.953346
 31
0.0
  0
LINE
  5
1BA
100
AcDbEntity
  8
V0-OBRYS
  6
CONTINUOUS
 62
    90
100
AcDbLine
 10
624.301448
 20
-261.166006
 30
0.0
 11
624.301448
 21
-258.166006
 31
0.0
  0
LINE
  5
1BB
100
AcDbEntity
  8
V0-OBRYS
  6
CONTINUOUS
 62
    90
100
AcDbLine
 10
609.301448
 20
-261.166006
 30
0.0
 11
609.301448
 21
-276.166006
 31
0.0
  0
LINE
  5
1BC
100
AcDbEntity
  8
V0-OBRYS
  6
CONTINUOUS
 62
    90
100
AcDbLine
 10
669.301448
 20
-256.166006
 30
0.0
 11
669.301448
 21
-276.166006
 31
0.0
  0
POINT
  5
1BD
100
AcDbEntity
  8
V0-VYPLNE
  6
CONTINUOUS
 62
    41
100
AcDbPoint
 10
759.301448
 20
-276.166006
 30
0.0
  0
LINE
  5
1BE
100
AcDbEntity
  8
V0-OBRYS
  6
CONTINUOUS
 62
    90
100
AcDbLine
 10
849.301448
 20
-256.166006
 30
0.0
 11
849.301448
 21
-276.166006
 31
0.0
  0
LINE
  5
1BF
100
AcDbEntity
  8
V0-VYPLNE
100
AcDbLine
 10
881.801448
 20
-286.166006
 30
0.0
 11
881.801448
 21
-250.005887
 31
0.0
  0
LINE
  5
1C0
100
AcDbEntity
  8
V0-OBRYS
  6
CONTINUOUS
 62
    90
100
AcDbLine
 10
894.301448
 20
-258.166006
 30
0.0
 11
894.301448
 21
-261.166006
 31
0.0
  0
LINE
  5
1C1
100
AcDbEntity
  8
V0-OBRYS
  6
CONTINUOUS
 62
    90
100
AcDbLine
 10
759.301448
 20
82.833994
 30
0.0
 11
637.301448
 21
82.833994
 31
0.0
  0
LINE
  5
1C2
100
AcDbEntity
  8
V0-OBRYS
  6
CONTINUOUS
 62
    90
100
AcDbLine
 10
759.301448
 20
63.833994
 30
0.0
 11
548.801448
 21
63.833994
 31
0.0
  0
ARC
  5
1C3
100
AcDbEntity
  8
V0-OBRYS
  6
CONTINUOUS
 62
    90
100
AcDbCircle
 10
637.301448
 20
74.833994
 30
0.0
 40
8.0
100
AcDbArc
 50
90.0
 51
180.0
  0
LINE
  5
1C4
100
AcDbEntity
  8
V0-OBRYS
  6
CONTINUOUS
 62
    90
100
AcDbLine
 10
629.301448
 20
74.833994
 30
0.0
 11
629.301448
 21
63.833994
 31
0.0
  0
LINE
  5
1C5
100
AcDbEntity
  8
V0-OBRYS
  6
CONTINUOUS
 62
    90
100
AcDbLine
 10
698.401194
 20
91.626723
 30
0.0
 11
698.401194
 21
91.626723
 31
0.0
  0
LINE
  5
1C6
100
AcDbEntity
  8
V0-OBRYS
  6
CONTINUOUS
 62
    90
100
AcDbLine
 10
759.301448
 20
82.833994
 30
0.0
 11
881.301448
 21
82.833994
 31
0.0
  0
ARC
  5
1C7
100
AcDbEntity
  8
V0-OBRYS
  6
CONTINUOUS
 62
    90
100
AcDbCircle
 10
881.301448
 20
74.833994
 30
0.0
 40
8.0
100
AcDbArc
 50
0.0
 51
90.0
  0
LINE
  5
1C8
100
AcDbEntity
  8
V0-OBRYS
  6
CONTINUOUS
 62
    90
100
AcDbLine
 10
889.301448
 20
74.833994
 30
0.0
 11
889.301448
 21
63.833994
 31
0.0
  0
LINE
  5
1C9
100
AcDbEntity
  8
V0-OBRYS
  6
CONTINUOUS
 62
    90
100
AcDbLine
 10
969.801448
 20
-14.950778
 30
0.0
 11
969.801448
 21
63.833994
 31
0.0
  0
LINE
  5
1CA
100
AcDbEntity
  8
V0-OBRYS
  6
CONTINUOUS
 62
    90
100
AcDbLine
 10
909.301448
 20
-276.166006
 30
0.0
 11
909.301448
 21
-261.166006
 31
0.0
  0
LINE
  5
1CB
100
AcDbEntity
  8
V0-VYPLNE
100
AcDbLine
 10
759.301448
 20
82.833994
 30
0.0
 11
759.301448
 21
-309.929383
 31
0.0
  0
MTEXT
  5
1CC
100
AcDbEntity
  8
V0-NAZVY
  6
CONTINUOUS
100
AcDbMText
 10
120.654832
 20
-3.263559
 30
0.0
 40
28.0
 41
170.2366
 71
     1
 72
     5
  1
CTVB-140
  7
ED40
  0
MTEXT
  5
1CD
100
AcDbEntity
  8
V0-NAZVY
  6
CONTINUOUS
100
AcDbMText
 10
671.289194
 20
-3.263559
 30
0.0
 40
28.0
 41
170.2366
 71
     1
 72
     5
  1
CTVB-140
  7
ED40
  0
LINE
  5
1CE
100
AcDbEntity
  8
V0-OBRYS
  6
CONTINUOUS
 62
    90
100
AcDbLine
 10
417.389749
 20
47.792941
 30
0.0
 11
421.848961
 21
47.792941
 31
0.0
  0
LINE
  5
1CF
100
AcDbEntity
  8
V0-OBRYS
  6
CONTINUOUS
 62
    90
100
AcDbLine
 10
421.848961
 20
47.792941
 30
0.0
 11
421.848961
 21
-3.440733
 31
0.0
  0
LINE
  5
1D0
100
AcDbEntity
  8
V0-OBRYS
  6
CONTINUOUS
 62
    90
100
AcDbLine
 10
421.848961
 20
-3.440733
 30
0.0
 11
417.389749
 21
-3.440733
 31
0.0
  0
ENDBLK
  5
1D2
100
AcDbEntity
  8
0
100
AcDbBlockEnd
  0
BLOCK
  5
EA6
100
AcDbEntity
  8
0
100
AcDbBlockBegin
  2
*D8
 70
     1
 10
0.0
 20
0.0
 30
0.0
  3
*D8
  1

  0
LINE
  5
EA7
100
AcDbEntity
  8
0
  6
BYBLOCK
 62
    41
100
AcDbLine
 10
-60.0
 20
933.5
 30
0.0
 11
-60.0
 21
992.07954
 31
0.0
  0
LINE
  5
EA8
100
AcDbEntity
  8
0
  6
BYBLOCK
 62
    41
100
AcDbLine
 10
840.0
 20
933.5
 30
0.0
 11
840.0
 21
992.07954
 31
0.0
  0
LINE
  5
EA9
100
AcDbEntity
  8
0
  6
BYBLOCK
 62
    41
100
AcDbLine
 10
-25.0
 20
990.82954
 30
0.0
 11
805.0
 21
990.82954
 31
0.0
  0
INSERT
  5
EAA
100
AcDbEntity
  8
0
  6
BYBLOCK
 62
    41
100
AcDbBlockReference
  2
_OPEN
 10
-60.0
 20
990.82954
 30
0.0
 41
35.0
 42
35.0
 43
35.0
 50
180.0
  0
INSERT
  5
EAB
100
AcDbEntity
  8
0
  6
BYBLOCK
 62
    41
100
AcDbBlockReference
  2
_OPEN
 10
840.0
 20
990.82954
 30
0.0
 41
35.0
 42
35.0
 43
35.0
  0
MTEXT
  5
EAC
100
AcDbEntity
  8
0
  6
BYBLOCK
 62
    41
100
AcDbMText
 10
390.0
 20
1015.297376
 30
0.0
 40
40.0
 41
0.0
 71
     5
 72
     1
  1
\A1;900
  7
ED40
  0
POINT
  5
EAD
100
AcDbEntity
  8
DEFPOINTS
  6
BYBLOCK
 62
     0
100
AcDbPoint
 10
-60.0
 20
932.5
 30
0.0
  0
POINT
  5
EAE
100
AcDbEntity
  8
DEFPOINTS
  6
BYBLOCK
 62
     0
100
AcDbPoint
 10
840.0
 20
932.5
 30
0.0
  0
POINT
  5
EAF
100
AcDbEntity
  8
DEFPOINTS
  6
BYBLOCK
 62
     0
100
AcDbPoint
 10
840.0
 20
990.82954
 30
0.0
  0
ENDBLK
  5
EB0
100
AcDbEntity
  8
0
100
AcDbBlockEnd
  0
BLOCK
  5
ED2
100
AcDbEntity
  8
0
100
AcDbBlockBegin
  2
*D9
 70
     1
 10
0.0
 20
0.0
 30
0.0
  3
*D9
  1

  0
LINE
  5
ED3
100
AcDbEntity
  8
0
  6
BYBLOCK
 62
    41
100
AcDbLine
 10
-117.5
 20
898.5
 30
0.0
 11
-117.5
 21
1050.7496
 31
0.0
  0
LINE
  5
ED4
100
AcDbEntity
  8
0
  6
BYBLOCK
 62
    41
100
AcDbLine
 10
897.5
 20
898.5
 30
0.0
 11
897.5
 21
1050.7496
 31
0.0
  0
LINE
  5
ED5
100
AcDbEntity
  8
0
  6
BYBLOCK
 62
    41
100
AcDbLine
 10
-82.5
 20
1049.4996
 30
0.0
 11
862.5
 21
1049.4996
 31
0.0
  0
INSERT
  5
ED6
100
AcDbEntity
  8
0
  6
BYBLOCK
 62
    41
100
AcDbBlockReference
  2
_OPEN
 10
-117.5
 20
1049.4996
 30
0.0
 41
35.0
 42
35.0
 43
35.0
 50
180.0
  0
INSERT
  5
ED7
100
AcDbEntity
  8
0
  6
BYBLOCK
 62
    41
100
AcDbBlockReference
  2
_OPEN
 10
897.5
 20
1049.4996
 30
0.0
 41
35.0
 42
35.0
 43
35.0
  0
MTEXT
  5
ED8
100
AcDbEntity
  8
0
  6
BYBLOCK
 62
    41
100
AcDbMText
 10
390.0
 20
1073.967436
 30
0.0
 40
40.0
 41
0.0
 71
     5
 72
     1
  1
\A1;1015
  7
ED40
  0
POINT
  5
ED9
100
AcDbEntity
  8
DEFPOINTS
  6
BYBLOCK
 62
     0
100
AcDbPoint
 10
-117.5
 20
897.5
 30
0.0
  0
POINT
  5
EDA
100
AcDbEntity
  8
DEFPOINTS
  6
BYBLOCK
 62
     0
100
AcDbPoint
 10
897.5
 20
897.5
 30
0.0
  0
POINT
  5
EDB
100
AcDbEntity
  8
DEFPOINTS
  6
BYBLOCK
 62
     0
100
AcDbPoint
 10
897.5
 20
1049.4996
 30
0.0
  0
ENDBLK
  5
EDC
100
AcDbEntity
  8
0
100
AcDbBlockEnd
  0
BLOCK
  5
EDD
100
AcDbEntity
  8
0
100
AcDbBlockBegin
  2
*D10
 70
     1
 10
0.0
 20
0.0
 30
0.0
  3
*D10
  1

  0
LINE
  5
EDE
100
AcDbEntity
  8
0
  6
BYBLOCK
 62
    41
100
AcDbLine
 10
933.5
 20
857.5
 30
0.0
 11
996.723906
 21
857.5
 31
0.0
  0
LINE
  5
EDF
100
AcDbEntity
  8
0
  6
BYBLOCK
 62
    41
100
AcDbLine
 10
933.5
 20
-42.5
 30
0.0
 11
996.723906
 21
-42.5
 31
0.0
  0
LINE
  5
EE0
100
AcDbEntity
  8
0
  6
BYBLOCK
 62
    41
100
AcDbLine
 10
995.473906
 20
822.5
 30
0.0
 11
995.473906
 21
-7.5
 31
0.0
  0
INSERT
  5
EE1
100
AcDbEntity
  8
0
  6
BYBLOCK
 62
    41
100
AcDbBlockReference
  2
_OPEN
 10
995.473906
 20
857.5
 30
0.0
 41
35.0
 42
35.0
 43
35.0
 50
90.0
  0
INSERT
  5
EE2
100
AcDbEntity
  8
0
  6
BYBLOCK
 62
    41
100
AcDbBlockReference
  2
_OPEN
 10
995.473906
 20
-42.5
 30
0.0
 41
35.0
 42
35.0
 43
35.0
 50
270.0
  0
MTEXT
  5
EE3
100
AcDbEntity
  8
0
  6
BYBLOCK
 62
    41
100
AcDbMText
 10
971.00607
 20
407.5
 30
0.0
 40
40.0
 41
0.0
 71
     5
 72
     1
  1
\A1;900
  7
ED40
 11
0.0
 21
1.0
 31
0.0
  0
POINT
  5
EE4
100
AcDbEntity
  8
DEFPOINTS
  6
BYBLOCK
 62
     0
100
AcDbPoint
 10
932.5
 20
857.5
 30
0.0
  0
POINT
  5
EE5
100
AcDbEntity
  8
DEFPOINTS
  6
BYBLOCK
 62
     0
100
AcDbPoint
 10
932.5
 20
-42.5
 30
0.0
  0
POINT
  5
EE6
100
AcDbEntity
  8
DEFPOINTS
  6
BYBLOCK
 62
     0
100
AcDbPoint
 10
995.473906
 20
-42.5
 30
0.0
  0
ENDBLK
  5
EE7
100
AcDbEntity
  8
0
100
AcDbBlockEnd
  0
BLOCK
  5
E25
100
AcDbEntity
  8
0
100
AcDbBlockBegin
  2
*D11
 70
     1
 10
0.0
 20
0.0
 30
0.0
  3
*D11
  1

  0
LINE
  5
E26
100
AcDbEntity
  8
0
  6
BYBLOCK
 62
    41
100
AcDbLine
 10
781.0
 20
897.5
 30
0.0
 11
940.744971
 21
897.5
 31
0.0
  0
LINE
  5
E27
100
AcDbEntity
  8
0
  6
BYBLOCK
 62
    41
100
AcDbLine
 10
781.0
 20
-117.5
 30
0.0
 11
940.744971
 21
-117.5
 31
0.0
  0
LINE
  5
E28
100
AcDbEntity
  8
0
  6
BYBLOCK
 62
    41
100
AcDbLine
 10
939.494971
 20
862.5
 30
0.0
 11
939.494971
 21
-82.5
 31
0.0
  0
INSERT
  5
E29
100
AcDbEntity
  8
0
  6
BYBLOCK
 62
    41
100
AcDbBlockReference
  2
_OPEN
 10
939.494971
 20
897.5
 30
0.0
 41
35.0
 42
35.0
 43
35.0
 50
90.0
  0
INSERT
  5
E2A
100
AcDbEntity
  8
0
  6
BYBLOCK
 62
    41
100
AcDbBlockReference
  2
_OPEN
 10
939.494971
 20
-117.5
 30
0.0
 41
35.0
 42
35.0
 43
35.0
 50
270.0
  0
MTEXT
  5
E2B
100
AcDbEntity
  8
0
  6
BYBLOCK
 62
    41
100
AcDbMText
 10
915.027135
 20
390.0
 30
0.0
 40
40.0
 41
0.0
 71
     5
 72
     1
  1
\A1;1015
  7
ED40
 11
0.0
 21
1.0
 31
0.0
  0
POINT
  5
E2C
100
AcDbEntity
  8
DEFPOINTS
  6
BYBLOCK
 62
     0
100
AcDbPoint
 10
780.0
 20
897.5
 30
0.0
  0
POINT
  5
E2D
100
AcDbEntity
  8
DEFPOINTS
  6
BYBLOCK
 62
     0
100
AcDbPoint
 10
780.0
 20
-117.5
 30
0.0
  0
POINT
  5
E2E
100
AcDbEntity
  8
DEFPOINTS
  6
BYBLOCK
 62
     0
100
AcDbPoint
 10
939.494971
 20
-117.5
 30
0.0
  0
ENDBLK
  5
E2F
100
AcDbEntity
  8
0
100
AcDbBlockEnd
  0
BLOCK
  5
E72
100
AcDbEntity
  8
0
100
AcDbBlockBegin
  2
*D12
 70
     1
 10
0.0
 20
0.0
 30
0.0
  3
*D12
  1

  0
LINE
  5
E73
100
AcDbEntity
  8
0
  6
BYBLOCK
 62
    41
100
AcDbLine
 10
1291.816163
 20
911.282251
 30
0.0
 11
1291.816163
 21
1064.715211
 31
0.0
  0
LINE
  5
E74
100
AcDbEntity
  8
0
  6
BYBLOCK
 62
    41
100
AcDbLine
 10
2166.816163
 20
911.282251
 30
0.0
 11
2166.816163
 21
1064.715211
 31
0.0
  0
LINE
  5
E75
100
AcDbEntity
  8
0
  6
BYBLOCK
 62
    41
100
AcDbLine
 10
1326.816163
 20
1063.465211
 30
0.0
 11
2131.816163
 21
1063.465211
 31
0.0
  0
INSERT
  5
E76
100
AcDbEntity
  8
0
  6
BYBLOCK
 62
    41
100
AcDbBlockReference
  2
_OPEN
 10
1291.816163
 20
1063.465211
 30
0.0
 41
35.0
 42
35.0
 43
35.0
 50
180.0
  0
INSERT
  5
E77
100
AcDbEntity
  8
0
  6
BYBLOCK
 62
    41
100
AcDbBlockReference
  2
_OPEN
 10
2166.816163
 20
1063.465211
 30
0.0
 41
35.0
 42
35.0
 43
35.0
  0
MTEXT
  5
E78
100
AcDbEntity
  8
0
  6
BYBLOCK
 62
    41
100
AcDbMText
 10
1735.733572
 20
1088.020767
 30
0.0
 40
40.0
 41
0.0
 71
     5
 72
     1
  1
\A1;875
  7
ED40
  0
POINT
  5
E79
100
AcDbEntity
  8
DEFPOINTS
  6
BYBLOCK
 62
     0
100
AcDbPoint
 10
1291.816163
 20
910.282251
 30
0.0
  0
POINT
  5
E7A
100
AcDbEntity
  8
DEFPOINTS
  6
BYBLOCK
 62
     0
100
AcDbPoint
 10
2166.816163
 20
910.282251
 30
0.0
  0
POINT
  5
E7B
100
AcDbEntity
  8
DEFPOINTS
  6
BYBLOCK
 62
     0
100
AcDbPoint
 10
2166.816163
 20
1063.465211
 30
0.0
  0
ENDBLK
  5
E7C
100
AcDbEntity
  8
0
100
AcDbBlockEnd
  0
BLOCK
  5
E67
100
AcDbEntity
  8
0
100
AcDbBlockBegin
  2
*D13
 70
     1
 10
0.0
 20
0.0
 30
0.0
  3
*D13
  1

  0
LINE
  5
E68
100
AcDbEntity
  8
0
  6
BYBLOCK
 62
    41
100
AcDbLine
 10
1329.316163
 20
946.282251
 30
0.0
 11
1329.316163
 21
1002.245566
 31
0.0
  0
LINE
  5
E69
100
AcDbEntity
  8
0
  6
BYBLOCK
 62
    41
100
AcDbLine
 10
2129.316163
 20
946.282251
 30
0.0
 11
2129.316163
 21
1002.245566
 31
0.0
  0
LINE
  5
E6A
100
AcDbEntity
  8
0
  6
BYBLOCK
 62
    41
100
AcDbLine
 10
1364.316163
 20
1000.995566
 30
0.0
 11
2094.316163
 21
1000.995566
 31
0.0
  0
INSERT
  5
E6B
100
AcDbEntity
  8
0
  6
BYBLOCK
 62
    41
100
AcDbBlockReference
  2
_OPEN
 10
1329.316163
 20
1000.995566
 30
0.0
 41
35.0
 42
35.0
 43
35.0
 50
180.0
  0
INSERT
  5
E6C
100
AcDbEntity
  8
0
  6
BYBLOCK
 62
    41
100
AcDbBlockReference
  2
_OPEN
 10
2129.316163
 20
1000.995566
 30
0.0
 41
35.0
 42
35.0
 43
35.0
  0
MTEXT
  5
E6D
100
AcDbEntity
  8
0
  6
BYBLOCK
 62
    41
100
AcDbMText
 10
1729.316163
 20
1025.434163
 30
0.0
 40
40.0
 41
0.0
 71
     5
 72
     1
  1
\A1;800
  7
ED40
  0
POINT
  5
E6E
100
AcDbEntity
  8
DEFPOINTS
  6
BYBLOCK
 62
     0
100
AcDbPoint
 10
1329.316163
 20
945.282251
 30
0.0
  0
POINT
  5
E6F
100
AcDbEntity
  8
DEFPOINTS
  6
BYBLOCK
 62
     0
100
AcDbPoint
 10
2129.316163
 20
945.282251
 30
0.0
  0
POINT
  5
E70
100
AcDbEntity
  8
DEFPOINTS
  6
BYBLOCK
 62
     0
100
AcDbPoint
 10
2129.316163
 20
1000.995566
 30
0.0
  0
ENDBLK
  5
E71
100
AcDbEntity
  8
0
100
AcDbBlockEnd
  0
BLOCK
  5
EC7
100
AcDbEntity
  8
0
100
AcDbBlockBegin
  2
*D14
 70
     1
 10
0.0
 20
0.0
 30
0.0
  3
*D14
  1

  0
LINE
  5
EC8
100
AcDbEntity
  8
0
  6
BYBLOCK
 62
    41
100
AcDbLine
 10
841.0
 20
932.5
 30
0.0
 11
1128.237584
 21
932.5
 31
0.0
  0
LINE
  5
EC9
100
AcDbEntity
  8
0
  6
BYBLOCK
 62
    41
100
AcDbLine
 10
841.0
 20
-152.5
 30
0.0
 11
1128.237584
 21
-152.5
 31
0.0
  0
LINE
  5
ECA
100
AcDbEntity
  8
0
  6
BYBLOCK
 62
    41
100
AcDbLine
 10
1126.987584
 20
897.5
 30
0.0
 11
1126.987584
 21
-117.5
 31
0.0
  0
INSERT
  5
ECB
100
AcDbEntity
  8
0
  6
BYBLOCK
 62
    41
100
AcDbBlockReference
  2
_OPEN
 10
1126.987584
 20
932.5
 30
0.0
 41
35.0
 42
35.0
 43
35.0
 50
90.0
  0
INSERT
  5
ECC
100
AcDbEntity
  8
0
  6
BYBLOCK
 62
    41
100
AcDbBlockReference
  2
_OPEN
 10
1126.987584
 20
-152.5
 30
0.0
 41
35.0
 42
35.0
 43
35.0
 50
270.0
  0
MTEXT
  5
ECD
100
AcDbEntity
  8
0
  6
BYBLOCK
 62
    41
100
AcDbMText
 10
1102.432029
 20
390.0
 30
0.0
 40
40.0
 41
0.0
 71
     5
 72
     1
  1
\A1;1085
  7
ED40
 11
0.0
 21
1.0
 31
0.0
  0
POINT
  5
ECE
100
AcDbEntity
  8
DEFPOINTS
  6
BYBLOCK
 62
     0
100
AcDbPoint
 10
840.0
 20
932.5
 30
0.0
  0
POINT
  5
ECF
100
AcDbEntity
  8
DEFPOINTS
  6
BYBLOCK
 62
     0
100
AcDbPoint
 10
840.0
 20
-152.5
 30
0.0
  0
POINT
  5
ED0
100
AcDbEntity
  8
DEFPOINTS
  6
BYBLOCK
 62
     0
100
AcDbPoint
 10
1126.987584
 20
-152.5
 30
0.0
  0
ENDBLK
  5
ED1
100
AcDbEntity
  8
0
100
AcDbBlockEnd
  0
ENDSEC
  0
SECTION
  2
ENTITIES
  0
INSERT
  5
1F7
100
AcDbEntity
  8
V0-VYPLNE
  6
CONTINUOUS
 62
    52
100
AcDbBlockReference
  2
A10_100
 10
1091.344077
 20
-456.786598
 30
0.0
  0
LINE
  5
857
100
AcDbEntity
  8
V0-OBRYS
100
AcDbLine
 10
-117.5
 20
-117.5
 30
0.0
 11
897.5
 21
-117.5
 31
0.0
  0
LINE
  5
858
100
AcDbEntity
  8
V0-OBRYS
100
AcDbLine
 10
897.5
 20
-117.5
 30
0.0
 11
897.5
 21
897.5
 31
0.0
  0
LINE
  5
859
100
AcDbEntity
  8
V0-OBRYS
100
AcDbLine
 10
897.5
 20
897.5
 30
0.0
 11
-117.5
 21
897.5
 31
0.0
  0
LINE
  5
85A
100
AcDbEntity
  8
V0-OBRYS
100
AcDbLine
 10
-117.5
 20
897.5
 30
0.0
 11
-117.5
 21
-117.5
 31
0.0
  0
LINE
  5
85D
100
AcDbEntity
  8
V0-OBRYS
100
AcDbLine
 10
-117.5
 20
-42.5
 30
0.0
 11
-152.5
 21
-42.5
 31
0.0
  0
LINE
  5
85E
100
AcDbEntity
  8
V0-OBRYS
100
AcDbLine
 10
-152.5
 20
-42.5
 30
0.0
 11
-152.5
 21
857.5
 31
0.0
  0
LINE
  5
85F
100
AcDbEntity
  8
V0-OBRYS
100
AcDbLine
 10
-152.5
 20
857.5
 30
0.0
 11
-117.5
 21
857.5
 31
0.0
  0
LINE
  5
884
100
AcDbEntity
  8
V0-OBRYS
100
AcDbLine
 10
840.0
 20
-152.5
 30
0.0
 11
-60.0
 21
-152.5
 31
0.0
  0
LINE
  5
885
100
AcDbEntity
  8
V0-OBRYS
100
AcDbLine
 10
840.0
 20
-117.5
 30
0.0
 11
840.0
 21
-152.5
 31
0.0
  0
LINE
  5
886
100
AcDbEntity
  8
V0-OBRYS
100
AcDbLine
 10
-60.0
 20
-152.5
 30
0.0
 11
-60.0
 21
-117.5
 31
0.0
  0
LINE
  5
887
100
AcDbEntity
  8
V0-OBRYS
100
AcDbLine
 10
932.5
 20
857.5
 30
0.0
 11
932.5
 21
-42.5
 31
0.0
  0
LINE
  5
888
100
AcDbEntity
  8
V0-OBRYS
100
AcDbLine
 10
897.5
 20
857.5
 30
0.0
 11
932.5
 21
857.5
 31
0.0
  0
LINE
  5
889
100
AcDbEntity
  8
V0-OBRYS
100
AcDbLine
 10
932.5
 20
-42.5
 30
0.0
 11
897.5
 21
-42.5
 31
0.0
  0
LINE
  5
88A
100
AcDbEntity
  8
V0-OBRYS
100
AcDbLine
 10
-60.0
 20
932.5
 30
0.0
 11
840.0
 21
932.5
 31
0.0
  0
LINE
  5
88B
100
AcDbEntity
  8
V0-OBRYS
100
AcDbLine
 10
-60.0
 20
897.5
 30
0.0
 11
-60.0
 21
932.5
 31
0.0
  0
LINE
  5
88C
100
AcDbEntity
  8
V0-OBRYS
100
AcDbLine
 10
840.0
 20
932.5
 30
0.0
 11
840.0
 21
897.5
 31
0.0
  0
LINE
  5
8DE
100
AcDbEntity
  8
V0-VYPLNE
  6
DASHDOT
100
AcDbLine
 10
362.422911
 20
-1494.870041
 30
0.0
 11
362.422911
 21
-735.923498
 31
0.0
  0
LINE
  5
8DF
100
AcDbEntity
  8
V0-VYPLNE
  6
DASHDOT
100
AcDbLine
 10
349.350299
 20
527.341078
 30
0.0
 11
349.628763
 21
310.000082
 31
0.0
  0
CIRCLE
  5
8E0
100
AcDbEntity
  8
V0-OBRYS
100
AcDbCircle
 10
349.50064
 20
410.0
 30
0.0
 40
100.0
  0
CIRCLE
  5
8E1
100
AcDbEntity
  8
V0-OBRYS
100
AcDbCircle
 10
349.50064
 20
410.0
 30
0.0
 40
0.0
  0
CIRCLE
  5
8E2
100
AcDbEntity
  8
V0-OBRYS
100
AcDbCircle
 10
349.50064
 20
410.0
 30
0.0
 40
62.748913
  0
LWPOLYLINE
  5
8E3
100
AcDbEntity
  8
V0-OBRYS
100
AcDbPolyline
 90
        4
 70
     1
 43
0.0
 10
278.691489
 20
337.360877
 10
421.308508
 20
337.360877
 10
421.308508
 20
479.845309
 10
278.691489
 20
479.845309
  0
LINE
  5
8E4
100
AcDbEntity
  8
V0-OBRYS
100
AcDbLine
 10
-65.0
 20
540.0
 30
0.0
 11
843.669324
 21
540.0
 31
0.0
  0
LINE
  5
8E5
100
AcDbEntity
  8
V0-OBRYS
100
AcDbLine
 10
-65.0
 20
560.0
 30
0.0
 11
843.618074
 21
560.0
 31
0.0
  0
LINE
  5
8E6
100
AcDbEntity
  8
V0-OBRYS
100
AcDbLine
 10
-65.0
 20
595.0
 30
0.0
 11
843.464327
 21
595.0
 31
0.0
  0
LINE
  5
8E7
100
AcDbEntity
  8
V0-OBRYS
100
AcDbLine
 10
-65.0
 20
615.0
 30
0.0
 11
843.413077
 21
615.0
 31
0.0
  0
LINE
  5
8E8
100
AcDbEntity
  8
V0-OBRYS
100
AcDbLine
 10
-65.0
 20
40.0
 30
0.0
 11
-65.0
 21
740.0
 31
0.0
  0
LINE
  5
8E9
100
AcDbEntity
  8
V0-OBRYS
100
AcDbLine
 10
844.771184
 20
40.0
 30
0.0
 11
843.233705
 21
740.0
 31
0.0
  0
LINE
  5
8EB
100
AcDbEntity
  8
V0-OBRYS
100
AcDbLine
 10
-65.0
 20
740.0
 30
0.0
 11
843.233705
 21
740.0
 31
0.0
  0
LINE
  5
8F1
100
AcDbEntity
  8
V0-OBRYS
100
AcDbLine
 10
-65.0
 20
225.0
 30
0.0
 11
843.464327
 21
225.0
 31
0.0
  0
LINE
  5
8F2
100
AcDbEntity
  8
V0-OBRYS
100
AcDbLine
 10
-65.0
 20
205.0
 30
0.0
 11
843.413077
 21
205.0
 31
0.0
  0
LINE
  5
8F3
100
AcDbEntity
  8
V0-OBRYS
100
AcDbLine
 10
-65.0
 20
260.0
 30
0.0
 11
843.618074
 21
260.0
 31
0.0
  0
LINE
  5
8F4
100
AcDbEntity
  8
V0-OBRYS
100
AcDbLine
 10
-65.0
 20
280.0
 30
0.0
 11
843.669324
 21
280.0
 31
0.0
  0
LINE
  5
8F5
100
AcDbEntity
  8
V0-OBRYS
100
AcDbLine
 10
-65.0
 20
40.0
 30
0.0
 11
844.771184
 21
40.0
 31
0.0
  0
DIMENSION
  5
90F
100
AcDbEntity
  8
V0-KOTY
  6
CONTINUOUS
 62
    41
100
AcDbDimension
  2
*D8
 10
840.0
 20
990.82954
 30
0.0
 11
390.0
 21
1015.297376
 31
0.0
 70
    32
  3
ED40
100
AcDbAlignedDimension
 13
-60.0
 23
932.5
 33
0.0
 14
840.0
 24
932.5
 34
0.0
100
AcDbRotatedDimension
1001
ACAD
1000
DSTYLE
1002
{
1002
}
  0
DIMENSION
  5
927
100
AcDbEntity
  8
V0-KOTY
  6
CONTINUOUS
 62
    41
100
AcDbDimension
  2
*D9
 10
897.5
 20
1049.4996
 30
0.0
 11
390.0
 21
1073.967436
 31
0.0
 70
    32
  3
ED40
100
AcDbAlignedDimension
 13
-117.5
 23
897.5
 33
0.0
 14
897.5
 24
897.5
 34
0.0
100
AcDbRotatedDimension
  0
DIMENSION
  5
941
100
AcDbEntity
  8
V0-KOTY
  6
CONTINUOUS
 62
    41
100
AcDbDimension
  2
*D10
 10
995.473906
 20
-42.5
 30
0.0
 11
971.00607
 21
407.5
 31
0.0
 70
    32
  3
ED40
100
AcDbAlignedDimension
 13
932.5
 23
857.5
 33
0.0
 14
932.5
 24
-42.5
 34
0.0
 50
90.0
100
AcDbRotatedDimension
  0
DIMENSION
  5
94E
100
AcDbEntity
  8
V0-KOTY
  6
CONTINUOUS
 62
    41
100
AcDbDimension
  2
*D11
 10
1056.994971
 20
-117.5
 30
0.0
 11
915.027135
 21
390.0
 31
0.0
 12
117.5
 22
0.0
 32
0.0
 70
    32
  3
ED40
100
AcDbAlignedDimension
 13
897.5
 23
897.5
 33
0.0
 14
897.5
 24
-117.5
 34
0.0
 50
90.0
100
AcDbRotatedDimension
  0
LINE
  5
94F
100
AcDbEntity
  8
V0-OBRYS
100
AcDbLine
 10
-104.705852
 20
-1206.631907
 30
0.0
 11
-104.705852
 21
-331.631907
 31
0.0
  0
LINE
  5
950
100
AcDbEntity
  8
V0-OBRYS
100
AcDbLine
 10
-104.705852
 20
-331.631907
 30
0.0
 11
910.294148
 21
-331.631907
 31
0.0
  0
LINE
  5
951
100
AcDbEntity
  8
V0-OBRYS
100
AcDbLine
 10
910.294148
 20
-1206.631907
 30
0.0
 11
-104.705852
 21
-1206.631907
 31
0.0
  0
LINE
  5
952
100
AcDbEntity
  8
V0-OBRYS
100
AcDbLine
 10
910.294148
 20
-331.631907
 30
0.0
 11
910.294148
 21
-1206.631907
 31
0.0
  0
LINE
  5
953
100
AcDbEntity
  8
V0-OBRYS
100
AcDbLine
 10
-139.705852
 20
-369.131907
 30
0.0
 11
-139.705852
 21
-1169.131907
 31
0.0
  0
LINE
  5
954
100
AcDbEntity
  8
V0-OBRYS
100
AcDbLine
 10
945.294148
 20
-1169.131907
 30
0.0
 11
945.294148
 21
-369.131907
 31
0.0
  0
LINE
  5
955
100
AcDbEntity
  8
V0-OBRYS
100
AcDbLine
 10
945.294148
 20
-369.131907
 30
0.0
 11
910.294148
 21
-369.131907
 31
0.0
  0
LINE
  5
956
100
AcDbEntity
  8
V0-OBRYS
100
AcDbLine
 10
910.294148
 20
-1169.131907
 30
0.0
 11
945.294148
 21
-1169.131907
 31
0.0
  0
LINE
  5
957
100
AcDbEntity
  8
V0-OBRYS
100
AcDbLine
 10
857.794148
 20
-369.131907
 30
0.0
 11
-52.205852
 21
-369.131907
 31
0.0
  0
LINE
  5
958
100
AcDbEntity
  8
V0-OBRYS
100
AcDbLine
 10
-52.205852
 20
-1169.131907
 30
0.0
 11
857.794148
 21
-1169.131907
 31
0.0
  0
LINE
  5
96A
100
AcDbEntity
  8
V0-OBRYS
100
AcDbLine
 10
857.794148
 20
-1169.131907
 30
0.0
 11
857.794148
 21
-369.131907
 31
0.0
  0
LINE
  5
96B
100
AcDbEntity
  8
V0-OBRYS
100
AcDbLine
 10
-52.205852
 20
-369.131907
 30
0.0
 11
-52.205852
 21
-1169.131907
 31
0.0
  0
LINE
  5
96D
100
AcDbEntity
  8
V0-OBRYS
100
AcDbLine
 10
-139.705852
 20
-369.131907
 30
0.0
 11
-104.705852
 21
-369.131907
 31
0.0
  0
LINE
  5
96E
100
AcDbEntity
  8
V0-OBRYS
100
AcDbLine
 10
-139.705852
 20
-1169.131907
 30
0.0
 11
-104.705852
 21
-1169.131907
 31
0.0
  0
LINE
  5
96F
100
AcDbEntity
  8
V0-ZBYTEK
  6
DASHED
100
AcDbLine
 10
-52.205852
 20
-769.131907
 30
0.0
 11
857.794148
 21
-769.131907
 31
0.0
  0
LINE
  5
970
100
AcDbEntity
  8
V0-VYPLNE
  6
DASHDOT
100
AcDbLine
 10
449.50064
 20
410.0
 30
0.0
 11
249.50064
 21
410.0
 31
0.0
  0
LINE
  5
974
100
AcDbEntity
  8
V0-OBRYS
  6
CONTINUOUS
100
AcDbLine
 10
382.794148
 20
-786.631907
 30
0.0
 11
-52.205852
 21
-786.631907
 31
0.0
  0
LINE
  5
976
100
AcDbEntity
  8
V0-OBRYS
  6
CONTINUOUS
100
AcDbLine
 10
362.422911
 20
-856.631907
 30
0.0
 11
122.422911
 21
-856.631907
 31
0.0
  0
LINE
  5
977
100
AcDbEntity
  8
V0-OBRYS
  6
CONTINUOUS
100
AcDbLine
 10
122.422911
 20
-856.631907
 30
0.0
 11
122.422911
 21
-1149.131907
 31
0.0
  0
LINE
  5
978
100
AcDbEntity
  8
V0-OBRYS
  6
CONTINUOUS
100
AcDbLine
 10
122.422911
 20
-1149.131907
 30
0.0
 11
362.422911
 21
-1149.131907
 31
0.0
  0
LINE
  5
979
100
AcDbEntity
  8
V0-OBRYS
  6
CONTINUOUS
100
AcDbLine
 10
217.143254
 20
-821.631907
 30
0.0
 11
362.422911
 21
-821.631907
 31
0.0
  0
LINE
  5
97A
100
AcDbEntity
  8
V0-OBRYS
  6
CONTINUOUS
100
AcDbLine
 10
282.422911
 20
-1216.631907
 30
0.0
 11
282.422911
 21
-1345.385005
 31
0.0
  0
LINE
  5
97C
100
AcDbEntity
  8
V0-OBRYS
  6
CONTINUOUS
100
AcDbLine
 10
292.422911
 20
-1406.631907
 30
0.0
 11
362.422911
 21
-1406.631907
 31
0.0
  0
LINE
  5
97D
100
AcDbEntity
  8
V0-OBRYS
  6
CONTINUOUS
100
AcDbLine
 10
292.422911
 20
-1355.385005
 30
0.0
 11
362.422911
 21
-1355.385005
 31
0.0
  0
ARC
  5
97E
100
AcDbEntity
  8
V0-OBRYS
  6
CONTINUOUS
100
AcDbCircle
 10
292.422911
 20
-1216.631907
 30
0.0
 40
10.0
100
AcDbArc
 50
90.0
 51
180.0
  0
ARC
  5
97F
100
AcDbEntity
  8
V0-OBRYS
  6
CONTINUOUS
100
AcDbCircle
 10
292.422911
 20
-1345.385005
 30
0.0
 40
10.0
100
AcDbArc
 50
180.0
 51
270.0
  0
LINE
  5
980
100
AcDbEntity
  8
V0-OBRYS
  6
CONTINUOUS
100
AcDbLine
 10
282.422911
 20
-1365.385005
 30
0.0
 11
282.422911
 21
-1396.631907
 31
0.0
  0
ARC
  5
981
100
AcDbEntity
  8
V0-OBRYS
  6
CONTINUOUS
100
AcDbCircle
 10
292.422911
 20
-1365.385005
 30
0.0
 40
10.0
100
AcDbArc
 50
90.0
 51
180.0
  0
ARC
  5
982
100
AcDbEntity
  8
V0-OBRYS
  6
CONTINUOUS
100
AcDbCircle
 10
292.422911
 20
-1396.631907
 30
0.0
 40
10.0
100
AcDbArc
 50
180.0
 51
270.0
  0
LINE
  5
983
100
AcDbEntity
  8
V0-OBRYS
  6
CONTINUOUS
100
AcDbLine
 10
362.422911
 20
-1206.631907
 30
0.0
 11
362.422911
 21
-1355.385005
 31
0.0
  0
LINE
  5
984
100
AcDbEntity
  8
V0-OBRYS
  6
CONTINUOUS
100
AcDbLine
 10
352.422911
 20
-1206.631907
 30
0.0
 11
352.422911
 21
-1355.385005
 31
0.0
  0
LINE
  5
985
100
AcDbEntity
  8
V0-OBRYS
  6
CONTINUOUS
100
AcDbLine
 10
342.422911
 20
-1206.631907
 30
0.0
 11
342.422911
 21
-1355.385005
 31
0.0
  0
LINE
  5
986
100
AcDbEntity
  8
V0-OBRYS
  6
CONTINUOUS
100
AcDbLine
 10
332.422911
 20
-1206.631907
 30
0.0
 11
332.422911
 21
-1355.385005
 31
0.0
  0
LINE
  5
987
100
AcDbEntity
  8
V0-OBRYS
  6
CONTINUOUS
100
AcDbLine
 10
322.422911
 20
-1206.631907
 30
0.0
 11
322.422911
 21
-1355.385005
 31
0.0
  0
LINE
  5
988
100
AcDbEntity
  8
V0-OBRYS
  6
CONTINUOUS
100
AcDbLine
 10
312.422911
 20
-1206.631907
 30
0.0
 11
312.422911
 21
-1355.385005
 31
0.0
  0
LINE
  5
989
100
AcDbEntity
  8
V0-OBRYS
  6
CONTINUOUS
100
AcDbLine
 10
302.422911
 20
-1206.631907
 30
0.0
 11
302.422911
 21
-1355.385005
 31
0.0
  0
LINE
  5
98A
100
AcDbEntity
  8
V0-OBRYS
  6
CONTINUOUS
100
AcDbLine
 10
292.422911
 20
-1206.631907
 30
0.0
 11
292.422911
 21
-1355.385005
 31
0.0
  0
LINE
  5
98B
100
AcDbEntity
  8
V0-OBRYS
  6
CONTINUOUS
100
AcDbLine
 10
382.794148
 20
-786.631907
 30
0.0
 11
857.794148
 21
-786.631907
 31
0.0
  0
LINE
  5
98C
100
AcDbEntity
  8
V0-OBRYS
  6
CONTINUOUS
100
AcDbLine
 10
362.422911
 20
-856.631907
 30
0.0
 11
602.422911
 21
-856.631907
 31
0.0
  0
LINE
  5
98E
100
AcDbEntity
  8
V0-OBRYS
  6
CONTINUOUS
100
AcDbLine
 10
602.422911
 20
-1149.131907
 30
0.0
 11
362.422911
 21
-1149.131907
 31
0.0
  0
LINE
  5
98F
100
AcDbEntity
  8
V0-OBRYS
  6
CONTINUOUS
100
AcDbLine
 10
432.422911
 20
-1206.631907
 30
0.0
 11
432.422911
 21
-1355.385005
 31
0.0
  0
LINE
  5
990
100
AcDbEntity
  8
V0-OBRYS
  6
CONTINUOUS
100
AcDbLine
 10
422.422911
 20
-1206.631907
 30
0.0
 11
422.422911
 21
-1355.385005
 31
0.0
  0
LINE
  5
991
100
AcDbEntity
  8
V0-OBRYS
  6
CONTINUOUS
100
AcDbLine
 10
412.422911
 20
-1206.631907
 30
0.0
 11
412.422911
 21
-1355.385005
 31
0.0
  0
LINE
  5
992
100
AcDbEntity
  8
V0-OBRYS
  6
CONTINUOUS
100
AcDbLine
 10
402.422911
 20
-1206.631907
 30
0.0
 11
402.422911
 21
-1355.385005
 31
0.0
  0
LINE
  5
993
100
AcDbEntity
  8
V0-OBRYS
  6
CONTINUOUS
100
AcDbLine
 10
392.422911
 20
-1206.631907
 30
0.0
 11
392.422911
 21
-1355.385005
 31
0.0
  0
LINE
  5
994
100
AcDbEntity
  8
V0-OBRYS
  6
CONTINUOUS
100
AcDbLine
 10
382.422911
 20
-1206.631907
 30
0.0
 11
382.422911
 21
-1355.385005
 31
0.0
  0
LINE
  5
995
100
AcDbEntity
  8
V0-OBRYS
  6
CONTINUOUS
100
AcDbLine
 10
372.422911
 20
-1206.631907
 30
0.0
 11
372.422911
 21
-1355.385005
 31
0.0
  0
LINE
  5
996
100
AcDbEntity
  8
V0-OBRYS
  6
CONTINUOUS
100
AcDbLine
 10
362.422911
 20
-1206.631907
 30
0.0
 11
362.422911
 21
-1355.385005
 31
0.0
  0
LINE
  5
997
100
AcDbEntity
  8
V0-OBRYS
  6
CONTINUOUS
100
AcDbLine
 10
442.422911
 20
-1216.631907
 30
0.0
 11
442.422911
 21
-1345.385005
 31
0.0
  0
ARC
  5
998
100
AcDbEntity
  8
V0-OBRYS
  6
CONTINUOUS
100
AcDbCircle
 10
432.422911
 20
-1216.631907
 30
0.0
 40
10.0
100
AcDbArc
 50
0.0
 51
90.0
  0
LINE
  5
999
100
AcDbEntity
  8
V0-OBRYS
  6
CONTINUOUS
100
AcDbLine
 10
442.422911
 20
-1365.385005
 30
0.0
 11
442.422911
 21
-1396.631907
 31
0.0
  0
LINE
  5
99A
100
AcDbEntity
  8
V0-OBRYS
  6
CONTINUOUS
100
AcDbLine
 10
432.422911
 20
-1355.385005
 30
0.0
 11
362.422911
 21
-1355.385005
 31
0.0
  0
ARC
  5
99B
100
AcDbEntity
  8
V0-OBRYS
  6
CONTINUOUS
100
AcDbCircle
 10
432.422911
 20
-1365.385005
 30
0.0
 40
10.0
100
AcDbArc
 50
360.0
 51
90.0
  0
ARC
  5
99C
100
AcDbEntity
  8
V0-OBRYS
  6
CONTINUOUS
100
AcDbCircle
 10
432.422911
 20
-1345.385005
 30
0.0
 40
10.0
100
AcDbArc
 50
270.0
 51
0.0
  0
LINE
  5
99D
100
AcDbEntity
  8
V0-OBRYS
  6
CONTINUOUS
100
AcDbLine
 10
432.422911
 20
-1406.631907
 30
0.0
 11
362.422911
 21
-1406.631907
 31
0.0
  0
ARC
  5
99E
100
AcDbEntity
  8
V0-OBRYS
  6
CONTINUOUS
100
AcDbCircle
 10
432.422911
 20
-1396.631907
 30
0.0
 40
10.0
100
AcDbArc
 50
270.0
 51
360.0
  0
LINE
  5
99F
100
AcDbEntity
  8
V0-OBRYS
  6
CONTINUOUS
100
AcDbLine
 10
602.422911
 20
-856.631907
 30
0.0
 11
602.422911
 21
-1149.131907
 31
0.0
  0
LINE
  5
9A1
100
AcDbEntity
  8
V0-OBRYS
  6
CONTINUOUS
100
AcDbLine
 10
295.050499
 20
-1149.309053
 30
0.0
 11
295.050499
 21
-1168.277099
 31
0.0
  0
LINE
  5
9A2
100
AcDbEntity
  8
V0-OBRYS
  6
CONTINUOUS
100
AcDbLine
 10
429.795323
 20
-1149.309053
 30
0.0
 11
429.795323
 21
-1168.277099
 31
0.0
  0
LINE
  5
9A5
100
AcDbEntity
  8
V0-OBRYS
  6
CONTINUOUS
100
AcDbLine
 10
192.422911
 20
-786.631907
 30
0.0
 11
208.720848
 21
-821.300074
 31
0.0
  0
LINE
  5
9A6
100
AcDbEntity
  8
V0-OBRYS
  6
CONTINUOUS
100
AcDbLine
 10
208.720848
 20
-821.300074
 30
0.0
 11
192.422911
 21
-856.631907
 31
0.0
  0
LINE
  5
9A7
100
AcDbEntity
  8
V0-OBRYS
  6
CONTINUOUS
100
AcDbLine
 10
532.422911
 20
-786.631907
 30
0.0
 11
516.124974
 21
-821.300074
 31
0.0
  0
LINE
  5
9A8
100
AcDbEntity
  8
V0-OBRYS
  6
CONTINUOUS
100
AcDbLine
 10
516.124974
 20
-821.300074
 30
0.0
 11
532.422911
 21
-856.631907
 31
0.0
  0
LINE
  5
9A9
100
AcDbEntity
  8
V0-OBRYS
  6
CONTINUOUS
100
AcDbLine
 10
507.702568
 20
-821.631907
 30
0.0
 11
362.422911
 21
-821.631907
 31
0.0
  0
LINE
  5
A7E
100
AcDbEntity
  8
V0-ZBYTEK
  6
DASHED
100
AcDbLine
 10
1746.816163
 20
422.782251
 30
0.0
 11
1746.816163
 21
-34.717749
 31
0.0
  0
LINE
  5
A7F
100
AcDbEntity
  8
V0-OBRYS
100
AcDbLine
 10
1729.316163
 20
875.282251
 30
0.0
 11
1729.316163
 21
-34.717749
 31
0.0
  0
LINE
  5
A80
100
AcDbEntity
  8
V0-OBRYS
100
AcDbLine
 10
2129.316163
 20
875.282251
 30
0.0
 11
2129.316163
 21
-34.717749
 31
0.0
  0
LINE
  5
A81
100
AcDbEntity
  8
V0-OBRYS
100
AcDbLine
 10
1329.316163
 20
-34.717749
 30
0.0
 11
1329.316163
 21
875.282251
 31
0.0
  0
LINE
  5
A82
100
AcDbEntity
  8
V0-OBRYS
100
AcDbLine
 10
2166.816163
 20
-104.717749
 30
0.0
 11
2166.816163
 21
910.282251
 31
0.0
  0
LINE
  5
A83
100
AcDbEntity
  8
V0-OBRYS
100
AcDbLine
 10
1291.816163
 20
910.282251
 30
0.0
 11
1291.816163
 21
-104.717749
 31
0.0
  0
LINE
  5
A84
100
AcDbEntity
  8
V0-OBRYS
100
AcDbLine
 10
2129.316163
 20
-34.717749
 30
0.0
 11
1329.316163
 21
-34.717749
 31
0.0
  0
LINE
  5
A85
100
AcDbEntity
  8
V0-OBRYS
100
AcDbLine
 10
2129.316163
 20
-139.717749
 30
0.0
 11
1329.316163
 21
-139.717749
 31
0.0
  0
LINE
  5
A86
100
AcDbEntity
  8
V0-OBRYS
100
AcDbLine
 10
1291.816163
 20
-104.717749
 30
0.0
 11
2166.816163
 21
-104.717749
 31
0.0
  0
LINE
  5
A87
100
AcDbEntity
  8
V0-OBRYS
100
AcDbLine
 10
1329.316163
 20
-139.717749
 30
0.0
 11
1329.316163
 21
-104.717749
 31
0.0
  0
LINE
  5
A88
100
AcDbEntity
  8
V0-OBRYS
100
AcDbLine
 10
2129.316163
 20
-104.717749
 30
0.0
 11
2129.316163
 21
-139.717749
 31
0.0
  0
DIMENSION
  5
A89
100
AcDbEntity
  8
V0-KOTY
  6
CONTINUOUS
 62
    41
100
AcDbDimension
  2
*D13
 10
2129.316163
 20
1000.995566
 30
0.0
 11
1729.316163
 21
1025.434163
 31
0.0
 70
    32
  3
ED40
100
AcDbAlignedDimension
 13
1329.316163
 23
945.282251
 33
0.0
 14
2129.316163
 24
945.282251
 34
0.0
100
AcDbRotatedDimension
  0
LINE
  5
A8A
100
AcDbEntity
  8
V0-ZBYTEK
  6
DASHED
100
AcDbLine
 10
1816.816163
 20
182.782251
 30
0.0
 11
2109.316163
 21
182.782251
 31
0.0
  0
LINE
  5
A8B
100
AcDbEntity
  8
V0-ZBYTEK
  6
DASHED
100
AcDbLine
 10
1816.816163
 20
712.782251
 30
0.0
 11
2109.316163
 21
712.782251
 31
0.0
  0
LINE
  5
A8C
100
AcDbEntity
  8
V0-OBRYS
100
AcDbLine
 10
1329.316163
 20
875.282251
 30
0.0
 11
2129.316163
 21
875.282251
 31
0.0
  0
DIMENSION
  5
A8D
100
AcDbEntity
  8
V0-KOTY
  6
CONTINUOUS
 62
    41
100
AcDbDimension
  2
*D12
 10
2166.816163
 20
1063.465211
 30
0.0
 11
1735.733572
 21
1063.465211
 31
0.0
 70
   160
  3
ED40
100
AcDbAlignedDimension
 13
1291.816163
 23
910.282251
 33
0.0
 14
2166.816163
 24
910.282251
 34
0.0
100
AcDbRotatedDimension
  0
LINE
  5
A8E
100
AcDbEntity
  8
V0-OBRYS
100
AcDbLine
 10
1329.316163
 20
945.282251
 30
0.0
 11
2129.316163
 21
945.282251
 31
0.0
  0
LINE
  5
A8F
100
AcDbEntity
  8
V0-OBRYS
100
AcDbLine
 10
2166.816163
 20
910.282251
 30
0.0
 11
1291.816163
 21
910.282251
 31
0.0
  0
LINE
  5
A90
100
AcDbEntity
  8
V0-VYPLNE
  6
DASHDOT
100
AcDbLine
 10
2405.054297
 20
422.782251
 30
0.0
 11
1696.107754
 21
422.782251
 31
0.0
  0
LINE
  5
A91
100
AcDbEntity
  8
V0-ZBYTEK
  6
DASHED
100
AcDbLine
 10
1746.816163
 20
422.782251
 30
0.0
 11
1746.816163
 21
875.282251
 31
0.0
  0
LINE
  5
A92
100
AcDbEntity
  8
V0-ZBYTEK
  6
DASHED
100
AcDbLine
 10
1781.816163
 20
277.502594
 30
0.0
 11
1781.816163
 21
422.782251
 31
0.0
  0
LINE
  5
A93
100
AcDbEntity
  8
V0-ZBYTEK
  6
DASHED
100
AcDbLine
 10
1816.816163
 20
422.782251
 30
0.0
 11
1816.816163
 21
182.782251
 31
0.0
  0
LINE
  5
A94
100
AcDbEntity
  8
V0-ZBYTEK
  6
DASHED
100
AcDbLine
 10
1781.48433
 20
269.080188
 30
0.0
 11
1816.816163
 21
252.782251
 31
0.0
  0
LINE
  5
A95
100
AcDbEntity
  8
V0-ZBYTEK
  6
DASHED
100
AcDbLine
 10
1746.816163
 20
252.782251
 30
0.0
 11
1781.48433
 21
269.080188
 31
0.0
  0
LINE
  5
A96
100
AcDbEntity
  8
V0-ZBYTEK
  6
DASHED
100
AcDbLine
 10
1781.816163
 20
568.061908
 30
0.0
 11
1781.816163
 21
422.782251
 31
0.0
  0
LINE
  5
A97
100
AcDbEntity
  8
V0-ZBYTEK
  6
DASHED
100
AcDbLine
 10
1816.816163
 20
422.782251
 30
0.0
 11
1816.816163
 21
712.782251
 31
0.0
  0
LINE
  5
A98
100
AcDbEntity
  8
V0-ZBYTEK
  6
DASHED
100
AcDbLine
 10
1746.816163
 20
592.782251
 30
0.0
 11
1781.48433
 21
576.484314
 31
0.0
  0
LINE
  5
A99
100
AcDbEntity
  8
V0-ZBYTEK
  6
DASHED
100
AcDbLine
 10
1781.48433
 20
576.484314
 30
0.0
 11
1816.816163
 21
592.782251
 31
0.0
  0
LINE
  5
A9A
100
AcDbEntity
  8
V0-OBRYS
100
AcDbLine
 10
1329.316163
 20
945.282251
 30
0.0
 11
1329.316163
 21
910.282251
 31
0.0
  0
LINE
  5
A9B
100
AcDbEntity
  8
V0-OBRYS
  6
CONTINUOUS
100
AcDbLine
 10
2366.816163
 20
352.782251
 30
0.0
 11
2366.816163
 21
422.782251
 31
0.0
  0
LINE
  5
A9C
100
AcDbEntity
  8
V0-OBRYS
  6
CONTINUOUS
100
AcDbLine
 10
2315.569261
 20
352.782251
 30
0.0
 11
2315.569261
 21
422.782251
 31
0.0
  0
LINE
  5
A9D
100
AcDbEntity
  8
V0-ZBYTEK
  6
DASHED
100
AcDbLine
 10
2109.316163
 20
182.782251
 30
0.0
 11
2109.316163
 21
422.782251
 31
0.0
  0
ARC
  5
A9E
100
AcDbEntity
  8
V0-OBRYS
  6
CONTINUOUS
100
AcDbCircle
 10
2176.816163
 20
352.782251
 30
0.0
 40
10.0
100
AcDbArc
 50
180.0
 51
270.0
  0
LINE
  5
A9F
100
AcDbEntity
  8
V0-OBRYS
  6
CONTINUOUS
100
AcDbLine
 10
2166.816163
 20
392.782251
 30
0.0
 11
2315.569261
 21
392.782251
 31
0.0
  0
LINE
  5
AA0
100
AcDbEntity
  8
V0-OBRYS
  6
CONTINUOUS
100
AcDbLine
 10
2166.816163
 20
382.782251
 30
0.0
 11
2315.569261
 21
382.782251
 31
0.0
  0
LINE
  5
AA1
100
AcDbEntity
  8
V0-OBRYS
  6
CONTINUOUS
100
AcDbLine
 10
2166.816163
 20
372.782251
 30
0.0
 11
2315.569261
 21
372.782251
 31
0.0
  0
LINE
  5
AA2
100
AcDbEntity
  8
V0-OBRYS
  6
CONTINUOUS
100
AcDbLine
 10
2166.816163
 20
362.782251
 30
0.0
 11
2315.569261
 21
362.782251
 31
0.0
  0
LINE
  5
AA3
100
AcDbEntity
  8
V0-OBRYS
  6
CONTINUOUS
100
AcDbLine
 10
2166.816163
 20
352.782251
 30
0.0
 11
2315.569261
 21
352.782251
 31
0.0
  0
LINE
  5
AA4
100
AcDbEntity
  8
V0-ZBYTEK
  6
DASHED
100
AcDbLine
 10
2109.493309
 20
355.409839
 30
0.0
 11
2128.461355
 21
355.409839
 31
0.0
  0
LINE
  5
AA5
100
AcDbEntity
  8
V0-OBRYS
  6
CONTINUOUS
100
AcDbLine
 10
2176.816163
 20
342.782251
 30
0.0
 11
2305.569261
 21
342.782251
 31
0.0
  0
ARC
  5
AA6
100
AcDbEntity
  8
V0-OBRYS
  6
CONTINUOUS
100
AcDbCircle
 10
2325.569261
 20
352.782251
 30
0.0
 40
10.0
100
AcDbArc
 50
180.0
 51
270.0
  0
ARC
  5
AA7
100
AcDbEntity
  8
V0-OBRYS
  6
CONTINUOUS
100
AcDbCircle
 10
2305.569261
 20
352.782251
 30
0.0
 40
10.0
100
AcDbArc
 50
270.0
 51
0.0
  0
LINE
  5
AA8
100
AcDbEntity
  8
V0-OBRYS
  6
CONTINUOUS
100
AcDbLine
 10
2325.569261
 20
342.782251
 30
0.0
 11
2356.816163
 21
342.782251
 31
0.0
  0
ARC
  5
AA9
100
AcDbEntity
  8
V0-OBRYS
  6
CONTINUOUS
100
AcDbCircle
 10
2356.816163
 20
352.782251
 30
0.0
 40
10.0
100
AcDbArc
 50
270.0
 51
0.0
  0
LINE
  5
AAA
100
AcDbEntity
  8
V0-OBRYS
  6
CONTINUOUS
100
AcDbLine
 10
2166.816163
 20
422.782251
 30
0.0
 11
2315.569261
 21
422.782251
 31
0.0
  0
LINE
  5
AAB
100
AcDbEntity
  8
V0-OBRYS
  6
CONTINUOUS
100
AcDbLine
 10
2166.816163
 20
412.782251
 30
0.0
 11
2315.569261
 21
412.782251
 31
0.0
  0
LINE
  5
AAC
100
AcDbEntity
  8
V0-OBRYS
  6
CONTINUOUS
100
AcDbLine
 10
2166.816163
 20
402.782251
 30
0.0
 11
2315.569261
 21
402.782251
 31
0.0
  0
LINE
  5
AAD
100
AcDbEntity
  8
V0-OBRYS
  6
CONTINUOUS
100
AcDbLine
 10
2166.816163
 20
492.782251
 30
0.0
 11
2315.569261
 21
492.782251
 31
0.0
  0
LINE
  5
AAE
100
AcDbEntity
  8
V0-OBRYS
  6
CONTINUOUS
100
AcDbLine
 10
2166.816163
 20
482.782251
 30
0.0
 11
2315.569261
 21
482.782251
 31
0.0
  0
LINE
  5
AAF
100
AcDbEntity
  8
V0-OBRYS
  6
CONTINUOUS
100
AcDbLine
 10
2166.816163
 20
472.782251
 30
0.0
 11
2315.569261
 21
472.782251
 31
0.0
  0
LINE
  5
AB0
100
AcDbEntity
  8
V0-OBRYS
  6
CONTINUOUS
100
AcDbLine
 10
2166.816163
 20
462.782251
 30
0.0
 11
2315.569261
 21
462.782251
 31
0.0
  0
LINE
  5
AB1
100
AcDbEntity
  8
V0-OBRYS
  6
CONTINUOUS
100
AcDbLine
 10
2166.816163
 20
452.782251
 30
0.0
 11
2315.569261
 21
452.782251
 31
0.0
  0
LINE
  5
AB2
100
AcDbEntity
  8
V0-OBRYS
  6
CONTINUOUS
100
AcDbLine
 10
2166.816163
 20
442.782251
 30
0.0
 11
2315.569261
 21
442.782251
 31
0.0
  0
LINE
  5
AB3
100
AcDbEntity
  8
V0-OBRYS
  6
CONTINUOUS
100
AcDbLine
 10
2166.816163
 20
432.782251
 30
0.0
 11
2315.569261
 21
432.782251
 31
0.0
  0
LINE
  5
AB4
100
AcDbEntity
  8
V0-OBRYS
  6
CONTINUOUS
100
AcDbLine
 10
2166.816163
 20
422.782251
 30
0.0
 11
2315.569261
 21
422.782251
 31
0.0
  0
ARC
  5
AB5
100
AcDbEntity
  8
V0-OBRYS
  6
CONTINUOUS
100
AcDbCircle
 10
2176.816163
 20
492.782251
 30
0.0
 40
10.0
100
AcDbArc
 50
90.0
 51
180.0
  0
LINE
  5
AB6
100
AcDbEntity
  8
V0-ZBYTEK
  6
DASHED
100
AcDbLine
 10
2109.316163
 20
712.782251
 30
0.0
 11
2109.316163
 21
422.782251
 31
0.0
  0
LINE
  5
AB7
100
AcDbEntity
  8
V0-ZBYTEK
  6
DASHED
100
AcDbLine
 10
2109.493309
 20
490.154663
 30
0.0
 11
2128.461355
 21
490.154663
 31
0.0
  0
LINE
  5
AB8
100
AcDbEntity
  8
V0-OBRYS
  6
CONTINUOUS
100
AcDbLine
 10
2176.816163
 20
502.782251
 30
0.0
 11
2305.569261
 21
502.782251
 31
0.0
  0
LINE
  5
AB9
100
AcDbEntity
  8
V0-OBRYS
  6
CONTINUOUS
100
AcDbLine
 10
2315.569261
 20
492.782251
 30
0.0
 11
2315.569261
 21
422.782251
 31
0.0
  0
LINE
  5
ABA
100
AcDbEntity
  8
V0-OBRYS
  6
CONTINUOUS
100
AcDbLine
 10
2366.816163
 20
492.782251
 30
0.0
 11
2366.816163
 21
422.782251
 31
0.0
  0
ARC
  5
ABB
100
AcDbEntity
  8
V0-OBRYS
  6
CONTINUOUS
100
AcDbCircle
 10
2325.569261
 20
492.782251
 30
0.0
 40
10.0
100
AcDbArc
 50
90.0
 51
180.0
  0
ARC
  5
ABC
100
AcDbEntity
  8
V0-OBRYS
  6
CONTINUOUS
100
AcDbCircle
 10
2305.569261
 20
492.782251
 30
0.0
 40
10.0
100
AcDbArc
 50
0.0
 51
90.0
  0
ARC
  5
ABD
100
AcDbEntity
  8
V0-OBRYS
  6
CONTINUOUS
100
AcDbCircle
 10
2356.816163
 20
492.782251
 30
0.0
 40
10.0
100
AcDbArc
 50
0.0
 51
90.0
  0
LINE
  5
ABE
100
AcDbEntity
  8
V0-OBRYS
  6
CONTINUOUS
100
AcDbLine
 10
2325.569261
 20
502.782251
 30
0.0
 11
2356.816163
 21
502.782251
 31
0.0
  0
LINE
  5
ABF
100
AcDbEntity
  8
V0-OBRYS
100
AcDbLine
 10
2129.316163
 20
945.282251
 30
0.0
 11
2129.316163
 21
910.282251
 31
0.0
  0
MTEXT
  5
CCD
100
AcDbEntity
  8
V0-ZBYTEK
  6
CONTINUOUS
 62
    41
100
AcDbMText
 10
1206.46096
 20
-543.263066
 30
0.0
 40
30.0
 41
769.572597
 71
     1
 72
     5
  1

  7
ED30
  0
MTEXT
  5
CCE
100
AcDbEntity
  8
V0-ZBYTEK
  6
CONTINUOUS
 62
    41
100
AcDbMText
 10
1172.792154
 20
-278.968412
 30
0.0
 40
30.0
 41
817.670898
 71
     1
 72
     5
  1

  7
ED30
  0
TEXT
  5
CCF
100
AcDbEntity
  8
V0-ZBYTEK
  6
CONTINUOUS
 62
    41
100
AcDbText
 10
1335.941558
 20
-658.159154
 30
0.0
 40
40.0
  1
RADIALNI VENTILATOR
  7
ED30
100
AcDbText
  0
TEXT
  5
CD0
100
AcDbEntity
  8
V0-ZBYTEK
  6
CONTINUOUS
 62
    41
100
AcDbText
 10
1331.131733
 20
-725.434158
 30
0.0
 40
40.0
  1
DO HRANATEHO POTRUBI
  7
ED40
100
AcDbText
  0
MTEXT
  5
D08
100
AcDbEntity
  8
V0-ZBYTEK
  6
CONTINUOUS
 62
    41
100
AcDbMText
 10
1163.172494
 20
-226.109482
 30
0.0
 40
30.0
 41
961.965756
 71
     1
 72
     5
  1

  7
ED30
  0
TEXT
  5
D09
100
AcDbEntity
  8
V0-ZBYTEK
  6
CONTINUOUS
 62
   210
100
AcDbText
 10
1326.321898
 20
-542.830582
 30
0.0
 40
100.0
  1
ILHT 085
  7
ED30
100
AcDbText
  0
TEXT
  5
D0A
100
AcDbEntity
  8
V0-ZBYTEK
  6
CONTINUOUS
 62
   210
100
AcDbText
 10
196.396912
 20
115.070883
 30
0.0
 40
50.0
  1
ILHT 085
  7
ED30
100
AcDbText
  0
TEXT
  5
D0B
100
AcDbEntity
  8
V0-ZBYTEK
  6
CONTINUOUS
 62
   210
100
AcDbText
 10
218.810721
 20
-637.303911
 30
0.0
 40
50.0
  1
ILHT 065
  7
ED30
100
AcDbText
  0
TEXT
  5
D0C
100
AcDbEntity
  8
V0-ZBYTEK
  6
CONTINUOUS
 62
   210
100
AcDbText
 10
1578.068337
 20
49.020986
 30
0.0
 40
50.0
  1
ILHT 085
  7
ED30
100
AcDbText
  0
DIMENSION
  5
D90
100
AcDbEntity
  8
V0-ZBYTEK
  6
CONTINUOUS
 62
    41
100
AcDbDimension
  2
*D14
 10
1126.987584
 20
-152.5
 30
0.0
 11
1102.432029
 21
390.0
 31
0.0
 70
    32
  3
ED40
100
AcDbAlignedDimension
 13
840.0
 23
932.5
 33
0.0
 14
840.0
 24
-152.5
 34
0.0
 50
90.0
100
AcDbRotatedDimension
  0
VIEWPORT
  5
60F
100
AcDbEntity
 67
     1
  8
0
  6
CONTINUOUS
 62
    41
100
AcDbViewport
 10
7.417969
 20
4.5
 30
0.0
 40
14.835938
 41
9.0
 68
    -1
 69
     1
1001
ACAD
1000
MVIEW
1002
{
1070
    16
1010
0.0
1020
0.0
1030
0.0
1010
0.0
1020
0.0
1030
1.0
1040
0.0
1040
9.0
1040
7.417969
1040
4.5
1040
50.0
1040
0.0
1040
0.0
1070
     0
1070
   100
1070
     1
1070
     1
1070
     0
1070
     0
1070
     0
1070
     0
1040
0.0
1040
0.0
1040
0.0
1040
25.0
1040
25.0
1040
25.0
1040
25.0
1070
     0
1002
{
1002
}
1002
}
  0
ENDSEC
  0
SECTION
  2
OBJECTS
  0
DICTIONARY
  5
C
100
AcDbDictionary
  3
ACAD_GROUP
350
D
  3
ACAD_MLINESTYLE
350
E
  0
DICTIONARY
  5
D
102
{ACAD_REACTORS
330
C
102
}
100
AcDbDictionary
  0
DICTIONARY
  5
E
102
{ACAD_REACTORS
330
C
102
}
100
AcDbDictionary
  3
STANDARD
350
1C
  0
MLINESTYLE
  5
1C
102
{ACAD_REACTORS
330
E
102
}
100
AcDbMlineStyle
  2
STANDARD
 70
     0
  3

 62
     0
 51
90.0
 52
90.0
 71
     2
 49
0.5
 62
   256
  6
BYLAYER
 49
-0.5
 62
   256
  6
BYLAYER
  0
ENDSEC
  0
EOF
