  0
SECTION
  2
HEADER
  9
$ACADVER
  1
AC1014
  9
$ACADMAINTVER
 70
     0
  9
$DWGCODEPAGE
  3
ANSI_1250
  9
$INSBASE
 10
0.0
 20
0.0
 30
0.0
  9
$EXTMIN
 10
-771.18353
 20
-1427.499246
 30
0.0
  9
$EXTMAX
 10
1623.263856
 20
450.049867
 30
0.0
  9
$LIMMIN
 10
0.0
 20
0.0
  9
$LIMMAX
 10
420.0
 20
297.0
  9
$ORTHOMODE
 70
     0
  9
$REGENMODE
 70
     1
  9
$FILLMODE
 70
     1
  9
$QTEXTMODE
 70
     0
  9
$MIRRTEXT
 70
     1
  9
$DRAGMODE
 70
     2
  9
$LTSCALE
 40
1.0
  9
$OSMODE
 70
    15
  9
$ATTMODE
 70
     1
  9
$TEXTSIZE
 40
2.5
  9
$TRACEWID
 40
1.0
  9
$TEXTSTYLE
  7
ED30
  9
$CLAYER
  8
V0-OBRYS
  9
$CELTYPE
  6
BYLAYER
  9
$CECOLOR
 62
   256
  9
$CELTSCALE
 40
1.0
  9
$DELOBJ
 70
     1
  9
$DISPSILH
 70
     0
  9
$DIMSCALE
 40
1.0
  9
$DIMASZ
 40
25.0
  9
$DIMEXO
 40
1.0
  9
$DIMDLI
 40
3.75
  9
$DIMRND
 40
0.0
  9
$DIMDLE
 40
0.0
  9
$DIMEXE
 40
1.25
  9
$DIMTP
 40
0.0
  9
$DIMTM
 40
0.0
  9
$DIMTXT
 40
30.0
  9
$DIMCEN
 40
3.0
  9
$DIMTSZ
 40
0.0
  9
$DIMTOL
 70
     0
  9
$DIMLIM
 70
     0
  9
$DIMTIH
 70
     0
  9
$DIMTOH
 70
     0
  9
$DIMSE1
 70
     0
  9
$DIMSE2
 70
     0
  9
$DIMTAD
 70
     1
  9
$DIMZIN
 70
     8
  9
$DIMBLK
  1

  9
$DIMASO
 70
     1
  9
$DIMSHO
 70
     1
  9
$DIMPOST
  1

  9
$DIMAPOST
  1

  9
$DIMALT
 70
     0
  9
$DIMALTD
 70
     4
  9
$DIMALTF
 40
0.0394
  9
$DIMLFAC
 40
1.0
  9
$DIMTOFL
 70
     1
  9
$DIMTVP
 40
0.0
  9
$DIMTIX
 70
     0
  9
$DIMSOXD
 70
     0
  9
$DIMSAH
 70
     1
  9
$DIMBLK1
  1
_OPEN
  9
$DIMBLK2
  1
_OPEN
  9
$DIMSTYLE
  2
ED30
  9
$DIMCLRD
 70
     0
  9
$DIMCLRE
 70
     0
  9
$DIMCLRT
 70
     0
  9
$DIMTFAC
 40
1.0
  9
$DIMGAP
 40
3.0
  9
$DIMJUST
 70
     0
  9
$DIMSD1
 70
     0
  9
$DIMSD2
 70
     0
  9
$DIMTOLJ
 70
     1
  9
$DIMTZIN
 70
     8
  9
$DIMALTZ
 70
     0
  9
$DIMALTTZ
 70
     0
  9
$DIMFIT
 70
     3
  9
$DIMUPT
 70
     0
  9
$DIMUNIT
 70
     2
  9
$DIMDEC
 70
     0
  9
$DIMTDEC
 70
     1
  9
$DIMALTU
 70
     8
  9
$DIMALTTD
 70
     4
  9
$DIMTXSTY
  7
ED30
  9
$DIMAUNIT
 70
     0
  9
$LUNITS
 70
     2
  9
$LUPREC
 70
     4
  9
$SKETCHINC
 40
1.0
  9
$FILLETRAD
 40
40.0
  9
$AUNITS
 70
     0
  9
$AUPREC
 70
     0
  9
$MENU
  1
.
  9
$ELEVATION
 40
0.0
  9
$PELEVATION
 40
0.0
  9
$THICKNESS
 40
0.0
  9
$LIMCHECK
 70
     0
  9
$BLIPMODE
 70
     0
  9
$CHAMFERA
 40
10.0
  9
$CHAMFERB
 40
10.0
  9
$CHAMFERC
 40
20.0
  9
$CHAMFERD
 40
0.0
  9
$SKPOLY
 70
     1
  9
$TDCREATE
 40
2451196.643769328
  9
$TDUPDATE
 40
2452915.866450231
  9
$TDINDWG
 40
0.2503445602
  9
$TDUSRTIMER
 40
0.2503445602
  9
$USRTIMER
 70
     1
  9
$ANGBASE
 50
0.0
  9
$ANGDIR
 70
     0
  9
$PDMODE
 70
     3
  9
$PDSIZE
 40
10.0
  9
$PLINEWID
 40
0.0
  9
$COORDS
 70
     1
  9
$SPLFRAME
 70
     0
  9
$SPLINETYPE
 70
     6
  9
$SPLINESEGS
 70
     8
  9
$ATTDIA
 70
     0
  9
$ATTREQ
 70
     1
  9
$HANDLING
 70
     1
  9
$HANDSEED
  5
E04
  9
$SURFTAB1
 70
     6
  9
$SURFTAB2
 70
     6
  9
$SURFTYPE
 70
     6
  9
$SURFU
 70
     6
  9
$SURFV
 70
     6
  9
$UCSNAME
  2

  9
$UCSORG
 10
400.0
 20
0.0
 30
0.0
  9
$UCSXDIR
 10
1.0
 20
0.0
 30
0.0
  9
$UCSYDIR
 10
0.0
 20
1.0
 30
0.0
  9
$PUCSNAME
  2

  9
$PUCSORG
 10
0.0
 20
0.0
 30
0.0
  9
$PUCSXDIR
 10
1.0
 20
0.0
 30
0.0
  9
$PUCSYDIR
 10
0.0
 20
1.0
 30
0.0
  9
$USERI1
 70
     0
  9
$USERI2
 70
     0
  9
$USERI3
 70
     0
  9
$USERI4
 70
     0
  9
$USERI5
 70
     0
  9
$USERR1
 40
0.0
  9
$USERR2
 40
0.0
  9
$USERR3
 40
0.0
  9
$USERR4
 40
0.0
  9
$USERR5
 40
0.0
  9
$WORLDVIEW
 70
     1
  9
$SHADEDGE
 70
     3
  9
$SHADEDIF
 70
    70
  9
$TILEMODE
 70
     1
  9
$MAXACTVP
 70
    48
  9
$PINSBASE
 10
0.0
 20
0.0
 30
0.0
  9
$PLIMCHECK
 70
     0
  9
$PEXTMIN
 10
1.000000E+20
 20
1.000000E+20
 30
1.000000E+20
  9
$PEXTMAX
 10
-1.000000E+20
 20
-1.000000E+20
 30
-1.000000E+20
  9
$PLIMMIN
 10
0.0
 20
0.0
  9
$PLIMMAX
 10
420.0
 20
297.0
  9
$UNITMODE
 70
     0
  9
$VISRETAIN
 70
     1
  9
$PLINEGEN
 70
     0
  9
$PSLTSCALE
 70
     0
  9
$TREEDEPTH
 70
  3020
  9
$PICKSTYLE
 70
     1
  9
$CMLSTYLE
  2
STANDARD
  9
$CMLJUST
 70
     0
  9
$CMLSCALE
 40
1.0
  9
$PROXYGRAPHICS
 70
     1
  9
$MEASUREMENT
 70
     1
  0
ENDSEC
  0
SECTION
  2
CLASSES
  0
CLASS
  1
DICTIONARYVAR
  2
AcDbDictionaryVar
  3
"AutoCAD"
 90
        0
280
     0
281
     0
  0
CLASS
  1
LWPOLYLINE
  2
AcDbPolyline
  3
"AutoCAD"
 90
        0
280
     0
281
     1
  0
CLASS
  1
HATCH
  2
AcDbHatch
  3
"ACAD_SEDONA"
 90
        0
280
     0
281
     1
  0
ENDSEC
  0
SECTION
  2
TABLES
  0
TABLE
  2
VPORT
  5
8
100
AcDbSymbolTable
 70
     2
  0
VPORT
  5
E03
100
AcDbSymbolTableRecord
100
AcDbViewportTableRecord
  2
*ACTIVE
 70
     0
 10
0.0
 20
0.0
 11
1.0
 21
1.0
 12
618.457261
 22
-390.278475
 13
0.0
 23
0.0
 14
10.0
 24
10.0
 15
10.0
 25
10.0
 16
0.0
 26
0.0
 36
1.0
 17
0.0
 27
0.0
 37
0.0
 40
1863.924976
 41
1.730469
 42
50.0
 43
0.0
 44
0.0
 50
0.0
 51
0.0
 71
     0
 72
   100
 73
     1
 74
     1
 75
     0
 76
     0
 77
     0
 78
     0
  0
ENDTAB
  0
TABLE
  2
LTYPE
  5
5
100
AcDbSymbolTable
 70
     3
  0
LTYPE
  5
14
100
AcDbSymbolTableRecord
100
AcDbLinetypeTableRecord
  2
BYBLOCK
 70
     0
  3

 72
    65
 73
     0
 40
0.0
  0
LTYPE
  5
15
100
AcDbSymbolTableRecord
100
AcDbLinetypeTableRecord
  2
BYLAYER
 70
     0
  3

 72
    65
 73
     0
 40
0.0
  0
LTYPE
  5
16
100
AcDbSymbolTableRecord
100
AcDbLinetypeTableRecord
  2
CONTINUOUS
 70
     0
  3
Solid line
 72
    65
 73
     0
 40
0.0
  0
LTYPE
  5
7F
100
AcDbSymbolTableRecord
100
AcDbLinetypeTableRecord
  2
DASHDOT
 70
     0
  3
Dash dot __ . __ . __ . __ . __ . __ . __ . __
 72
    65
 73
     4
 40
25.4
 49
12.7
 74
     0
 49
-6.35
 74
     0
 49
0.0
 74
     0
 49
-6.35
 74
     0
  0
LTYPE
  5
80
100
AcDbSymbolTableRecord
100
AcDbLinetypeTableRecord
  2
DASHED
 70
     0
  3
Dashed __ __ __ __ __ __ __ __ __ __ __ __ __ _
 72
    65
 73
     2
 40
19.05
 49
12.7
 74
     0
 49
-6.35
 74
     0
  0
ENDTAB
  0
TABLE
  2
LAYER
  5
2
100
AcDbSymbolTable
 70
     6
  0
LAYER
  5
F
100
AcDbSymbolTableRecord
100
AcDbLayerTableRecord
  2
0
 70
     0
 62
     7
  6
CONTINUOUS
  0
LAYER
  5
9E
100
AcDbSymbolTableRecord
100
AcDbLayerTableRecord
  2
DEFPOINTS
 70
     0
 62
     7
  6
CONTINUOUS
  0
LAYER
  5
377
100
AcDbSymbolTableRecord
100
AcDbLayerTableRecord
  2
V0-OBRYS
 70
     0
 62
    90
  6
CONTINUOUS
  0
LAYER
  5
378
100
AcDbSymbolTableRecord
100
AcDbLayerTableRecord
  2
V0-VYPLNE
 70
     0
 62
    52
  6
CONTINUOUS
  0
LAYER
  5
37A
100
AcDbSymbolTableRecord
100
AcDbLayerTableRecord
  2
V0-NAZVY
 70
     0
 62
   210
  6
CONTINUOUS
  0
LAYER
  5
559
100
AcDbSymbolTableRecord
100
AcDbLayerTableRecord
  2
V0-ZBYTEK
 70
     0
 62
    51
  6
CONTINUOUS
  0
ENDTAB
  0
TABLE
  2
STYLE
  5
3
100
AcDbSymbolTable
 70
     4
  0
STYLE
  5
10
100
AcDbSymbolTableRecord
100
AcDbTextStyleTableRecord
  2
STANDARD
 70
     0
 40
0.0
 41
1.0
 50
0.0
 71
     0
 42
2.5
  3
ISOCP
  4

  0
STYLE
  5
331
100
AcDbSymbolTableRecord
100
AcDbTextStyleTableRecord
  2
ED20
 70
     0
 40
20.0
 41
1.0
 50
0.0
 71
     0
 42
2.5
  3
ISOCP.shx
  4

  0
STYLE
  5
5A7
100
AcDbSymbolTableRecord
100
AcDbTextStyleTableRecord
  2
ED10
 70
     0
 40
10.0
 41
1.0
 50
0.0
 71
     0
 42
10.0
  3
ISOCP.shx
  4

  0
STYLE
  5
B56
100
AcDbSymbolTableRecord
100
AcDbTextStyleTableRecord
  2
ED30
 70
     0
 40
30.0
 41
1.0
 50
0.0
 71
     0
 42
2.5
  3
ISOCP.shx
  4

  0
ENDTAB
  0
TABLE
  2
VIEW
  5
6
100
AcDbSymbolTable
 70
     0
  0
ENDTAB
  0
TABLE
  2
UCS
  5
7
100
AcDbSymbolTable
 70
     0
  0
ENDTAB
  0
TABLE
  2
APPID
  5
9
100
AcDbSymbolTable
 70
     1
  0
APPID
  5
11
100
AcDbSymbolTableRecord
100
AcDbRegAppTableRecord
  2
ACAD
 70
     0
  0
ENDTAB
  0
TABLE
  2
DIMSTYLE
  5
A
100
AcDbSymbolTable
 70
     4
  0
DIMSTYLE
105
1D
100
AcDbSymbolTableRecord
100
AcDbDimStyleTableRecord
  2
STANDARD
 70
     0
  3

  4

  5

  6
_OPEN
  7
_OPEN
 40
0.0
 41
15.0
 42
0.625
 43
3.75
 44
1.25
 45
0.0
 46
0.0
 47
0.0
 48
0.0
140
15.0
141
2.5
142
0.0
143
0.0394
144
1.0
145
0.0
146
1.0
147
3.0
 71
     0
 72
     0
 73
     0
 74
     0
 75
     0
 76
     0
 77
     1
 78
     8
170
     0
171
     4
172
     1
173
     1
174
     0
175
     0
176
     0
177
     0
178
     0
270
     2
271
     0
272
     1
273
     8
274
     4
340
331
275
     0
280
     0
281
     0
282
     0
283
     1
284
     8
285
     0
286
     0
287
     3
288
     0
  0
DIMSTYLE
105
397
102
{ACAD_REACTORS
330
67D
330
6D6
330
6C9
330
6BC
330
7C0
330
6A2
330
695
102
}
100
AcDbSymbolTableRecord
100
AcDbDimStyleTableRecord
  2
ED30
 70
     0
  3

  4

  5

  6
_OPEN
  7
_OPEN
 40
1.0
 41
25.0
 42
1.0
 43
3.75
 44
1.25
 45
0.0
 46
0.0
 47
0.0
 48
0.0
140
30.0
141
3.0
142
0.0
143
0.0394
144
1.0
145
0.0
146
1.0
147
2.0
 71
     0
 72
     0
 73
     0
 74
     0
 75
     0
 76
     0
 77
     1
 78
     8
170
     0
171
     4
172
     1
173
     1
174
     0
175
     0
176
     0
177
     0
178
     0
270
     2
271
     0
272
     1
273
     8
274
     4
340
331
275
     0
280
     0
281
     0
282
     0
283
     1
284
     8
285
     0
286
     0
287
     3
288
     0
  0
DIMSTYLE
105
5A8
100
AcDbSymbolTableRecord
100
AcDbDimStyleTableRecord
  2
ED10
 70
     0
  3

  4

  5

  6
_OPEN
  7
_OPEN
 40
1.0
 41
10.0
 42
1.0
 43
3.75
 44
1.25
 45
0.0
 46
0.0
 47
0.0
 48
0.0
140
10.0
141
2.0
142
0.0
143
0.0394
144
1.0
145
0.0
146
1.0
147
1.5
 71
     0
 72
     0
 73
     0
 74
     0
 75
     0
 76
     0
 77
     1
 78
     8
170
     0
171
     4
172
     1
173
     1
174
     0
175
     0
176
     0
177
     0
178
     0
270
     2
271
     0
272
     1
273
     8
274
     4
340
5A7
275
     0
280
     0
281
     0
282
     0
283
     1
284
     8
285
     0
286
     0
287
     3
288
     0
  0
DIMSTYLE
105
D84
100
AcDbSymbolTableRecord
100
AcDbDimStyleTableRecord
  2
ED20
 70
     0
  3

  4

  5

  6
_OPEN
  7
_OPEN
 40
1.0
 41
15.0
 42
1.0
 43
3.75
 44
1.25
 45
0.0
 46
0.0
 47
0.0
 48
0.0
140
20.0
141
3.0
142
0.0
143
0.0394
144
1.0
145
0.0
146
1.0
147
2.0
 71
     0
 72
     0
 73
     0
 74
     0
 75
     0
 76
     0
 77
     1
 78
     8
170
     0
171
     4
172
     1
173
     1
174
     0
175
     0
176
     0
177
     0
178
     0
270
     2
271
     0
272
     1
273
     8
274
     4
340
331
275
     0
280
     0
281
     0
282
     0
283
     1
284
     8
285
     0
286
     0
287
     3
288
     0
  0
ENDTAB
  0
TABLE
  2
BLOCK_RECORD
  5
1
100
AcDbSymbolTable
 70
    10
  0
BLOCK_RECORD
  5
1A
100
AcDbSymbolTableRecord
100
AcDbBlockTableRecord
  2
*MODEL_SPACE
  0
BLOCK_RECORD
  5
17
100
AcDbSymbolTableRecord
100
AcDbBlockTableRecord
  2
*PAPER_SPACE
  0
BLOCK_RECORD
  5
90
100
AcDbSymbolTableRecord
100
AcDbBlockTableRecord
  2
_OPEN
  0
BLOCK_RECORD
  5
CD6
100
AcDbSymbolTableRecord
100
AcDbBlockTableRecord
  2
*D1
  0
BLOCK_RECORD
  5
D19
100
AcDbSymbolTableRecord
100
AcDbBlockTableRecord
  2
*D2
  0
BLOCK_RECORD
  5
D25
100
AcDbSymbolTableRecord
100
AcDbBlockTableRecord
  2
*D3
  0
BLOCK_RECORD
  5
D31
100
AcDbSymbolTableRecord
100
AcDbBlockTableRecord
  2
*D4
  0
BLOCK_RECORD
  5
D3D
100
AcDbSymbolTableRecord
100
AcDbBlockTableRecord
  2
*D5
  0
BLOCK_RECORD
  5
D49
100
AcDbSymbolTableRecord
100
AcDbBlockTableRecord
  2
*D6
  0
BLOCK_RECORD
  5
D55
100
AcDbSymbolTableRecord
100
AcDbBlockTableRecord
  2
*D7
  0
BLOCK_RECORD
  5
D85
100
AcDbSymbolTableRecord
100
AcDbBlockTableRecord
  2
AROTOR
  0
BLOCK_RECORD
  5
DA7
100
AcDbSymbolTableRecord
100
AcDbBlockTableRecord
  2
AZNAK
  0
ENDTAB
  0
ENDSEC
  0
SECTION
  2
BLOCKS
  0
BLOCK
  5
1B
100
AcDbEntity
  8
0
100
AcDbBlockBegin
  2
*MODEL_SPACE
 70
     0
 10
0.0
 20
0.0
 30
0.0
  3
*MODEL_SPACE
  1

  0
ENDBLK
  5
1C
100
AcDbEntity
  8
0
100
AcDbBlockEnd
  0
BLOCK
  5
18
100
AcDbEntity
 67
     1
  8
0
100
AcDbBlockBegin
  2
*PAPER_SPACE
 70
     0
 10
0.0
 20
0.0
 30
0.0
  3
*PAPER_SPACE
  1

  0
ENDBLK
  5
19
100
AcDbEntity
 67
     1
  8
0
100
AcDbBlockEnd
  0
BLOCK
  5
91
100
AcDbEntity
  8
0
100
AcDbBlockBegin
  2
_OPEN
 70
     0
 10
0.0
 20
0.0
 30
0.0
  3
_OPEN
  1

  0
LINE
  5
92
100
AcDbEntity
  8
0
  6
BYBLOCK
 62
     0
100
AcDbLine
 10
-1.0
 20
0.166667
 30
0.0
 11
0.0
 21
0.0
 31
0.0
  0
LINE
  5
93
100
AcDbEntity
  8
0
  6
BYBLOCK
 62
     0
100
AcDbLine
 10
0.0
 20
0.0
 30
0.0
 11
-1.0
 21
-0.166667
 31
0.0
  0
LINE
  5
94
100
AcDbEntity
  8
0
  6
BYBLOCK
 62
     0
100
AcDbLine
 10
0.0
 20
0.0
 30
0.0
 11
-1.0
 21
0.0
 31
0.0
  0
ENDBLK
  5
95
100
AcDbEntity
  8
0
100
AcDbBlockEnd
  0
BLOCK
  5
CD7
100
AcDbEntity
  8
0
100
AcDbBlockBegin
  2
*D1
 70
     1
 10
0.0
 20
0.0
 30
0.0
  3
*D1
  1

  0
LINE
  5
CD8
100
AcDbEntity
  8
0
  6
BYBLOCK
 62
     0
100
AcDbLine
 10
-662.25108
 20
390.997093
 30
0.0
 11
-662.25108
 21
419.785366
 31
0.0
  0
LINE
  5
CD9
100
AcDbEntity
  8
0
  6
BYBLOCK
 62
     0
100
AcDbLine
 10
322.74892
 20
391.997093
 30
0.0
 11
322.74892
 21
419.785366
 31
0.0
  0
LINE
  5
CDA
100
AcDbEntity
  8
0
  6
BYBLOCK
 62
     0
100
AcDbLine
 10
-637.25108
 20
418.535366
 30
0.0
 11
297.74892
 21
418.535366
 31
0.0
  0
INSERT
  5
CDB
100
AcDbEntity
  8
0
  6
BYBLOCK
 62
     0
100
AcDbBlockReference
  2
_OPEN
 10
-662.25108
 20
418.535366
 30
0.0
 41
25.0
 42
25.0
 43
25.0
 50
180.0
  0
INSERT
  5
CDC
100
AcDbEntity
  8
0
  6
BYBLOCK
 62
     0
100
AcDbBlockReference
  2
_OPEN
 10
322.74892
 20
418.535366
 30
0.0
 41
25.0
 42
25.0
 43
25.0
  0
MTEXT
  5
CDD
100
AcDbEntity
  8
0
  6
BYBLOCK
 62
     0
100
AcDbMText
 10
-184.75108
 20
436.535366
 30
0.0
 40
30.0
 41
0.0
 71
     5
 72
     1
  1
\A1;985
  7
ED30
  0
POINT
  5
CDE
100
AcDbEntity
  8
DEFPOINTS
  6
BYBLOCK
 62
     0
100
AcDbPoint
 10
-662.25108
 20
389.997093
 30
0.0
  0
POINT
  5
CDF
100
AcDbEntity
  8
DEFPOINTS
  6
BYBLOCK
 62
     0
100
AcDbPoint
 10
322.74892
 20
390.997093
 30
0.0
  0
POINT
  5
CE0
100
AcDbEntity
  8
DEFPOINTS
  6
BYBLOCK
 62
     0
100
AcDbPoint
 10
322.74892
 20
418.535366
 30
0.0
  0
ENDBLK
  5
CE1
100
AcDbEntity
  8
0
100
AcDbBlockEnd
  0
BLOCK
  5
D1A
100
AcDbEntity
  8
0
100
AcDbBlockBegin
  2
*D2
 70
     1
 10
0.0
 20
0.0
 30
0.0
  3
*D2
  1

  0
LINE
  5
D1B
100
AcDbEntity
  8
0
  6
BYBLOCK
 62
     0
100
AcDbLine
 10
448.278319
 20
-131.0
 30
0.0
 11
448.278319
 21
-301.51422
 31
0.0
  0
LINE
  5
D1C
100
AcDbEntity
  8
0
  6
BYBLOCK
 62
     0
100
AcDbLine
 10
1488.278319
 20
-131.0
 30
0.0
 11
1488.278319
 21
-301.51422
 31
0.0
  0
LINE
  5
D1D
100
AcDbEntity
  8
0
  6
BYBLOCK
 62
     0
100
AcDbLine
 10
473.278319
 20
-300.26422
 30
0.0
 11
1463.278319
 21
-300.26422
 31
0.0
  0
INSERT
  5
D1E
100
AcDbEntity
  8
0
  6
BYBLOCK
 62
     0
100
AcDbBlockReference
  2
_OPEN
 10
448.278319
 20
-300.26422
 30
0.0
 41
25.0
 42
25.0
 43
25.0
 50
180.0
  0
INSERT
  5
D1F
100
AcDbEntity
  8
0
  6
BYBLOCK
 62
     0
100
AcDbBlockReference
  2
_OPEN
 10
1488.278319
 20
-300.26422
 30
0.0
 41
25.0
 42
25.0
 43
25.0
  0
MTEXT
  5
D20
100
AcDbEntity
  8
0
  6
BYBLOCK
 62
     0
100
AcDbMText
 10
968.278319
 20
-282.26422
 30
0.0
 40
30.0
 41
0.0
 71
     5
 72
     1
  1
\A1;1040
  7
ED30
  0
POINT
  5
D21
100
AcDbEntity
  8
DEFPOINTS
  6
BYBLOCK
 62
     0
100
AcDbPoint
 10
448.278319
 20
-130.0
 30
0.0
  0
POINT
  5
D22
100
AcDbEntity
  8
DEFPOINTS
  6
BYBLOCK
 62
     0
100
AcDbPoint
 10
1488.278319
 20
-130.0
 30
0.0
  0
POINT
  5
D23
100
AcDbEntity
  8
DEFPOINTS
  6
BYBLOCK
 62
     0
100
AcDbPoint
 10
1488.278319
 20
-300.26422
 30
0.0
  0
ENDBLK
  5
D24
100
AcDbEntity
  8
0
100
AcDbBlockEnd
  0
BLOCK
  5
D26
100
AcDbEntity
  8
0
100
AcDbBlockBegin
  2
*D3
 70
     1
 10
0.0
 20
0.0
 30
0.0
  3
*D3
  1

  0
LINE
  5
D27
100
AcDbEntity
  8
0
  6
BYBLOCK
 62
     0
100
AcDbLine
 10
458.278319
 20
-149.629782
 30
0.0
 11
458.278319
 21
-249.261666
 31
0.0
  0
LINE
  5
D28
100
AcDbEntity
  8
0
  6
BYBLOCK
 62
     0
100
AcDbLine
 10
1478.278319
 20
-149.629782
 30
0.0
 11
1478.278319
 21
-249.261666
 31
0.0
  0
LINE
  5
D29
100
AcDbEntity
  8
0
  6
BYBLOCK
 62
     0
100
AcDbLine
 10
483.278319
 20
-248.011666
 30
0.0
 11
1453.278319
 21
-248.011666
 31
0.0
  0
INSERT
  5
D2A
100
AcDbEntity
  8
0
  6
BYBLOCK
 62
     0
100
AcDbBlockReference
  2
_OPEN
 10
458.278319
 20
-248.011666
 30
0.0
 41
25.0
 42
25.0
 43
25.0
 50
180.0
  0
INSERT
  5
D2B
100
AcDbEntity
  8
0
  6
BYBLOCK
 62
     0
100
AcDbBlockReference
  2
_OPEN
 10
1478.278319
 20
-248.011666
 30
0.0
 41
25.0
 42
25.0
 43
25.0
  0
MTEXT
  5
D2C
100
AcDbEntity
  8
0
  6
BYBLOCK
 62
     0
100
AcDbMText
 10
968.278319
 20
-230.008713
 30
0.0
 40
30.0
 41
0.0
 71
     5
 72
     1
  1
\A1;1020
  7
ED30
  0
POINT
  5
D2D
100
AcDbEntity
  8
DEFPOINTS
  6
BYBLOCK
 62
     0
100
AcDbPoint
 10
458.278319
 20
-148.629782
 30
0.0
  0
POINT
  5
D2E
100
AcDbEntity
  8
DEFPOINTS
  6
BYBLOCK
 62
     0
100
AcDbPoint
 10
1478.278319
 20
-148.629782
 30
0.0
  0
POINT
  5
D2F
100
AcDbEntity
  8
DEFPOINTS
  6
BYBLOCK
 62
     0
100
AcDbPoint
 10
1478.278319
 20
-248.011666
 30
0.0
  0
ENDBLK
  5
D30
100
AcDbEntity
  8
0
100
AcDbBlockEnd
  0
BLOCK
  5
D32
100
AcDbEntity
  8
0
100
AcDbBlockBegin
  2
*D4
 70
     1
 10
0.0
 20
0.0
 30
0.0
  3
*D4
  1

  0
LINE
  5
D33
100
AcDbEntity
  8
0
  6
BYBLOCK
 62
     0
100
AcDbLine
 10
468.278319
 20
-151.0
 30
0.0
 11
468.278319
 21
-202.814949
 31
0.0
  0
LINE
  5
D34
100
AcDbEntity
  8
0
  6
BYBLOCK
 62
     0
100
AcDbLine
 10
1468.278319
 20
-151.0
 30
0.0
 11
1468.278319
 21
-202.814949
 31
0.0
  0
LINE
  5
D35
100
AcDbEntity
  8
0
  6
BYBLOCK
 62
     0
100
AcDbLine
 10
493.278319
 20
-201.564949
 30
0.0
 11
1443.278319
 21
-201.564949
 31
0.0
  0
INSERT
  5
D36
100
AcDbEntity
  8
0
  6
BYBLOCK
 62
     0
100
AcDbBlockReference
  2
_OPEN
 10
468.278319
 20
-201.564949
 30
0.0
 41
25.0
 42
25.0
 43
25.0
 50
180.0
  0
INSERT
  5
D37
100
AcDbEntity
  8
0
  6
BYBLOCK
 62
     0
100
AcDbBlockReference
  2
_OPEN
 10
1468.278319
 20
-201.564949
 30
0.0
 41
25.0
 42
25.0
 43
25.0
  0
MTEXT
  5
D38
100
AcDbEntity
  8
0
  6
BYBLOCK
 62
     0
100
AcDbMText
 10
968.278319
 20
-183.564949
 30
0.0
 40
30.0
 41
0.0
 71
     5
 72
     1
  1
\A1;1000
  7
ED30
  0
POINT
  5
D39
100
AcDbEntity
  8
DEFPOINTS
  6
BYBLOCK
 62
     0
100
AcDbPoint
 10
468.278319
 20
-150.0
 30
0.0
  0
POINT
  5
D3A
100
AcDbEntity
  8
DEFPOINTS
  6
BYBLOCK
 62
     0
100
AcDbPoint
 10
1468.278319
 20
-150.0
 30
0.0
  0
POINT
  5
D3B
100
AcDbEntity
  8
DEFPOINTS
  6
BYBLOCK
 62
     0
100
AcDbPoint
 10
1468.278319
 20
-201.564949
 30
0.0
  0
ENDBLK
  5
D3C
100
AcDbEntity
  8
0
100
AcDbBlockEnd
  0
BLOCK
  5
D3E
100
AcDbEntity
  8
0
100
AcDbBlockBegin
  2
*D5
 70
     1
 10
0.0
 20
0.0
 30
0.0
  3
*D5
  1

  0
LINE
  5
D3F
100
AcDbEntity
  8
0
  6
BYBLOCK
 62
     0
100
AcDbLine
 10
1489.278319
 20
369.0
 30
0.0
 11
1536.103782
 21
369.0
 31
0.0
  0
LINE
  5
D40
100
AcDbEntity
  8
0
  6
BYBLOCK
 62
     0
100
AcDbLine
 10
1489.278319
 20
-129.0
 30
0.0
 11
1536.103782
 21
-129.0
 31
0.0
  0
LINE
  5
D41
100
AcDbEntity
  8
0
  6
BYBLOCK
 62
     0
100
AcDbLine
 10
1534.853782
 20
344.0
 30
0.0
 11
1534.853782
 21
-104.0
 31
0.0
  0
INSERT
  5
D42
100
AcDbEntity
  8
0
  6
BYBLOCK
 62
     0
100
AcDbBlockReference
  2
_OPEN
 10
1534.853782
 20
369.0
 30
0.0
 41
25.0
 42
25.0
 43
25.0
 50
90.0
  0
INSERT
  5
D43
100
AcDbEntity
  8
0
  6
BYBLOCK
 62
     0
100
AcDbBlockReference
  2
_OPEN
 10
1534.853782
 20
-129.0
 30
0.0
 41
25.0
 42
25.0
 43
25.0
 50
270.0
  0
MTEXT
  5
D44
100
AcDbEntity
  8
0
  6
BYBLOCK
 62
     0
100
AcDbMText
 10
1516.853782
 20
120.0
 30
0.0
 40
30.0
 41
0.0
 71
     5
 72
     1
  1
\A1;498
  7
ED30
 11
0.0
 21
1.0
 31
0.0
  0
POINT
  5
D45
100
AcDbEntity
  8
DEFPOINTS
  6
BYBLOCK
 62
     0
100
AcDbPoint
 10
1488.278319
 20
369.0
 30
0.0
  0
POINT
  5
D46
100
AcDbEntity
  8
DEFPOINTS
  6
BYBLOCK
 62
     0
100
AcDbPoint
 10
1488.278319
 20
-129.0
 30
0.0
  0
POINT
  5
D47
100
AcDbEntity
  8
DEFPOINTS
  6
BYBLOCK
 62
     0
100
AcDbPoint
 10
1534.853782
 20
-129.0
 30
0.0
  0
ENDBLK
  5
D48
100
AcDbEntity
  8
0
100
AcDbBlockEnd
  0
BLOCK
  5
D4A
100
AcDbEntity
  8
0
100
AcDbBlockBegin
  2
*D6
 70
     1
 10
0.0
 20
0.0
 30
0.0
  3
*D6
  1

  0
LINE
  5
D4B
100
AcDbEntity
  8
0
  6
BYBLOCK
 62
     0
100
AcDbLine
 10
1488.229163
 20
380.0
 30
0.0
 11
1579.677958
 21
380.0
 31
0.0
  0
LINE
  5
D4C
100
AcDbEntity
  8
0
  6
BYBLOCK
 62
     0
100
AcDbLine
 10
1489.278319
 20
-140.0
 30
0.0
 11
1579.677958
 21
-140.0
 31
0.0
  0
LINE
  5
D4D
100
AcDbEntity
  8
0
  6
BYBLOCK
 62
     0
100
AcDbLine
 10
1578.427958
 20
355.0
 30
0.0
 11
1578.427958
 21
-115.0
 31
0.0
  0
INSERT
  5
D4E
100
AcDbEntity
  8
0
  6
BYBLOCK
 62
     0
100
AcDbBlockReference
  2
_OPEN
 10
1578.427958
 20
380.0
 30
0.0
 41
25.0
 42
25.0
 43
25.0
 50
90.0
  0
INSERT
  5
D4F
100
AcDbEntity
  8
0
  6
BYBLOCK
 62
     0
100
AcDbBlockReference
  2
_OPEN
 10
1578.427958
 20
-140.0
 30
0.0
 41
25.0
 42
25.0
 43
25.0
 50
270.0
  0
MTEXT
  5
D50
100
AcDbEntity
  8
0
  6
BYBLOCK
 62
     0
100
AcDbMText
 10
1560.425005
 20
120.0
 30
0.0
 40
30.0
 41
0.0
 71
     5
 72
     1
  1
\A1;520
  7
ED30
 11
0.0
 21
1.0
 31
0.0
  0
POINT
  5
D51
100
AcDbEntity
  8
DEFPOINTS
  6
BYBLOCK
 62
     0
100
AcDbPoint
 10
1487.229163
 20
380.0
 30
0.0
  0
POINT
  5
D52
100
AcDbEntity
  8
DEFPOINTS
  6
BYBLOCK
 62
     0
100
AcDbPoint
 10
1488.278319
 20
-140.0
 30
0.0
  0
POINT
  5
D53
100
AcDbEntity
  8
DEFPOINTS
  6
BYBLOCK
 62
     0
100
AcDbPoint
 10
1578.427958
 20
-140.0
 30
0.0
  0
ENDBLK
  5
D54
100
AcDbEntity
  8
0
100
AcDbBlockEnd
  0
BLOCK
  5
D56
100
AcDbEntity
  8
0
100
AcDbBlockBegin
  2
*D7
 70
     1
 10
0.0
 20
0.0
 30
0.0
  3
*D7
  1

  0
LINE
  5
D57
100
AcDbEntity
  8
0
  6
BYBLOCK
 62
     0
100
AcDbLine
 10
1469.278319
 20
390.0
 30
0.0
 11
1620.347189
 21
390.0
 31
0.0
  0
LINE
  5
D58
100
AcDbEntity
  8
0
  6
BYBLOCK
 62
     0
100
AcDbLine
 10
1469.278319
 20
-150.0
 30
0.0
 11
1620.347189
 21
-150.0
 31
0.0
  0
LINE
  5
D59
100
AcDbEntity
  8
0
  6
BYBLOCK
 62
     0
100
AcDbLine
 10
1619.097189
 20
365.0
 30
0.0
 11
1619.097189
 21
-125.0
 31
0.0
  0
INSERT
  5
D5A
100
AcDbEntity
  8
0
  6
BYBLOCK
 62
     0
100
AcDbBlockReference
  2
_OPEN
 10
1619.097189
 20
390.0
 30
0.0
 41
25.0
 42
25.0
 43
25.0
 50
90.0
  0
INSERT
  5
D5B
100
AcDbEntity
  8
0
  6
BYBLOCK
 62
     0
100
AcDbBlockReference
  2
_OPEN
 10
1619.097189
 20
-150.0
 30
0.0
 41
25.0
 42
25.0
 43
25.0
 50
270.0
  0
MTEXT
  5
D5C
100
AcDbEntity
  8
0
  6
BYBLOCK
 62
     0
100
AcDbMText
 10
1601.097189
 20
120.0
 30
0.0
 40
30.0
 41
0.0
 71
     5
 72
     1
  1
\A1;540
  7
ED30
 11
0.0
 21
1.0
 31
0.0
  0
POINT
  5
D5D
100
AcDbEntity
  8
DEFPOINTS
  6
BYBLOCK
 62
     0
100
AcDbPoint
 10
1468.278319
 20
390.0
 30
0.0
  0
POINT
  5
D5E
100
AcDbEntity
  8
DEFPOINTS
  6
BYBLOCK
 62
     0
100
AcDbPoint
 10
1468.278319
 20
-150.0
 30
0.0
  0
POINT
  5
D5F
100
AcDbEntity
  8
DEFPOINTS
  6
BYBLOCK
 62
     0
100
AcDbPoint
 10
1619.097189
 20
-150.0
 30
0.0
  0
ENDBLK
  5
D60
100
AcDbEntity
  8
0
100
AcDbBlockEnd
  0
BLOCK
  5
DA3
100
AcDbEntity
  8
0
100
AcDbBlockBegin
  2
AROTOR
 70
     0
 10
0.0
 20
0.0
 30
0.0
  3
AROTOR
  1

  0
ARC
  5
DB5
100
AcDbEntity
  8
V0-VYPLNE
  6
DASHED
 62
    52
100
AcDbCircle
 10
183.488866
 20
-350.537996
 30
0.0
 40
595.669442
100
AcDbArc
 50
89.227405
 51
111.825582
  0
ARC
  5
DB6
100
AcDbEntity
  8
V0-VYPLNE
  6
DASHED
 62
    52
100
AcDbCircle
 10
97.003139
 20
-68.892063
 30
0.0
 40
303.043927
100
AcDbArc
 50
116.44849
 51
141.790666
  0
ARC
  5
DB7
100
AcDbEntity
  8
V0-VYPLNE
  6
DASHED
 62
    52
100
AcDbCircle
 10
-89.894799
 20
-51.140116
 30
0.0
 40
44.495532
100
AcDbArc
 50
257.175907
 51
309.010287
  0
ARC
  5
DB8
100
AcDbEntity
  8
V0-VYPLNE
  6
DASHED
 62
    52
100
AcDbCircle
 10
-101.298199
 20
-20.85812
 30
0.0
 40
44.495532
100
AcDbArc
 50
239.175907
 51
291.010287
  0
ARC
  5
DB9
100
AcDbEntity
  8
V0-VYPLNE
  6
DASHED
 62
    52
100
AcDbCircle
 10
-51.140116
 20
89.894799
 30
0.0
 40
44.495532
100
AcDbArc
 50
167.175907
 51
219.010287
  0
ARC
  5
DBA
100
AcDbEntity
  8
V0-VYPLNE
  6
DASHED
 62
    52
100
AcDbCircle
 10
0.0
 20
0.0
 30
0.0
 40
106.465069
100
AcDbArc
 50
91.687982
 51
89.730531
  0
CIRCLE
  5
DBB
100
AcDbEntity
  8
V0-VYPLNE
  6
DASHED
 62
    52
100
AcDbCircle
 10
0.0
 20
0.0
 30
0.0
 40
136.78334
  0
ARC
  5
DBC
100
AcDbEntity
  8
V0-VYPLNE
  6
DASHED
 62
    52
100
AcDbCircle
 10
-102.785826
 20
11.465614
 30
0.0
 40
44.495532
100
AcDbArc
 50
221.175907
 51
273.010287
  0
ARC
  5
DBD
100
AcDbEntity
  8
V0-VYPLNE
  6
DASHED
 62
    52
100
AcDbCircle
 10
110.67042
 20
7.654315
 30
0.0
 40
247.662789
100
AcDbArc
 50
192.990197
 51
193.153718
  0
ARC
  5
DBE
100
AcDbEntity
  8
V0-VYPLNE
  6
DASHED
 62
    52
100
AcDbCircle
 10
-76.416161
 20
69.691869
 30
0.0
 40
44.495532
100
AcDbArc
 50
185.175907
 51
237.010287
  0
ARC
  5
DBF
100
AcDbEntity
  8
V0-VYPLNE
  6
DASHED
 62
    52
100
AcDbCircle
 10
-94.21206
 20
42.667014
 30
0.0
 40
44.495532
100
AcDbArc
 50
203.175907
 51
255.010287
  0
ARC
  5
DC0
100
AcDbEntity
  8
V0-VYPLNE
  6
DASHED
 62
    52
100
AcDbCircle
 10
0.0
 20
0.0
 30
0.0
 40
143.919654
100
AcDbArc
 50
299.236959
 51
3.688819
  0
ARC
  5
DC1
100
AcDbEntity
  8
V0-VYPLNE
  6
DASHED
 62
    52
100
AcDbCircle
 10
94.21206
 20
-42.667014
 30
0.0
 40
44.495532
100
AcDbArc
 50
23.175907
 51
75.010287
  0
LINE
  5
DC2
100
AcDbEntity
  8
V0-VYPLNE
  6
DASHDOT
 62
    41
100
AcDbLine
 10
0.0
 20
0.0
 30
0.0
 11
0.0
 21
-34.564774
 31
0.0
  0
ARC
  5
DC3
100
AcDbEntity
  8
V0-VYPLNE
  6
DASHED
 62
    52
100
AcDbCircle
 10
51.140116
 20
-89.894799
 30
0.0
 40
44.495532
100
AcDbArc
 50
347.175907
 51
39.010287
  0
ARC
  5
DC4
100
AcDbEntity
  8
V0-VYPLNE
  6
DASHED
 62
    52
100
AcDbCircle
 10
-42.667014
 20
-94.21206
 30
0.0
 40
44.495532
100
AcDbArc
 50
293.175907
 51
345.010287
  0
ARC
  5
DC5
100
AcDbEntity
  8
V0-VYPLNE
  6
DASHED
 62
    52
100
AcDbCircle
 10
-69.691869
 20
-76.416161
 30
0.0
 40
44.495532
100
AcDbArc
 50
275.175907
 51
327.010287
  0
ARC
  5
DC6
100
AcDbEntity
  8
V0-VYPLNE
  6
DASHED
 62
    52
100
AcDbCircle
 10
-11.465614
 20
-102.785826
 30
0.0
 40
44.495532
100
AcDbArc
 50
311.175907
 51
3.010287
  0
ARC
  5
DC7
100
AcDbEntity
  8
V0-VYPLNE
  6
DASHED
 62
    52
100
AcDbCircle
 10
20.85812
 20
-101.298199
 30
0.0
 40
44.495532
100
AcDbArc
 50
329.175907
 51
21.010287
  0
ARC
  5
DC8
100
AcDbEntity
  8
V0-VYPLNE
  6
DASHED
 62
    52
100
AcDbCircle
 10
76.416161
 20
-69.691869
 30
0.0
 40
44.495532
100
AcDbArc
 50
5.175907
 51
57.010287
  0
ARC
  5
DC9
100
AcDbEntity
  8
V0-VYPLNE
  6
DASHED
 62
    52
100
AcDbCircle
 10
101.298199
 20
20.85812
 30
0.0
 40
44.495532
100
AcDbArc
 50
59.175907
 51
111.010287
  0
ARC
  5
DCA
100
AcDbEntity
  8
V0-VYPLNE
  6
DASHED
 62
    52
100
AcDbCircle
 10
89.894799
 20
51.140116
 30
0.0
 40
44.495532
100
AcDbArc
 50
77.175907
 51
129.010287
  0
ARC
  5
DCB
100
AcDbEntity
  8
V0-VYPLNE
  6
DASHED
 62
    52
100
AcDbCircle
 10
42.667014
 20
94.21206
 30
0.0
 40
44.495532
100
AcDbArc
 50
113.175907
 51
165.010287
  0
ARC
  5
DCC
100
AcDbEntity
  8
V0-VYPLNE
  6
DASHED
 62
    52
100
AcDbCircle
 10
11.465614
 20
102.785826
 30
0.0
 40
44.495532
100
AcDbArc
 50
131.175907
 51
183.010287
  0
ARC
  5
DCD
100
AcDbEntity
  8
V0-VYPLNE
  6
DASHED
 62
    52
100
AcDbCircle
 10
-20.85812
 20
101.298199
 30
0.0
 40
44.495532
100
AcDbArc
 50
149.175907
 51
201.010287
  0
ARC
  5
DCE
100
AcDbEntity
  8
V0-VYPLNE
  6
DASHED
 62
    52
100
AcDbCircle
 10
69.691869
 20
76.416161
 30
0.0
 40
44.495532
100
AcDbArc
 50
95.175907
 51
147.010287
  0
LINE
  5
DCF
100
AcDbEntity
  8
V0-VYPLNE
  6
DASHDOT
 62
    41
100
AcDbLine
 10
0.0
 20
0.0
 30
0.0
 11
28.300002
 21
0.0
 31
0.0
  0
LINE
  5
DD0
100
AcDbEntity
  8
V0-VYPLNE
  6
DASHDOT
 62
    52
100
AcDbLine
 10
0.0
 20
0.0
 30
0.0
 11
0.0
 21
34.564774
 31
0.0
  0
LINE
  5
DD1
100
AcDbEntity
  8
V0-VYPLNE
  6
DASHDOT
 62
    41
100
AcDbLine
 10
0.0
 20
0.0
 30
0.0
 11
-28.300002
 21
0.0
 31
0.0
  0
ARC
  5
DD2
100
AcDbEntity
  8
V0-VYPLNE
  6
DASHED
 62
    52
100
AcDbCircle
 10
102.785826
 20
-11.465614
 30
0.0
 40
44.495532
100
AcDbArc
 50
41.175907
 51
93.010287
  0
LINE
  5
DD3
100
AcDbEntity
  8
V0-VYPLNE
  6
DASHED
 62
    52
100
AcDbLine
 10
143.62148
 20
9.259441
 30
0.0
 11
143.62148
 21
28.612266
 31
0.0
  0
ARC
  5
DD4
100
AcDbEntity
  8
V0-VYPLNE
  6
DASHED
 62
    52
100
AcDbCircle
 10
151.837952
 20
30.047907
 30
0.0
 40
8.340952
100
AcDbArc
 50
0.0
 51
189.911078
  0
ARC
  5
DD5
100
AcDbEntity
  8
V0-VYPLNE
  6
DASHED
 62
    52
100
AcDbCircle
 10
-13.295909
 20
15.39813
 30
0.0
 40
163.901019
100
AcDbArc
 50
142.02389
 51
300.663833
  0
ENDBLK
  5
DA4
100
AcDbEntity
  8
0
100
AcDbBlockEnd
  0
BLOCK
  5
DAB
100
AcDbEntity
  8
0
100
AcDbBlockBegin
  2
AZNAK
 70
     0
 10
0.0
 20
0.0
 30
0.0
  3
AZNAK
  1

  0
LINE
  5
DA8
100
AcDbEntity
  8
V0-NAZVY
 62
   210
100
AcDbLine
 10
-24.212224
 20
-21.995765
 30
0.0
 11
29.715001
 21
-13.197458
 31
0.0
  0
LINE
  5
DA9
100
AcDbEntity
  8
V0-NAZVY
 62
   210
100
AcDbLine
 10
-24.212224
 20
21.995765
 30
0.0
 11
29.715001
 21
13.197458
 31
0.0
  0
CIRCLE
  5
DAA
100
AcDbEntity
  8
V0-NAZVY
 62
   210
100
AcDbCircle
 10
0.0
 20
0.0
 30
0.0
 40
33.029256
  0
ENDBLK
  5
DAC
100
AcDbEntity
  8
0
100
AcDbBlockEnd
  0
ENDSEC
  0
SECTION
  2
ENTITIES
  0
MTEXT
  5
5A9
100
AcDbEntity
  8
V0-ZBYTEK
 62
   130
100
AcDbMText
 10
1026.696352
 20
-635.962799
 30
0.0
 40
49.14
 41
1392.039324
 71
     5
 72
     5
  1
RADIALNI VENTILATOR 
  7
ED10
  0
MTEXT
  5
5AA
100
AcDbEntity
  8
V0-ZBYTEK
100
AcDbMText
 10
1021.101719
 20
-742.331174
 30
0.0
 40
35.1
 41
551.4054
 71
     5
 72
     5
  1
PRO CTYRHRANNE POTRUBI
  7
ED10
  0
MTEXT
  5
5AB
100
AcDbEntity
  8
V0-NAZVY
100
AcDbMText
 10
1004.175633
 20
-507.337039
 30
0.0
 40
87.75
 41
721.7982
 71
     5
 72
     5
  1
ILT 450
  7
ED10
  0
LINE
  5
5AD
100
AcDbEntity
  8
V0-OBRYS
100
AcDbLine
 10
-662.25108
 20
-150.002907
 30
0.0
 11
-657.25108
 21
-150.002907
 31
0.0
  0
LINE
  5
5AE
100
AcDbEntity
  8
V0-OBRYS
100
AcDbLine
 10
1488.278319
 20
-140.0
 30
0.0
 11
1488.278319
 21
380.0
 31
0.0
  0
LINE
  5
5AF
100
AcDbEntity
  8
V0-OBRYS
100
AcDbLine
 10
1478.278319
 20
390.0
 30
0.0
 11
458.278319
 21
390.0
 31
0.0
  0
LINE
  5
5B0
100
AcDbEntity
  8
V0-OBRYS
100
AcDbLine
 10
448.278319
 20
380.0
 30
0.0
 11
448.278319
 21
-140.0
 31
0.0
  0
LINE
  5
5B1
100
AcDbEntity
  8
V0-OBRYS
100
AcDbLine
 10
468.278319
 20
390.0
 30
0.0
 11
468.278319
 21
-150.0
 31
0.0
  0
LINE
  5
5B2
100
AcDbEntity
  8
V0-OBRYS
100
AcDbLine
 10
1488.278319
 20
369.0
 30
0.0
 11
448.278319
 21
369.0
 31
0.0
  0
LINE
  5
5B3
100
AcDbEntity
  8
V0-OBRYS
100
AcDbLine
 10
1468.278319
 20
-150.0
 30
0.0
 11
1468.278319
 21
390.0
 31
0.0
  0
LINE
  5
5B4
100
AcDbEntity
  8
V0-OBRYS
100
AcDbLine
 10
448.278319
 20
-129.0
 30
0.0
 11
1488.278319
 21
-129.0
 31
0.0
  0
ARC
  5
5B5
100
AcDbEntity
  8
V0-OBRYS
100
AcDbCircle
 10
458.278319
 20
-140.0
 30
0.0
 40
10.0
100
AcDbArc
 50
180.0
 51
270.0
  0
ARC
  5
5B6
100
AcDbEntity
  8
V0-OBRYS
100
AcDbCircle
 10
458.278319
 20
380.0
 30
0.0
 40
10.0
100
AcDbArc
 50
90.0
 51
180.0
  0
ARC
  5
5B7
100
AcDbEntity
  8
V0-OBRYS
100
AcDbCircle
 10
1478.278319
 20
380.0
 30
0.0
 40
10.0
100
AcDbArc
 50
0.0
 51
90.0
  0
ARC
  5
5B8
100
AcDbEntity
  8
V0-OBRYS
100
AcDbCircle
 10
1478.278319
 20
-140.0
 30
0.0
 40
10.0
100
AcDbArc
 50
270.0
 51
0.0
  0
LINE
  5
5D4
100
AcDbEntity
  8
V0-OBRYS
100
AcDbLine
 10
483.451797
 20
206.817424
 30
0.0
 11
483.451797
 21
-129.825678
 31
0.0
  0
CIRCLE
  5
5D5
100
AcDbEntity
  8
V0-OBRYS
100
AcDbCircle
 10
458.278319
 20
-140.0
 30
0.0
 40
4.5
  0
LINE
  5
5D6
100
AcDbEntity
  8
V0-VYPLNE
100
AcDbLine
 10
-669.302256
 20
-140.002907
 30
0.0
 11
-648.30075
 21
-140.002907
 31
0.0
  0
LINE
  5
5D7
100
AcDbEntity
  8
V0-VYPLNE
100
AcDbLine
 10
464.045008
 20
-140.0
 30
0.0
 11
467.305222
 21
-140.0
 31
0.0
  0
LINE
  5
5D8
100
AcDbEntity
  8
V0-VYPLNE
100
AcDbLine
 10
458.278319
 20
-148.629782
 30
0.0
 11
458.278319
 21
-130.94382
 31
0.0
  0
LINE
  5
5D9
100
AcDbEntity
  8
V0-VYPLNE
100
AcDbLine
 10
-669.302256
 20
379.997093
 30
0.0
 11
-648.30075
 21
379.997093
 31
0.0
  0
LINE
  5
5DA
100
AcDbEntity
  8
V0-VYPLNE
100
AcDbLine
 10
458.278319
 20
388.629782
 30
0.0
 11
458.278319
 21
370.94382
 31
0.0
  0
CIRCLE
  5
5DB
100
AcDbEntity
  8
V0-OBRYS
100
AcDbCircle
 10
458.278319
 20
380.0
 30
0.0
 40
4.5
  0
CIRCLE
  5
5DC
100
AcDbEntity
  8
V0-OBRYS
100
AcDbCircle
 10
1478.278319
 20
379.0
 30
0.0
 40
4.5
  0
LINE
  5
5DD
100
AcDbEntity
  8
V0-VYPLNE
100
AcDbLine
 10
1478.278319
 20
387.629782
 30
0.0
 11
1478.278319
 21
369.94382
 31
0.0
  0
LINE
  5
5DE
100
AcDbEntity
  8
V0-VYPLNE
100
AcDbLine
 10
1487.229163
 20
379.0
 30
0.0
 11
1472.511629
 21
379.0
 31
0.0
  0
LINE
  5
5DF
100
AcDbEntity
  8
V0-VYPLNE
100
AcDbLine
 10
1487.229163
 20
-139.0
 30
0.0
 11
1472.511629
 21
-139.0
 31
0.0
  0
LINE
  5
5E0
100
AcDbEntity
  8
V0-VYPLNE
100
AcDbLine
 10
1478.278319
 20
-147.629782
 30
0.0
 11
1478.278319
 21
-129.94382
 31
0.0
  0
CIRCLE
  5
5E1
100
AcDbEntity
  8
V0-OBRYS
100
AcDbCircle
 10
1478.278319
 20
-139.0
 30
0.0
 40
4.5
  0
LINE
  5
5E2
100
AcDbEntity
  8
V0-VYPLNE
100
AcDbLine
 10
1472.511629
 20
-139.0
 30
0.0
 11
1469.251416
 21
-139.0
 31
0.0
  0
LINE
  5
5E8
100
AcDbEntity
  8
V0-OBRYS
100
AcDbLine
 10
322.74892
 20
-150.002907
 30
0.0
 11
322.74892
 21
389.997093
 31
0.0
  0
LINE
  5
5E9
100
AcDbEntity
  8
V0-OBRYS
100
AcDbLine
 10
-662.25108
 20
-150.002907
 30
0.0
 11
-662.25108
 21
389.997093
 31
0.0
  0
LINE
  5
5EC
100
AcDbEntity
  8
V0-OBRYS
100
AcDbLine
 10
322.74892
 20
389.997093
 30
0.0
 11
317.74892
 21
389.997093
 31
0.0
  0
LINE
  5
5ED
100
AcDbEntity
  8
V0-OBRYS
100
AcDbLine
 10
458.278319
 20
-150.0
 30
0.0
 11
1478.278319
 21
-150.0
 31
0.0
  0
LINE
  5
5EE
100
AcDbEntity
  8
V0-OBRYS
100
AcDbLine
 10
317.74892
 20
369.997093
 30
0.0
 11
-657.25108
 21
369.997093
 31
0.0
  0
LINE
  5
5EF
100
AcDbEntity
  8
V0-OBRYS
100
AcDbLine
 10
-657.25108
 20
-130.002907
 30
0.0
 11
317.74892
 21
-130.002907
 31
0.0
  0
LINE
  5
5F1
100
AcDbEntity
  8
V0-OBRYS
100
AcDbLine
 10
-657.25108
 20
-150.002907
 30
0.0
 11
-657.25108
 21
389.997093
 31
0.0
  0
LINE
  5
5F2
100
AcDbEntity
  8
V0-OBRYS
100
AcDbLine
 10
317.74892
 20
-150.002907
 30
0.0
 11
317.74892
 21
389.997093
 31
0.0
  0
LINE
  5
5F3
100
AcDbEntity
  8
V0-OBRYS
100
AcDbLine
 10
-657.25108
 20
389.997093
 30
0.0
 11
-662.25108
 21
389.997093
 31
0.0
  0
LINE
  5
5F4
100
AcDbEntity
  8
V0-OBRYS
100
AcDbLine
 10
317.74892
 20
-150.002907
 30
0.0
 11
322.74892
 21
-150.002907
 31
0.0
  0
LINE
  5
5F7
100
AcDbEntity
  8
V0-VYPLNE
100
AcDbLine
 10
442.947673
 20
380.0
 30
0.0
 11
464.045008
 21
380.0
 31
0.0
  0
LINE
  5
5F8
100
AcDbEntity
  8
V0-VYPLNE
100
AcDbLine
 10
442.947673
 20
-140.0
 30
0.0
 11
464.045008
 21
-140.0
 31
0.0
  0
LINE
  5
5F9
100
AcDbEntity
  8
V0-VYPLNE
100
AcDbLine
 10
310.915406
 20
379.997093
 30
0.0
 11
330.007683
 21
379.997093
 31
0.0
  0
LINE
  5
5FA
100
AcDbEntity
  8
V0-VYPLNE
100
AcDbLine
 10
309.96079
 20
-140.002907
 30
0.0
 11
328.098454
 21
-140.002907
 31
0.0
  0
LINE
  5
5FB
100
AcDbEntity
  8
V0-OBRYS
100
AcDbLine
 10
317.74892
 20
-1291.388952
 30
0.0
 11
317.74892
 21
-251.388952
 31
0.0
  0
LINE
  5
5FC
100
AcDbEntity
  8
V0-OBRYS
100
AcDbLine
 10
-657.25108
 20
-1291.388952
 30
0.0
 11
-657.25108
 21
-251.388952
 31
0.0
  0
LINE
  5
5FD
100
AcDbEntity
  8
V0-OBRYS
100
AcDbLine
 10
-662.25108
 20
-1291.388952
 30
0.0
 11
-662.25108
 21
-251.388952
 31
0.0
  0
LINE
  5
5FE
100
AcDbEntity
  8
V0-OBRYS
100
AcDbLine
 10
322.74892
 20
-1291.388952
 30
0.0
 11
322.74892
 21
-251.388952
 31
0.0
  0
LINE
  5
5FF
100
AcDbEntity
  8
V0-OBRYS
100
AcDbLine
 10
-662.25108
 20
-1291.388952
 30
0.0
 11
-657.25108
 21
-1291.388952
 31
0.0
  0
LINE
  5
600
100
AcDbEntity
  8
V0-OBRYS
100
AcDbLine
 10
317.74892
 20
-1291.388952
 30
0.0
 11
322.74892
 21
-1291.388952
 31
0.0
  0
LINE
  5
601
100
AcDbEntity
  8
V0-OBRYS
100
AcDbLine
 10
-657.25108
 20
-1271.388952
 30
0.0
 11
317.74892
 21
-1271.388952
 31
0.0
  0
LINE
  5
602
100
AcDbEntity
  8
V0-OBRYS
100
AcDbLine
 10
317.74892
 20
-271.388952
 30
0.0
 11
-657.25108
 21
-271.388952
 31
0.0
  0
LINE
  5
603
100
AcDbEntity
  8
V0-VYPLNE
100
AcDbLine
 10
-669.302256
 20
-1281.388952
 30
0.0
 11
-648.30075
 21
-1281.388952
 31
0.0
  0
LINE
  5
604
100
AcDbEntity
  8
V0-VYPLNE
100
AcDbLine
 10
-669.302256
 20
-261.388952
 30
0.0
 11
-648.30075
 21
-261.388952
 31
0.0
  0
LINE
  5
605
100
AcDbEntity
  8
V0-OBRYS
100
AcDbLine
 10
-657.25108
 20
-251.388952
 30
0.0
 11
-662.25108
 21
-251.388952
 31
0.0
  0
LINE
  5
606
100
AcDbEntity
  8
V0-VYPLNE
100
AcDbLine
 10
309.96079
 20
-1281.388952
 30
0.0
 11
328.098454
 21
-1281.388952
 31
0.0
  0
LINE
  5
607
100
AcDbEntity
  8
V0-VYPLNE
100
AcDbLine
 10
310.915406
 20
-261.388952
 30
0.0
 11
330.007683
 21
-261.388952
 31
0.0
  0
LINE
  5
608
100
AcDbEntity
  8
V0-OBRYS
100
AcDbLine
 10
322.74892
 20
-251.388952
 30
0.0
 11
317.74892
 21
-251.388952
 31
0.0
  0
MTEXT
  5
63C
100
AcDbEntity
  8
V0-ZBYTEK
 62
   130
100
AcDbMText
 10
984.857171
 20
425.438032
 30
0.0
 40
21.0
 41
594.8886
 71
     5
 72
     5
  1
POHLED NA VYSTUPNI STRANU
  7
ED10
  0
DIMENSION
  5
67D
100
AcDbEntity
  8
V0-VYPLNE
  6
CONTINUOUS
100
AcDbDimension
  2
*D1
 10
322.74892
 20
418.535366
 30
0.0
 11
-184.75108
 21
418.535366
 31
0.0
 70
   160
  3
ED30
100
AcDbAlignedDimension
 13
-662.25108
 23
389.997093
 33
0.0
 14
322.74892
 24
390.997093
 34
0.0
100
AcDbRotatedDimension
1001
ACAD
1000
DSTYLE
1002
{
1070
   340
1005
B56
1070
   147
1040
3.0
1002
}
  0
DIMENSION
  5
695
100
AcDbEntity
  8
V0-VYPLNE
  6
CONTINUOUS
100
AcDbDimension
  2
*D7
 10
1619.097189
 20
-150.0
 30
0.0
 11
1619.097189
 21
120.0
 31
0.0
 70
   160
  3
ED30
100
AcDbAlignedDimension
 13
1468.278319
 23
390.0
 33
0.0
 14
1468.278319
 24
-150.0
 34
0.0
 50
90.0
100
AcDbRotatedDimension
1001
ACAD
1000
DSTYLE
1002
{
1070
   340
1005
B56
1070
   147
1040
3.0
1002
}
  0
DIMENSION
  5
6A2
100
AcDbEntity
  8
V0-VYPLNE
  6
CONTINUOUS
100
AcDbDimension
  2
*D6
 10
1578.427958
 20
-140.0
 30
0.0
 11
1578.427958
 21
120.0
 31
0.0
 70
   160
  3
ED30
100
AcDbAlignedDimension
 13
1487.229163
 23
380.0
 33
0.0
 14
1488.278319
 24
-140.0
 34
0.0
 50
90.0
100
AcDbRotatedDimension
1001
ACAD
1000
DSTYLE
1002
{
1070
   340
1005
B56
1070
   147
1040
3.0
1002
}
  0
DIMENSION
  5
6BC
100
AcDbEntity
  8
V0-VYPLNE
  6
CONTINUOUS
100
AcDbDimension
  2
*D4
 10
1468.278319
 20
-201.564949
 30
0.0
 11
968.278319
 21
-201.564949
 31
0.0
 70
   160
  3
ED30
100
AcDbAlignedDimension
 13
468.278319
 23
-150.0
 33
0.0
 14
1468.278319
 24
-150.0
 34
0.0
100
AcDbRotatedDimension
1001
ACAD
1000
DSTYLE
1002
{
1070
   340
1005
B56
1070
   147
1040
3.0
1002
}
  0
DIMENSION
  5
6C9
100
AcDbEntity
  8
V0-VYPLNE
  6
CONTINUOUS
100
AcDbDimension
  2
*D3
 10
1478.278319
 20
-248.011666
 30
0.0
 11
968.278319
 21
-248.011666
 31
0.0
 70
   160
  3
ED30
100
AcDbAlignedDimension
 13
458.278319
 23
-148.629782
 33
0.0
 14
1478.278319
 24
-148.629782
 34
0.0
100
AcDbRotatedDimension
1001
ACAD
1000
DSTYLE
1002
{
1070
   340
1005
B56
1070
   147
1040
3.0
1002
}
  0
DIMENSION
  5
6D6
100
AcDbEntity
  8
V0-VYPLNE
  6
CONTINUOUS
100
AcDbDimension
  2
*D2
 10
1488.278319
 20
-300.26422
 30
0.0
 11
968.278319
 21
-300.26422
 31
0.0
 70
   160
  3
ED30
100
AcDbAlignedDimension
 13
448.278319
 23
-130.0
 33
0.0
 14
1488.278319
 24
-130.0
 34
0.0
100
AcDbRotatedDimension
1001
ACAD
1000
DSTYLE
1002
{
1070
   340
1005
B56
1070
   147
1040
3.0
1002
}
  0
LINE
  5
6D7
100
AcDbEntity
  8
V0-VYPLNE
  6
CONTINUOUS
100
AcDbLine
 10
-449.155068
 20
117.30322
 30
0.0
 11
-265.267589
 21
117.30322
 31
0.0
  0
LINE
  5
6D8
100
AcDbEntity
  8
V0-VYPLNE
  6
CONTINUOUS
100
AcDbLine
 10
-318.133754
 20
138.476513
 30
0.0
 11
-265.267589
 21
117.30322
 31
0.0
  0
LINE
  5
6D9
100
AcDbEntity
  8
V0-VYPLNE
  6
CONTINUOUS
100
AcDbLine
 10
-318.133754
 20
96.129927
 30
0.0
 11
-265.267589
 21
117.30322
 31
0.0
  0
POINT
  5
6DB
100
AcDbEntity
  8
V0-VYPLNE
100
AcDbPoint
 10
-662.25108
 20
119.997093
 30
0.0
  0
POINT
  5
6DC
100
AcDbEntity
  8
V0-VYPLNE
100
AcDbPoint
 10
-662.25108
 20
-771.388952
 30
0.0
  0
LINE
  5
6E1
100
AcDbEntity
  8
V0-VYPLNE
  6
CONTINUOUS
100
AcDbLine
 10
-123.130165
 20
-749.488961
 30
0.0
 11
-70.264
 21
-770.662254
 31
0.0
  0
LINE
  5
6E2
100
AcDbEntity
  8
V0-VYPLNE
  6
CONTINUOUS
100
AcDbLine
 10
-254.151479
 20
-770.662254
 30
0.0
 11
-70.264
 21
-770.662254
 31
0.0
  0
LINE
  5
6E3
100
AcDbEntity
  8
V0-VYPLNE
  6
CONTINUOUS
100
AcDbLine
 10
-123.130165
 20
-791.835547
 30
0.0
 11
-70.264
 21
-770.662254
 31
0.0
  0
MTEXT
  5
6E8
100
AcDbEntity
  8
V0-NAZVY
100
AcDbMText
 10
-186.541239
 20
282.884493
 30
0.0
 40
84.375
 41
694.0368
 71
     5
 72
     5
  1
ILT 450
  7
ED10
  0
MTEXT
  5
6E9
100
AcDbEntity
  8
V0-NAZVY
100
AcDbMText
 10
-439.519619
 20
-357.332055
 30
0.0
 40
84.375
 41
694.0368
 71
     5
 72
     5
  1
ILT 450
  7
ED10
  0
MTEXT
  5
6EA
100
AcDbEntity
  8
V0-NAZVY
100
AcDbMText
 10
1026.046682
 20
290.309348
 30
0.0
 40
84.375
 41
694.0368
 71
     5
 72
     5
  1
ILT 450
  7
ED10
  0
LEADER
  5
6F1
100
AcDbEntity
  8
V0-VYPLNE
100
AcDbLeader
  3
ED30
 73
     0
 75
     1
 40
20.0
 41
27.43187
 76
     3
 10
454.909814
 20
376.924337
 30
0.0
 10
442.82661
 20
331.716697
 30
0.0
 10
417.82661
 20
331.716697
 30
0.0
 77
   256
340
6F2
1001
ACAD
1000
DSTYLE
1002
{
1070
   340
1005
B56
1070
   147
1040
3.0
1002
}
  0
MTEXT
  5
6F2
102
{ACAD_REACTORS
330
6F1
102
}
100
AcDbEntity
  8
V0-VYPLNE
100
AcDbMText
 10
414.82661
 20
344.716697
 30
0.0
 40
20.0
 41
0.0
 71
     6
 72
     1
  1
\A1;%%c9
  7
ED20
  0
DIMENSION
  5
7C0
100
AcDbEntity
  8
V0-VYPLNE
  6
CONTINUOUS
 62
    41
100
AcDbDimension
  2
*D5
 10
1534.853782
 20
-129.0
 30
0.0
 11
1534.853782
 21
120.0
 31
0.0
 70
   160
  3
ED30
100
AcDbAlignedDimension
 13
1488.278319
 23
369.0
 33
0.0
 14
1488.278319
 24
-129.0
 34
0.0
 50
90.0
100
AcDbRotatedDimension
1001
ACAD
1000
DSTYLE
1002
{
1070
   340
1005
B56
1070
   147
1040
3.0
1002
}
  0
LINE
  5
908
100
AcDbEntity
  8
V0-OBRYS
100
AcDbLine
 10
468.278319
 20
207.545409
 30
0.0
 11
1468.278319
 21
207.545409
 31
0.0
  0
LINE
  5
A4D
100
AcDbEntity
  8
V0-OBRYS
100
AcDbLine
 10
1012.279258
 20
207.229808
 30
0.0
 11
1012.279258
 21
-129.0
 31
0.0
  0
LINE
  5
CAD
100
AcDbEntity
  8
V0-VYPLNE
  6
CONTINUOUS
 62
    52
100
AcDbLine
 10
1239.090798
 20
148.195282
 30
0.0
 11
1239.090798
 21
-115.295308
 31
0.0
  0
LINE
  5
CAE
100
AcDbEntity
  8
V0-OBRYS
100
AcDbLine
 10
1281.449945
 20
-115.295308
 30
0.0
 11
1281.449945
 21
148.195282
 31
0.0
  0
LINE
  5
CAF
100
AcDbEntity
  8
V0-VYPLNE
  6
CONTINUOUS
 62
    52
100
AcDbLine
 10
1182.602178
 20
148.195282
 30
0.0
 11
1182.602178
 21
-115.295308
 31
0.0
  0
LINE
  5
CB0
100
AcDbEntity
  8
V0-VYPLNE
  6
CONTINUOUS
 62
    52
100
AcDbLine
 10
1119.696743
 20
148.195282
 30
0.0
 11
1119.696743
 21
-115.295308
 31
0.0
  0
LINE
  5
CB1
100
AcDbEntity
  8
V0-VYPLNE
  6
CONTINUOUS
 62
    52
100
AcDbLine
 10
1041.207654
 20
148.195282
 30
0.0
 11
1041.207654
 21
-115.295308
 31
0.0
  0
LINE
  5
CB2
100
AcDbEntity
  8
V0-OBRYS
100
AcDbLine
 10
1012.279258
 20
-115.295308
 30
0.0
 11
1281.449945
 21
-115.295308
 31
0.0
  0
LINE
  5
CB3
100
AcDbEntity
  8
V0-OBRYS
100
AcDbLine
 10
1281.449945
 20
148.195282
 30
0.0
 11
1012.279258
 21
148.195282
 31
0.0
  0
LINE
  5
CB4
100
AcDbEntity
  8
V0-OBRYS
100
AcDbLine
 10
1012.279258
 20
161.830954
 30
0.0
 11
1097.113764
 21
161.830954
 31
0.0
  0
LINE
  5
CB5
100
AcDbEntity
  8
V0-OBRYS
100
AcDbLine
 10
1055.141624
 20
161.830954
 30
0.0
 11
1055.141624
 21
148.195282
 31
0.0
  0
POINT
  5
CE3
100
AcDbEntity
  8
V0-VYPLNE
100
AcDbPoint
 10
968.278319
 20
120.0
 30
0.0
  0
ARC
  5
D83
100
AcDbEntity
  8
V0-OBRYS
100
AcDbCircle
 10
1187.203559
 20
98.424074
 30
0.0
 40
110.166254
100
AcDbArc
 50
95.173315
 51
144.861401
  0
INSERT
  5
DAD
100
AcDbEntity
  8
V0-OBRYS
100
AcDbBlockReference
  2
AZNAK
 10
178.263793
 20
-392.914968
 30
0.0
 41
2.0
 42
2.0
 43
2.0
  0
INSERT
  5
DAE
100
AcDbEntity
  8
V0-OBRYS
100
AcDbBlockReference
  2
AZNAK
 10
-14.906664
 20
113.132586
 30
0.0
 41
2.0
 42
2.0
 43
2.0
  0
INSERT
  5
DAF
100
AcDbEntity
  8
V0-OBRYS
100
AcDbBlockReference
  2
AZNAK
 10
742.370587
 20
56.457168
 30
0.0
 41
2.0
 42
2.0
 43
2.0
  0
ARC
  5
DD8
100
AcDbEntity
  8
V0-VYPLNE
  6
DASHED
 62
    52
 48
3.0
100
AcDbCircle
 10
294.387878
 20
-1769.370199
 30
0.0
 40
1489.173604
100
AcDbArc
 50
89.227405
 51
111.825582
  0
ARC
  5
DD9
100
AcDbEntity
  8
V0-VYPLNE
  6
DASHED
 62
    52
 48
3.0
100
AcDbCircle
 10
78.173561
 20
-1065.255369
 30
0.0
 40
757.609818
100
AcDbArc
 50
116.44849
 51
141.790666
  0
ARC
  5
DDA
100
AcDbEntity
  8
V0-VYPLNE
  6
DASHED
 62
    52
 48
3.0
100
AcDbCircle
 10
-389.071284
 20
-1020.875501
 30
0.0
 40
111.238831
100
AcDbArc
 50
257.175907
 51
309.010287
  0
ARC
  5
DDB
100
AcDbEntity
  8
V0-VYPLNE
  6
DASHED
 62
    52
 48
3.0
100
AcDbCircle
 10
-417.579785
 20
-945.170511
 30
0.0
 40
111.238831
100
AcDbArc
 50
239.175907
 51
291.010287
  0
ARC
  5
DDC
100
AcDbEntity
  8
V0-VYPLNE
  6
DASHED
 62
    52
 48
3.0
100
AcDbCircle
 10
-292.184578
 20
-668.288213
 30
0.0
 40
111.238831
100
AcDbArc
 50
167.175907
 51
219.010287
  0
ARC
  5
DDD
100
AcDbEntity
  8
V0-VYPLNE
  6
DASHED
 62
    52
 48
3.0
100
AcDbCircle
 10
-164.334287
 20
-893.02521
 30
0.0
 40
266.162674
100
AcDbArc
 50
91.687982
 51
89.730531
  0
CIRCLE
  5
DDE
100
AcDbEntity
  8
V0-VYPLNE
  6
DASHED
 62
    52
 48
3.0
100
AcDbCircle
 10
-164.334287
 20
-893.02521
 30
0.0
 40
341.958349
  0
ARC
  5
DDF
100
AcDbEntity
  8
V0-VYPLNE
  6
DASHED
 62
    52
 48
3.0
100
AcDbCircle
 10
-421.298852
 20
-864.361176
 30
0.0
 40
111.238831
100
AcDbArc
 50
221.175907
 51
273.010287
  0
ARC
  5
DE0
100
AcDbEntity
  8
V0-VYPLNE
  6
DASHED
 62
    52
 48
3.0
100
AcDbCircle
 10
112.341763
 20
-873.889422
 30
0.0
 40
619.156971
100
AcDbArc
 50
192.990197
 51
193.153718
  0
ARC
  5
DE1
100
AcDbEntity
  8
V0-VYPLNE
  6
DASHED
 62
    52
 48
3.0
100
AcDbCircle
 10
-355.374691
 20
-718.795537
 30
0.0
 40
111.238831
100
AcDbArc
 50
185.175907
 51
237.010287
  0
ARC
  5
DE2
100
AcDbEntity
  8
V0-VYPLNE
  6
DASHED
 62
    52
 48
3.0
100
AcDbCircle
 10
-399.864438
 20
-786.357676
 30
0.0
 40
111.238831
100
AcDbArc
 50
203.175907
 51
255.010287
  0
ARC
  5
DE3
100
AcDbEntity
  8
V0-VYPLNE
  6
DASHED
 62
    52
 48
3.0
100
AcDbCircle
 10
-164.334287
 20
-893.02521
 30
0.0
 40
359.799135
100
AcDbArc
 50
299.236959
 51
3.688819
  0
ARC
  5
DE4
100
AcDbEntity
  8
V0-VYPLNE
  6
DASHED
 62
    52
 48
3.0
100
AcDbCircle
 10
71.195863
 20
-999.692744
 30
0.0
 40
111.238831
100
AcDbArc
 50
23.175907
 51
75.010287
  0
LINE
  5
DE5
100
AcDbEntity
  8
V0-VYPLNE
  6
DASHDOT
 62
    63
 48
3.0
100
AcDbLine
 10
-164.334287
 20
-893.02521
 30
0.0
 11
-164.334287
 21
-979.437145
 31
0.0
  0
ARC
  5
DE6
100
AcDbEntity
  8
V0-VYPLNE
  6
DASHED
 62
    52
 48
3.0
100
AcDbCircle
 10
-36.483996
 20
-1117.762207
 30
0.0
 40
111.238831
100
AcDbArc
 50
347.175907
 51
39.010287
  0
ARC
  5
DE7
100
AcDbEntity
  8
V0-VYPLNE
  6
DASHED
 62
    52
 48
3.0
100
AcDbCircle
 10
-271.001821
 20
-1128.55536
 30
0.0
 40
111.238831
100
AcDbArc
 50
293.175907
 51
345.010287
  0
ARC
  5
DE8
100
AcDbEntity
  8
V0-VYPLNE
  6
DASHED
 62
    52
 48
3.0
100
AcDbCircle
 10
-338.56396
 20
-1084.065614
 30
0.0
 40
111.238831
100
AcDbArc
 50
275.175907
 51
327.010287
  0
ARC
  5
DE9
100
AcDbEntity
  8
V0-VYPLNE
  6
DASHED
 62
    52
 48
3.0
100
AcDbCircle
 10
-192.998321
 20
-1149.989775
 30
0.0
 40
111.238831
100
AcDbArc
 50
311.175907
 51
3.010287
  0
ARC
  5
DEA
100
AcDbEntity
  8
V0-VYPLNE
  6
DASHED
 62
    52
 48
3.0
100
AcDbCircle
 10
-112.188986
 20
-1146.270708
 30
0.0
 40
111.238831
100
AcDbArc
 50
329.175907
 51
21.010287
  0
ARC
  5
DEB
100
AcDbEntity
  8
V0-VYPLNE
  6
DASHED
 62
    52
 48
3.0
100
AcDbCircle
 10
26.706116
 20
-1067.254883
 30
0.0
 40
111.238831
100
AcDbArc
 50
5.175907
 51
57.010287
  0
ARC
  5
DEC
100
AcDbEntity
  8
V0-VYPLNE
  6
DASHED
 62
    52
 48
3.0
100
AcDbCircle
 10
88.911211
 20
-840.879909
 30
0.0
 40
111.238831
100
AcDbArc
 50
59.175907
 51
111.010287
  0
ARC
  5
DED
100
AcDbEntity
  8
V0-VYPLNE
  6
DASHED
 62
    52
 48
3.0
100
AcDbCircle
 10
60.40271
 20
-765.174919
 30
0.0
 40
111.238831
100
AcDbArc
 50
77.175907
 51
129.010287
  0
ARC
  5
DEE
100
AcDbEntity
  8
V0-VYPLNE
  6
DASHED
 62
    52
 48
3.0
100
AcDbCircle
 10
-57.666753
 20
-657.49506
 30
0.0
 40
111.238831
100
AcDbArc
 50
113.175907
 51
165.010287
  0
ARC
  5
DEF
100
AcDbEntity
  8
V0-VYPLNE
  6
DASHED
 62
    52
 48
3.0
100
AcDbCircle
 10
-135.670253
 20
-636.060645
 30
0.0
 40
111.238831
100
AcDbArc
 50
131.175907
 51
183.010287
  0
ARC
  5
DF0
100
AcDbEntity
  8
V0-VYPLNE
  6
DASHED
 62
    52
 48
3.0
100
AcDbCircle
 10
-216.479588
 20
-639.779712
 30
0.0
 40
111.238831
100
AcDbArc
 50
149.175907
 51
201.010287
  0
ARC
  5
DF1
100
AcDbEntity
  8
V0-VYPLNE
  6
DASHED
 62
    52
 48
3.0
100
AcDbCircle
 10
9.895386
 20
-701.984806
 30
0.0
 40
111.238831
100
AcDbArc
 50
95.175907
 51
147.010287
  0
LINE
  5
DF3
100
AcDbEntity
  8
V0-VYPLNE
  6
DASHDOT
 62
    63
 48
3.0
100
AcDbLine
 10
-164.334287
 20
-893.02521
 30
0.0
 11
-164.334287
 21
-806.613275
 31
0.0
  0
LINE
  5
DF4
100
AcDbEntity
  8
V0-VYPLNE
  6
DASHDOT
 62
    63
 48
3.0
100
AcDbLine
 10
-87.899916
 20
-893.02521
 30
0.0
 11
-235.084293
 21
-893.02521
 31
0.0
  0
ARC
  5
DF5
100
AcDbEntity
  8
V0-VYPLNE
  6
DASHED
 62
    52
 48
3.0
100
AcDbCircle
 10
92.630278
 20
-921.689244
 30
0.0
 40
111.238831
100
AcDbArc
 50
41.175907
 51
93.010287
  0
LINE
  5
DF6
100
AcDbEntity
  8
V0-VYPLNE
  6
DASHED
 62
    52
 48
3.0
100
AcDbLine
 10
194.719414
 20
-869.876607
 30
0.0
 11
194.719414
 21
-821.494546
 31
0.0
  0
ARC
  5
DF7
100
AcDbEntity
  8
V0-VYPLNE
  6
DASHED
 62
    52
 48
3.0
100
AcDbCircle
 10
215.260593
 20
-817.905443
 30
0.0
 40
20.852379
100
AcDbArc
 50
0.0
 51
189.911078
  0
ARC
  5
DF8
100
AcDbEntity
  8
V0-VYPLNE
  6
DASHED
 62
    52
 48
3.0
100
AcDbCircle
 10
-197.57406
 20
-854.529885
 30
0.0
 40
409.752547
100
AcDbArc
 50
142.02389
 51
300.663833
  0
VIEWPORT
  5
22
100
AcDbEntity
 67
     1
  8
0
100
AcDbViewport
 10
261.517699
 20
161.962666
 30
0.0
 40
523.035398
 41
323.925332
 68
    -1
 69
     1
1001
ACAD
1000
MVIEW
1002
{
1070
    16
1010
0.0
1020
0.0
1030
0.0
1010
0.0
1020
0.0
1030
1.0
1040
0.0
1040
323.925332
1040
261.517699
1040
161.962666
1040
50.0
1040
0.0
1040
0.0
1070
     0
1070
   100
1070
     1
1070
     1
1070
     0
1070
     0
1070
     0
1070
     0
1040
0.0
1040
0.0
1040
0.0
1040
1.0
1040
1.0
1040
10.0
1040
10.0
1070
     0
1002
{
1002
}
1002
}
  0
ENDSEC
  0
SECTION
  2
OBJECTS
  0
DICTIONARY
  5
C
100
AcDbDictionary
  3
ACAD_GROUP
350
D
  3
ACAD_MLINESTYLE
350
E
  3
ACDBVARIABLEDICTIONARY
350
5D
  0
DICTIONARY
  5
D
102
{ACAD_REACTORS
330
C
102
}
100
AcDbDictionary
  0
DICTIONARY
  5
E
102
{ACAD_REACTORS
330
C
102
}
100
AcDbDictionary
  3
STANDARD
350
13
  0
DICTIONARY
  5
5D
102
{ACAD_REACTORS
330
C
102
}
100
AcDbDictionary
  3
DIMADEC
350
5E
  3
SORTENTS
350
3D8
  0
MLINESTYLE
  5
13
102
{ACAD_REACTORS
330
E
102
}
100
AcDbMlineStyle
  2
STANDARD
 70
     0
  3

 62
     0
 51
90.0
 52
90.0
 71
     2
 49
0.5
 62
   256
  6
BYLAYER
 49
-0.5
 62
   256
  6
BYLAYER
  0
DICTIONARYVAR
  5
5E
102
{ACAD_REACTORS
330
5D
102
}
100
DictionaryVariables
280
     0
  1
0
  0
DICTIONARYVAR
  5
3D8
102
{ACAD_REACTORS
330
5D
102
}
100
DictionaryVariables
280
     0
  1
96
  0
ENDSEC
  0
EOF
