  0
SECTION
  2
HEADER
  9
$ACADVER
  1
AC1014
  9
$ACADMAINTVER
 70
     0
  9
$DWGCODEPAGE
  3
ANSI_1250
  9
$INSBASE
 10
0.0
 20
0.0
 30
0.0
  9
$EXTMIN
 10
-424.31807
 20
-1070.023776
 30
0.0
  9
$EXTMAX
 10
1473.263856
 20
400.035366
 30
0.0
  9
$LIMMIN
 10
0.0
 20
0.0
  9
$LIMMAX
 10
420.0
 20
297.0
  9
$ORTHOMODE
 70
     1
  9
$REGENMODE
 70
     1
  9
$FILLMODE
 70
     1
  9
$QTEXTMODE
 70
     0
  9
$MIRRTEXT
 70
     1
  9
$DRAGMODE
 70
     2
  9
$LTSCALE
 40
1.0
  9
$OSMODE
 70
    15
  9
$ATTMODE
 70
     1
  9
$TEXTSIZE
 40
2.5
  9
$TRACEWID
 40
1.0
  9
$TEXTSTYLE
  7
ED30
  9
$CLAYER
  8
V0-OBRYS
  9
$CELTYPE
  6
BYLAYER
  9
$CECOLOR
 62
   256
  9
$CELTSCALE
 40
1.0
  9
$DELOBJ
 70
     1
  9
$DISPSILH
 70
     0
  9
$DIMSCALE
 40
1.0
  9
$DIMASZ
 40
25.0
  9
$DIMEXO
 40
1.0
  9
$DIMDLI
 40
3.75
  9
$DIMRND
 40
0.0
  9
$DIMDLE
 40
0.0
  9
$DIMEXE
 40
1.25
  9
$DIMTP
 40
0.0
  9
$DIMTM
 40
0.0
  9
$DIMTXT
 40
30.0
  9
$DIMCEN
 40
3.0
  9
$DIMTSZ
 40
0.0
  9
$DIMTOL
 70
     0
  9
$DIMLIM
 70
     0
  9
$DIMTIH
 70
     0
  9
$DIMTOH
 70
     0
  9
$DIMSE1
 70
     0
  9
$DIMSE2
 70
     0
  9
$DIMTAD
 70
     1
  9
$DIMZIN
 70
     8
  9
$DIMBLK
  1

  9
$DIMASO
 70
     1
  9
$DIMSHO
 70
     1
  9
$DIMPOST
  1

  9
$DIMAPOST
  1

  9
$DIMALT
 70
     0
  9
$DIMALTD
 70
     4
  9
$DIMALTF
 40
0.0394
  9
$DIMLFAC
 40
1.0
  9
$DIMTOFL
 70
     1
  9
$DIMTVP
 40
0.0
  9
$DIMTIX
 70
     0
  9
$DIMSOXD
 70
     0
  9
$DIMSAH
 70
     1
  9
$DIMBLK1
  1
_OPEN
  9
$DIMBLK2
  1
_OPEN
  9
$DIMSTYLE
  2
ED30
  9
$DIMCLRD
 70
     0
  9
$DIMCLRE
 70
     0
  9
$DIMCLRT
 70
     0
  9
$DIMTFAC
 40
1.0
  9
$DIMGAP
 40
3.0
  9
$DIMJUST
 70
     0
  9
$DIMSD1
 70
     0
  9
$DIMSD2
 70
     0
  9
$DIMTOLJ
 70
     1
  9
$DIMTZIN
 70
     8
  9
$DIMALTZ
 70
     0
  9
$DIMALTTZ
 70
     0
  9
$DIMFIT
 70
     3
  9
$DIMUPT
 70
     0
  9
$DIMUNIT
 70
     2
  9
$DIMDEC
 70
     0
  9
$DIMTDEC
 70
     1
  9
$DIMALTU
 70
     8
  9
$DIMALTTD
 70
     4
  9
$DIMTXSTY
  7
ED30
  9
$DIMAUNIT
 70
     0
  9
$LUNITS
 70
     2
  9
$LUPREC
 70
     4
  9
$SKETCHINC
 40
1.0
  9
$FILLETRAD
 40
40.0
  9
$AUNITS
 70
     0
  9
$AUPREC
 70
     0
  9
$MENU
  1
.
  9
$ELEVATION
 40
0.0
  9
$PELEVATION
 40
0.0
  9
$THICKNESS
 40
0.0
  9
$LIMCHECK
 70
     0
  9
$BLIPMODE
 70
     0
  9
$CHAMFERA
 40
10.0
  9
$CHAMFERB
 40
10.0
  9
$CHAMFERC
 40
20.0
  9
$CHAMFERD
 40
0.0
  9
$SKPOLY
 70
     1
  9
$TDCREATE
 40
2451196.643769328
  9
$TDUPDATE
 40
2452915.863065046
  9
$TDINDWG
 40
0.2406472222
  9
$TDUSRTIMER
 40
0.2406472222
  9
$USRTIMER
 70
     1
  9
$ANGBASE
 50
0.0
  9
$ANGDIR
 70
     0
  9
$PDMODE
 70
     3
  9
$PDSIZE
 40
10.0
  9
$PLINEWID
 40
0.0
  9
$COORDS
 70
     2
  9
$SPLFRAME
 70
     0
  9
$SPLINETYPE
 70
     6
  9
$SPLINESEGS
 70
     8
  9
$ATTDIA
 70
     0
  9
$ATTREQ
 70
     1
  9
$HANDLING
 70
     1
  9
$HANDSEED
  5
D07
  9
$SURFTAB1
 70
     6
  9
$SURFTAB2
 70
     6
  9
$SURFTYPE
 70
     6
  9
$SURFU
 70
     6
  9
$SURFV
 70
     6
  9
$UCSNAME
  2

  9
$UCSORG
 10
400.0
 20
0.0
 30
0.0
  9
$UCSXDIR
 10
1.0
 20
0.0
 30
0.0
  9
$UCSYDIR
 10
0.0
 20
1.0
 30
0.0
  9
$PUCSNAME
  2

  9
$PUCSORG
 10
0.0
 20
0.0
 30
0.0
  9
$PUCSXDIR
 10
1.0
 20
0.0
 30
0.0
  9
$PUCSYDIR
 10
0.0
 20
1.0
 30
0.0
  9
$USERI1
 70
     0
  9
$USERI2
 70
     0
  9
$USERI3
 70
     0
  9
$USERI4
 70
     0
  9
$USERI5
 70
     0
  9
$USERR1
 40
0.0
  9
$USERR2
 40
0.0
  9
$USERR3
 40
0.0
  9
$USERR4
 40
0.0
  9
$USERR5
 40
0.0
  9
$WORLDVIEW
 70
     1
  9
$SHADEDGE
 70
     3
  9
$SHADEDIF
 70
    70
  9
$TILEMODE
 70
     1
  9
$MAXACTVP
 70
    48
  9
$PINSBASE
 10
0.0
 20
0.0
 30
0.0
  9
$PLIMCHECK
 70
     0
  9
$PEXTMIN
 10
1.000000E+20
 20
1.000000E+20
 30
1.000000E+20
  9
$PEXTMAX
 10
-1.000000E+20
 20
-1.000000E+20
 30
-1.000000E+20
  9
$PLIMMIN
 10
0.0
 20
0.0
  9
$PLIMMAX
 10
420.0
 20
297.0
  9
$UNITMODE
 70
     0
  9
$VISRETAIN
 70
     1
  9
$PLINEGEN
 70
     0
  9
$PSLTSCALE
 70
     0
  9
$TREEDEPTH
 70
  3020
  9
$PICKSTYLE
 70
     1
  9
$CMLSTYLE
  2
STANDARD
  9
$CMLJUST
 70
     0
  9
$CMLSCALE
 40
1.0
  9
$PROXYGRAPHICS
 70
     1
  9
$MEASUREMENT
 70
     1
  0
ENDSEC
  0
SECTION
  2
CLASSES
  0
CLASS
  1
DICTIONARYVAR
  2
AcDbDictionaryVar
  3
"AutoCAD"
 90
        0
280
     0
281
     0
  0
CLASS
  1
LWPOLYLINE
  2
AcDbPolyline
  3
"AutoCAD"
 90
        0
280
     0
281
     1
  0
CLASS
  1
HATCH
  2
AcDbHatch
  3
"ACAD_SEDONA"
 90
        0
280
     0
281
     1
  0
ENDSEC
  0
SECTION
  2
TABLES
  0
TABLE
  2
VPORT
  5
8
100
AcDbSymbolTable
 70
     2
  0
VPORT
  5
D06
100
AcDbSymbolTableRecord
100
AcDbViewportTableRecord
  2
*ACTIVE
 70
     0
 10
0.0
 20
0.0
 11
1.0
 21
1.0
 12
612.474298
 22
-311.349254
 13
0.0
 23
0.0
 14
10.0
 24
10.0
 15
10.0
 25
10.0
 16
0.0
 26
0.0
 36
1.0
 17
0.0
 27
0.0
 37
0.0
 40
1468.32474
 41
1.730469
 42
50.0
 43
0.0
 44
0.0
 50
0.0
 51
0.0
 71
     0
 72
   100
 73
     1
 74
     1
 75
     0
 76
     0
 77
     0
 78
     2
  0
ENDTAB
  0
TABLE
  2
LTYPE
  5
5
100
AcDbSymbolTable
 70
     3
  0
LTYPE
  5
14
100
AcDbSymbolTableRecord
100
AcDbLinetypeTableRecord
  2
BYBLOCK
 70
     0
  3

 72
    65
 73
     0
 40
0.0
  0
LTYPE
  5
15
100
AcDbSymbolTableRecord
100
AcDbLinetypeTableRecord
  2
BYLAYER
 70
     0
  3

 72
    65
 73
     0
 40
0.0
  0
LTYPE
  5
16
100
AcDbSymbolTableRecord
100
AcDbLinetypeTableRecord
  2
CONTINUOUS
 70
     0
  3
Solid line
 72
    65
 73
     0
 40
0.0
  0
LTYPE
  5
7F
100
AcDbSymbolTableRecord
100
AcDbLinetypeTableRecord
  2
DASHDOT
 70
     0
  3
Dash dot __ . __ . __ . __ . __ . __ . __ . __
 72
    65
 73
     4
 40
25.4
 49
12.7
 74
     0
 49
-6.35
 74
     0
 49
0.0
 74
     0
 49
-6.35
 74
     0
  0
LTYPE
  5
80
100
AcDbSymbolTableRecord
100
AcDbLinetypeTableRecord
  2
DASHED
 70
     0
  3
Dashed __ __ __ __ __ __ __ __ __ __ __ __ __ _
 72
    65
 73
     2
 40
19.05
 49
12.7
 74
     0
 49
-6.35
 74
     0
  0
ENDTAB
  0
TABLE
  2
LAYER
  5
2
100
AcDbSymbolTable
 70
     6
  0
LAYER
  5
F
100
AcDbSymbolTableRecord
100
AcDbLayerTableRecord
  2
0
 70
     0
 62
     7
  6
CONTINUOUS
  0
LAYER
  5
9E
100
AcDbSymbolTableRecord
100
AcDbLayerTableRecord
  2
DEFPOINTS
 70
     0
 62
     7
  6
CONTINUOUS
  0
LAYER
  5
377
100
AcDbSymbolTableRecord
100
AcDbLayerTableRecord
  2
V0-OBRYS
 70
     0
 62
    90
  6
CONTINUOUS
  0
LAYER
  5
378
100
AcDbSymbolTableRecord
100
AcDbLayerTableRecord
  2
V0-VYPLNE
 70
     0
 62
    52
  6
CONTINUOUS
  0
LAYER
  5
37A
100
AcDbSymbolTableRecord
100
AcDbLayerTableRecord
  2
V0-NAZVY
 70
     0
 62
   210
  6
CONTINUOUS
  0
LAYER
  5
559
100
AcDbSymbolTableRecord
100
AcDbLayerTableRecord
  2
V0-ZBYTEK
 70
     0
 62
    51
  6
CONTINUOUS
  0
ENDTAB
  0
TABLE
  2
STYLE
  5
3
100
AcDbSymbolTable
 70
     4
  0
STYLE
  5
10
100
AcDbSymbolTableRecord
100
AcDbTextStyleTableRecord
  2
STANDARD
 70
     0
 40
0.0
 41
1.0
 50
0.0
 71
     0
 42
2.5
  3
ISOCP
  4

  0
STYLE
  5
331
100
AcDbSymbolTableRecord
100
AcDbTextStyleTableRecord
  2
ED20
 70
     0
 40
20.0
 41
1.0
 50
0.0
 71
     0
 42
2.5
  3
ISOCP.shx
  4

  0
STYLE
  5
5A7
100
AcDbSymbolTableRecord
100
AcDbTextStyleTableRecord
  2
ED10
 70
     0
 40
10.0
 41
1.0
 50
0.0
 71
     0
 42
10.0
  3
ISOCP.shx
  4

  0
STYLE
  5
B56
100
AcDbSymbolTableRecord
100
AcDbTextStyleTableRecord
  2
ED30
 70
     0
 40
30.0
 41
1.0
 50
0.0
 71
     0
 42
2.5
  3
ISOCP.shx
  4

  0
ENDTAB
  0
TABLE
  2
VIEW
  5
6
100
AcDbSymbolTable
 70
     0
  0
ENDTAB
  0
TABLE
  2
UCS
  5
7
100
AcDbSymbolTable
 70
     0
  0
ENDTAB
  0
TABLE
  2
APPID
  5
9
100
AcDbSymbolTable
 70
     1
  0
APPID
  5
11
100
AcDbSymbolTableRecord
100
AcDbRegAppTableRecord
  2
ACAD
 70
     0
  0
ENDTAB
  0
TABLE
  2
DIMSTYLE
  5
A
100
AcDbSymbolTable
 70
     4
  0
DIMSTYLE
105
1D
100
AcDbSymbolTableRecord
100
AcDbDimStyleTableRecord
  2
STANDARD
 70
     0
  3

  4

  5

  6
_OPEN
  7
_OPEN
 40
0.0
 41
15.0
 42
0.625
 43
3.75
 44
1.25
 45
0.0
 46
0.0
 47
0.0
 48
0.0
140
15.0
141
2.5
142
0.0
143
0.0394
144
1.0
145
0.0
146
1.0
147
3.0
 71
     0
 72
     0
 73
     0
 74
     0
 75
     0
 76
     0
 77
     1
 78
     8
170
     0
171
     4
172
     1
173
     1
174
     0
175
     0
176
     0
177
     0
178
     0
270
     2
271
     0
272
     1
273
     8
274
     4
340
331
275
     0
280
     0
281
     0
282
     0
283
     1
284
     8
285
     0
286
     0
287
     3
288
     0
  0
DIMSTYLE
105
397
102
{ACAD_REACTORS
330
67D
330
6D6
330
6C9
330
6BC
330
7C0
330
6A2
330
695
102
}
100
AcDbSymbolTableRecord
100
AcDbDimStyleTableRecord
  2
ED30
 70
     0
  3

  4

  5

  6
_OPEN
  7
_OPEN
 40
1.0
 41
25.0
 42
1.0
 43
3.75
 44
1.25
 45
0.0
 46
0.0
 47
0.0
 48
0.0
140
30.0
141
3.0
142
0.0
143
0.0394
144
1.0
145
0.0
146
1.0
147
2.0
 71
     0
 72
     0
 73
     0
 74
     0
 75
     0
 76
     0
 77
     1
 78
     8
170
     0
171
     4
172
     1
173
     1
174
     0
175
     0
176
     0
177
     0
178
     0
270
     2
271
     0
272
     1
273
     8
274
     4
340
331
275
     0
280
     0
281
     0
282
     0
283
     1
284
     8
285
     0
286
     0
287
     3
288
     0
  0
DIMSTYLE
105
5A8
100
AcDbSymbolTableRecord
100
AcDbDimStyleTableRecord
  2
ED10
 70
     0
  3

  4

  5

  6
_OPEN
  7
_OPEN
 40
1.0
 41
10.0
 42
1.0
 43
3.75
 44
1.25
 45
0.0
 46
0.0
 47
0.0
 48
0.0
140
10.0
141
2.0
142
0.0
143
0.0394
144
1.0
145
0.0
146
1.0
147
1.5
 71
     0
 72
     0
 73
     0
 74
     0
 75
     0
 76
     0
 77
     1
 78
     8
170
     0
171
     4
172
     1
173
     1
174
     0
175
     0
176
     0
177
     0
178
     0
270
     2
271
     0
272
     1
273
     8
274
     4
340
5A7
275
     0
280
     0
281
     0
282
     0
283
     1
284
     8
285
     0
286
     0
287
     3
288
     0
  0
DIMSTYLE
105
C8C
100
AcDbSymbolTableRecord
100
AcDbDimStyleTableRecord
  2
ED20
 70
     0
  3

  4

  5

  6
_OPEN
  7
_OPEN
 40
1.0
 41
15.0
 42
1.0
 43
3.75
 44
1.25
 45
0.0
 46
0.0
 47
0.0
 48
0.0
140
20.0
141
3.0
142
0.0
143
0.0394
144
1.0
145
0.0
146
1.0
147
2.0
 71
     0
 72
     0
 73
     0
 74
     0
 75
     0
 76
     0
 77
     1
 78
     8
170
     0
171
     4
172
     1
173
     1
174
     0
175
     0
176
     0
177
     0
178
     0
270
     2
271
     0
272
     1
273
     8
274
     4
340
331
275
     0
280
     0
281
     0
282
     0
283
     1
284
     8
285
     0
286
     0
287
     3
288
     0
  0
ENDTAB
  0
TABLE
  2
BLOCK_RECORD
  5
1
100
AcDbSymbolTable
 70
    10
  0
BLOCK_RECORD
  5
1A
100
AcDbSymbolTableRecord
100
AcDbBlockTableRecord
  2
*MODEL_SPACE
  0
BLOCK_RECORD
  5
17
100
AcDbSymbolTableRecord
100
AcDbBlockTableRecord
  2
*PAPER_SPACE
  0
BLOCK_RECORD
  5
90
100
AcDbSymbolTableRecord
100
AcDbBlockTableRecord
  2
_OPEN
  0
BLOCK_RECORD
  5
BC0
100
AcDbSymbolTableRecord
100
AcDbBlockTableRecord
  2
*D1
  0
BLOCK_RECORD
  5
C04
100
AcDbSymbolTableRecord
100
AcDbBlockTableRecord
  2
*D2
  0
BLOCK_RECORD
  5
C10
100
AcDbSymbolTableRecord
100
AcDbBlockTableRecord
  2
*D3
  0
BLOCK_RECORD
  5
C1C
100
AcDbSymbolTableRecord
100
AcDbBlockTableRecord
  2
*D4
  0
BLOCK_RECORD
  5
C28
100
AcDbSymbolTableRecord
100
AcDbBlockTableRecord
  2
*D5
  0
BLOCK_RECORD
  5
C34
100
AcDbSymbolTableRecord
100
AcDbBlockTableRecord
  2
*D6
  0
BLOCK_RECORD
  5
C40
100
AcDbSymbolTableRecord
100
AcDbBlockTableRecord
  2
*D7
  0
BLOCK_RECORD
  5
C8D
100
AcDbSymbolTableRecord
100
AcDbBlockTableRecord
  2
AROTOR
  0
BLOCK_RECORD
  5
CAE
100
AcDbSymbolTableRecord
100
AcDbBlockTableRecord
  2
AZNAK
  0
ENDTAB
  0
ENDSEC
  0
SECTION
  2
BLOCKS
  0
BLOCK
  5
1B
100
AcDbEntity
  8
0
100
AcDbBlockBegin
  2
*MODEL_SPACE
 70
     0
 10
0.0
 20
0.0
 30
0.0
  3
*MODEL_SPACE
  1

  0
ENDBLK
  5
1C
100
AcDbEntity
  8
0
100
AcDbBlockEnd
  0
BLOCK
  5
18
100
AcDbEntity
 67
     1
  8
0
100
AcDbBlockBegin
  2
*PAPER_SPACE
 70
     0
 10
0.0
 20
0.0
 30
0.0
  3
*PAPER_SPACE
  1

  0
ENDBLK
  5
19
100
AcDbEntity
 67
     1
  8
0
100
AcDbBlockEnd
  0
BLOCK
  5
91
100
AcDbEntity
  8
0
100
AcDbBlockBegin
  2
_OPEN
 70
     0
 10
0.0
 20
0.0
 30
0.0
  3
_OPEN
  1

  0
LINE
  5
92
100
AcDbEntity
  8
0
  6
BYBLOCK
 62
     0
100
AcDbLine
 10
-1.0
 20
0.166667
 30
0.0
 11
0.0
 21
0.0
 31
0.0
  0
LINE
  5
93
100
AcDbEntity
  8
0
  6
BYBLOCK
 62
     0
100
AcDbLine
 10
0.0
 20
0.0
 30
0.0
 11
-1.0
 21
-0.166667
 31
0.0
  0
LINE
  5
94
100
AcDbEntity
  8
0
  6
BYBLOCK
 62
     0
100
AcDbLine
 10
0.0
 20
0.0
 30
0.0
 11
-1.0
 21
0.0
 31
0.0
  0
ENDBLK
  5
95
100
AcDbEntity
  8
0
100
AcDbBlockEnd
  0
BLOCK
  5
BC1
100
AcDbEntity
  8
0
100
AcDbBlockBegin
  2
*D1
 70
     1
 10
0.0
 20
0.0
 30
0.0
  3
*D1
  1

  0
LINE
  5
BC2
100
AcDbEntity
  8
0
  6
BYBLOCK
 62
     0
100
AcDbLine
 10
-417.246434
 20
340.997093
 30
0.0
 11
-417.246434
 21
369.785366
 31
0.0
  0
LINE
  5
BC3
100
AcDbEntity
  8
0
  6
BYBLOCK
 62
     0
100
AcDbLine
 10
367.753566
 20
341.997093
 30
0.0
 11
367.753566
 21
369.785366
 31
0.0
  0
LINE
  5
BC4
100
AcDbEntity
  8
0
  6
BYBLOCK
 62
     0
100
AcDbLine
 10
-392.246434
 20
368.535366
 30
0.0
 11
342.753566
 21
368.535366
 31
0.0
  0
INSERT
  5
BC5
100
AcDbEntity
  8
0
  6
BYBLOCK
 62
     0
100
AcDbBlockReference
  2
_OPEN
 10
-417.246434
 20
368.535366
 30
0.0
 41
25.0
 42
25.0
 43
25.0
 50
180.0
  0
INSERT
  5
BC6
100
AcDbEntity
  8
0
  6
BYBLOCK
 62
     0
100
AcDbBlockReference
  2
_OPEN
 10
367.753566
 20
368.535366
 30
0.0
 41
25.0
 42
25.0
 43
25.0
  0
MTEXT
  5
BC7
100
AcDbEntity
  8
0
  6
BYBLOCK
 62
     0
100
AcDbMText
 10
-39.746434
 20
386.535366
 30
0.0
 40
30.0
 41
0.0
 71
     5
 72
     1
  1
\A1;785
  7
ED30
  0
POINT
  5
BC8
100
AcDbEntity
  8
DEFPOINTS
  6
BYBLOCK
 62
     0
100
AcDbPoint
 10
-417.246434
 20
339.997093
 30
0.0
  0
POINT
  5
BC9
100
AcDbEntity
  8
DEFPOINTS
  6
BYBLOCK
 62
     0
100
AcDbPoint
 10
367.753566
 20
340.997093
 30
0.0
  0
POINT
  5
BCA
100
AcDbEntity
  8
DEFPOINTS
  6
BYBLOCK
 62
     0
100
AcDbPoint
 10
367.753566
 20
368.535366
 30
0.0
  0
ENDBLK
  5
BCB
100
AcDbEntity
  8
0
100
AcDbBlockEnd
  0
BLOCK
  5
C05
100
AcDbEntity
  8
0
100
AcDbBlockBegin
  2
*D2
 70
     1
 10
0.0
 20
0.0
 30
0.0
  3
*D2
  1

  0
LINE
  5
C06
100
AcDbEntity
  8
0
  6
BYBLOCK
 62
     0
100
AcDbLine
 10
598.278319
 20
-81.0
 30
0.0
 11
598.278319
 21
-251.51422
 31
0.0
  0
LINE
  5
C07
100
AcDbEntity
  8
0
  6
BYBLOCK
 62
     0
100
AcDbLine
 10
1338.278319
 20
-81.0
 30
0.0
 11
1338.278319
 21
-251.51422
 31
0.0
  0
LINE
  5
C08
100
AcDbEntity
  8
0
  6
BYBLOCK
 62
     0
100
AcDbLine
 10
623.278319
 20
-250.26422
 30
0.0
 11
1313.278319
 21
-250.26422
 31
0.0
  0
INSERT
  5
C09
100
AcDbEntity
  8
0
  6
BYBLOCK
 62
     0
100
AcDbBlockReference
  2
_OPEN
 10
598.278319
 20
-250.26422
 30
0.0
 41
25.0
 42
25.0
 43
25.0
 50
180.0
  0
INSERT
  5
C0A
100
AcDbEntity
  8
0
  6
BYBLOCK
 62
     0
100
AcDbBlockReference
  2
_OPEN
 10
1338.278319
 20
-250.26422
 30
0.0
 41
25.0
 42
25.0
 43
25.0
  0
MTEXT
  5
C0B
100
AcDbEntity
  8
0
  6
BYBLOCK
 62
     0
100
AcDbMText
 10
968.278319
 20
-232.26422
 30
0.0
 40
30.0
 41
0.0
 71
     5
 72
     1
  1
\A1;740
  7
ED30
  0
POINT
  5
C0C
100
AcDbEntity
  8
DEFPOINTS
  6
BYBLOCK
 62
     0
100
AcDbPoint
 10
598.278319
 20
-80.0
 30
0.0
  0
POINT
  5
C0D
100
AcDbEntity
  8
DEFPOINTS
  6
BYBLOCK
 62
     0
100
AcDbPoint
 10
1338.278319
 20
-80.0
 30
0.0
  0
POINT
  5
C0E
100
AcDbEntity
  8
DEFPOINTS
  6
BYBLOCK
 62
     0
100
AcDbPoint
 10
1338.278319
 20
-250.26422
 30
0.0
  0
ENDBLK
  5
C0F
100
AcDbEntity
  8
0
100
AcDbBlockEnd
  0
BLOCK
  5
C11
100
AcDbEntity
  8
0
100
AcDbBlockBegin
  2
*D3
 70
     1
 10
0.0
 20
0.0
 30
0.0
  3
*D3
  1

  0
LINE
  5
C12
100
AcDbEntity
  8
0
  6
BYBLOCK
 62
     0
100
AcDbLine
 10
608.278319
 20
-99.629782
 30
0.0
 11
608.278319
 21
-199.261666
 31
0.0
  0
LINE
  5
C13
100
AcDbEntity
  8
0
  6
BYBLOCK
 62
     0
100
AcDbLine
 10
1328.278319
 20
-99.629782
 30
0.0
 11
1328.278319
 21
-199.261666
 31
0.0
  0
LINE
  5
C14
100
AcDbEntity
  8
0
  6
BYBLOCK
 62
     0
100
AcDbLine
 10
633.278319
 20
-198.011666
 30
0.0
 11
1303.278319
 21
-198.011666
 31
0.0
  0
INSERT
  5
C15
100
AcDbEntity
  8
0
  6
BYBLOCK
 62
     0
100
AcDbBlockReference
  2
_OPEN
 10
608.278319
 20
-198.011666
 30
0.0
 41
25.0
 42
25.0
 43
25.0
 50
180.0
  0
INSERT
  5
C16
100
AcDbEntity
  8
0
  6
BYBLOCK
 62
     0
100
AcDbBlockReference
  2
_OPEN
 10
1328.278319
 20
-198.011666
 30
0.0
 41
25.0
 42
25.0
 43
25.0
  0
MTEXT
  5
C17
100
AcDbEntity
  8
0
  6
BYBLOCK
 62
     0
100
AcDbMText
 10
968.278319
 20
-180.008713
 30
0.0
 40
30.0
 41
0.0
 71
     5
 72
     1
  1
\A1;720
  7
ED30
  0
POINT
  5
C18
100
AcDbEntity
  8
DEFPOINTS
  6
BYBLOCK
 62
     0
100
AcDbPoint
 10
608.278319
 20
-98.629782
 30
0.0
  0
POINT
  5
C19
100
AcDbEntity
  8
DEFPOINTS
  6
BYBLOCK
 62
     0
100
AcDbPoint
 10
1328.278319
 20
-98.629782
 30
0.0
  0
POINT
  5
C1A
100
AcDbEntity
  8
DEFPOINTS
  6
BYBLOCK
 62
     0
100
AcDbPoint
 10
1328.278319
 20
-198.011666
 30
0.0
  0
ENDBLK
  5
C1B
100
AcDbEntity
  8
0
100
AcDbBlockEnd
  0
BLOCK
  5
C1D
100
AcDbEntity
  8
0
100
AcDbBlockBegin
  2
*D4
 70
     1
 10
0.0
 20
0.0
 30
0.0
  3
*D4
  1

  0
LINE
  5
C1E
100
AcDbEntity
  8
0
  6
BYBLOCK
 62
     0
100
AcDbLine
 10
618.278319
 20
-101.0
 30
0.0
 11
618.278319
 21
-152.814949
 31
0.0
  0
LINE
  5
C1F
100
AcDbEntity
  8
0
  6
BYBLOCK
 62
     0
100
AcDbLine
 10
1318.278319
 20
-101.0
 30
0.0
 11
1318.278319
 21
-152.814949
 31
0.0
  0
LINE
  5
C20
100
AcDbEntity
  8
0
  6
BYBLOCK
 62
     0
100
AcDbLine
 10
643.278319
 20
-151.564949
 30
0.0
 11
1293.278319
 21
-151.564949
 31
0.0
  0
INSERT
  5
C21
100
AcDbEntity
  8
0
  6
BYBLOCK
 62
     0
100
AcDbBlockReference
  2
_OPEN
 10
618.278319
 20
-151.564949
 30
0.0
 41
25.0
 42
25.0
 43
25.0
 50
180.0
  0
INSERT
  5
C22
100
AcDbEntity
  8
0
  6
BYBLOCK
 62
     0
100
AcDbBlockReference
  2
_OPEN
 10
1318.278319
 20
-151.564949
 30
0.0
 41
25.0
 42
25.0
 43
25.0
  0
MTEXT
  5
C23
100
AcDbEntity
  8
0
  6
BYBLOCK
 62
     0
100
AcDbMText
 10
968.278319
 20
-133.564949
 30
0.0
 40
30.0
 41
0.0
 71
     5
 72
     1
  1
\A1;700
  7
ED30
  0
POINT
  5
C24
100
AcDbEntity
  8
DEFPOINTS
  6
BYBLOCK
 62
     0
100
AcDbPoint
 10
618.278319
 20
-100.0
 30
0.0
  0
POINT
  5
C25
100
AcDbEntity
  8
DEFPOINTS
  6
BYBLOCK
 62
     0
100
AcDbPoint
 10
1318.278319
 20
-100.0
 30
0.0
  0
POINT
  5
C26
100
AcDbEntity
  8
DEFPOINTS
  6
BYBLOCK
 62
     0
100
AcDbPoint
 10
1318.278319
 20
-151.564949
 30
0.0
  0
ENDBLK
  5
C27
100
AcDbEntity
  8
0
100
AcDbBlockEnd
  0
BLOCK
  5
C29
100
AcDbEntity
  8
0
100
AcDbBlockBegin
  2
*D5
 70
     1
 10
0.0
 20
0.0
 30
0.0
  3
*D5
  1

  0
LINE
  5
C2A
100
AcDbEntity
  8
0
  6
BYBLOCK
 62
     0
100
AcDbLine
 10
1339.278319
 20
319.0
 30
0.0
 11
1386.103782
 21
319.0
 31
0.0
  0
LINE
  5
C2B
100
AcDbEntity
  8
0
  6
BYBLOCK
 62
     0
100
AcDbLine
 10
1339.278319
 20
-79.0
 30
0.0
 11
1386.103782
 21
-79.0
 31
0.0
  0
LINE
  5
C2C
100
AcDbEntity
  8
0
  6
BYBLOCK
 62
     0
100
AcDbLine
 10
1384.853782
 20
294.0
 30
0.0
 11
1384.853782
 21
-54.0
 31
0.0
  0
INSERT
  5
C2D
100
AcDbEntity
  8
0
  6
BYBLOCK
 62
     0
100
AcDbBlockReference
  2
_OPEN
 10
1384.853782
 20
319.0
 30
0.0
 41
25.0
 42
25.0
 43
25.0
 50
90.0
  0
INSERT
  5
C2E
100
AcDbEntity
  8
0
  6
BYBLOCK
 62
     0
100
AcDbBlockReference
  2
_OPEN
 10
1384.853782
 20
-79.0
 30
0.0
 41
25.0
 42
25.0
 43
25.0
 50
270.0
  0
MTEXT
  5
C2F
100
AcDbEntity
  8
0
  6
BYBLOCK
 62
     0
100
AcDbMText
 10
1366.853782
 20
120.0
 30
0.0
 40
30.0
 41
0.0
 71
     5
 72
     1
  1
\A1;398
  7
ED30
 11
0.0
 21
1.0
 31
0.0
  0
POINT
  5
C30
100
AcDbEntity
  8
DEFPOINTS
  6
BYBLOCK
 62
     0
100
AcDbPoint
 10
1338.278319
 20
319.0
 30
0.0
  0
POINT
  5
C31
100
AcDbEntity
  8
DEFPOINTS
  6
BYBLOCK
 62
     0
100
AcDbPoint
 10
1338.278319
 20
-79.0
 30
0.0
  0
POINT
  5
C32
100
AcDbEntity
  8
DEFPOINTS
  6
BYBLOCK
 62
     0
100
AcDbPoint
 10
1384.853782
 20
-79.0
 30
0.0
  0
ENDBLK
  5
C33
100
AcDbEntity
  8
0
100
AcDbBlockEnd
  0
BLOCK
  5
C35
100
AcDbEntity
  8
0
100
AcDbBlockBegin
  2
*D6
 70
     1
 10
0.0
 20
0.0
 30
0.0
  3
*D6
  1

  0
LINE
  5
C36
100
AcDbEntity
  8
0
  6
BYBLOCK
 62
     0
100
AcDbLine
 10
1338.229163
 20
330.0
 30
0.0
 11
1429.677958
 21
330.0
 31
0.0
  0
LINE
  5
C37
100
AcDbEntity
  8
0
  6
BYBLOCK
 62
     0
100
AcDbLine
 10
1339.278319
 20
-90.0
 30
0.0
 11
1429.677958
 21
-90.0
 31
0.0
  0
LINE
  5
C38
100
AcDbEntity
  8
0
  6
BYBLOCK
 62
     0
100
AcDbLine
 10
1428.427958
 20
305.0
 30
0.0
 11
1428.427958
 21
-65.0
 31
0.0
  0
INSERT
  5
C39
100
AcDbEntity
  8
0
  6
BYBLOCK
 62
     0
100
AcDbBlockReference
  2
_OPEN
 10
1428.427958
 20
330.0
 30
0.0
 41
25.0
 42
25.0
 43
25.0
 50
90.0
  0
INSERT
  5
C3A
100
AcDbEntity
  8
0
  6
BYBLOCK
 62
     0
100
AcDbBlockReference
  2
_OPEN
 10
1428.427958
 20
-90.0
 30
0.0
 41
25.0
 42
25.0
 43
25.0
 50
270.0
  0
MTEXT
  5
C3B
100
AcDbEntity
  8
0
  6
BYBLOCK
 62
     0
100
AcDbMText
 10
1410.425005
 20
120.0
 30
0.0
 40
30.0
 41
0.0
 71
     5
 72
     1
  1
\A1;420
  7
ED30
 11
0.0
 21
1.0
 31
0.0
  0
POINT
  5
C3C
100
AcDbEntity
  8
DEFPOINTS
  6
BYBLOCK
 62
     0
100
AcDbPoint
 10
1337.229163
 20
330.0
 30
0.0
  0
POINT
  5
C3D
100
AcDbEntity
  8
DEFPOINTS
  6
BYBLOCK
 62
     0
100
AcDbPoint
 10
1338.278319
 20
-90.0
 30
0.0
  0
POINT
  5
C3E
100
AcDbEntity
  8
DEFPOINTS
  6
BYBLOCK
 62
     0
100
AcDbPoint
 10
1428.427958
 20
-90.0
 30
0.0
  0
ENDBLK
  5
C3F
100
AcDbEntity
  8
0
100
AcDbBlockEnd
  0
BLOCK
  5
C41
100
AcDbEntity
  8
0
100
AcDbBlockBegin
  2
*D7
 70
     1
 10
0.0
 20
0.0
 30
0.0
  3
*D7
  1

  0
LINE
  5
C42
100
AcDbEntity
  8
0
  6
BYBLOCK
 62
     0
100
AcDbLine
 10
1319.278319
 20
340.0
 30
0.0
 11
1470.347189
 21
340.0
 31
0.0
  0
LINE
  5
C43
100
AcDbEntity
  8
0
  6
BYBLOCK
 62
     0
100
AcDbLine
 10
1319.278319
 20
-100.0
 30
0.0
 11
1470.347189
 21
-100.0
 31
0.0
  0
LINE
  5
C44
100
AcDbEntity
  8
0
  6
BYBLOCK
 62
     0
100
AcDbLine
 10
1469.097189
 20
315.0
 30
0.0
 11
1469.097189
 21
-75.0
 31
0.0
  0
INSERT
  5
C45
100
AcDbEntity
  8
0
  6
BYBLOCK
 62
     0
100
AcDbBlockReference
  2
_OPEN
 10
1469.097189
 20
340.0
 30
0.0
 41
25.0
 42
25.0
 43
25.0
 50
90.0
  0
INSERT
  5
C46
100
AcDbEntity
  8
0
  6
BYBLOCK
 62
     0
100
AcDbBlockReference
  2
_OPEN
 10
1469.097189
 20
-100.0
 30
0.0
 41
25.0
 42
25.0
 43
25.0
 50
270.0
  0
MTEXT
  5
C47
100
AcDbEntity
  8
0
  6
BYBLOCK
 62
     0
100
AcDbMText
 10
1451.097189
 20
120.0
 30
0.0
 40
30.0
 41
0.0
 71
     5
 72
     1
  1
\A1;440
  7
ED30
 11
0.0
 21
1.0
 31
0.0
  0
POINT
  5
C48
100
AcDbEntity
  8
DEFPOINTS
  6
BYBLOCK
 62
     0
100
AcDbPoint
 10
1318.278319
 20
340.0
 30
0.0
  0
POINT
  5
C49
100
AcDbEntity
  8
DEFPOINTS
  6
BYBLOCK
 62
     0
100
AcDbPoint
 10
1318.278319
 20
-100.0
 30
0.0
  0
POINT
  5
C4A
100
AcDbEntity
  8
DEFPOINTS
  6
BYBLOCK
 62
     0
100
AcDbPoint
 10
1469.097189
 20
-100.0
 30
0.0
  0
ENDBLK
  5
C4B
100
AcDbEntity
  8
0
100
AcDbBlockEnd
  0
BLOCK
  5
CAB
100
AcDbEntity
  8
0
100
AcDbBlockBegin
  2
AROTOR
 70
     0
 10
0.0
 20
0.0
 30
0.0
  3
AROTOR
  1

  0
ARC
  5
CBC
100
AcDbEntity
  8
V0-VYPLNE
  6
DASHED
 62
    52
100
AcDbCircle
 10
183.488866
 20
-350.537996
 30
0.0
 40
595.669442
100
AcDbArc
 50
89.227405
 51
111.825582
  0
ARC
  5
CBD
100
AcDbEntity
  8
V0-VYPLNE
  6
DASHED
 62
    52
100
AcDbCircle
 10
97.003139
 20
-68.892063
 30
0.0
 40
303.043927
100
AcDbArc
 50
116.44849
 51
141.790666
  0
ARC
  5
CBE
100
AcDbEntity
  8
V0-VYPLNE
  6
DASHED
 62
    52
100
AcDbCircle
 10
-89.894799
 20
-51.140116
 30
0.0
 40
44.495532
100
AcDbArc
 50
257.175907
 51
309.010287
  0
ARC
  5
CBF
100
AcDbEntity
  8
V0-VYPLNE
  6
DASHED
 62
    52
100
AcDbCircle
 10
-101.298199
 20
-20.85812
 30
0.0
 40
44.495532
100
AcDbArc
 50
239.175907
 51
291.010287
  0
ARC
  5
CC0
100
AcDbEntity
  8
V0-VYPLNE
  6
DASHED
 62
    52
100
AcDbCircle
 10
-51.140116
 20
89.894799
 30
0.0
 40
44.495532
100
AcDbArc
 50
167.175907
 51
219.010287
  0
ARC
  5
CC1
100
AcDbEntity
  8
V0-VYPLNE
  6
DASHED
 62
    52
100
AcDbCircle
 10
0.0
 20
0.0
 30
0.0
 40
106.465069
100
AcDbArc
 50
91.687982
 51
89.730531
  0
CIRCLE
  5
CC2
100
AcDbEntity
  8
V0-VYPLNE
  6
DASHED
 62
    52
100
AcDbCircle
 10
0.0
 20
0.0
 30
0.0
 40
136.78334
  0
ARC
  5
CC3
100
AcDbEntity
  8
V0-VYPLNE
  6
DASHED
 62
    52
100
AcDbCircle
 10
-102.785826
 20
11.465614
 30
0.0
 40
44.495532
100
AcDbArc
 50
221.175907
 51
273.010287
  0
ARC
  5
CC4
100
AcDbEntity
  8
V0-VYPLNE
  6
DASHED
 62
    52
100
AcDbCircle
 10
110.67042
 20
7.654315
 30
0.0
 40
247.662789
100
AcDbArc
 50
192.990197
 51
193.153718
  0
ARC
  5
CC5
100
AcDbEntity
  8
V0-VYPLNE
  6
DASHED
 62
    52
100
AcDbCircle
 10
-76.416161
 20
69.691869
 30
0.0
 40
44.495532
100
AcDbArc
 50
185.175907
 51
237.010287
  0
ARC
  5
CC6
100
AcDbEntity
  8
V0-VYPLNE
  6
DASHED
 62
    52
100
AcDbCircle
 10
-94.21206
 20
42.667014
 30
0.0
 40
44.495532
100
AcDbArc
 50
203.175907
 51
255.010287
  0
ARC
  5
CC7
100
AcDbEntity
  8
V0-VYPLNE
  6
DASHED
 62
    52
100
AcDbCircle
 10
0.0
 20
0.0
 30
0.0
 40
143.919654
100
AcDbArc
 50
299.236959
 51
3.688819
  0
ARC
  5
CC8
100
AcDbEntity
  8
V0-VYPLNE
  6
DASHED
 62
    52
100
AcDbCircle
 10
94.21206
 20
-42.667014
 30
0.0
 40
44.495532
100
AcDbArc
 50
23.175907
 51
75.010287
  0
LINE
  5
CC9
100
AcDbEntity
  8
V0-VYPLNE
  6
DASHDOT
 62
    41
100
AcDbLine
 10
0.0
 20
0.0
 30
0.0
 11
0.0
 21
-34.564774
 31
0.0
  0
ARC
  5
CCA
100
AcDbEntity
  8
V0-VYPLNE
  6
DASHED
 62
    52
100
AcDbCircle
 10
51.140116
 20
-89.894799
 30
0.0
 40
44.495532
100
AcDbArc
 50
347.175907
 51
39.010287
  0
ARC
  5
CCB
100
AcDbEntity
  8
V0-VYPLNE
  6
DASHED
 62
    52
100
AcDbCircle
 10
-42.667014
 20
-94.21206
 30
0.0
 40
44.495532
100
AcDbArc
 50
293.175907
 51
345.010287
  0
ARC
  5
CCC
100
AcDbEntity
  8
V0-VYPLNE
  6
DASHED
 62
    52
100
AcDbCircle
 10
-69.691869
 20
-76.416161
 30
0.0
 40
44.495532
100
AcDbArc
 50
275.175907
 51
327.010287
  0
ARC
  5
CCD
100
AcDbEntity
  8
V0-VYPLNE
  6
DASHED
 62
    52
100
AcDbCircle
 10
-11.465614
 20
-102.785826
 30
0.0
 40
44.495532
100
AcDbArc
 50
311.175907
 51
3.010287
  0
ARC
  5
CCE
100
AcDbEntity
  8
V0-VYPLNE
  6
DASHED
 62
    52
100
AcDbCircle
 10
20.85812
 20
-101.298199
 30
0.0
 40
44.495532
100
AcDbArc
 50
329.175907
 51
21.010287
  0
ARC
  5
CCF
100
AcDbEntity
  8
V0-VYPLNE
  6
DASHED
 62
    52
100
AcDbCircle
 10
76.416161
 20
-69.691869
 30
0.0
 40
44.495532
100
AcDbArc
 50
5.175907
 51
57.010287
  0
ARC
  5
CD0
100
AcDbEntity
  8
V0-VYPLNE
  6
DASHED
 62
    52
100
AcDbCircle
 10
101.298199
 20
20.85812
 30
0.0
 40
44.495532
100
AcDbArc
 50
59.175907
 51
111.010287
  0
ARC
  5
CD1
100
AcDbEntity
  8
V0-VYPLNE
  6
DASHED
 62
    52
100
AcDbCircle
 10
89.894799
 20
51.140116
 30
0.0
 40
44.495532
100
AcDbArc
 50
77.175907
 51
129.010287
  0
ARC
  5
CD2
100
AcDbEntity
  8
V0-VYPLNE
  6
DASHED
 62
    52
100
AcDbCircle
 10
42.667014
 20
94.21206
 30
0.0
 40
44.495532
100
AcDbArc
 50
113.175907
 51
165.010287
  0
ARC
  5
CD3
100
AcDbEntity
  8
V0-VYPLNE
  6
DASHED
 62
    52
100
AcDbCircle
 10
11.465614
 20
102.785826
 30
0.0
 40
44.495532
100
AcDbArc
 50
131.175907
 51
183.010287
  0
ARC
  5
CD4
100
AcDbEntity
  8
V0-VYPLNE
  6
DASHED
 62
    52
100
AcDbCircle
 10
-20.85812
 20
101.298199
 30
0.0
 40
44.495532
100
AcDbArc
 50
149.175907
 51
201.010287
  0
ARC
  5
CD5
100
AcDbEntity
  8
V0-VYPLNE
  6
DASHED
 62
    52
100
AcDbCircle
 10
69.691869
 20
76.416161
 30
0.0
 40
44.495532
100
AcDbArc
 50
95.175907
 51
147.010287
  0
LINE
  5
CD6
100
AcDbEntity
  8
V0-VYPLNE
  6
DASHDOT
 62
    41
100
AcDbLine
 10
0.0
 20
0.0
 30
0.0
 11
28.300002
 21
0.0
 31
0.0
  0
LINE
  5
CD7
100
AcDbEntity
  8
V0-VYPLNE
  6
DASHDOT
 62
    52
100
AcDbLine
 10
0.0
 20
0.0
 30
0.0
 11
0.0
 21
34.564774
 31
0.0
  0
LINE
  5
CD8
100
AcDbEntity
  8
V0-VYPLNE
  6
DASHDOT
 62
    41
100
AcDbLine
 10
0.0
 20
0.0
 30
0.0
 11
-28.300002
 21
0.0
 31
0.0
  0
ARC
  5
CD9
100
AcDbEntity
  8
V0-VYPLNE
  6
DASHED
 62
    52
100
AcDbCircle
 10
102.785826
 20
-11.465614
 30
0.0
 40
44.495532
100
AcDbArc
 50
41.175907
 51
93.010287
  0
LINE
  5
CDA
100
AcDbEntity
  8
V0-VYPLNE
  6
DASHED
 62
    52
100
AcDbLine
 10
143.62148
 20
9.259441
 30
0.0
 11
143.62148
 21
28.612266
 31
0.0
  0
ARC
  5
CDB
100
AcDbEntity
  8
V0-VYPLNE
  6
DASHED
 62
    52
100
AcDbCircle
 10
151.837952
 20
30.047907
 30
0.0
 40
8.340952
100
AcDbArc
 50
0.0
 51
189.911078
  0
ARC
  5
CDC
100
AcDbEntity
  8
V0-VYPLNE
  6
DASHED
 62
    52
100
AcDbCircle
 10
-13.295909
 20
15.39813
 30
0.0
 40
163.901019
100
AcDbArc
 50
142.02389
 51
300.663833
  0
ENDBLK
  5
CAC
100
AcDbEntity
  8
0
100
AcDbBlockEnd
  0
BLOCK
  5
CB2
100
AcDbEntity
  8
0
100
AcDbBlockBegin
  2
AZNAK
 70
     0
 10
0.0
 20
0.0
 30
0.0
  3
AZNAK
  1

  0
LINE
  5
CAF
100
AcDbEntity
  8
V0-NAZVY
 62
   210
100
AcDbLine
 10
-24.212224
 20
-21.995765
 30
0.0
 11
29.715001
 21
-13.197458
 31
0.0
  0
LINE
  5
CB0
100
AcDbEntity
  8
V0-NAZVY
 62
   210
100
AcDbLine
 10
-24.212224
 20
21.995765
 30
0.0
 11
29.715001
 21
13.197458
 31
0.0
  0
CIRCLE
  5
CB1
100
AcDbEntity
  8
V0-NAZVY
 62
   210
100
AcDbCircle
 10
0.0
 20
0.0
 30
0.0
 40
33.029256
  0
ENDBLK
  5
CB3
100
AcDbEntity
  8
0
100
AcDbBlockEnd
  0
ENDSEC
  0
SECTION
  2
ENTITIES
  0
MTEXT
  5
5A9
100
AcDbEntity
  8
V0-ZBYTEK
 62
   130
100
AcDbMText
 10
1027.562691
 20
-475.275647
 30
0.0
 40
37.8
 41
1070.79948
 71
     5
 72
     5
  1
RADIALNI VENTILATOR 
  7
ED10
  0
MTEXT
  5
5AA
100
AcDbEntity
  8
V0-ZBYTEK
100
AcDbMText
 10
1023.259127
 20
-557.097474
 30
0.0
 40
27.0
 41
424.158
 71
     5
 72
     5
  1
PRO CTYRHRANNE POTRUBI
  7
ED10
  0
MTEXT
  5
5AB
100
AcDbEntity
  8
V0-NAZVY
100
AcDbMText
 10
1010.239061
 20
-376.332755
 30
0.0
 40
67.5
 41
555.22944
 71
     5
 72
     5
  1
ILB/ILT 355
  7
ED10
  0
LINE
  5
5AD
100
AcDbEntity
  8
V0-OBRYS
100
AcDbLine
 10
-417.246434
 20
-100.002907
 30
0.0
 11
-412.246434
 21
-100.002907
 31
0.0
  0
LINE
  5
5AE
100
AcDbEntity
  8
V0-OBRYS
100
AcDbLine
 10
1338.278319
 20
-90.0
 30
0.0
 11
1338.278319
 21
330.0
 31
0.0
  0
LINE
  5
5AF
100
AcDbEntity
  8
V0-OBRYS
100
AcDbLine
 10
1328.278319
 20
340.0
 30
0.0
 11
608.278319
 21
340.0
 31
0.0
  0
LINE
  5
5B0
100
AcDbEntity
  8
V0-OBRYS
100
AcDbLine
 10
598.278319
 20
330.0
 30
0.0
 11
598.278319
 21
-90.0
 31
0.0
  0
LINE
  5
5B1
100
AcDbEntity
  8
V0-OBRYS
100
AcDbLine
 10
618.278319
 20
340.0
 30
0.0
 11
618.278319
 21
-100.0
 31
0.0
  0
LINE
  5
5B2
100
AcDbEntity
  8
V0-OBRYS
100
AcDbLine
 10
1338.278319
 20
319.0
 30
0.0
 11
598.278319
 21
319.0
 31
0.0
  0
LINE
  5
5B3
100
AcDbEntity
  8
V0-OBRYS
100
AcDbLine
 10
1318.278319
 20
-100.0
 30
0.0
 11
1318.278319
 21
340.0
 31
0.0
  0
LINE
  5
5B4
100
AcDbEntity
  8
V0-OBRYS
100
AcDbLine
 10
598.278319
 20
-79.0
 30
0.0
 11
1338.278319
 21
-79.0
 31
0.0
  0
ARC
  5
5B5
100
AcDbEntity
  8
V0-OBRYS
100
AcDbCircle
 10
608.278319
 20
-90.0
 30
0.0
 40
10.0
100
AcDbArc
 50
180.0
 51
270.0
  0
ARC
  5
5B6
100
AcDbEntity
  8
V0-OBRYS
100
AcDbCircle
 10
608.278319
 20
330.0
 30
0.0
 40
10.0
100
AcDbArc
 50
90.0
 51
180.0
  0
ARC
  5
5B7
100
AcDbEntity
  8
V0-OBRYS
100
AcDbCircle
 10
1328.278319
 20
330.0
 30
0.0
 40
10.0
100
AcDbArc
 50
0.0
 51
90.0
  0
ARC
  5
5B8
100
AcDbEntity
  8
V0-OBRYS
100
AcDbCircle
 10
1328.278319
 20
-90.0
 30
0.0
 40
10.0
100
AcDbArc
 50
270.0
 51
0.0
  0
LINE
  5
5D4
100
AcDbEntity
  8
V0-OBRYS
100
AcDbLine
 10
633.451797
 20
190.907423
 30
0.0
 11
633.451797
 21
-79.825678
 31
0.0
  0
CIRCLE
  5
5D5
100
AcDbEntity
  8
V0-OBRYS
100
AcDbCircle
 10
608.278319
 20
-90.0
 30
0.0
 40
4.5
  0
LINE
  5
5D6
100
AcDbEntity
  8
V0-VYPLNE
100
AcDbLine
 10
-424.29761
 20
-90.002907
 30
0.0
 11
-403.296104
 21
-90.002907
 31
0.0
  0
LINE
  5
5D7
100
AcDbEntity
  8
V0-VYPLNE
100
AcDbLine
 10
614.045008
 20
-90.0
 30
0.0
 11
617.305222
 21
-90.0
 31
0.0
  0
LINE
  5
5D8
100
AcDbEntity
  8
V0-VYPLNE
100
AcDbLine
 10
608.278319
 20
-98.629782
 30
0.0
 11
608.278319
 21
-80.94382
 31
0.0
  0
LINE
  5
5D9
100
AcDbEntity
  8
V0-VYPLNE
100
AcDbLine
 10
-424.29761
 20
329.997093
 30
0.0
 11
-403.296104
 21
329.997093
 31
0.0
  0
LINE
  5
5DA
100
AcDbEntity
  8
V0-VYPLNE
100
AcDbLine
 10
608.278319
 20
338.629782
 30
0.0
 11
608.278319
 21
320.94382
 31
0.0
  0
CIRCLE
  5
5DB
100
AcDbEntity
  8
V0-OBRYS
100
AcDbCircle
 10
608.278319
 20
330.0
 30
0.0
 40
4.5
  0
CIRCLE
  5
5DC
100
AcDbEntity
  8
V0-OBRYS
100
AcDbCircle
 10
1328.278319
 20
329.0
 30
0.0
 40
4.5
  0
LINE
  5
5DD
100
AcDbEntity
  8
V0-VYPLNE
100
AcDbLine
 10
1328.278319
 20
337.629782
 30
0.0
 11
1328.278319
 21
319.94382
 31
0.0
  0
LINE
  5
5DE
100
AcDbEntity
  8
V0-VYPLNE
100
AcDbLine
 10
1337.229163
 20
329.0
 30
0.0
 11
1322.511629
 21
329.0
 31
0.0
  0
LINE
  5
5DF
100
AcDbEntity
  8
V0-VYPLNE
100
AcDbLine
 10
1337.229163
 20
-89.0
 30
0.0
 11
1322.511629
 21
-89.0
 31
0.0
  0
LINE
  5
5E0
100
AcDbEntity
  8
V0-VYPLNE
100
AcDbLine
 10
1328.278319
 20
-97.629782
 30
0.0
 11
1328.278319
 21
-79.94382
 31
0.0
  0
CIRCLE
  5
5E1
100
AcDbEntity
  8
V0-OBRYS
100
AcDbCircle
 10
1328.278319
 20
-89.0
 30
0.0
 40
4.5
  0
LINE
  5
5E2
100
AcDbEntity
  8
V0-VYPLNE
100
AcDbLine
 10
1322.511629
 20
-89.0
 30
0.0
 11
1319.251416
 21
-89.0
 31
0.0
  0
LINE
  5
5E8
100
AcDbEntity
  8
V0-OBRYS
100
AcDbLine
 10
367.753566
 20
-100.002907
 30
0.0
 11
367.753566
 21
339.997093
 31
0.0
  0
LINE
  5
5E9
100
AcDbEntity
  8
V0-OBRYS
100
AcDbLine
 10
-417.246434
 20
-100.002907
 30
0.0
 11
-417.246434
 21
339.997093
 31
0.0
  0
LINE
  5
5EC
100
AcDbEntity
  8
V0-OBRYS
100
AcDbLine
 10
367.753566
 20
339.997093
 30
0.0
 11
362.753566
 21
339.997093
 31
0.0
  0
LINE
  5
5ED
100
AcDbEntity
  8
V0-OBRYS
100
AcDbLine
 10
608.278319
 20
-100.0
 30
0.0
 11
1328.278319
 21
-100.0
 31
0.0
  0
LINE
  5
5EE
100
AcDbEntity
  8
V0-OBRYS
100
AcDbLine
 10
362.753566
 20
319.997093
 30
0.0
 11
-412.246434
 21
319.997093
 31
0.0
  0
LINE
  5
5EF
100
AcDbEntity
  8
V0-OBRYS
100
AcDbLine
 10
-412.246434
 20
-80.002907
 30
0.0
 11
362.753566
 21
-80.002907
 31
0.0
  0
LINE
  5
5F1
100
AcDbEntity
  8
V0-OBRYS
100
AcDbLine
 10
-412.246434
 20
-100.002907
 30
0.0
 11
-412.246434
 21
339.997093
 31
0.0
  0
LINE
  5
5F2
100
AcDbEntity
  8
V0-OBRYS
100
AcDbLine
 10
362.753566
 20
-100.002907
 30
0.0
 11
362.753566
 21
339.997093
 31
0.0
  0
LINE
  5
5F3
100
AcDbEntity
  8
V0-OBRYS
100
AcDbLine
 10
-412.246434
 20
339.997093
 30
0.0
 11
-417.246434
 21
339.997093
 31
0.0
  0
LINE
  5
5F4
100
AcDbEntity
  8
V0-OBRYS
100
AcDbLine
 10
362.753566
 20
-100.002907
 30
0.0
 11
367.753566
 21
-100.002907
 31
0.0
  0
LINE
  5
5F7
100
AcDbEntity
  8
V0-VYPLNE
100
AcDbLine
 10
592.947673
 20
330.0
 30
0.0
 11
614.045008
 21
330.0
 31
0.0
  0
LINE
  5
5F8
100
AcDbEntity
  8
V0-VYPLNE
100
AcDbLine
 10
592.947673
 20
-90.0
 30
0.0
 11
614.045008
 21
-90.0
 31
0.0
  0
LINE
  5
5F9
100
AcDbEntity
  8
V0-VYPLNE
100
AcDbLine
 10
355.920052
 20
329.997093
 30
0.0
 11
375.012329
 21
329.997093
 31
0.0
  0
LINE
  5
5FA
100
AcDbEntity
  8
V0-VYPLNE
100
AcDbLine
 10
354.965436
 20
-90.002907
 30
0.0
 11
373.1031
 21
-90.002907
 31
0.0
  0
LINE
  5
5FB
100
AcDbEntity
  8
V0-OBRYS
100
AcDbLine
 10
362.753566
 20
-993.920635
 30
0.0
 11
362.753566
 21
-253.920635
 31
0.0
  0
LINE
  5
5FC
100
AcDbEntity
  8
V0-OBRYS
100
AcDbLine
 10
-412.246434
 20
-993.920635
 30
0.0
 11
-412.246434
 21
-253.920635
 31
0.0
  0
LINE
  5
5FD
100
AcDbEntity
  8
V0-OBRYS
100
AcDbLine
 10
-417.246434
 20
-993.920635
 30
0.0
 11
-417.246434
 21
-253.920635
 31
0.0
  0
LINE
  5
5FE
100
AcDbEntity
  8
V0-OBRYS
100
AcDbLine
 10
367.753566
 20
-993.920635
 30
0.0
 11
367.753566
 21
-253.920635
 31
0.0
  0
LINE
  5
5FF
100
AcDbEntity
  8
V0-OBRYS
100
AcDbLine
 10
-417.246434
 20
-993.920635
 30
0.0
 11
-412.246434
 21
-993.920635
 31
0.0
  0
LINE
  5
600
100
AcDbEntity
  8
V0-OBRYS
100
AcDbLine
 10
362.753566
 20
-993.920635
 30
0.0
 11
367.753566
 21
-993.920635
 31
0.0
  0
LINE
  5
601
100
AcDbEntity
  8
V0-OBRYS
100
AcDbLine
 10
-412.246434
 20
-973.920635
 30
0.0
 11
362.753566
 21
-973.920635
 31
0.0
  0
LINE
  5
602
100
AcDbEntity
  8
V0-OBRYS
100
AcDbLine
 10
362.753566
 20
-273.920635
 30
0.0
 11
-412.246434
 21
-273.920635
 31
0.0
  0
LINE
  5
603
100
AcDbEntity
  8
V0-VYPLNE
100
AcDbLine
 10
-424.29761
 20
-983.920635
 30
0.0
 11
-403.296104
 21
-983.920635
 31
0.0
  0
LINE
  5
604
100
AcDbEntity
  8
V0-VYPLNE
100
AcDbLine
 10
-424.29761
 20
-263.920635
 30
0.0
 11
-403.296104
 21
-263.920635
 31
0.0
  0
LINE
  5
605
100
AcDbEntity
  8
V0-OBRYS
100
AcDbLine
 10
-412.246434
 20
-253.920635
 30
0.0
 11
-417.246434
 21
-253.920635
 31
0.0
  0
LINE
  5
606
100
AcDbEntity
  8
V0-VYPLNE
100
AcDbLine
 10
354.965436
 20
-983.920635
 30
0.0
 11
373.1031
 21
-983.920635
 31
0.0
  0
LINE
  5
607
100
AcDbEntity
  8
V0-VYPLNE
100
AcDbLine
 10
355.920052
 20
-263.920635
 30
0.0
 11
375.012329
 21
-263.920635
 31
0.0
  0
LINE
  5
608
100
AcDbEntity
  8
V0-OBRYS
100
AcDbLine
 10
367.753566
 20
-253.920635
 30
0.0
 11
362.753566
 21
-253.920635
 31
0.0
  0
MTEXT
  5
63C
100
AcDbEntity
  8
V0-ZBYTEK
 62
   130
100
AcDbMText
 10
984.857171
 20
375.438032
 30
0.0
 40
21.0
 41
594.8886
 71
     5
 72
     5
  1
POHLED NA VYSTUPNI STRANU
  7
ED10
  0
DIMENSION
  5
67D
100
AcDbEntity
  8
V0-VYPLNE
  6
CONTINUOUS
100
AcDbDimension
  2
*D1
 10
367.753566
 20
368.535366
 30
0.0
 11
-39.746434
 21
368.535366
 31
0.0
 70
   160
  3
ED30
100
AcDbAlignedDimension
 13
-417.246434
 23
339.997093
 33
0.0
 14
367.753566
 24
340.997093
 34
0.0
100
AcDbRotatedDimension
1001
ACAD
1000
DSTYLE
1002
{
1070
   340
1005
B56
1070
   147
1040
3.0
1002
}
  0
DIMENSION
  5
695
100
AcDbEntity
  8
V0-VYPLNE
  6
CONTINUOUS
100
AcDbDimension
  2
*D7
 10
1469.097189
 20
-100.0
 30
0.0
 11
1469.097189
 21
120.0
 31
0.0
 70
   160
  3
ED30
100
AcDbAlignedDimension
 13
1318.278319
 23
340.0
 33
0.0
 14
1318.278319
 24
-100.0
 34
0.0
 50
90.0
100
AcDbRotatedDimension
1001
ACAD
1000
DSTYLE
1002
{
1070
   340
1005
B56
1070
   147
1040
3.0
1002
}
  0
DIMENSION
  5
6A2
100
AcDbEntity
  8
V0-VYPLNE
  6
CONTINUOUS
100
AcDbDimension
  2
*D6
 10
1428.427958
 20
-90.0
 30
0.0
 11
1428.427958
 21
120.0
 31
0.0
 70
   160
  3
ED30
100
AcDbAlignedDimension
 13
1337.229163
 23
330.0
 33
0.0
 14
1338.278319
 24
-90.0
 34
0.0
 50
90.0
100
AcDbRotatedDimension
1001
ACAD
1000
DSTYLE
1002
{
1070
   340
1005
B56
1070
   147
1040
3.0
1002
}
  0
DIMENSION
  5
6BC
100
AcDbEntity
  8
V0-VYPLNE
  6
CONTINUOUS
100
AcDbDimension
  2
*D4
 10
1318.278319
 20
-151.564949
 30
0.0
 11
968.278319
 21
-151.564949
 31
0.0
 70
   160
  3
ED30
100
AcDbAlignedDimension
 13
618.278319
 23
-100.0
 33
0.0
 14
1318.278319
 24
-100.0
 34
0.0
100
AcDbRotatedDimension
1001
ACAD
1000
DSTYLE
1002
{
1070
   340
1005
B56
1070
   147
1040
3.0
1002
}
  0
DIMENSION
  5
6C9
100
AcDbEntity
  8
V0-VYPLNE
  6
CONTINUOUS
100
AcDbDimension
  2
*D3
 10
1328.278319
 20
-198.011666
 30
0.0
 11
968.278319
 21
-198.011666
 31
0.0
 70
   160
  3
ED30
100
AcDbAlignedDimension
 13
608.278319
 23
-98.629782
 33
0.0
 14
1328.278319
 24
-98.629782
 34
0.0
100
AcDbRotatedDimension
1001
ACAD
1000
DSTYLE
1002
{
1070
   340
1005
B56
1070
   147
1040
3.0
1002
}
  0
DIMENSION
  5
6D6
100
AcDbEntity
  8
V0-VYPLNE
  6
CONTINUOUS
100
AcDbDimension
  2
*D2
 10
1338.278319
 20
-250.26422
 30
0.0
 11
968.278319
 21
-250.26422
 31
0.0
 70
   160
  3
ED30
100
AcDbAlignedDimension
 13
598.278319
 23
-80.0
 33
0.0
 14
1338.278319
 24
-80.0
 34
0.0
100
AcDbRotatedDimension
1001
ACAD
1000
DSTYLE
1002
{
1070
   340
1005
B56
1070
   147
1040
3.0
1002
}
  0
LINE
  5
6D7
100
AcDbEntity
  8
V0-VYPLNE
  6
CONTINUOUS
100
AcDbLine
 10
-178.52796
 20
104.822004
 30
0.0
 11
-86.58422
 21
104.822004
 31
0.0
  0
LINE
  5
6D8
100
AcDbEntity
  8
V0-VYPLNE
  6
CONTINUOUS
100
AcDbLine
 10
-113.017302
 20
115.408651
 30
0.0
 11
-86.58422
 21
104.822004
 31
0.0
  0
LINE
  5
6D9
100
AcDbEntity
  8
V0-VYPLNE
  6
CONTINUOUS
100
AcDbLine
 10
-113.017302
 20
94.235358
 30
0.0
 11
-86.58422
 21
104.822004
 31
0.0
  0
POINT
  5
6DB
100
AcDbEntity
  8
V0-VYPLNE
100
AcDbPoint
 10
-417.246434
 20
119.997093
 30
0.0
  0
POINT
  5
6DC
100
AcDbEntity
  8
V0-VYPLNE
100
AcDbPoint
 10
-417.246434
 20
-623.920635
 30
0.0
  0
LINE
  5
6E1
100
AcDbEntity
  8
V0-VYPLNE
  6
CONTINUOUS
100
AcDbLine
 10
-324.372629
 20
-613.929984
 30
0.0
 11
-297.939547
 21
-624.51663
 31
0.0
  0
LINE
  5
6E2
100
AcDbEntity
  8
V0-VYPLNE
  6
CONTINUOUS
100
AcDbLine
 10
-389.883286
 20
-624.51663
 30
0.0
 11
-297.939547
 21
-624.51663
 31
0.0
  0
LINE
  5
6E3
100
AcDbEntity
  8
V0-VYPLNE
  6
CONTINUOUS
100
AcDbLine
 10
-324.372629
 20
-635.103277
 30
0.0
 11
-297.939547
 21
-624.51663
 31
0.0
  0
MTEXT
  5
6E8
100
AcDbEntity
  8
V0-NAZVY
100
AcDbMText
 10
-36.407545
 20
222.004351
 30
0.0
 40
37.5
 41
308.4608
 71
     5
 72
     5
  1
ILB/ILT 355
  7
ED10
  0
MTEXT
  5
6E9
100
AcDbEntity
  8
V0-NAZVY
100
AcDbMText
 10
-249.211442
 20
-330.819897
 30
0.0
 40
37.5
 41
308.4608
 71
     5
 72
     5
  1
ILB/ILT 355
  7
ED10
  0
MTEXT
  5
6EA
100
AcDbEntity
  8
V0-NAZVY
100
AcDbMText
 10
965.248092
 20
265.944339
 30
0.0
 40
37.5
 41
308.4608
 71
     5
 72
     5
  1
ILB/ILT 355
  7
ED10
  0
LEADER
  5
6F1
100
AcDbEntity
  8
V0-VYPLNE
100
AcDbLeader
  3
ED30
 73
     0
 75
     1
 40
20.0
 41
27.43187
 76
     3
 10
604.909814
 20
326.924337
 30
0.0
 10
592.82661
 20
281.716697
 30
0.0
 10
567.82661
 20
281.716697
 30
0.0
 77
   256
340
6F2
1001
ACAD
1000
DSTYLE
1002
{
1070
   340
1005
B56
1070
   147
1040
3.0
1002
}
  0
MTEXT
  5
6F2
102
{ACAD_REACTORS
330
6F1
102
}
100
AcDbEntity
  8
V0-VYPLNE
100
AcDbMText
 10
564.82661
 20
294.716697
 30
0.0
 40
20.0
 41
0.0
 71
     6
 72
     1
  1
\A1;%%c9
  7
ED20
  0
DIMENSION
  5
7C0
100
AcDbEntity
  8
V0-VYPLNE
  6
CONTINUOUS
 62
    41
100
AcDbDimension
  2
*D5
 10
1384.853782
 20
-79.0
 30
0.0
 11
1384.853782
 21
120.0
 31
0.0
 70
   160
  3
ED30
100
AcDbAlignedDimension
 13
1338.278319
 23
319.0
 33
0.0
 14
1338.278319
 24
-79.0
 34
0.0
 50
90.0
100
AcDbRotatedDimension
1001
ACAD
1000
DSTYLE
1002
{
1070
   340
1005
B56
1070
   147
1040
3.0
1002
}
  0
LINE
  5
908
100
AcDbEntity
  8
V0-OBRYS
100
AcDbLine
 10
618.278319
 20
191.635408
 30
0.0
 11
1318.278319
 21
191.635408
 31
0.0
  0
LINE
  5
A4D
100
AcDbEntity
  8
V0-OBRYS
100
AcDbLine
 10
1010.089101
 20
191.319807
 30
0.0
 11
1010.089101
 21
-79.0
 31
0.0
  0
LINE
  5
A4E
100
AcDbEntity
  8
V0-VYPLNE
  6
CONTINUOUS
 62
    52
100
AcDbLine
 10
1032.341713
 20
136.443676
 30
0.0
 11
1032.341713
 21
-65.295308
 31
0.0
  0
LINE
  5
A4F
100
AcDbEntity
  8
V0-VYPLNE
  6
CONTINUOUS
 62
    52
100
AcDbLine
 10
1092.717935
 20
136.443676
 30
0.0
 11
1092.717935
 21
-65.295308
 31
0.0
  0
LINE
  5
A50
100
AcDbEntity
  8
V0-VYPLNE
  6
CONTINUOUS
 62
    52
100
AcDbLine
 10
1144.134715
 20
136.443676
 30
0.0
 11
1144.134715
 21
-65.295308
 31
0.0
  0
LINE
  5
A51
100
AcDbEntity
  8
V0-OBRYS
100
AcDbLine
 10
1220.508821
 20
-65.295308
 30
0.0
 11
1220.508821
 21
136.443676
 31
0.0
  0
LINE
  5
A52
100
AcDbEntity
  8
V0-VYPLNE
  6
CONTINUOUS
 62
    52
100
AcDbLine
 10
1180.61906
 20
136.443676
 30
0.0
 11
1180.61906
 21
-65.295308
 31
0.0
  0
LINE
  5
A53
100
AcDbEntity
  8
V0-OBRYS
100
AcDbLine
 10
1010.089101
 20
-65.295308
 30
0.0
 11
1220.508821
 21
-65.295308
 31
0.0
  0
LINE
  5
A55
100
AcDbEntity
  8
V0-OBRYS
100
AcDbLine
 10
1220.508821
 20
136.443676
 30
0.0
 11
1010.089101
 21
136.443676
 31
0.0
  0
LINE
  5
A56
100
AcDbEntity
  8
V0-OBRYS
100
AcDbLine
 10
1010.089101
 20
150.079348
 30
0.0
 11
1105.231128
 21
150.079348
 31
0.0
  0
LINE
  5
A57
100
AcDbEntity
  8
V0-OBRYS
100
AcDbLine
 10
1080.408962
 20
150.079348
 30
0.0
 11
1080.408962
 21
136.443676
 31
0.0
  0
POINT
  5
BCD
100
AcDbEntity
  8
V0-VYPLNE
  6
CONTINUOUS
 62
    52
100
AcDbPoint
 10
968.278319
 20
120.0
 30
0.0
  0
ARC
  5
C69
100
AcDbEntity
  8
V0-OBRYS
100
AcDbCircle
 10
1158.878031
 20
135.922252
 30
0.0
 40
55.483453
100
AcDbArc
 50
88.834761
 51
165.217
  0
INSERT
  5
CB4
100
AcDbEntity
  8
V0-OBRYS
100
AcDbBlockReference
  2
AZNAK
 10
236.170258
 20
-397.736689
 30
0.0
  0
INSERT
  5
CB5
100
AcDbEntity
  8
V0-OBRYS
100
AcDbBlockReference
  2
AZNAK
 10
59.293304
 20
100.999779
 30
0.0
  0
INSERT
  5
CB6
100
AcDbEntity
  8
V0-OBRYS
100
AcDbBlockReference
  2
AZNAK
 10
859.970855
 20
57.354933
 30
0.0
  0
ARC
  5
CE1
100
AcDbEntity
  8
V0-VYPLNE
  6
DASHED
 62
    52
 48
3.0
100
AcDbCircle
 10
343.803678
 20
-1305.230991
 30
0.0
 40
1024.55144
100
AcDbArc
 50
89.227405
 51
111.825582
  0
ARC
  5
CE2
100
AcDbEntity
  8
V0-VYPLNE
  6
DASHED
 62
    52
 48
3.0
100
AcDbCircle
 10
195.048228
 20
-820.799988
 30
0.0
 40
521.235555
100
AcDbArc
 50
116.44849
 51
141.790666
  0
ARC
  5
CE3
100
AcDbEntity
  8
V0-VYPLNE
  6
DASHED
 62
    52
 48
3.0
100
AcDbCircle
 10
-126.416225
 20
-790.266639
 30
0.0
 40
76.532316
100
AcDbArc
 50
257.175907
 51
309.010287
  0
ARC
  5
CE4
100
AcDbEntity
  8
V0-VYPLNE
  6
DASHED
 62
    52
 48
3.0
100
AcDbCircle
 10
-146.030074
 20
-738.181606
 30
0.0
 40
76.532316
100
AcDbArc
 50
239.175907
 51
291.010287
  0
ARC
  5
CE5
100
AcDbEntity
  8
V0-VYPLNE
  6
DASHED
 62
    52
 48
3.0
100
AcDbCircle
 10
-59.758171
 20
-547.686585
 30
0.0
 40
76.532316
100
AcDbArc
 50
167.175907
 51
219.010287
  0
ARC
  5
CE6
100
AcDbEntity
  8
V0-VYPLNE
  6
DASHED
 62
    52
 48
3.0
100
AcDbCircle
 10
28.202829
 20
-702.305639
 30
0.0
 40
183.119919
100
AcDbArc
 50
91.687982
 51
89.730531
  0
CIRCLE
  5
CE7
100
AcDbEntity
  8
V0-VYPLNE
  6
DASHED
 62
    52
 48
3.0
100
AcDbCircle
 10
28.202829
 20
-702.305639
 30
0.0
 40
235.267344
  0
ARC
  5
CE8
100
AcDbEntity
  8
V0-VYPLNE
  6
DASHED
 62
    52
 48
3.0
100
AcDbCircle
 10
-148.588792
 20
-682.584783
 30
0.0
 40
76.532316
100
AcDbArc
 50
221.175907
 51
273.010287
  0
ARC
  5
CE9
100
AcDbEntity
  8
V0-VYPLNE
  6
DASHED
 62
    52
 48
3.0
100
AcDbCircle
 10
218.555951
 20
-689.140217
 30
0.0
 40
425.979996
100
AcDbArc
 50
192.990197
 51
193.153718
  0
ARC
  5
CEA
100
AcDbEntity
  8
V0-VYPLNE
  6
DASHED
 62
    52
 48
3.0
100
AcDbCircle
 10
-103.232969
 20
-582.435624
 30
0.0
 40
76.532316
100
AcDbArc
 50
185.175907
 51
237.010287
  0
ARC
  5
CEB
100
AcDbEntity
  8
V0-VYPLNE
  6
DASHED
 62
    52
 48
3.0
100
AcDbCircle
 10
-133.841915
 20
-628.918375
 30
0.0
 40
76.532316
100
AcDbArc
 50
203.175907
 51
255.010287
  0
ARC
  5
CEC
100
AcDbEntity
  8
V0-VYPLNE
  6
DASHED
 62
    52
 48
3.0
100
AcDbCircle
 10
28.202829
 20
-702.305639
 30
0.0
 40
247.541805
100
AcDbArc
 50
299.236959
 51
3.688819
  0
ARC
  5
CED
100
AcDbEntity
  8
V0-VYPLNE
  6
DASHED
 62
    52
 48
3.0
100
AcDbCircle
 10
190.247572
 20
-775.692903
 30
0.0
 40
76.532316
100
AcDbArc
 50
23.175907
 51
75.010287
  0
LINE
  5
CEE
100
AcDbEntity
  8
V0-VYPLNE
  6
DASHED
 62
    52
 48
3.0
100
AcDbLine
 10
28.202829
 20
-702.305639
 30
0.0
 11
28.202829
 21
-761.75705
 31
0.0
  0
ARC
  5
CEF
100
AcDbEntity
  8
V0-VYPLNE
  6
DASHED
 62
    52
 48
3.0
100
AcDbCircle
 10
116.163829
 20
-856.924693
 30
0.0
 40
76.532316
100
AcDbArc
 50
347.175907
 51
39.010287
  0
ARC
  5
CF0
100
AcDbEntity
  8
V0-VYPLNE
  6
DASHED
 62
    52
 48
3.0
100
AcDbCircle
 10
-45.184435
 20
-864.350383
 30
0.0
 40
76.532316
100
AcDbArc
 50
293.175907
 51
345.010287
  0
ARC
  5
CF1
100
AcDbEntity
  8
V0-VYPLNE
  6
DASHED
 62
    52
 48
3.0
100
AcDbCircle
 10
-91.667186
 20
-833.741437
 30
0.0
 40
76.532316
100
AcDbArc
 50
275.175907
 51
327.010287
  0
ARC
  5
CF2
100
AcDbEntity
  8
V0-VYPLNE
  6
DASHED
 62
    52
 48
3.0
100
AcDbCircle
 10
8.481973
 20
-879.09726
 30
0.0
 40
76.532316
100
AcDbArc
 50
311.175907
 51
3.010287
  0
ARC
  5
CF3
100
AcDbEntity
  8
V0-VYPLNE
  6
DASHED
 62
    52
 48
3.0
100
AcDbCircle
 10
64.078796
 20
-876.538542
 30
0.0
 40
76.532316
100
AcDbArc
 50
329.175907
 51
21.010287
  0
ARC
  5
CF4
100
AcDbEntity
  8
V0-VYPLNE
  6
DASHED
 62
    52
 48
3.0
100
AcDbCircle
 10
159.638626
 20
-822.175654
 30
0.0
 40
76.532316
100
AcDbArc
 50
5.175907
 51
57.010287
  0
ARC
  5
CF5
100
AcDbEntity
  8
V0-VYPLNE
  6
DASHED
 62
    52
 48
3.0
100
AcDbCircle
 10
202.435731
 20
-666.429672
 30
0.0
 40
76.532316
100
AcDbArc
 50
59.175907
 51
111.010287
  0
ARC
  5
CF6
100
AcDbEntity
  8
V0-VYPLNE
  6
DASHED
 62
    52
 48
3.0
100
AcDbCircle
 10
182.821883
 20
-614.344639
 30
0.0
 40
76.532316
100
AcDbArc
 50
77.175907
 51
129.010287
  0
ARC
  5
CF7
100
AcDbEntity
  8
V0-VYPLNE
  6
DASHED
 62
    52
 48
3.0
100
AcDbCircle
 10
101.590092
 20
-540.260896
 30
0.0
 40
76.532316
100
AcDbArc
 50
113.175907
 51
165.010287
  0
ARC
  5
CF8
100
AcDbEntity
  8
V0-VYPLNE
  6
DASHED
 62
    52
 48
3.0
100
AcDbCircle
 10
47.923684
 20
-525.514018
 30
0.0
 40
76.532316
100
AcDbArc
 50
131.175907
 51
183.010287
  0
ARC
  5
CF9
100
AcDbEntity
  8
V0-VYPLNE
  6
DASHED
 62
    52
 48
3.0
100
AcDbCircle
 10
-7.673138
 20
-528.072736
 30
0.0
 40
76.532316
100
AcDbArc
 50
149.175907
 51
201.010287
  0
ARC
  5
CFA
100
AcDbEntity
  8
V0-VYPLNE
  6
DASHED
 62
    52
 48
3.0
100
AcDbCircle
 10
148.072844
 20
-570.869841
 30
0.0
 40
76.532316
100
AcDbArc
 50
95.175907
 51
147.010287
  0
LINE
  5
CFB
100
AcDbEntity
  8
V0-VYPLNE
  6
DASHED
 62
    52
 48
3.0
100
AcDbLine
 10
28.202829
 20
-702.305639
 30
0.0
 11
76.878833
 21
-702.305639
 31
0.0
  0
LINE
  5
CFC
100
AcDbEntity
  8
V0-VYPLNE
  6
DASHED
 62
    52
 48
3.0
100
AcDbLine
 10
28.202829
 20
-702.305639
 30
0.0
 11
28.202829
 21
-642.854228
 31
0.0
  0
LINE
  5
CFD
100
AcDbEntity
  8
V0-VYPLNE
  6
DASHED
 62
    52
 48
3.0
100
AcDbLine
 10
28.202829
 20
-702.305639
 30
0.0
 11
-20.473175
 21
-702.305639
 31
0.0
  0
ARC
  5
CFE
100
AcDbEntity
  8
V0-VYPLNE
  6
DASHED
 62
    52
 48
3.0
100
AcDbCircle
 10
204.99445
 20
-722.026495
 30
0.0
 40
76.532316
100
AcDbArc
 50
41.175907
 51
93.010287
  0
LINE
  5
CFF
100
AcDbEntity
  8
V0-VYPLNE
  6
DASHED
 62
    52
 48
3.0
100
AcDbLine
 10
275.231775
 20
-686.3794
 30
0.0
 11
275.231775
 21
-653.092542
 31
0.0
  0
ARC
  5
D00
100
AcDbEntity
  8
V0-VYPLNE
  6
DASHED
 62
    52
 48
3.0
100
AcDbCircle
 10
289.364107
 20
-650.62324
 30
0.0
 40
14.346437
100
AcDbArc
 50
0.0
 51
189.911078
  0
ARC
  5
D01
100
AcDbEntity
  8
V0-VYPLNE
  6
DASHED
 62
    52
 48
3.0
100
AcDbCircle
 10
5.333865
 20
-675.820855
 30
0.0
 40
281.909752
100
AcDbArc
 50
142.02389
 51
300.663833
  0
VIEWPORT
  5
22
100
AcDbEntity
 67
     1
  8
0
100
AcDbViewport
 10
261.517699
 20
161.962666
 30
0.0
 40
523.035398
 41
323.925332
 68
    -1
 69
     1
1001
ACAD
1000
MVIEW
1002
{
1070
    16
1010
0.0
1020
0.0
1030
0.0
1010
0.0
1020
0.0
1030
1.0
1040
0.0
1040
323.925332
1040
261.517699
1040
161.962666
1040
50.0
1040
0.0
1040
0.0
1070
     0
1070
   100
1070
     1
1070
     1
1070
     0
1070
     0
1070
     0
1070
     0
1040
0.0
1040
0.0
1040
0.0
1040
1.0
1040
1.0
1040
10.0
1040
10.0
1070
     0
1002
{
1002
}
1002
}
  0
ENDSEC
  0
SECTION
  2
OBJECTS
  0
DICTIONARY
  5
C
100
AcDbDictionary
  3
ACAD_GROUP
350
D
  3
ACAD_MLINESTYLE
350
E
  3
ACDBVARIABLEDICTIONARY
350
5D
  0
DICTIONARY
  5
D
102
{ACAD_REACTORS
330
C
102
}
100
AcDbDictionary
  0
DICTIONARY
  5
E
102
{ACAD_REACTORS
330
C
102
}
100
AcDbDictionary
  3
STANDARD
350
13
  0
DICTIONARY
  5
5D
102
{ACAD_REACTORS
330
C
102
}
100
AcDbDictionary
  3
DIMADEC
350
5E
  3
SORTENTS
350
3D8
  0
MLINESTYLE
  5
13
102
{ACAD_REACTORS
330
E
102
}
100
AcDbMlineStyle
  2
STANDARD
 70
     0
  3

 62
     0
 51
90.0
 52
90.0
 71
     2
 49
0.5
 62
   256
  6
BYLAYER
 49
-0.5
 62
   256
  6
BYLAYER
  0
DICTIONARYVAR
  5
5E
102
{ACAD_REACTORS
330
5D
102
}
100
DictionaryVariables
280
     0
  1
0
  0
DICTIONARYVAR
  5
3D8
102
{ACAD_REACTORS
330
5D
102
}
100
DictionaryVariables
280
     0
  1
96
  0
ENDSEC
  0
EOF
