  0
SECTION
  2
HEADER
  9
$ACADVER
  1
AC1014
  9
$ACADMAINTVER
 70
     0
  9
$DWGCODEPAGE
  3
ANSI_1250
  9
$INSBASE
 10
0.0
 20
0.0
 30
0.0
  9
$EXTMIN
 10
-264.78101
 20
-828.607897
 30
0.0
  9
$EXTMAX
 10
1235.509354
 20
340.433004
 30
0.0
  9
$LIMMIN
 10
0.0
 20
0.0
  9
$LIMMAX
 10
420.0
 20
297.0
  9
$ORTHOMODE
 70
     1
  9
$REGENMODE
 70
     1
  9
$FILLMODE
 70
     1
  9
$QTEXTMODE
 70
     0
  9
$MIRRTEXT
 70
     1
  9
$DRAGMODE
 70
     2
  9
$LTSCALE
 40
1.0
  9
$OSMODE
 70
    47
  9
$ATTMODE
 70
     1
  9
$TEXTSIZE
 40
2.5
  9
$TRACEWID
 40
1.0
  9
$TEXTSTYLE
  7
ED20
  9
$CLAYER
  8
0
  9
$CELTYPE
  6
BYLAYER
  9
$CECOLOR
 62
   256
  9
$CELTSCALE
 40
1.0
  9
$DELOBJ
 70
     1
  9
$DISPSILH
 70
     0
  9
$DIMSCALE
 40
1.0
  9
$DIMASZ
 40
15.0
  9
$DIMEXO
 40
1.0
  9
$DIMDLI
 40
3.75
  9
$DIMRND
 40
0.0
  9
$DIMDLE
 40
0.0
  9
$DIMEXE
 40
1.25
  9
$DIMTP
 40
0.0
  9
$DIMTM
 40
0.0
  9
$DIMTXT
 40
20.0
  9
$DIMCEN
 40
3.0
  9
$DIMTSZ
 40
0.0
  9
$DIMTOL
 70
     0
  9
$DIMLIM
 70
     0
  9
$DIMTIH
 70
     0
  9
$DIMTOH
 70
     0
  9
$DIMSE1
 70
     0
  9
$DIMSE2
 70
     0
  9
$DIMTAD
 70
     1
  9
$DIMZIN
 70
     8
  9
$DIMBLK
  1

  9
$DIMASO
 70
     1
  9
$DIMSHO
 70
     1
  9
$DIMPOST
  1

  9
$DIMAPOST
  1

  9
$DIMALT
 70
     0
  9
$DIMALTD
 70
     4
  9
$DIMALTF
 40
0.0394
  9
$DIMLFAC
 40
1.0
  9
$DIMTOFL
 70
     1
  9
$DIMTVP
 40
0.0
  9
$DIMTIX
 70
     0
  9
$DIMSOXD
 70
     0
  9
$DIMSAH
 70
     1
  9
$DIMBLK1
  1
_OPEN
  9
$DIMBLK2
  1
_OPEN
  9
$DIMSTYLE
  2
ED20
  9
$DIMCLRD
 70
     0
  9
$DIMCLRE
 70
     0
  9
$DIMCLRT
 70
     0
  9
$DIMTFAC
 40
1.0
  9
$DIMGAP
 40
2.0
  9
$DIMJUST
 70
     0
  9
$DIMSD1
 70
     0
  9
$DIMSD2
 70
     0
  9
$DIMTOLJ
 70
     1
  9
$DIMTZIN
 70
     8
  9
$DIMALTZ
 70
     0
  9
$DIMALTTZ
 70
     0
  9
$DIMFIT
 70
     3
  9
$DIMUPT
 70
     0
  9
$DIMUNIT
 70
     2
  9
$DIMDEC
 70
     0
  9
$DIMTDEC
 70
     1
  9
$DIMALTU
 70
     8
  9
$DIMALTTD
 70
     4
  9
$DIMTXSTY
  7
ED20
  9
$DIMAUNIT
 70
     0
  9
$LUNITS
 70
     2
  9
$LUPREC
 70
     4
  9
$SKETCHINC
 40
1.0
  9
$FILLETRAD
 40
40.0
  9
$AUNITS
 70
     0
  9
$AUPREC
 70
     0
  9
$MENU
  1
.
  9
$ELEVATION
 40
0.0
  9
$PELEVATION
 40
0.0
  9
$THICKNESS
 40
0.0
  9
$LIMCHECK
 70
     0
  9
$BLIPMODE
 70
     0
  9
$CHAMFERA
 40
10.0
  9
$CHAMFERB
 40
10.0
  9
$CHAMFERC
 40
20.0
  9
$CHAMFERD
 40
0.0
  9
$SKPOLY
 70
     1
  9
$TDCREATE
 40
2451196.643769328
  9
$TDUPDATE
 40
2452915.860502546
  9
$TDINDWG
 40
0.2236250000
  9
$TDUSRTIMER
 40
0.2236250000
  9
$USRTIMER
 70
     1
  9
$ANGBASE
 50
0.0
  9
$ANGDIR
 70
     0
  9
$PDMODE
 70
     3
  9
$PDSIZE
 40
10.0
  9
$PLINEWID
 40
0.0
  9
$COORDS
 70
     1
  9
$SPLFRAME
 70
     0
  9
$SPLINETYPE
 70
     6
  9
$SPLINESEGS
 70
     8
  9
$ATTDIA
 70
     0
  9
$ATTREQ
 70
     1
  9
$HANDLING
 70
     1
  9
$HANDSEED
  5
A81
  9
$SURFTAB1
 70
     6
  9
$SURFTAB2
 70
     6
  9
$SURFTYPE
 70
     6
  9
$SURFU
 70
     6
  9
$SURFV
 70
     6
  9
$UCSNAME
  2

  9
$UCSORG
 10
400.0
 20
0.0
 30
0.0
  9
$UCSXDIR
 10
1.0
 20
0.0
 30
0.0
  9
$UCSYDIR
 10
0.0
 20
1.0
 30
0.0
  9
$PUCSNAME
  2

  9
$PUCSORG
 10
0.0
 20
0.0
 30
0.0
  9
$PUCSXDIR
 10
1.0
 20
0.0
 30
0.0
  9
$PUCSYDIR
 10
0.0
 20
1.0
 30
0.0
  9
$USERI1
 70
     0
  9
$USERI2
 70
     0
  9
$USERI3
 70
     0
  9
$USERI4
 70
     0
  9
$USERI5
 70
     0
  9
$USERR1
 40
0.0
  9
$USERR2
 40
0.0
  9
$USERR3
 40
0.0
  9
$USERR4
 40
0.0
  9
$USERR5
 40
0.0
  9
$WORLDVIEW
 70
     1
  9
$SHADEDGE
 70
     3
  9
$SHADEDIF
 70
    70
  9
$TILEMODE
 70
     1
  9
$MAXACTVP
 70
    48
  9
$PINSBASE
 10
0.0
 20
0.0
 30
0.0
  9
$PLIMCHECK
 70
     0
  9
$PEXTMIN
 10
1.000000E+20
 20
1.000000E+20
 30
1.000000E+20
  9
$PEXTMAX
 10
-1.000000E+20
 20
-1.000000E+20
 30
-1.000000E+20
  9
$PLIMMIN
 10
0.0
 20
0.0
  9
$PLIMMAX
 10
420.0
 20
297.0
  9
$UNITMODE
 70
     0
  9
$VISRETAIN
 70
     1
  9
$PLINEGEN
 70
     0
  9
$PSLTSCALE
 70
     0
  9
$TREEDEPTH
 70
  3020
  9
$PICKSTYLE
 70
     1
  9
$CMLSTYLE
  2
STANDARD
  9
$CMLJUST
 70
     0
  9
$CMLSCALE
 40
1.0
  9
$PROXYGRAPHICS
 70
     1
  9
$MEASUREMENT
 70
     1
  0
ENDSEC
  0
SECTION
  2
CLASSES
  0
CLASS
  1
DICTIONARYVAR
  2
AcDbDictionaryVar
  3
"AutoCAD"
 90
        0
280
     0
281
     0
  0
CLASS
  1
LWPOLYLINE
  2
AcDbPolyline
  3
"AutoCAD"
 90
        0
280
     0
281
     1
  0
CLASS
  1
HATCH
  2
AcDbHatch
  3
"ACAD_SEDONA"
 90
        0
280
     0
281
     1
  0
ENDSEC
  0
SECTION
  2
TABLES
  0
TABLE
  2
VPORT
  5
8
100
AcDbSymbolTable
 70
     2
  0
VPORT
  5
A80
100
AcDbSymbolTableRecord
100
AcDbViewportTableRecord
  2
*ACTIVE
 70
     0
 10
0.0
 20
0.0
 11
1.0
 21
1.0
 12
558.760412
 22
-205.079093
 13
0.0
 23
0.0
 14
10.0
 24
10.0
 15
10.0
 25
10.0
 16
0.0
 26
0.0
 36
1.0
 17
0.0
 27
0.0
 37
0.0
 40
1187.411426
 41
1.730469
 42
50.0
 43
0.0
 44
0.0
 50
0.0
 51
0.0
 71
     0
 72
   100
 73
     1
 74
     1
 75
     0
 76
     0
 77
     0
 78
     0
  0
ENDTAB
  0
TABLE
  2
LTYPE
  5
5
100
AcDbSymbolTable
 70
     3
  0
LTYPE
  5
14
100
AcDbSymbolTableRecord
100
AcDbLinetypeTableRecord
  2
BYBLOCK
 70
     0
  3

 72
    65
 73
     0
 40
0.0
  0
LTYPE
  5
15
100
AcDbSymbolTableRecord
100
AcDbLinetypeTableRecord
  2
BYLAYER
 70
     0
  3

 72
    65
 73
     0
 40
0.0
  0
LTYPE
  5
16
100
AcDbSymbolTableRecord
100
AcDbLinetypeTableRecord
  2
CONTINUOUS
 70
     0
  3
Solid line
 72
    65
 73
     0
 40
0.0
  0
LTYPE
  5
7F
100
AcDbSymbolTableRecord
100
AcDbLinetypeTableRecord
  2
DASHDOT
 70
     0
  3
Dash dot __ . __ . __ . __ . __ . __ . __ . __
 72
    65
 73
     4
 40
25.4
 49
12.7
 74
     0
 49
-6.35
 74
     0
 49
0.0
 74
     0
 49
-6.35
 74
     0
  0
LTYPE
  5
80
100
AcDbSymbolTableRecord
100
AcDbLinetypeTableRecord
  2
DASHED
 70
     0
  3
Dashed __ __ __ __ __ __ __ __ __ __ __ __ __ _
 72
    65
 73
     2
 40
19.05
 49
12.7
 74
     0
 49
-6.35
 74
     0
  0
ENDTAB
  0
TABLE
  2
LAYER
  5
2
100
AcDbSymbolTable
 70
     6
  0
LAYER
  5
F
100
AcDbSymbolTableRecord
100
AcDbLayerTableRecord
  2
0
 70
     0
 62
     7
  6
CONTINUOUS
  0
LAYER
  5
9E
100
AcDbSymbolTableRecord
100
AcDbLayerTableRecord
  2
DEFPOINTS
 70
     0
 62
     7
  6
CONTINUOUS
  0
LAYER
  5
377
100
AcDbSymbolTableRecord
100
AcDbLayerTableRecord
  2
V0-OBRYS
 70
     0
 62
    90
  6
CONTINUOUS
  0
LAYER
  5
378
100
AcDbSymbolTableRecord
100
AcDbLayerTableRecord
  2
V0-VYPLNE
 70
     0
 62
    52
  6
CONTINUOUS
  0
LAYER
  5
37A
100
AcDbSymbolTableRecord
100
AcDbLayerTableRecord
  2
V0-NAZVY
 70
     0
 62
   210
  6
CONTINUOUS
  0
LAYER
  5
559
100
AcDbSymbolTableRecord
100
AcDbLayerTableRecord
  2
V0-ZBYTEK
 70
     0
 62
    51
  6
CONTINUOUS
  0
ENDTAB
  0
TABLE
  2
STYLE
  5
3
100
AcDbSymbolTable
 70
     3
  0
STYLE
  5
10
100
AcDbSymbolTableRecord
100
AcDbTextStyleTableRecord
  2
STANDARD
 70
     0
 40
0.0
 41
1.0
 50
0.0
 71
     0
 42
2.5
  3
ISOCP
  4

  0
STYLE
  5
331
100
AcDbSymbolTableRecord
100
AcDbTextStyleTableRecord
  2
ED20
 70
     0
 40
20.0
 41
1.0
 50
0.0
 71
     0
 42
2.5
  3
ISOCP.shx
  4

  0
STYLE
  5
5A7
100
AcDbSymbolTableRecord
100
AcDbTextStyleTableRecord
  2
ED10
 70
     0
 40
10.0
 41
1.0
 50
0.0
 71
     0
 42
10.0
  3
ISOCP.shx
  4

  0
ENDTAB
  0
TABLE
  2
VIEW
  5
6
100
AcDbSymbolTable
 70
     0
  0
ENDTAB
  0
TABLE
  2
UCS
  5
7
100
AcDbSymbolTable
 70
     0
  0
ENDTAB
  0
TABLE
  2
APPID
  5
9
100
AcDbSymbolTable
 70
     1
  0
APPID
  5
11
100
AcDbSymbolTableRecord
100
AcDbRegAppTableRecord
  2
ACAD
 70
     0
  0
ENDTAB
  0
TABLE
  2
DIMSTYLE
  5
A
100
AcDbSymbolTable
 70
     3
  0
DIMSTYLE
105
1D
100
AcDbSymbolTableRecord
100
AcDbDimStyleTableRecord
  2
STANDARD
 70
     0
  3

  4

  5

  6
_OPEN
  7
_OPEN
 40
0.0
 41
15.0
 42
0.625
 43
3.75
 44
1.25
 45
0.0
 46
0.0
 47
0.0
 48
0.0
140
15.0
141
2.5
142
0.0
143
0.0394
144
1.0
145
0.0
146
1.0
147
3.0
 71
     0
 72
     0
 73
     0
 74
     0
 75
     0
 76
     0
 77
     1
 78
     8
170
     0
171
     4
172
     1
173
     1
174
     0
175
     0
176
     0
177
     0
178
     0
270
     2
271
     0
272
     1
273
     8
274
     4
340
331
275
     0
280
     0
281
     0
282
     0
283
     1
284
     8
285
     0
286
     0
287
     3
288
     0
  0
DIMSTYLE
105
397
102
{ACAD_REACTORS
330
67D
330
6D6
330
6C9
330
6BC
330
7C0
330
6A2
330
695
102
}
100
AcDbSymbolTableRecord
100
AcDbDimStyleTableRecord
  2
ED20
 70
     0
  3

  4

  5

  6
_OPEN
  7
_OPEN
 40
1.0
 41
15.0
 42
1.0
 43
3.75
 44
1.25
 45
0.0
 46
0.0
 47
0.0
 48
0.0
140
20.0
141
3.0
142
0.0
143
0.0394
144
1.0
145
0.0
146
1.0
147
2.0
 71
     0
 72
     0
 73
     0
 74
     0
 75
     0
 76
     0
 77
     1
 78
     8
170
     0
171
     4
172
     1
173
     1
174
     0
175
     0
176
     0
177
     0
178
     0
270
     2
271
     0
272
     1
273
     8
274
     4
340
331
275
     0
280
     0
281
     0
282
     0
283
     1
284
     8
285
     0
286
     0
287
     3
288
     0
  0
DIMSTYLE
105
5A8
100
AcDbSymbolTableRecord
100
AcDbDimStyleTableRecord
  2
ED10
 70
     0
  3

  4

  5

  6
_OPEN
  7
_OPEN
 40
1.0
 41
10.0
 42
1.0
 43
3.75
 44
1.25
 45
0.0
 46
0.0
 47
0.0
 48
0.0
140
10.0
141
2.0
142
0.0
143
0.0394
144
1.0
145
0.0
146
1.0
147
1.5
 71
     0
 72
     0
 73
     0
 74
     0
 75
     0
 76
     0
 77
     1
 78
     8
170
     0
171
     4
172
     1
173
     1
174
     0
175
     0
176
     0
177
     0
178
     0
270
     2
271
     0
272
     1
273
     8
274
     4
340
5A7
275
     0
280
     0
281
     0
282
     0
283
     1
284
     8
285
     0
286
     0
287
     3
288
     0
  0
ENDTAB
  0
TABLE
  2
BLOCK_RECORD
  5
1
100
AcDbSymbolTable
 70
    10
  0
BLOCK_RECORD
  5
1A
100
AcDbSymbolTableRecord
100
AcDbBlockTableRecord
  2
*MODEL_SPACE
  0
BLOCK_RECORD
  5
17
100
AcDbSymbolTableRecord
100
AcDbBlockTableRecord
  2
*PAPER_SPACE
  0
BLOCK_RECORD
  5
90
100
AcDbSymbolTableRecord
100
AcDbBlockTableRecord
  2
_OPEN
  0
BLOCK_RECORD
  5
932
100
AcDbSymbolTableRecord
100
AcDbBlockTableRecord
  2
*D1
  0
BLOCK_RECORD
  5
976
100
AcDbSymbolTableRecord
100
AcDbBlockTableRecord
  2
*D2
  0
BLOCK_RECORD
  5
982
100
AcDbSymbolTableRecord
100
AcDbBlockTableRecord
  2
*D3
  0
BLOCK_RECORD
  5
98E
100
AcDbSymbolTableRecord
100
AcDbBlockTableRecord
  2
*D4
  0
BLOCK_RECORD
  5
99A
100
AcDbSymbolTableRecord
100
AcDbBlockTableRecord
  2
*D5
  0
BLOCK_RECORD
  5
9A6
100
AcDbSymbolTableRecord
100
AcDbBlockTableRecord
  2
*D6
  0
BLOCK_RECORD
  5
9B2
100
AcDbSymbolTableRecord
100
AcDbBlockTableRecord
  2
*D7
  0
BLOCK_RECORD
  5
9FF
100
AcDbSymbolTableRecord
100
AcDbBlockTableRecord
  2
AROTOR
  0
BLOCK_RECORD
  5
A22
100
AcDbSymbolTableRecord
100
AcDbBlockTableRecord
  2
AZNAK
  0
ENDTAB
  0
ENDSEC
  0
SECTION
  2
BLOCKS
  0
BLOCK
  5
1B
100
AcDbEntity
  8
0
100
AcDbBlockBegin
  2
*MODEL_SPACE
 70
     0
 10
0.0
 20
0.0
 30
0.0
  3
*MODEL_SPACE
  1

  0
ENDBLK
  5
1C
100
AcDbEntity
  8
0
100
AcDbBlockEnd
  0
BLOCK
  5
18
100
AcDbEntity
 67
     1
  8
0
100
AcDbBlockBegin
  2
*PAPER_SPACE
 70
     0
 10
0.0
 20
0.0
 30
0.0
  3
*PAPER_SPACE
  1

  0
ENDBLK
  5
19
100
AcDbEntity
 67
     1
  8
0
100
AcDbBlockEnd
  0
BLOCK
  5
91
100
AcDbEntity
  8
0
100
AcDbBlockBegin
  2
_OPEN
 70
     0
 10
0.0
 20
0.0
 30
0.0
  3
_OPEN
  1

  0
LINE
  5
92
100
AcDbEntity
  8
0
  6
BYBLOCK
 62
     0
100
AcDbLine
 10
-1.0
 20
0.166667
 30
0.0
 11
0.0
 21
0.0
 31
0.0
  0
LINE
  5
93
100
AcDbEntity
  8
0
  6
BYBLOCK
 62
     0
100
AcDbLine
 10
0.0
 20
0.0
 30
0.0
 11
-1.0
 21
-0.166667
 31
0.0
  0
LINE
  5
94
100
AcDbEntity
  8
0
  6
BYBLOCK
 62
     0
100
AcDbLine
 10
0.0
 20
0.0
 30
0.0
 11
-1.0
 21
0.0
 31
0.0
  0
ENDBLK
  5
95
100
AcDbEntity
  8
0
100
AcDbBlockEnd
  0
BLOCK
  5
933
100
AcDbEntity
  8
0
100
AcDbBlockBegin
  2
*D1
 70
     1
 10
0.0
 20
0.0
 30
0.0
  3
*D1
  1

  0
LINE
  5
934
100
AcDbEntity
  8
0
  6
BYBLOCK
 62
     0
100
AcDbLine
 10
-253.948928
 20
290.997093
 30
0.0
 11
-253.948928
 21
319.785366
 31
0.0
  0
LINE
  5
935
100
AcDbEntity
  8
0
  6
BYBLOCK
 62
     0
100
AcDbLine
 10
391.051072
 20
291.997093
 30
0.0
 11
391.051072
 21
319.785366
 31
0.0
  0
LINE
  5
936
100
AcDbEntity
  8
0
  6
BYBLOCK
 62
     0
100
AcDbLine
 10
-238.948928
 20
318.535366
 30
0.0
 11
376.051072
 21
318.535366
 31
0.0
  0
INSERT
  5
937
100
AcDbEntity
  8
0
  6
BYBLOCK
 62
     0
100
AcDbBlockReference
  2
_OPEN
 10
-253.948928
 20
318.535366
 30
0.0
 41
15.0
 42
15.0
 43
15.0
 50
180.0
  0
INSERT
  5
938
100
AcDbEntity
  8
0
  6
BYBLOCK
 62
     0
100
AcDbBlockReference
  2
_OPEN
 10
391.051072
 20
318.535366
 30
0.0
 41
15.0
 42
15.0
 43
15.0
  0
MTEXT
  5
939
100
AcDbEntity
  8
0
  6
BYBLOCK
 62
     0
100
AcDbMText
 10
53.551072
 20
330.535366
 30
0.0
 40
20.0
 41
0.0
 71
     5
 72
     1
  1
\A1;645
  7
ED20
  0
POINT
  5
93A
100
AcDbEntity
  8
DEFPOINTS
  6
BYBLOCK
 62
     0
100
AcDbPoint
 10
-253.948928
 20
289.997093
 30
0.0
  0
POINT
  5
93B
100
AcDbEntity
  8
DEFPOINTS
  6
BYBLOCK
 62
     0
100
AcDbPoint
 10
391.051072
 20
290.997093
 30
0.0
  0
POINT
  5
93C
100
AcDbEntity
  8
DEFPOINTS
  6
BYBLOCK
 62
     0
100
AcDbPoint
 10
391.051072
 20
318.535366
 30
0.0
  0
ENDBLK
  5
93D
100
AcDbEntity
  8
0
100
AcDbBlockEnd
  0
BLOCK
  5
977
100
AcDbEntity
  8
0
100
AcDbBlockBegin
  2
*D2
 70
     1
 10
0.0
 20
0.0
 30
0.0
  3
*D2
  1

  0
LINE
  5
978
100
AcDbEntity
  8
0
  6
BYBLOCK
 62
     0
100
AcDbLine
 10
491.411286
 20
-31.0
 30
0.0
 11
491.411286
 21
-143.974891
 31
0.0
  0
LINE
  5
979
100
AcDbEntity
  8
0
  6
BYBLOCK
 62
     0
100
AcDbLine
 10
1131.411286
 20
-31.0
 30
0.0
 11
1131.411286
 21
-143.974891
 31
0.0
  0
LINE
  5
97A
100
AcDbEntity
  8
0
  6
BYBLOCK
 62
     0
100
AcDbLine
 10
506.411286
 20
-142.724891
 30
0.0
 11
1116.411286
 21
-142.724891
 31
0.0
  0
INSERT
  5
97B
100
AcDbEntity
  8
0
  6
BYBLOCK
 62
     0
100
AcDbBlockReference
  2
_OPEN
 10
491.411286
 20
-142.724891
 30
0.0
 41
15.0
 42
15.0
 43
15.0
 50
180.0
  0
INSERT
  5
97C
100
AcDbEntity
  8
0
  6
BYBLOCK
 62
     0
100
AcDbBlockReference
  2
_OPEN
 10
1131.411286
 20
-142.724891
 30
0.0
 41
15.0
 42
15.0
 43
15.0
  0
MTEXT
  5
97D
100
AcDbEntity
  8
0
  6
BYBLOCK
 62
     0
100
AcDbMText
 10
811.411286
 20
-130.724891
 30
0.0
 40
20.0
 41
0.0
 71
     5
 72
     1
  1
\A1;640
  7
ED20
  0
POINT
  5
97E
100
AcDbEntity
  8
DEFPOINTS
  6
BYBLOCK
 62
     0
100
AcDbPoint
 10
491.411286
 20
-30.0
 30
0.0
  0
POINT
  5
97F
100
AcDbEntity
  8
DEFPOINTS
  6
BYBLOCK
 62
     0
100
AcDbPoint
 10
1131.411286
 20
-30.0
 30
0.0
  0
POINT
  5
980
100
AcDbEntity
  8
DEFPOINTS
  6
BYBLOCK
 62
     0
100
AcDbPoint
 10
1131.411286
 20
-142.724891
 30
0.0
  0
ENDBLK
  5
981
100
AcDbEntity
  8
0
100
AcDbBlockEnd
  0
BLOCK
  5
983
100
AcDbEntity
  8
0
100
AcDbBlockBegin
  2
*D3
 70
     1
 10
0.0
 20
0.0
 30
0.0
  3
*D3
  1

  0
LINE
  5
984
100
AcDbEntity
  8
0
  6
BYBLOCK
 62
     0
100
AcDbLine
 10
501.411286
 20
-49.629782
 30
0.0
 11
501.411286
 21
-113.620195
 31
0.0
  0
LINE
  5
985
100
AcDbEntity
  8
0
  6
BYBLOCK
 62
     0
100
AcDbLine
 10
1121.411286
 20
-49.629782
 30
0.0
 11
1121.411286
 21
-113.620195
 31
0.0
  0
LINE
  5
986
100
AcDbEntity
  8
0
  6
BYBLOCK
 62
     0
100
AcDbLine
 10
516.411286
 20
-112.370195
 30
0.0
 11
1106.411286
 21
-112.370195
 31
0.0
  0
INSERT
  5
987
100
AcDbEntity
  8
0
  6
BYBLOCK
 62
     0
100
AcDbBlockReference
  2
_OPEN
 10
501.411286
 20
-112.370195
 30
0.0
 41
15.0
 42
15.0
 43
15.0
 50
180.0
  0
INSERT
  5
988
100
AcDbEntity
  8
0
  6
BYBLOCK
 62
     0
100
AcDbBlockReference
  2
_OPEN
 10
1121.411286
 20
-112.370195
 30
0.0
 41
15.0
 42
15.0
 43
15.0
  0
MTEXT
  5
989
100
AcDbEntity
  8
0
  6
BYBLOCK
 62
     0
100
AcDbMText
 10
811.411286
 20
-100.368227
 30
0.0
 40
20.0
 41
0.0
 71
     5
 72
     1
  1
\A1;620
  7
ED20
  0
POINT
  5
98A
100
AcDbEntity
  8
DEFPOINTS
  6
BYBLOCK
 62
     0
100
AcDbPoint
 10
501.411286
 20
-48.629782
 30
0.0
  0
POINT
  5
98B
100
AcDbEntity
  8
DEFPOINTS
  6
BYBLOCK
 62
     0
100
AcDbPoint
 10
1121.411286
 20
-48.629782
 30
0.0
  0
POINT
  5
98C
100
AcDbEntity
  8
DEFPOINTS
  6
BYBLOCK
 62
     0
100
AcDbPoint
 10
1121.411286
 20
-112.370195
 30
0.0
  0
ENDBLK
  5
98D
100
AcDbEntity
  8
0
100
AcDbBlockEnd
  0
BLOCK
  5
98F
100
AcDbEntity
  8
0
100
AcDbBlockBegin
  2
*D4
 70
     1
 10
0.0
 20
0.0
 30
0.0
  3
*D4
  1

  0
LINE
  5
990
100
AcDbEntity
  8
0
  6
BYBLOCK
 62
     0
100
AcDbLine
 10
511.411286
 20
-51.0
 30
0.0
 11
511.411286
 21
-82.966186
 31
0.0
  0
LINE
  5
991
100
AcDbEntity
  8
0
  6
BYBLOCK
 62
     0
100
AcDbLine
 10
1111.411286
 20
-51.0
 30
0.0
 11
1111.411286
 21
-82.966186
 31
0.0
  0
LINE
  5
992
100
AcDbEntity
  8
0
  6
BYBLOCK
 62
     0
100
AcDbLine
 10
526.411286
 20
-81.716186
 30
0.0
 11
1096.411286
 21
-81.716186
 31
0.0
  0
INSERT
  5
993
100
AcDbEntity
  8
0
  6
BYBLOCK
 62
     0
100
AcDbBlockReference
  2
_OPEN
 10
511.411286
 20
-81.716186
 30
0.0
 41
15.0
 42
15.0
 43
15.0
 50
180.0
  0
INSERT
  5
994
100
AcDbEntity
  8
0
  6
BYBLOCK
 62
     0
100
AcDbBlockReference
  2
_OPEN
 10
1111.411286
 20
-81.716186
 30
0.0
 41
15.0
 42
15.0
 43
15.0
  0
MTEXT
  5
995
100
AcDbEntity
  8
0
  6
BYBLOCK
 62
     0
100
AcDbMText
 10
811.411286
 20
-69.716186
 30
0.0
 40
20.0
 41
0.0
 71
     5
 72
     1
  1
\A1;600
  7
ED20
  0
POINT
  5
996
100
AcDbEntity
  8
DEFPOINTS
  6
BYBLOCK
 62
     0
100
AcDbPoint
 10
511.411286
 20
-50.0
 30
0.0
  0
POINT
  5
997
100
AcDbEntity
  8
DEFPOINTS
  6
BYBLOCK
 62
     0
100
AcDbPoint
 10
1111.411286
 20
-50.0
 30
0.0
  0
POINT
  5
998
100
AcDbEntity
  8
DEFPOINTS
  6
BYBLOCK
 62
     0
100
AcDbPoint
 10
1111.411286
 20
-81.716186
 30
0.0
  0
ENDBLK
  5
999
100
AcDbEntity
  8
0
100
AcDbBlockEnd
  0
BLOCK
  5
99B
100
AcDbEntity
  8
0
100
AcDbBlockBegin
  2
*D5
 70
     1
 10
0.0
 20
0.0
 30
0.0
  3
*D5
  1

  0
LINE
  5
99C
100
AcDbEntity
  8
0
  6
BYBLOCK
 62
     0
100
AcDbLine
 10
1132.411286
 20
269.0
 30
0.0
 11
1171.303932
 21
269.0
 31
0.0
  0
LINE
  5
99D
100
AcDbEntity
  8
0
  6
BYBLOCK
 62
     0
100
AcDbLine
 10
1132.411286
 20
-29.0
 30
0.0
 11
1171.303932
 21
-29.0
 31
0.0
  0
LINE
  5
99E
100
AcDbEntity
  8
0
  6
BYBLOCK
 62
     0
100
AcDbLine
 10
1170.053932
 20
254.0
 30
0.0
 11
1170.053932
 21
-14.0
 31
0.0
  0
INSERT
  5
99F
100
AcDbEntity
  8
0
  6
BYBLOCK
 62
     0
100
AcDbBlockReference
  2
_OPEN
 10
1170.053932
 20
269.0
 30
0.0
 41
15.0
 42
15.0
 43
15.0
 50
90.0
  0
INSERT
  5
9A0
100
AcDbEntity
  8
0
  6
BYBLOCK
 62
     0
100
AcDbBlockReference
  2
_OPEN
 10
1170.053932
 20
-29.0
 30
0.0
 41
15.0
 42
15.0
 43
15.0
 50
270.0
  0
MTEXT
  5
9A1
100
AcDbEntity
  8
0
  6
BYBLOCK
 62
     0
100
AcDbMText
 10
1158.051963
 20
120.0
 30
0.0
 40
20.0
 41
0.0
 71
     5
 72
     1
  1
\A1;298
  7
ED20
 11
0.0
 21
1.0
 31
0.0
  0
POINT
  5
9A2
100
AcDbEntity
  8
DEFPOINTS
  6
BYBLOCK
 62
     0
100
AcDbPoint
 10
1131.411286
 20
269.0
 30
0.0
  0
POINT
  5
9A3
100
AcDbEntity
  8
DEFPOINTS
  6
BYBLOCK
 62
     0
100
AcDbPoint
 10
1131.411286
 20
-29.0
 30
0.0
  0
POINT
  5
9A4
100
AcDbEntity
  8
DEFPOINTS
  6
BYBLOCK
 62
     0
100
AcDbPoint
 10
1170.053932
 20
-29.0
 30
0.0
  0
ENDBLK
  5
9A5
100
AcDbEntity
  8
0
100
AcDbBlockEnd
  0
BLOCK
  5
9A7
100
AcDbEntity
  8
0
100
AcDbBlockBegin
  2
*D6
 70
     1
 10
0.0
 20
0.0
 30
0.0
  3
*D6
  1

  0
LINE
  5
9A8
100
AcDbEntity
  8
0
  6
BYBLOCK
 62
     0
100
AcDbLine
 10
1131.36213
 20
280.0
 30
0.0
 11
1201.050843
 21
280.0
 31
0.0
  0
LINE
  5
9A9
100
AcDbEntity
  8
0
  6
BYBLOCK
 62
     0
100
AcDbLine
 10
1132.411286
 20
-40.0
 30
0.0
 11
1201.050843
 21
-40.0
 31
0.0
  0
LINE
  5
9AA
100
AcDbEntity
  8
0
  6
BYBLOCK
 62
     0
100
AcDbLine
 10
1199.800843
 20
265.0
 30
0.0
 11
1199.800843
 21
-25.0
 31
0.0
  0
INSERT
  5
9AB
100
AcDbEntity
  8
0
  6
BYBLOCK
 62
     0
100
AcDbBlockReference
  2
_OPEN
 10
1199.800843
 20
280.0
 30
0.0
 41
15.0
 42
15.0
 43
15.0
 50
90.0
  0
INSERT
  5
9AC
100
AcDbEntity
  8
0
  6
BYBLOCK
 62
     0
100
AcDbBlockReference
  2
_OPEN
 10
1199.800843
 20
-40.0
 30
0.0
 41
15.0
 42
15.0
 43
15.0
 50
270.0
  0
MTEXT
  5
9AD
100
AcDbEntity
  8
0
  6
BYBLOCK
 62
     0
100
AcDbMText
 10
1187.798874
 20
120.0
 30
0.0
 40
20.0
 41
0.0
 71
     5
 72
     1
  1
\A1;320
  7
ED20
 11
0.0
 21
1.0
 31
0.0
  0
POINT
  5
9AE
100
AcDbEntity
  8
DEFPOINTS
  6
BYBLOCK
 62
     0
100
AcDbPoint
 10
1130.36213
 20
280.0
 30
0.0
  0
POINT
  5
9AF
100
AcDbEntity
  8
DEFPOINTS
  6
BYBLOCK
 62
     0
100
AcDbPoint
 10
1131.411286
 20
-40.0
 30
0.0
  0
POINT
  5
9B0
100
AcDbEntity
  8
DEFPOINTS
  6
BYBLOCK
 62
     0
100
AcDbPoint
 10
1199.800843
 20
-40.0
 30
0.0
  0
ENDBLK
  5
9B1
100
AcDbEntity
  8
0
100
AcDbBlockEnd
  0
BLOCK
  5
9B3
100
AcDbEntity
  8
0
100
AcDbBlockBegin
  2
*D7
 70
     1
 10
0.0
 20
0.0
 30
0.0
  3
*D7
  1

  0
LINE
  5
9B4
100
AcDbEntity
  8
0
  6
BYBLOCK
 62
     0
100
AcDbLine
 10
1112.411286
 20
290.0
 30
0.0
 11
1234.259354
 21
290.0
 31
0.0
  0
LINE
  5
9B5
100
AcDbEntity
  8
0
  6
BYBLOCK
 62
     0
100
AcDbLine
 10
1112.411286
 20
-50.0
 30
0.0
 11
1234.259354
 21
-50.0
 31
0.0
  0
LINE
  5
9B6
100
AcDbEntity
  8
0
  6
BYBLOCK
 62
     0
100
AcDbLine
 10
1233.009354
 20
275.0
 30
0.0
 11
1233.009354
 21
-35.0
 31
0.0
  0
INSERT
  5
9B7
100
AcDbEntity
  8
0
  6
BYBLOCK
 62
     0
100
AcDbBlockReference
  2
_OPEN
 10
1233.009354
 20
290.0
 30
0.0
 41
15.0
 42
15.0
 43
15.0
 50
90.0
  0
INSERT
  5
9B8
100
AcDbEntity
  8
0
  6
BYBLOCK
 62
     0
100
AcDbBlockReference
  2
_OPEN
 10
1233.009354
 20
-50.0
 30
0.0
 41
15.0
 42
15.0
 43
15.0
 50
270.0
  0
MTEXT
  5
9B9
100
AcDbEntity
  8
0
  6
BYBLOCK
 62
     0
100
AcDbMText
 10
1221.009354
 20
120.0
 30
0.0
 40
20.0
 41
0.0
 71
     5
 72
     1
  1
\A1;340
  7
ED20
 11
0.0
 21
1.0
 31
0.0
  0
POINT
  5
9BA
100
AcDbEntity
  8
DEFPOINTS
  6
BYBLOCK
 62
     0
100
AcDbPoint
 10
1111.411286
 20
290.0
 30
0.0
  0
POINT
  5
9BB
100
AcDbEntity
  8
DEFPOINTS
  6
BYBLOCK
 62
     0
100
AcDbPoint
 10
1111.411286
 20
-50.0
 30
0.0
  0
POINT
  5
9BC
100
AcDbEntity
  8
DEFPOINTS
  6
BYBLOCK
 62
     0
100
AcDbPoint
 10
1233.009354
 20
-50.0
 30
0.0
  0
ENDBLK
  5
9BD
100
AcDbEntity
  8
0
100
AcDbBlockEnd
  0
BLOCK
  5
A1D
100
AcDbEntity
  8
0
100
AcDbBlockBegin
  2
AROTOR
 70
     0
 10
0.0
 20
0.0
 30
0.0
  3
AROTOR
  1

  0
ARC
  5
A56
100
AcDbEntity
  8
V0-VYPLNE
  6
DASHED
 62
    52
100
AcDbCircle
 10
183.488866
 20
-350.537996
 30
0.0
 40
595.669442
100
AcDbArc
 50
89.227405
 51
111.825582
  0
ARC
  5
A57
100
AcDbEntity
  8
V0-VYPLNE
  6
DASHED
 62
    52
100
AcDbCircle
 10
97.003139
 20
-68.892063
 30
0.0
 40
303.043927
100
AcDbArc
 50
116.44849
 51
141.790666
  0
ARC
  5
A58
100
AcDbEntity
  8
V0-VYPLNE
  6
DASHED
 62
    52
100
AcDbCircle
 10
-89.894799
 20
-51.140116
 30
0.0
 40
44.495532
100
AcDbArc
 50
257.175907
 51
309.010287
  0
ARC
  5
A59
100
AcDbEntity
  8
V0-VYPLNE
  6
DASHED
 62
    52
100
AcDbCircle
 10
-101.298199
 20
-20.85812
 30
0.0
 40
44.495532
100
AcDbArc
 50
239.175907
 51
291.010287
  0
ARC
  5
A5A
100
AcDbEntity
  8
V0-VYPLNE
  6
DASHED
 62
    52
100
AcDbCircle
 10
-51.140116
 20
89.894799
 30
0.0
 40
44.495532
100
AcDbArc
 50
167.175907
 51
219.010287
  0
ARC
  5
A5B
100
AcDbEntity
  8
V0-VYPLNE
  6
DASHED
 62
    52
100
AcDbCircle
 10
0.0
 20
0.0
 30
0.0
 40
106.465069
100
AcDbArc
 50
91.687982
 51
89.730531
  0
CIRCLE
  5
A5C
100
AcDbEntity
  8
V0-VYPLNE
  6
DASHED
 62
    52
100
AcDbCircle
 10
0.0
 20
0.0
 30
0.0
 40
136.78334
  0
ARC
  5
A5D
100
AcDbEntity
  8
V0-VYPLNE
  6
DASHED
 62
    52
100
AcDbCircle
 10
-102.785826
 20
11.465614
 30
0.0
 40
44.495532
100
AcDbArc
 50
221.175907
 51
273.010287
  0
ARC
  5
A5E
100
AcDbEntity
  8
V0-VYPLNE
  6
DASHED
 62
    52
100
AcDbCircle
 10
110.67042
 20
7.654315
 30
0.0
 40
247.662789
100
AcDbArc
 50
192.990197
 51
193.153718
  0
ARC
  5
A5F
100
AcDbEntity
  8
V0-VYPLNE
  6
DASHED
 62
    52
100
AcDbCircle
 10
-76.416161
 20
69.691869
 30
0.0
 40
44.495532
100
AcDbArc
 50
185.175907
 51
237.010287
  0
ARC
  5
A60
100
AcDbEntity
  8
V0-VYPLNE
  6
DASHED
 62
    52
100
AcDbCircle
 10
-94.21206
 20
42.667014
 30
0.0
 40
44.495532
100
AcDbArc
 50
203.175907
 51
255.010287
  0
ARC
  5
A61
100
AcDbEntity
  8
V0-VYPLNE
  6
DASHED
 62
    52
100
AcDbCircle
 10
0.0
 20
0.0
 30
0.0
 40
143.919654
100
AcDbArc
 50
299.236959
 51
3.688819
  0
ARC
  5
A62
100
AcDbEntity
  8
V0-VYPLNE
  6
DASHED
 62
    52
100
AcDbCircle
 10
94.21206
 20
-42.667014
 30
0.0
 40
44.495532
100
AcDbArc
 50
23.175907
 51
75.010287
  0
LINE
  5
A63
100
AcDbEntity
  8
V0-VYPLNE
  6
DASHDOT
 62
    41
100
AcDbLine
 10
0.0
 20
0.0
 30
0.0
 11
0.0
 21
-34.564774
 31
0.0
  0
ARC
  5
A64
100
AcDbEntity
  8
V0-VYPLNE
  6
DASHED
 62
    52
100
AcDbCircle
 10
51.140116
 20
-89.894799
 30
0.0
 40
44.495532
100
AcDbArc
 50
347.175907
 51
39.010287
  0
ARC
  5
A65
100
AcDbEntity
  8
V0-VYPLNE
  6
DASHED
 62
    52
100
AcDbCircle
 10
-42.667014
 20
-94.21206
 30
0.0
 40
44.495532
100
AcDbArc
 50
293.175907
 51
345.010287
  0
ARC
  5
A66
100
AcDbEntity
  8
V0-VYPLNE
  6
DASHED
 62
    52
100
AcDbCircle
 10
-69.691869
 20
-76.416161
 30
0.0
 40
44.495532
100
AcDbArc
 50
275.175907
 51
327.010287
  0
ARC
  5
A67
100
AcDbEntity
  8
V0-VYPLNE
  6
DASHED
 62
    52
100
AcDbCircle
 10
-11.465614
 20
-102.785826
 30
0.0
 40
44.495532
100
AcDbArc
 50
311.175907
 51
3.010287
  0
ARC
  5
A68
100
AcDbEntity
  8
V0-VYPLNE
  6
DASHED
 62
    52
100
AcDbCircle
 10
20.85812
 20
-101.298199
 30
0.0
 40
44.495532
100
AcDbArc
 50
329.175907
 51
21.010287
  0
ARC
  5
A69
100
AcDbEntity
  8
V0-VYPLNE
  6
DASHED
 62
    52
100
AcDbCircle
 10
76.416161
 20
-69.691869
 30
0.0
 40
44.495532
100
AcDbArc
 50
5.175907
 51
57.010287
  0
ARC
  5
A6A
100
AcDbEntity
  8
V0-VYPLNE
  6
DASHED
 62
    52
100
AcDbCircle
 10
101.298199
 20
20.85812
 30
0.0
 40
44.495532
100
AcDbArc
 50
59.175907
 51
111.010287
  0
ARC
  5
A6B
100
AcDbEntity
  8
V0-VYPLNE
  6
DASHED
 62
    52
100
AcDbCircle
 10
89.894799
 20
51.140116
 30
0.0
 40
44.495532
100
AcDbArc
 50
77.175907
 51
129.010287
  0
ARC
  5
A6C
100
AcDbEntity
  8
V0-VYPLNE
  6
DASHED
 62
    52
100
AcDbCircle
 10
42.667014
 20
94.21206
 30
0.0
 40
44.495532
100
AcDbArc
 50
113.175907
 51
165.010287
  0
ARC
  5
A6D
100
AcDbEntity
  8
V0-VYPLNE
  6
DASHED
 62
    52
100
AcDbCircle
 10
11.465614
 20
102.785826
 30
0.0
 40
44.495532
100
AcDbArc
 50
131.175907
 51
183.010287
  0
ARC
  5
A6E
100
AcDbEntity
  8
V0-VYPLNE
  6
DASHED
 62
    52
100
AcDbCircle
 10
-20.85812
 20
101.298199
 30
0.0
 40
44.495532
100
AcDbArc
 50
149.175907
 51
201.010287
  0
ARC
  5
A6F
100
AcDbEntity
  8
V0-VYPLNE
  6
DASHED
 62
    52
100
AcDbCircle
 10
69.691869
 20
76.416161
 30
0.0
 40
44.495532
100
AcDbArc
 50
95.175907
 51
147.010287
  0
LINE
  5
A70
100
AcDbEntity
  8
V0-VYPLNE
  6
DASHDOT
 62
    41
100
AcDbLine
 10
0.0
 20
0.0
 30
0.0
 11
28.300002
 21
0.0
 31
0.0
  0
LINE
  5
A71
100
AcDbEntity
  8
V0-VYPLNE
  6
DASHDOT
 62
    52
100
AcDbLine
 10
0.0
 20
0.0
 30
0.0
 11
0.0
 21
34.564774
 31
0.0
  0
LINE
  5
A72
100
AcDbEntity
  8
V0-VYPLNE
  6
DASHDOT
 62
    41
100
AcDbLine
 10
0.0
 20
0.0
 30
0.0
 11
-28.300002
 21
0.0
 31
0.0
  0
ARC
  5
A73
100
AcDbEntity
  8
V0-VYPLNE
  6
DASHED
 62
    52
100
AcDbCircle
 10
102.785826
 20
-11.465614
 30
0.0
 40
44.495532
100
AcDbArc
 50
41.175907
 51
93.010287
  0
LINE
  5
A74
100
AcDbEntity
  8
V0-VYPLNE
  6
DASHED
 62
    52
100
AcDbLine
 10
143.62148
 20
9.259441
 30
0.0
 11
143.62148
 21
28.612266
 31
0.0
  0
ARC
  5
A75
100
AcDbEntity
  8
V0-VYPLNE
  6
DASHED
 62
    52
100
AcDbCircle
 10
151.837952
 20
30.047907
 30
0.0
 40
8.340952
100
AcDbArc
 50
0.0
 51
189.911078
  0
ARC
  5
A76
100
AcDbEntity
  8
V0-VYPLNE
  6
DASHED
 62
    52
100
AcDbCircle
 10
-13.295909
 20
15.39813
 30
0.0
 40
163.901019
100
AcDbArc
 50
142.02389
 51
300.663833
  0
ENDBLK
  5
A1E
100
AcDbEntity
  8
0
100
AcDbBlockEnd
  0
BLOCK
  5
A26
100
AcDbEntity
  8
0
100
AcDbBlockBegin
  2
AZNAK
 70
     0
 10
0.0
 20
0.0
 30
0.0
  3
AZNAK
  1

  0
LINE
  5
A23
100
AcDbEntity
  8
V0-NAZVY
 62
   210
100
AcDbLine
 10
-24.212224
 20
-21.995765
 30
0.0
 11
29.715001
 21
-13.197458
 31
0.0
  0
LINE
  5
A24
100
AcDbEntity
  8
V0-NAZVY
 62
   210
100
AcDbLine
 10
-24.212224
 20
21.995765
 30
0.0
 11
29.715001
 21
13.197458
 31
0.0
  0
CIRCLE
  5
A25
100
AcDbEntity
  8
V0-NAZVY
 62
   210
100
AcDbCircle
 10
0.0
 20
0.0
 30
0.0
 40
33.029256
  0
ENDBLK
  5
A27
100
AcDbEntity
  8
0
100
AcDbBlockEnd
  0
ENDSEC
  0
SECTION
  2
ENTITIES
  0
MTEXT
  5
5A9
100
AcDbEntity
  8
V0-ZBYTEK
 62
   130
100
AcDbMText
 10
868.272012
 20
-458.09418
 30
0.0
 40
31.5
 41
892.3329
 71
     5
 72
     5
  1
RADIALNI VENTILATOR 
  7
ED10
  0
MTEXT
  5
5AA
100
AcDbEntity
  8
V0-ZBYTEK
100
AcDbMText
 10
864.685708
 20
-526.279036
 30
0.0
 40
22.5
 41
353.465
 71
     5
 72
     5
  1
PRO CTYRHRANNE POTRUBI
  7
ED10
  0
MTEXT
  5
5AB
100
AcDbEntity
  8
V0-NAZVY
100
AcDbMText
 10
853.835654
 20
-375.64177
 30
0.0
 40
56.25
 41
462.6912
 71
     5
 72
     5
  1
ILB/ILT 285
  7
ED10
  0
LINE
  5
5AD
100
AcDbEntity
  8
V0-OBRYS
100
AcDbLine
 10
-253.948928
 20
-50.002907
 30
0.0
 11
-248.948928
 21
-50.002907
 31
0.0
  0
LINE
  5
5AE
100
AcDbEntity
  8
V0-OBRYS
100
AcDbLine
 10
1131.411286
 20
-40.0
 30
0.0
 11
1131.411286
 21
280.0
 31
0.0
  0
LINE
  5
5AF
100
AcDbEntity
  8
V0-OBRYS
100
AcDbLine
 10
1121.411286
 20
290.0
 30
0.0
 11
501.411286
 21
290.0
 31
0.0
  0
LINE
  5
5B0
100
AcDbEntity
  8
V0-OBRYS
100
AcDbLine
 10
491.411286
 20
280.0
 30
0.0
 11
491.411286
 21
-40.0
 31
0.0
  0
LINE
  5
5B1
100
AcDbEntity
  8
V0-OBRYS
100
AcDbLine
 10
511.411286
 20
290.0
 30
0.0
 11
511.411286
 21
-50.0
 31
0.0
  0
LINE
  5
5B2
100
AcDbEntity
  8
V0-OBRYS
100
AcDbLine
 10
1131.411286
 20
269.0
 30
0.0
 11
491.411286
 21
269.0
 31
0.0
  0
LINE
  5
5B3
100
AcDbEntity
  8
V0-OBRYS
100
AcDbLine
 10
1111.411286
 20
-50.0
 30
0.0
 11
1111.411286
 21
290.0
 31
0.0
  0
LINE
  5
5B4
100
AcDbEntity
  8
V0-OBRYS
100
AcDbLine
 10
491.411286
 20
-29.0
 30
0.0
 11
1131.411286
 21
-29.0
 31
0.0
  0
ARC
  5
5B5
100
AcDbEntity
  8
V0-OBRYS
100
AcDbCircle
 10
501.411286
 20
-40.0
 30
0.0
 40
10.0
100
AcDbArc
 50
180.0
 51
270.0
  0
ARC
  5
5B6
100
AcDbEntity
  8
V0-OBRYS
100
AcDbCircle
 10
501.411286
 20
280.0
 30
0.0
 40
10.0
100
AcDbArc
 50
90.0
 51
180.0
  0
ARC
  5
5B7
100
AcDbEntity
  8
V0-OBRYS
100
AcDbCircle
 10
1121.411286
 20
280.0
 30
0.0
 40
10.0
100
AcDbArc
 50
0.0
 51
90.0
  0
ARC
  5
5B8
100
AcDbEntity
  8
V0-OBRYS
100
AcDbCircle
 10
1121.411286
 20
-40.0
 30
0.0
 40
10.0
100
AcDbArc
 50
270.0
 51
0.0
  0
LINE
  5
5D4
100
AcDbEntity
  8
V0-OBRYS
100
AcDbLine
 10
526.584764
 20
176.052179
 30
0.0
 11
526.584764
 21
-29.825678
 31
0.0
  0
CIRCLE
  5
5D5
100
AcDbEntity
  8
V0-OBRYS
100
AcDbCircle
 10
501.411286
 20
-40.0
 30
0.0
 40
4.5
  0
LINE
  5
5D6
100
AcDbEntity
  8
V0-VYPLNE
100
AcDbLine
 10
-261.000104
 20
-40.002907
 30
0.0
 11
-239.998598
 21
-40.002907
 31
0.0
  0
LINE
  5
5D7
100
AcDbEntity
  8
V0-VYPLNE
100
AcDbLine
 10
507.177975
 20
-40.0
 30
0.0
 11
510.438189
 21
-40.0
 31
0.0
  0
LINE
  5
5D8
100
AcDbEntity
  8
V0-VYPLNE
100
AcDbLine
 10
501.411286
 20
-48.629782
 30
0.0
 11
501.411286
 21
-30.94382
 31
0.0
  0
LINE
  5
5D9
100
AcDbEntity
  8
V0-VYPLNE
100
AcDbLine
 10
-261.000104
 20
279.997093
 30
0.0
 11
-239.998598
 21
279.997093
 31
0.0
  0
LINE
  5
5DA
100
AcDbEntity
  8
V0-VYPLNE
100
AcDbLine
 10
501.411286
 20
288.629782
 30
0.0
 11
501.411286
 21
270.94382
 31
0.0
  0
CIRCLE
  5
5DB
100
AcDbEntity
  8
V0-OBRYS
100
AcDbCircle
 10
501.411286
 20
280.0
 30
0.0
 40
4.5
  0
CIRCLE
  5
5DC
100
AcDbEntity
  8
V0-OBRYS
100
AcDbCircle
 10
1121.411286
 20
279.0
 30
0.0
 40
4.5
  0
LINE
  5
5DD
100
AcDbEntity
  8
V0-VYPLNE
100
AcDbLine
 10
1121.411286
 20
287.629782
 30
0.0
 11
1121.411286
 21
269.94382
 31
0.0
  0
LINE
  5
5DE
100
AcDbEntity
  8
V0-VYPLNE
100
AcDbLine
 10
1130.36213
 20
279.0
 30
0.0
 11
1115.644596
 21
279.0
 31
0.0
  0
LINE
  5
5DF
100
AcDbEntity
  8
V0-VYPLNE
100
AcDbLine
 10
1130.36213
 20
-39.0
 30
0.0
 11
1115.644596
 21
-39.0
 31
0.0
  0
LINE
  5
5E0
100
AcDbEntity
  8
V0-VYPLNE
100
AcDbLine
 10
1121.411286
 20
-47.629782
 30
0.0
 11
1121.411286
 21
-29.94382
 31
0.0
  0
CIRCLE
  5
5E1
100
AcDbEntity
  8
V0-OBRYS
100
AcDbCircle
 10
1121.411286
 20
-39.0
 30
0.0
 40
4.5
  0
LINE
  5
5E2
100
AcDbEntity
  8
V0-VYPLNE
100
AcDbLine
 10
1115.644596
 20
-39.0
 30
0.0
 11
1112.384383
 21
-39.0
 31
0.0
  0
LINE
  5
5E8
100
AcDbEntity
  8
V0-OBRYS
100
AcDbLine
 10
391.051072
 20
-50.002907
 30
0.0
 11
391.051072
 21
289.997093
 31
0.0
  0
LINE
  5
5E9
100
AcDbEntity
  8
V0-OBRYS
100
AcDbLine
 10
-253.948928
 20
-50.002907
 30
0.0
 11
-253.948928
 21
289.997093
 31
0.0
  0
LINE
  5
5EC
100
AcDbEntity
  8
V0-OBRYS
100
AcDbLine
 10
391.051072
 20
289.997093
 30
0.0
 11
386.051072
 21
289.997093
 31
0.0
  0
LINE
  5
5ED
100
AcDbEntity
  8
V0-OBRYS
100
AcDbLine
 10
501.411286
 20
-50.0
 30
0.0
 11
1121.411286
 21
-50.0
 31
0.0
  0
LINE
  5
5EE
100
AcDbEntity
  8
V0-OBRYS
100
AcDbLine
 10
386.051072
 20
269.997093
 30
0.0
 11
-248.948928
 21
269.997093
 31
0.0
  0
LINE
  5
5EF
100
AcDbEntity
  8
V0-OBRYS
100
AcDbLine
 10
-248.948928
 20
-30.002907
 30
0.0
 11
386.051072
 21
-30.002907
 31
0.0
  0
LINE
  5
5F1
100
AcDbEntity
  8
V0-OBRYS
100
AcDbLine
 10
-248.948928
 20
-50.002907
 30
0.0
 11
-248.948928
 21
289.997093
 31
0.0
  0
LINE
  5
5F2
100
AcDbEntity
  8
V0-OBRYS
100
AcDbLine
 10
386.051072
 20
-50.002907
 30
0.0
 11
386.051072
 21
289.997093
 31
0.0
  0
LINE
  5
5F3
100
AcDbEntity
  8
V0-OBRYS
100
AcDbLine
 10
-248.948928
 20
289.997093
 30
0.0
 11
-253.948928
 21
289.997093
 31
0.0
  0
LINE
  5
5F4
100
AcDbEntity
  8
V0-OBRYS
100
AcDbLine
 10
386.051072
 20
-50.002907
 30
0.0
 11
391.051072
 21
-50.002907
 31
0.0
  0
LINE
  5
5F7
100
AcDbEntity
  8
V0-VYPLNE
100
AcDbLine
 10
486.08064
 20
280.0
 30
0.0
 11
507.177975
 21
280.0
 31
0.0
  0
LINE
  5
5F8
100
AcDbEntity
  8
V0-VYPLNE
100
AcDbLine
 10
486.08064
 20
-40.0
 30
0.0
 11
507.177975
 21
-40.0
 31
0.0
  0
LINE
  5
5F9
100
AcDbEntity
  8
V0-VYPLNE
100
AcDbLine
 10
379.217558
 20
279.997093
 30
0.0
 11
398.309834
 21
279.997093
 31
0.0
  0
LINE
  5
5FA
100
AcDbEntity
  8
V0-VYPLNE
100
AcDbLine
 10
378.262942
 20
-40.002907
 30
0.0
 11
396.400605
 21
-40.002907
 31
0.0
  0
LINE
  5
5FB
100
AcDbEntity
  8
V0-OBRYS
100
AcDbLine
 10
386.051072
 20
-755.232109
 30
0.0
 11
386.051072
 21
-115.232109
 31
0.0
  0
LINE
  5
5FC
100
AcDbEntity
  8
V0-OBRYS
100
AcDbLine
 10
-248.948928
 20
-755.232109
 30
0.0
 11
-248.948928
 21
-115.232109
 31
0.0
  0
LINE
  5
5FD
100
AcDbEntity
  8
V0-OBRYS
100
AcDbLine
 10
-253.948928
 20
-755.232109
 30
0.0
 11
-253.948928
 21
-115.232109
 31
0.0
  0
LINE
  5
5FE
100
AcDbEntity
  8
V0-OBRYS
100
AcDbLine
 10
391.051072
 20
-755.232109
 30
0.0
 11
391.051072
 21
-115.232109
 31
0.0
  0
LINE
  5
5FF
100
AcDbEntity
  8
V0-OBRYS
100
AcDbLine
 10
-253.948928
 20
-755.232109
 30
0.0
 11
-248.948928
 21
-755.232109
 31
0.0
  0
LINE
  5
600
100
AcDbEntity
  8
V0-OBRYS
100
AcDbLine
 10
386.051072
 20
-755.232109
 30
0.0
 11
391.051072
 21
-755.232109
 31
0.0
  0
LINE
  5
601
100
AcDbEntity
  8
V0-OBRYS
100
AcDbLine
 10
-248.948928
 20
-735.232109
 30
0.0
 11
386.051072
 21
-735.232109
 31
0.0
  0
LINE
  5
602
100
AcDbEntity
  8
V0-OBRYS
100
AcDbLine
 10
386.051072
 20
-135.232109
 30
0.0
 11
-248.948928
 21
-135.232109
 31
0.0
  0
LINE
  5
603
100
AcDbEntity
  8
V0-VYPLNE
100
AcDbLine
 10
-261.000104
 20
-745.232109
 30
0.0
 11
-239.998598
 21
-745.232109
 31
0.0
  0
LINE
  5
604
100
AcDbEntity
  8
V0-VYPLNE
100
AcDbLine
 10
-261.000104
 20
-125.232109
 30
0.0
 11
-239.998598
 21
-125.232109
 31
0.0
  0
LINE
  5
605
100
AcDbEntity
  8
V0-OBRYS
100
AcDbLine
 10
-248.948928
 20
-115.232109
 30
0.0
 11
-253.948928
 21
-115.232109
 31
0.0
  0
LINE
  5
606
100
AcDbEntity
  8
V0-VYPLNE
100
AcDbLine
 10
378.262942
 20
-745.232109
 30
0.0
 11
396.400605
 21
-745.232109
 31
0.0
  0
LINE
  5
607
100
AcDbEntity
  8
V0-VYPLNE
100
AcDbLine
 10
379.217558
 20
-125.232109
 30
0.0
 11
398.309834
 21
-125.232109
 31
0.0
  0
LINE
  5
608
100
AcDbEntity
  8
V0-OBRYS
100
AcDbLine
 10
391.051072
 20
-115.232109
 30
0.0
 11
386.051072
 21
-115.232109
 31
0.0
  0
MTEXT
  5
63C
100
AcDbEntity
  8
V0-ZBYTEK
 62
   130
100
AcDbMText
 10
827.990138
 20
325.438032
 30
0.0
 40
21.0
 41
594.8886
 71
     5
 72
     5
  1
POHLED NA VYSTUPNI STRANU
  7
ED10
  0
DIMENSION
  5
67D
100
AcDbEntity
  8
V0-VYPLNE
  6
CONTINUOUS
100
AcDbDimension
  2
*D1
 10
391.051072
 20
318.535366
 30
0.0
 11
53.551072
 21
318.535366
 31
0.0
 70
   160
  3
ED20
100
AcDbAlignedDimension
 13
-253.948928
 23
289.997093
 33
0.0
 14
391.051072
 24
290.997093
 34
0.0
100
AcDbRotatedDimension
  0
DIMENSION
  5
695
100
AcDbEntity
  8
V0-VYPLNE
  6
CONTINUOUS
100
AcDbDimension
  2
*D7
 10
1233.009354
 20
-50.0
 30
0.0
 11
1221.009354
 21
120.0
 31
0.0
 70
    32
  3
ED20
100
AcDbAlignedDimension
 13
1111.411286
 23
290.0
 33
0.0
 14
1111.411286
 24
-50.0
 34
0.0
 50
90.0
100
AcDbRotatedDimension
  0
DIMENSION
  5
6A2
100
AcDbEntity
  8
V0-VYPLNE
  6
CONTINUOUS
100
AcDbDimension
  2
*D6
 10
1199.800843
 20
-40.0
 30
0.0
 11
1187.798874
 21
120.0
 31
0.0
 70
    32
  3
ED20
100
AcDbAlignedDimension
 13
1130.36213
 23
280.0
 33
0.0
 14
1131.411286
 24
-40.0
 34
0.0
 50
90.0
100
AcDbRotatedDimension
  0
DIMENSION
  5
6BC
100
AcDbEntity
  8
V0-VYPLNE
  6
CONTINUOUS
100
AcDbDimension
  2
*D4
 10
1111.411286
 20
-81.716186
 30
0.0
 11
811.411286
 21
-69.716186
 31
0.0
 70
    32
  3
ED20
100
AcDbAlignedDimension
 13
511.411286
 23
-50.0
 33
0.0
 14
1111.411286
 24
-50.0
 34
0.0
100
AcDbRotatedDimension
  0
DIMENSION
  5
6C9
100
AcDbEntity
  8
V0-VYPLNE
  6
CONTINUOUS
100
AcDbDimension
  2
*D3
 10
1121.411286
 20
-112.370195
 30
0.0
 11
811.411286
 21
-100.368227
 31
0.0
 70
    32
  3
ED20
100
AcDbAlignedDimension
 13
501.411286
 23
-48.629782
 33
0.0
 14
1121.411286
 24
-48.629782
 34
0.0
100
AcDbRotatedDimension
  0
DIMENSION
  5
6D6
100
AcDbEntity
  8
V0-VYPLNE
  6
CONTINUOUS
100
AcDbDimension
  2
*D2
 10
1131.411286
 20
-142.724891
 30
0.0
 11
811.411286
 21
-130.724891
 31
0.0
 70
    32
  3
ED20
100
AcDbAlignedDimension
 13
491.411286
 23
-30.0
 33
0.0
 14
1131.411286
 24
-30.0
 34
0.0
100
AcDbRotatedDimension
  0
LINE
  5
6D7
100
AcDbEntity
  8
V0-VYPLNE
  6
CONTINUOUS
100
AcDbLine
 10
-121.719653
 20
109.302636
 30
0.0
 11
-29.775914
 21
109.302636
 31
0.0
  0
LINE
  5
6D8
100
AcDbEntity
  8
V0-VYPLNE
  6
CONTINUOUS
100
AcDbLine
 10
-56.208996
 20
119.889282
 30
0.0
 11
-29.775914
 21
109.302636
 31
0.0
  0
LINE
  5
6D9
100
AcDbEntity
  8
V0-VYPLNE
  6
CONTINUOUS
100
AcDbLine
 10
-56.208996
 20
98.715989
 30
0.0
 11
-29.775914
 21
109.302636
 31
0.0
  0
POINT
  5
6DB
100
AcDbEntity
  8
V0-VYPLNE
100
AcDbPoint
 10
-253.948928
 20
119.997093
 30
0.0
  0
POINT
  5
6DC
100
AcDbEntity
  8
V0-VYPLNE
100
AcDbPoint
 10
-253.948928
 20
-435.232109
 30
0.0
  0
LINE
  5
6E1
100
AcDbEntity
  8
V0-VYPLNE
  6
CONTINUOUS
100
AcDbLine
 10
-153.067165
 20
-423.848318
 30
0.0
 11
-126.634082
 21
-434.434965
 31
0.0
  0
LINE
  5
6E2
100
AcDbEntity
  8
V0-VYPLNE
  6
CONTINUOUS
100
AcDbLine
 10
-218.577822
 20
-434.434965
 30
0.0
 11
-126.634082
 21
-434.434965
 31
0.0
  0
LINE
  5
6E3
100
AcDbEntity
  8
V0-VYPLNE
  6
CONTINUOUS
100
AcDbLine
 10
-153.067165
 20
-445.021611
 30
0.0
 11
-126.634082
 21
-434.434965
 31
0.0
  0
MTEXT
  5
6E8
100
AcDbEntity
  8
V0-NAZVY
100
AcDbMText
 10
60.355071
 20
200.939901
 30
0.0
 40
37.5
 41
308.4608
 71
     5
 72
     5
  1
ILB/ILT 285
  7
ED10
  0
MTEXT
  5
6E9
100
AcDbEntity
  8
V0-NAZVY
100
AcDbMText
 10
-106.571034
 20
-179.243531
 30
0.0
 40
37.5
 41
308.4608
 71
     5
 72
     5
  1
ILB/ILT 285
  7
ED10
  0
MTEXT
  5
6EA
100
AcDbEntity
  8
V0-NAZVY
100
AcDbMText
 10
808.381059
 20
225.723182
 30
0.0
 40
37.5
 41
308.4608
 71
     5
 72
     5
  1
ILB/ILT 285
  7
ED10
  0
LEADER
  5
6F1
100
AcDbEntity
  8
V0-VYPLNE
100
AcDbLeader
  3
ED20
 73
     0
 75
     1
 40
20.0
 41
27.43187
 76
     3
 10
498.042781
 20
276.924337
 30
0.0
 10
474.959577
 20
231.042348
 30
0.0
 10
459.959577
 20
231.042348
 30
0.0
 77
   256
340
6F2
  0
MTEXT
  5
6F2
102
{ACAD_REACTORS
330
6F1
102
}
100
AcDbEntity
  8
V0-VYPLNE
100
AcDbMText
 10
457.959577
 20
243.042348
 30
0.0
 40
20.0
 41
0.0
 71
     6
 72
     1
  1
\A1;%%c9
  7
ED20
  0
DIMENSION
  5
7C0
100
AcDbEntity
  8
V0-VYPLNE
  6
CONTINUOUS
 62
    41
100
AcDbDimension
  2
*D5
 10
1170.053932
 20
-29.0
 30
0.0
 11
1158.051963
 21
120.0
 31
0.0
 70
    32
  3
ED20
100
AcDbAlignedDimension
 13
1131.411286
 23
269.0
 33
0.0
 14
1131.411286
 24
-29.0
 34
0.0
 50
90.0
100
AcDbRotatedDimension
  0
LINE
  5
908
100
AcDbEntity
  8
V0-OBRYS
100
AcDbLine
 10
511.411286
 20
176.780164
 30
0.0
 11
1111.411286
 21
176.780164
 31
0.0
  0
LINE
  5
909
100
AcDbEntity
  8
V0-OBRYS
100
AcDbLine
 10
839.754642
 20
176.464563
 30
0.0
 11
839.754642
 21
-29.0
 31
0.0
  0
LINE
  5
90A
100
AcDbEntity
  8
V0-VYPLNE
  6
CONTINUOUS
 62
    52
100
AcDbLine
 10
972.218946
 20
137.271046
 30
0.0
 11
972.218946
 21
-15.295308
 31
0.0
  0
LINE
  5
90B
100
AcDbEntity
  8
V0-OBRYS
100
AcDbLine
 10
998.527097
 20
-15.295308
 30
0.0
 11
998.527097
 21
137.271046
 31
0.0
  0
LINE
  5
90C
100
AcDbEntity
  8
V0-VYPLNE
  6
CONTINUOUS
 62
    52
100
AcDbLine
 10
941.037505
 20
137.271046
 30
0.0
 11
941.037505
 21
-15.295308
 31
0.0
  0
LINE
  5
90D
100
AcDbEntity
  8
V0-VYPLNE
  6
CONTINUOUS
 62
    52
100
AcDbLine
 10
903.315284
 20
137.271046
 30
0.0
 11
903.315284
 21
-15.295308
 31
0.0
  0
LINE
  5
90E
100
AcDbEntity
  8
V0-VYPLNE
  6
CONTINUOUS
 62
    52
100
AcDbLine
 10
856.872036
 20
137.271046
 30
0.0
 11
856.872036
 21
-15.295308
 31
0.0
  0
LINE
  5
90F
100
AcDbEntity
  8
V0-OBRYS
100
AcDbLine
 10
839.754642
 20
-15.295308
 30
0.0
 11
998.527097
 21
-15.295308
 31
0.0
  0
LINE
  5
910
100
AcDbEntity
  8
V0-OBRYS
100
AcDbLine
 10
998.527097
 20
137.271046
 30
0.0
 11
839.754642
 21
137.271046
 31
0.0
  0
LINE
  5
912
100
AcDbEntity
  8
V0-OBRYS
100
AcDbLine
 10
839.754642
 20
150.906719
 30
0.0
 11
921.231561
 21
150.906719
 31
0.0
  0
LINE
  5
913
100
AcDbEntity
  8
V0-OBRYS
100
AcDbLine
 10
874.734829
 20
150.906719
 30
0.0
 11
874.734829
 21
137.271046
 31
0.0
  0
LINE
  5
914
100
AcDbEntity
  8
V0-OBRYS
100
AcDbLine
 10
960.47621
 20
150.906719
 30
0.0
 11
960.47621
 21
151.647021
 31
0.0
  0
ARC
  5
9DB
100
AcDbEntity
  8
V0-OBRYS
100
AcDbCircle
 10
957.176672
 20
136.596255
 30
0.0
 40
38.689021
100
AcDbArc
 50
85.131031
 51
158.291515
  0
POINT
  5
9DD
100
AcDbEntity
  8
0
100
AcDbPoint
 10
811.411286
 20
120.0
 30
0.0
  0
INSERT
  5
A28
100
AcDbEntity
  8
0
100
AcDbBlockReference
  2
AZNAK
 10
304.300174
 20
-203.543454
 30
0.0
  0
INSERT
  5
A29
100
AcDbEntity
  8
0
100
AcDbBlockReference
  2
AZNAK
 10
746.126802
 20
77.435611
 30
0.0
  0
INSERT
  5
A2A
100
AcDbEntity
  8
0
100
AcDbBlockReference
  2
AZNAK
 10
246.62101
 20
113.546511
 30
0.0
  0
INSERT
  5
A77
100
AcDbEntity
  8
0
100
AcDbBlockReference
  2
AROTOR
 10
99.328536
 20
-507.923475
 30
0.0
 41
1.5
 42
1.5
 43
1.5
  0
VIEWPORT
  5
22
100
AcDbEntity
 67
     1
  8
0
100
AcDbViewport
 10
261.517699
 20
161.962666
 30
0.0
 40
523.035398
 41
323.925332
 68
    -1
 69
     1
1001
ACAD
1000
MVIEW
1002
{
1070
    16
1010
0.0
1020
0.0
1030
0.0
1010
0.0
1020
0.0
1030
1.0
1040
0.0
1040
323.925332
1040
261.517699
1040
161.962666
1040
50.0
1040
0.0
1040
0.0
1070
     0
1070
   100
1070
     1
1070
     1
1070
     0
1070
     0
1070
     0
1070
     0
1040
0.0
1040
0.0
1040
0.0
1040
1.0
1040
1.0
1040
10.0
1040
10.0
1070
     0
1002
{
1002
}
1002
}
  0
ENDSEC
  0
SECTION
  2
OBJECTS
  0
DICTIONARY
  5
C
100
AcDbDictionary
  3
ACAD_GROUP
350
D
  3
ACAD_MLINESTYLE
350
E
  3
ACDBVARIABLEDICTIONARY
350
5D
  0
DICTIONARY
  5
D
102
{ACAD_REACTORS
330
C
102
}
100
AcDbDictionary
  0
DICTIONARY
  5
E
102
{ACAD_REACTORS
330
C
102
}
100
AcDbDictionary
  3
STANDARD
350
13
  0
DICTIONARY
  5
5D
102
{ACAD_REACTORS
330
C
102
}
100
AcDbDictionary
  3
DIMADEC
350
5E
  3
SORTENTS
350
3D8
  0
MLINESTYLE
  5
13
102
{ACAD_REACTORS
330
E
102
}
100
AcDbMlineStyle
  2
STANDARD
 70
     0
  3

 62
     0
 51
90.0
 52
90.0
 71
     2
 49
0.5
 62
   256
  6
BYLAYER
 49
-0.5
 62
   256
  6
BYLAYER
  0
DICTIONARYVAR
  5
5E
102
{ACAD_REACTORS
330
5D
102
}
100
DictionaryVariables
280
     0
  1
0
  0
DICTIONARYVAR
  5
3D8
102
{ACAD_REACTORS
330
5D
102
}
100
DictionaryVariables
280
     0
  1
96
  0
ENDSEC
  0
EOF
