  0
SECTION
  2
HEADER
  9
$ACADVER
  1
AC1014
  9
$ACADMAINTVER
 70
     0
  9
$DWGCODEPAGE
  3
ANSI_1250
  9
$INSBASE
 10
0.0
 20
0.0
 30
0.0
  9
$EXTMIN
 10
-127.071636
 20
-706.902929
 30
0.0
  9
$EXTMAX
 10
1185.509354
 20
349.09149
 30
0.0
  9
$LIMMIN
 10
0.0
 20
0.0
  9
$LIMMAX
 10
420.0
 20
297.0
  9
$ORTHOMODE
 70
     0
  9
$REGENMODE
 70
     1
  9
$FILLMODE
 70
     1
  9
$QTEXTMODE
 70
     0
  9
$MIRRTEXT
 70
     1
  9
$DRAGMODE
 70
     2
  9
$LTSCALE
 40
1.0
  9
$OSMODE
 70
    15
  9
$ATTMODE
 70
     1
  9
$TEXTSIZE
 40
2.5
  9
$TRACEWID
 40
1.0
  9
$TEXTSTYLE
  7
ED20
  9
$CLAYER
  8
0
  9
$CELTYPE
  6
BYLAYER
  9
$CECOLOR
 62
   256
  9
$CELTSCALE
 40
1.0
  9
$DELOBJ
 70
     1
  9
$DISPSILH
 70
     0
  9
$DIMSCALE
 40
1.0
  9
$DIMASZ
 40
15.0
  9
$DIMEXO
 40
1.0
  9
$DIMDLI
 40
3.75
  9
$DIMRND
 40
0.0
  9
$DIMDLE
 40
0.0
  9
$DIMEXE
 40
1.25
  9
$DIMTP
 40
0.0
  9
$DIMTM
 40
0.0
  9
$DIMTXT
 40
20.0
  9
$DIMCEN
 40
3.0
  9
$DIMTSZ
 40
0.0
  9
$DIMTOL
 70
     0
  9
$DIMLIM
 70
     0
  9
$DIMTIH
 70
     0
  9
$DIMTOH
 70
     0
  9
$DIMSE1
 70
     0
  9
$DIMSE2
 70
     0
  9
$DIMTAD
 70
     1
  9
$DIMZIN
 70
     8
  9
$DIMBLK
  1

  9
$DIMASO
 70
     1
  9
$DIMSHO
 70
     1
  9
$DIMPOST
  1

  9
$DIMAPOST
  1

  9
$DIMALT
 70
     0
  9
$DIMALTD
 70
     4
  9
$DIMALTF
 40
0.0394
  9
$DIMLFAC
 40
1.0
  9
$DIMTOFL
 70
     1
  9
$DIMTVP
 40
0.0
  9
$DIMTIX
 70
     0
  9
$DIMSOXD
 70
     0
  9
$DIMSAH
 70
     1
  9
$DIMBLK1
  1
_OPEN
  9
$DIMBLK2
  1
_OPEN
  9
$DIMSTYLE
  2
ED20
  9
$DIMCLRD
 70
     0
  9
$DIMCLRE
 70
     0
  9
$DIMCLRT
 70
     0
  9
$DIMTFAC
 40
1.0
  9
$DIMGAP
 40
2.0
  9
$DIMJUST
 70
     0
  9
$DIMSD1
 70
     0
  9
$DIMSD2
 70
     0
  9
$DIMTOLJ
 70
     1
  9
$DIMTZIN
 70
     8
  9
$DIMALTZ
 70
     0
  9
$DIMALTTZ
 70
     0
  9
$DIMFIT
 70
     3
  9
$DIMUPT
 70
     0
  9
$DIMUNIT
 70
     2
  9
$DIMDEC
 70
     0
  9
$DIMTDEC
 70
     1
  9
$DIMALTU
 70
     8
  9
$DIMALTTD
 70
     4
  9
$DIMTXSTY
  7
ED20
  9
$DIMAUNIT
 70
     0
  9
$LUNITS
 70
     2
  9
$LUPREC
 70
     4
  9
$SKETCHINC
 40
1.0
  9
$FILLETRAD
 40
40.0
  9
$AUNITS
 70
     0
  9
$AUPREC
 70
     0
  9
$MENU
  1
.
  9
$ELEVATION
 40
0.0
  9
$PELEVATION
 40
0.0
  9
$THICKNESS
 40
0.0
  9
$LIMCHECK
 70
     0
  9
$BLIPMODE
 70
     0
  9
$CHAMFERA
 40
10.0
  9
$CHAMFERB
 40
10.0
  9
$CHAMFERC
 40
20.0
  9
$CHAMFERD
 40
0.0
  9
$SKPOLY
 70
     1
  9
$TDCREATE
 40
2451196.643769328
  9
$TDUPDATE
 40
2452915.858182755
  9
$TDINDWG
 40
0.2137101852
  9
$TDUSRTIMER
 40
0.2137101852
  9
$USRTIMER
 70
     1
  9
$ANGBASE
 50
0.0
  9
$ANGDIR
 70
     0
  9
$PDMODE
 70
     3
  9
$PDSIZE
 40
10.0
  9
$PLINEWID
 40
0.0
  9
$COORDS
 70
     1
  9
$SPLFRAME
 70
     0
  9
$SPLINETYPE
 70
     6
  9
$SPLINESEGS
 70
     8
  9
$ATTDIA
 70
     0
  9
$ATTREQ
 70
     1
  9
$HANDLING
 70
     1
  9
$HANDSEED
  5
9CC
  9
$SURFTAB1
 70
     6
  9
$SURFTAB2
 70
     6
  9
$SURFTYPE
 70
     6
  9
$SURFU
 70
     6
  9
$SURFV
 70
     6
  9
$UCSNAME
  2

  9
$UCSORG
 10
400.0
 20
0.0
 30
0.0
  9
$UCSXDIR
 10
1.0
 20
0.0
 30
0.0
  9
$UCSYDIR
 10
0.0
 20
1.0
 30
0.0
  9
$PUCSNAME
  2

  9
$PUCSORG
 10
0.0
 20
0.0
 30
0.0
  9
$PUCSXDIR
 10
1.0
 20
0.0
 30
0.0
  9
$PUCSYDIR
 10
0.0
 20
1.0
 30
0.0
  9
$USERI1
 70
     0
  9
$USERI2
 70
     0
  9
$USERI3
 70
     0
  9
$USERI4
 70
     0
  9
$USERI5
 70
     0
  9
$USERR1
 40
0.0
  9
$USERR2
 40
0.0
  9
$USERR3
 40
0.0
  9
$USERR4
 40
0.0
  9
$USERR5
 40
0.0
  9
$WORLDVIEW
 70
     1
  9
$SHADEDGE
 70
     3
  9
$SHADEDIF
 70
    70
  9
$TILEMODE
 70
     1
  9
$MAXACTVP
 70
    48
  9
$PINSBASE
 10
0.0
 20
0.0
 30
0.0
  9
$PLIMCHECK
 70
     0
  9
$PEXTMIN
 10
1.000000E+20
 20
1.000000E+20
 30
1.000000E+20
  9
$PEXTMAX
 10
-1.000000E+20
 20
-1.000000E+20
 30
-1.000000E+20
  9
$PLIMMIN
 10
0.0
 20
0.0
  9
$PLIMMAX
 10
420.0
 20
297.0
  9
$UNITMODE
 70
     0
  9
$VISRETAIN
 70
     1
  9
$PLINEGEN
 70
     0
  9
$PSLTSCALE
 70
     0
  9
$TREEDEPTH
 70
  3020
  9
$PICKSTYLE
 70
     1
  9
$CMLSTYLE
  2
STANDARD
  9
$CMLJUST
 70
     0
  9
$CMLSCALE
 40
1.0
  9
$PROXYGRAPHICS
 70
     1
  9
$MEASUREMENT
 70
     1
  0
ENDSEC
  0
SECTION
  2
CLASSES
  0
CLASS
  1
DICTIONARYVAR
  2
AcDbDictionaryVar
  3
"AutoCAD"
 90
        0
280
     0
281
     0
  0
CLASS
  1
LWPOLYLINE
  2
AcDbPolyline
  3
"AutoCAD"
 90
        0
280
     0
281
     1
  0
CLASS
  1
HATCH
  2
AcDbHatch
  3
"ACAD_SEDONA"
 90
        0
280
     0
281
     1
  0
ENDSEC
  0
SECTION
  2
TABLES
  0
TABLE
  2
VPORT
  5
8
100
AcDbSymbolTable
 70
     3
  0
VPORT
  5
9CB
100
AcDbSymbolTableRecord
100
AcDbViewportTableRecord
  2
*ACTIVE
 70
     0
 10
0.0
 20
0.0
 11
1.0
 21
1.0
 12
623.032103
 22
-134.854941
 13
0.0
 23
0.0
 14
10.0
 24
10.0
 15
10.0
 25
10.0
 16
0.0
 26
0.0
 36
1.0
 17
0.0
 27
0.0
 37
0.0
 40
1091.714987
 41
1.730469
 42
50.0
 43
0.0
 44
0.0
 50
0.0
 51
0.0
 71
     0
 72
   100
 73
     1
 74
     1
 75
     0
 76
     0
 77
     0
 78
     0
  0
ENDTAB
  0
TABLE
  2
LTYPE
  5
5
100
AcDbSymbolTable
 70
     3
  0
LTYPE
  5
14
100
AcDbSymbolTableRecord
100
AcDbLinetypeTableRecord
  2
BYBLOCK
 70
     0
  3

 72
    65
 73
     0
 40
0.0
  0
LTYPE
  5
15
100
AcDbSymbolTableRecord
100
AcDbLinetypeTableRecord
  2
BYLAYER
 70
     0
  3

 72
    65
 73
     0
 40
0.0
  0
LTYPE
  5
16
100
AcDbSymbolTableRecord
100
AcDbLinetypeTableRecord
  2
CONTINUOUS
 70
     0
  3
Solid line
 72
    65
 73
     0
 40
0.0
  0
LTYPE
  5
7F
100
AcDbSymbolTableRecord
100
AcDbLinetypeTableRecord
  2
DASHDOT
 70
     0
  3
Dash dot __ . __ . __ . __ . __ . __ . __ . __
 72
    65
 73
     4
 40
25.4
 49
12.7
 74
     0
 49
-6.35
 74
     0
 49
0.0
 74
     0
 49
-6.35
 74
     0
  0
LTYPE
  5
80
100
AcDbSymbolTableRecord
100
AcDbLinetypeTableRecord
  2
DASHED
 70
     0
  3
Dashed __ __ __ __ __ __ __ __ __ __ __ __ __ _
 72
    65
 73
     2
 40
19.05
 49
12.7
 74
     0
 49
-6.35
 74
     0
  0
ENDTAB
  0
TABLE
  2
LAYER
  5
2
100
AcDbSymbolTable
 70
     6
  0
LAYER
  5
F
100
AcDbSymbolTableRecord
100
AcDbLayerTableRecord
  2
0
 70
     0
 62
     7
  6
CONTINUOUS
  0
LAYER
  5
9E
100
AcDbSymbolTableRecord
100
AcDbLayerTableRecord
  2
DEFPOINTS
 70
     0
 62
     7
  6
CONTINUOUS
  0
LAYER
  5
377
100
AcDbSymbolTableRecord
100
AcDbLayerTableRecord
  2
V0-OBRYS
 70
     0
 62
    90
  6
CONTINUOUS
  0
LAYER
  5
378
100
AcDbSymbolTableRecord
100
AcDbLayerTableRecord
  2
V0-VYPLNE
 70
     0
 62
    52
  6
CONTINUOUS
  0
LAYER
  5
37A
100
AcDbSymbolTableRecord
100
AcDbLayerTableRecord
  2
V0-NAZVY
 70
     0
 62
   210
  6
CONTINUOUS
  0
LAYER
  5
559
100
AcDbSymbolTableRecord
100
AcDbLayerTableRecord
  2
V0-ZBYTEK
 70
     0
 62
    51
  6
CONTINUOUS
  0
ENDTAB
  0
TABLE
  2
STYLE
  5
3
100
AcDbSymbolTable
 70
     3
  0
STYLE
  5
10
100
AcDbSymbolTableRecord
100
AcDbTextStyleTableRecord
  2
STANDARD
 70
     0
 40
0.0
 41
1.0
 50
0.0
 71
     0
 42
2.5
  3
ISOCP
  4

  0
STYLE
  5
331
100
AcDbSymbolTableRecord
100
AcDbTextStyleTableRecord
  2
ED20
 70
     0
 40
20.0
 41
1.0
 50
0.0
 71
     0
 42
2.5
  3
ISOCP.shx
  4

  0
STYLE
  5
5A7
100
AcDbSymbolTableRecord
100
AcDbTextStyleTableRecord
  2
ED10
 70
     0
 40
10.0
 41
1.0
 50
0.0
 71
     0
 42
10.0
  3
ISOCP.shx
  4

  0
ENDTAB
  0
TABLE
  2
VIEW
  5
6
100
AcDbSymbolTable
 70
     0
  0
ENDTAB
  0
TABLE
  2
UCS
  5
7
100
AcDbSymbolTable
 70
     0
  0
ENDTAB
  0
TABLE
  2
APPID
  5
9
100
AcDbSymbolTable
 70
     1
  0
APPID
  5
11
100
AcDbSymbolTableRecord
100
AcDbRegAppTableRecord
  2
ACAD
 70
     0
  0
ENDTAB
  0
TABLE
  2
DIMSTYLE
  5
A
100
AcDbSymbolTable
 70
     3
  0
DIMSTYLE
105
1D
100
AcDbSymbolTableRecord
100
AcDbDimStyleTableRecord
  2
STANDARD
 70
     0
  3

  4

  5

  6
_OPEN
  7
_OPEN
 40
0.0
 41
15.0
 42
0.625
 43
3.75
 44
1.25
 45
0.0
 46
0.0
 47
0.0
 48
0.0
140
15.0
141
2.5
142
0.0
143
0.0394
144
1.0
145
0.0
146
1.0
147
3.0
 71
     0
 72
     0
 73
     0
 74
     0
 75
     0
 76
     0
 77
     1
 78
     8
170
     0
171
     4
172
     1
173
     1
174
     0
175
     0
176
     0
177
     0
178
     0
270
     2
271
     0
272
     1
273
     8
274
     4
340
331
275
     0
280
     0
281
     0
282
     0
283
     1
284
     8
285
     0
286
     0
287
     3
288
     0
  0
DIMSTYLE
105
397
102
{ACAD_REACTORS
330
6D6
330
6C9
330
6BC
330
7C0
330
6A2
330
695
330
67D
102
}
100
AcDbSymbolTableRecord
100
AcDbDimStyleTableRecord
  2
ED20
 70
     0
  3

  4

  5

  6
_OPEN
  7
_OPEN
 40
1.0
 41
15.0
 42
1.0
 43
3.75
 44
1.25
 45
0.0
 46
0.0
 47
0.0
 48
0.0
140
20.0
141
3.0
142
0.0
143
0.0394
144
1.0
145
0.0
146
1.0
147
2.0
 71
     0
 72
     0
 73
     0
 74
     0
 75
     0
 76
     0
 77
     1
 78
     8
170
     0
171
     4
172
     1
173
     1
174
     0
175
     0
176
     0
177
     0
178
     0
270
     2
271
     0
272
     1
273
     8
274
     4
340
331
275
     0
280
     0
281
     0
282
     0
283
     1
284
     8
285
     0
286
     0
287
     3
288
     0
  0
DIMSTYLE
105
5A8
100
AcDbSymbolTableRecord
100
AcDbDimStyleTableRecord
  2
ED10
 70
     0
  3

  4

  5

  6
_OPEN
  7
_OPEN
 40
1.0
 41
10.0
 42
1.0
 43
3.75
 44
1.25
 45
0.0
 46
0.0
 47
0.0
 48
0.0
140
10.0
141
2.0
142
0.0
143
0.0394
144
1.0
145
0.0
146
1.0
147
1.5
 71
     0
 72
     0
 73
     0
 74
     0
 75
     0
 76
     0
 77
     1
 78
     8
170
     0
171
     4
172
     1
173
     1
174
     0
175
     0
176
     0
177
     0
178
     0
270
     2
271
     0
272
     1
273
     8
274
     4
340
5A7
275
     0
280
     0
281
     0
282
     0
283
     1
284
     8
285
     0
286
     0
287
     3
288
     0
  0
ENDTAB
  0
TABLE
  2
BLOCK_RECORD
  5
1
100
AcDbSymbolTable
 70
    10
  0
BLOCK_RECORD
  5
1A
100
AcDbSymbolTableRecord
100
AcDbBlockTableRecord
  2
*MODEL_SPACE
  0
BLOCK_RECORD
  5
17
100
AcDbSymbolTableRecord
100
AcDbBlockTableRecord
  2
*PAPER_SPACE
  0
BLOCK_RECORD
  5
90
100
AcDbSymbolTableRecord
100
AcDbBlockTableRecord
  2
_OPEN
  0
BLOCK_RECORD
  5
8AD
100
AcDbSymbolTableRecord
100
AcDbBlockTableRecord
  2
*D1
  0
BLOCK_RECORD
  5
8F2
100
AcDbSymbolTableRecord
100
AcDbBlockTableRecord
  2
*D2
  0
BLOCK_RECORD
  5
8FE
100
AcDbSymbolTableRecord
100
AcDbBlockTableRecord
  2
*D3
  0
BLOCK_RECORD
  5
90A
100
AcDbSymbolTableRecord
100
AcDbBlockTableRecord
  2
*D4
  0
BLOCK_RECORD
  5
916
100
AcDbSymbolTableRecord
100
AcDbBlockTableRecord
  2
*D5
  0
BLOCK_RECORD
  5
922
100
AcDbSymbolTableRecord
100
AcDbBlockTableRecord
  2
*D6
  0
BLOCK_RECORD
  5
92E
100
AcDbSymbolTableRecord
100
AcDbBlockTableRecord
  2
*D7
  0
BLOCK_RECORD
  5
973
100
AcDbSymbolTableRecord
100
AcDbBlockTableRecord
  2
AROTOR
  0
BLOCK_RECORD
  5
994
100
AcDbSymbolTableRecord
100
AcDbBlockTableRecord
  2
AZNAK
  0
ENDTAB
  0
ENDSEC
  0
SECTION
  2
BLOCKS
  0
BLOCK
  5
1B
100
AcDbEntity
  8
0
100
AcDbBlockBegin
  2
*MODEL_SPACE
 70
     0
 10
0.0
 20
0.0
 30
0.0
  3
*MODEL_SPACE
  1

  0
ENDBLK
  5
1C
100
AcDbEntity
  8
0
100
AcDbBlockEnd
  0
BLOCK
  5
18
100
AcDbEntity
 67
     1
  8
0
100
AcDbBlockBegin
  2
*PAPER_SPACE
 70
     0
 10
0.0
 20
0.0
 30
0.0
  3
*PAPER_SPACE
  1

  0
ENDBLK
  5
19
100
AcDbEntity
 67
     1
  8
0
100
AcDbBlockEnd
  0
BLOCK
  5
91
100
AcDbEntity
  8
0
100
AcDbBlockBegin
  2
_OPEN
 70
     0
 10
0.0
 20
0.0
 30
0.0
  3
_OPEN
  1

  0
LINE
  5
92
100
AcDbEntity
  8
0
  6
BYBLOCK
 62
     0
100
AcDbLine
 10
-1.0
 20
0.166667
 30
0.0
 11
0.0
 21
0.0
 31
0.0
  0
LINE
  5
93
100
AcDbEntity
  8
0
  6
BYBLOCK
 62
     0
100
AcDbLine
 10
0.0
 20
0.0
 30
0.0
 11
-1.0
 21
-0.166667
 31
0.0
  0
LINE
  5
94
100
AcDbEntity
  8
0
  6
BYBLOCK
 62
     0
100
AcDbLine
 10
0.0
 20
0.0
 30
0.0
 11
-1.0
 21
0.0
 31
0.0
  0
ENDBLK
  5
95
100
AcDbEntity
  8
0
100
AcDbBlockEnd
  0
BLOCK
  5
8AE
100
AcDbEntity
  8
0
100
AcDbBlockBegin
  2
*D1
 70
     1
 10
0.0
 20
0.0
 30
0.0
  3
*D1
  1

  0
LINE
  5
8AF
100
AcDbEntity
  8
0
  6
BYBLOCK
 62
     0
100
AcDbLine
 10
-120.0
 20
291.0
 30
0.0
 11
-120.0
 21
319.788274
 31
0.0
  0
LINE
  5
8B0
100
AcDbEntity
  8
0
  6
BYBLOCK
 62
     0
100
AcDbLine
 10
445.0
 20
292.0
 30
0.0
 11
445.0
 21
319.788274
 31
0.0
  0
LINE
  5
8B1
100
AcDbEntity
  8
0
  6
BYBLOCK
 62
     0
100
AcDbLine
 10
-105.0
 20
318.538274
 30
0.0
 11
430.0
 21
318.538274
 31
0.0
  0
INSERT
  5
8B2
100
AcDbEntity
  8
0
  6
BYBLOCK
 62
     0
100
AcDbBlockReference
  2
_OPEN
 10
-120.0
 20
318.538274
 30
0.0
 41
15.0
 42
15.0
 43
15.0
 50
180.0
  0
INSERT
  5
8B3
100
AcDbEntity
  8
0
  6
BYBLOCK
 62
     0
100
AcDbBlockReference
  2
_OPEN
 10
445.0
 20
318.538274
 30
0.0
 41
15.0
 42
15.0
 43
15.0
  0
MTEXT
  5
8B4
100
AcDbEntity
  8
0
  6
BYBLOCK
 62
     0
100
AcDbMText
 10
147.5
 20
330.538274
 30
0.0
 40
20.0
 41
0.0
 71
     5
 72
     1
  1
\A1;565
  7
ED20
  0
POINT
  5
8B5
100
AcDbEntity
  8
DEFPOINTS
  6
BYBLOCK
 62
     0
100
AcDbPoint
 10
-120.0
 20
290.0
 30
0.0
  0
POINT
  5
8B6
100
AcDbEntity
  8
DEFPOINTS
  6
BYBLOCK
 62
     0
100
AcDbPoint
 10
445.0
 20
291.0
 30
0.0
  0
POINT
  5
8B7
100
AcDbEntity
  8
DEFPOINTS
  6
BYBLOCK
 62
     0
100
AcDbPoint
 10
445.0
 20
318.538274
 30
0.0
  0
ENDBLK
  5
8B8
100
AcDbEntity
  8
0
100
AcDbBlockEnd
  0
BLOCK
  5
8F3
100
AcDbEntity
  8
0
100
AcDbBlockBegin
  2
*D2
 70
     1
 10
0.0
 20
0.0
 30
0.0
  3
*D2
  1

  0
LINE
  5
8F4
100
AcDbEntity
  8
0
  6
BYBLOCK
 62
     0
100
AcDbLine
 10
541.411286
 20
-31.0
 30
0.0
 11
541.411286
 21
-143.974891
 31
0.0
  0
LINE
  5
8F5
100
AcDbEntity
  8
0
  6
BYBLOCK
 62
     0
100
AcDbLine
 10
1081.411286
 20
-31.0
 30
0.0
 11
1081.411286
 21
-143.974891
 31
0.0
  0
LINE
  5
8F6
100
AcDbEntity
  8
0
  6
BYBLOCK
 62
     0
100
AcDbLine
 10
556.411286
 20
-142.724891
 30
0.0
 11
1066.411286
 21
-142.724891
 31
0.0
  0
INSERT
  5
8F7
100
AcDbEntity
  8
0
  6
BYBLOCK
 62
     0
100
AcDbBlockReference
  2
_OPEN
 10
541.411286
 20
-142.724891
 30
0.0
 41
15.0
 42
15.0
 43
15.0
 50
180.0
  0
INSERT
  5
8F8
100
AcDbEntity
  8
0
  6
BYBLOCK
 62
     0
100
AcDbBlockReference
  2
_OPEN
 10
1081.411286
 20
-142.724891
 30
0.0
 41
15.0
 42
15.0
 43
15.0
  0
MTEXT
  5
8F9
100
AcDbEntity
  8
0
  6
BYBLOCK
 62
     0
100
AcDbMText
 10
811.411286
 20
-130.724891
 30
0.0
 40
20.0
 41
0.0
 71
     5
 72
     1
  1
\A1;540
  7
ED20
  0
POINT
  5
8FA
100
AcDbEntity
  8
DEFPOINTS
  6
BYBLOCK
 62
     0
100
AcDbPoint
 10
541.411286
 20
-30.0
 30
0.0
  0
POINT
  5
8FB
100
AcDbEntity
  8
DEFPOINTS
  6
BYBLOCK
 62
     0
100
AcDbPoint
 10
1081.411286
 20
-30.0
 30
0.0
  0
POINT
  5
8FC
100
AcDbEntity
  8
DEFPOINTS
  6
BYBLOCK
 62
     0
100
AcDbPoint
 10
1081.411286
 20
-142.724891
 30
0.0
  0
ENDBLK
  5
8FD
100
AcDbEntity
  8
0
100
AcDbBlockEnd
  0
BLOCK
  5
8FF
100
AcDbEntity
  8
0
100
AcDbBlockBegin
  2
*D3
 70
     1
 10
0.0
 20
0.0
 30
0.0
  3
*D3
  1

  0
LINE
  5
900
100
AcDbEntity
  8
0
  6
BYBLOCK
 62
     0
100
AcDbLine
 10
551.411286
 20
-49.629782
 30
0.0
 11
551.411286
 21
-113.620195
 31
0.0
  0
LINE
  5
901
100
AcDbEntity
  8
0
  6
BYBLOCK
 62
     0
100
AcDbLine
 10
1071.411286
 20
-49.629782
 30
0.0
 11
1071.411286
 21
-113.620195
 31
0.0
  0
LINE
  5
902
100
AcDbEntity
  8
0
  6
BYBLOCK
 62
     0
100
AcDbLine
 10
566.411286
 20
-112.370195
 30
0.0
 11
1056.411286
 21
-112.370195
 31
0.0
  0
INSERT
  5
903
100
AcDbEntity
  8
0
  6
BYBLOCK
 62
     0
100
AcDbBlockReference
  2
_OPEN
 10
551.411286
 20
-112.370195
 30
0.0
 41
15.0
 42
15.0
 43
15.0
 50
180.0
  0
INSERT
  5
904
100
AcDbEntity
  8
0
  6
BYBLOCK
 62
     0
100
AcDbBlockReference
  2
_OPEN
 10
1071.411286
 20
-112.370195
 30
0.0
 41
15.0
 42
15.0
 43
15.0
  0
MTEXT
  5
905
100
AcDbEntity
  8
0
  6
BYBLOCK
 62
     0
100
AcDbMText
 10
811.411286
 20
-100.368227
 30
0.0
 40
20.0
 41
0.0
 71
     5
 72
     1
  1
\A1;520
  7
ED20
  0
POINT
  5
906
100
AcDbEntity
  8
DEFPOINTS
  6
BYBLOCK
 62
     0
100
AcDbPoint
 10
551.411286
 20
-48.629782
 30
0.0
  0
POINT
  5
907
100
AcDbEntity
  8
DEFPOINTS
  6
BYBLOCK
 62
     0
100
AcDbPoint
 10
1071.411286
 20
-48.629782
 30
0.0
  0
POINT
  5
908
100
AcDbEntity
  8
DEFPOINTS
  6
BYBLOCK
 62
     0
100
AcDbPoint
 10
1071.411286
 20
-112.370195
 30
0.0
  0
ENDBLK
  5
909
100
AcDbEntity
  8
0
100
AcDbBlockEnd
  0
BLOCK
  5
90B
100
AcDbEntity
  8
0
100
AcDbBlockBegin
  2
*D4
 70
     1
 10
0.0
 20
0.0
 30
0.0
  3
*D4
  1

  0
LINE
  5
90C
100
AcDbEntity
  8
0
  6
BYBLOCK
 62
     0
100
AcDbLine
 10
561.411286
 20
-51.0
 30
0.0
 11
561.411286
 21
-82.966186
 31
0.0
  0
LINE
  5
90D
100
AcDbEntity
  8
0
  6
BYBLOCK
 62
     0
100
AcDbLine
 10
1061.411286
 20
-51.0
 30
0.0
 11
1061.411286
 21
-82.966186
 31
0.0
  0
LINE
  5
90E
100
AcDbEntity
  8
0
  6
BYBLOCK
 62
     0
100
AcDbLine
 10
576.411286
 20
-81.716186
 30
0.0
 11
1046.411286
 21
-81.716186
 31
0.0
  0
INSERT
  5
90F
100
AcDbEntity
  8
0
  6
BYBLOCK
 62
     0
100
AcDbBlockReference
  2
_OPEN
 10
561.411286
 20
-81.716186
 30
0.0
 41
15.0
 42
15.0
 43
15.0
 50
180.0
  0
INSERT
  5
910
100
AcDbEntity
  8
0
  6
BYBLOCK
 62
     0
100
AcDbBlockReference
  2
_OPEN
 10
1061.411286
 20
-81.716186
 30
0.0
 41
15.0
 42
15.0
 43
15.0
  0
MTEXT
  5
911
100
AcDbEntity
  8
0
  6
BYBLOCK
 62
     0
100
AcDbMText
 10
811.411286
 20
-69.716186
 30
0.0
 40
20.0
 41
0.0
 71
     5
 72
     1
  1
\A1;500
  7
ED20
  0
POINT
  5
912
100
AcDbEntity
  8
DEFPOINTS
  6
BYBLOCK
 62
     0
100
AcDbPoint
 10
561.411286
 20
-50.0
 30
0.0
  0
POINT
  5
913
100
AcDbEntity
  8
DEFPOINTS
  6
BYBLOCK
 62
     0
100
AcDbPoint
 10
1061.411286
 20
-50.0
 30
0.0
  0
POINT
  5
914
100
AcDbEntity
  8
DEFPOINTS
  6
BYBLOCK
 62
     0
100
AcDbPoint
 10
1061.411286
 20
-81.716186
 30
0.0
  0
ENDBLK
  5
915
100
AcDbEntity
  8
0
100
AcDbBlockEnd
  0
BLOCK
  5
917
100
AcDbEntity
  8
0
100
AcDbBlockBegin
  2
*D5
 70
     1
 10
0.0
 20
0.0
 30
0.0
  3
*D5
  1

  0
LINE
  5
918
100
AcDbEntity
  8
0
  6
BYBLOCK
 62
     0
100
AcDbLine
 10
1082.411286
 20
269.0
 30
0.0
 11
1121.303932
 21
269.0
 31
0.0
  0
LINE
  5
919
100
AcDbEntity
  8
0
  6
BYBLOCK
 62
     0
100
AcDbLine
 10
1082.411286
 20
-29.0
 30
0.0
 11
1121.303932
 21
-29.0
 31
0.0
  0
LINE
  5
91A
100
AcDbEntity
  8
0
  6
BYBLOCK
 62
     0
100
AcDbLine
 10
1120.053932
 20
254.0
 30
0.0
 11
1120.053932
 21
-14.0
 31
0.0
  0
INSERT
  5
91B
100
AcDbEntity
  8
0
  6
BYBLOCK
 62
     0
100
AcDbBlockReference
  2
_OPEN
 10
1120.053932
 20
269.0
 30
0.0
 41
15.0
 42
15.0
 43
15.0
 50
90.0
  0
INSERT
  5
91C
100
AcDbEntity
  8
0
  6
BYBLOCK
 62
     0
100
AcDbBlockReference
  2
_OPEN
 10
1120.053932
 20
-29.0
 30
0.0
 41
15.0
 42
15.0
 43
15.0
 50
270.0
  0
MTEXT
  5
91D
100
AcDbEntity
  8
0
  6
BYBLOCK
 62
     0
100
AcDbMText
 10
1108.051963
 20
120.0
 30
0.0
 40
20.0
 41
0.0
 71
     5
 72
     1
  1
\A1;298
  7
ED20
 11
0.0
 21
1.0
 31
0.0
  0
POINT
  5
91E
100
AcDbEntity
  8
DEFPOINTS
  6
BYBLOCK
 62
     0
100
AcDbPoint
 10
1081.411286
 20
269.0
 30
0.0
  0
POINT
  5
91F
100
AcDbEntity
  8
DEFPOINTS
  6
BYBLOCK
 62
     0
100
AcDbPoint
 10
1081.411286
 20
-29.0
 30
0.0
  0
POINT
  5
920
100
AcDbEntity
  8
DEFPOINTS
  6
BYBLOCK
 62
     0
100
AcDbPoint
 10
1120.053932
 20
-29.0
 30
0.0
  0
ENDBLK
  5
921
100
AcDbEntity
  8
0
100
AcDbBlockEnd
  0
BLOCK
  5
923
100
AcDbEntity
  8
0
100
AcDbBlockBegin
  2
*D6
 70
     1
 10
0.0
 20
0.0
 30
0.0
  3
*D6
  1

  0
LINE
  5
924
100
AcDbEntity
  8
0
  6
BYBLOCK
 62
     0
100
AcDbLine
 10
1081.36213
 20
280.0
 30
0.0
 11
1151.050843
 21
280.0
 31
0.0
  0
LINE
  5
925
100
AcDbEntity
  8
0
  6
BYBLOCK
 62
     0
100
AcDbLine
 10
1082.411286
 20
-40.0
 30
0.0
 11
1151.050843
 21
-40.0
 31
0.0
  0
LINE
  5
926
100
AcDbEntity
  8
0
  6
BYBLOCK
 62
     0
100
AcDbLine
 10
1149.800843
 20
265.0
 30
0.0
 11
1149.800843
 21
-25.0
 31
0.0
  0
INSERT
  5
927
100
AcDbEntity
  8
0
  6
BYBLOCK
 62
     0
100
AcDbBlockReference
  2
_OPEN
 10
1149.800843
 20
280.0
 30
0.0
 41
15.0
 42
15.0
 43
15.0
 50
90.0
  0
INSERT
  5
928
100
AcDbEntity
  8
0
  6
BYBLOCK
 62
     0
100
AcDbBlockReference
  2
_OPEN
 10
1149.800843
 20
-40.0
 30
0.0
 41
15.0
 42
15.0
 43
15.0
 50
270.0
  0
MTEXT
  5
929
100
AcDbEntity
  8
0
  6
BYBLOCK
 62
     0
100
AcDbMText
 10
1137.798874
 20
120.0
 30
0.0
 40
20.0
 41
0.0
 71
     5
 72
     1
  1
\A1;320
  7
ED20
 11
0.0
 21
1.0
 31
0.0
  0
POINT
  5
92A
100
AcDbEntity
  8
DEFPOINTS
  6
BYBLOCK
 62
     0
100
AcDbPoint
 10
1080.36213
 20
280.0
 30
0.0
  0
POINT
  5
92B
100
AcDbEntity
  8
DEFPOINTS
  6
BYBLOCK
 62
     0
100
AcDbPoint
 10
1081.411286
 20
-40.0
 30
0.0
  0
POINT
  5
92C
100
AcDbEntity
  8
DEFPOINTS
  6
BYBLOCK
 62
     0
100
AcDbPoint
 10
1149.800843
 20
-40.0
 30
0.0
  0
ENDBLK
  5
92D
100
AcDbEntity
  8
0
100
AcDbBlockEnd
  0
BLOCK
  5
92F
100
AcDbEntity
  8
0
100
AcDbBlockBegin
  2
*D7
 70
     1
 10
0.0
 20
0.0
 30
0.0
  3
*D7
  1

  0
LINE
  5
930
100
AcDbEntity
  8
0
  6
BYBLOCK
 62
     0
100
AcDbLine
 10
1062.411286
 20
290.0
 30
0.0
 11
1184.259354
 21
290.0
 31
0.0
  0
LINE
  5
931
100
AcDbEntity
  8
0
  6
BYBLOCK
 62
     0
100
AcDbLine
 10
1062.411286
 20
-50.0
 30
0.0
 11
1184.259354
 21
-50.0
 31
0.0
  0
LINE
  5
932
100
AcDbEntity
  8
0
  6
BYBLOCK
 62
     0
100
AcDbLine
 10
1183.009354
 20
275.0
 30
0.0
 11
1183.009354
 21
-35.0
 31
0.0
  0
INSERT
  5
933
100
AcDbEntity
  8
0
  6
BYBLOCK
 62
     0
100
AcDbBlockReference
  2
_OPEN
 10
1183.009354
 20
290.0
 30
0.0
 41
15.0
 42
15.0
 43
15.0
 50
90.0
  0
INSERT
  5
934
100
AcDbEntity
  8
0
  6
BYBLOCK
 62
     0
100
AcDbBlockReference
  2
_OPEN
 10
1183.009354
 20
-50.0
 30
0.0
 41
15.0
 42
15.0
 43
15.0
 50
270.0
  0
MTEXT
  5
935
100
AcDbEntity
  8
0
  6
BYBLOCK
 62
     0
100
AcDbMText
 10
1171.009354
 20
120.0
 30
0.0
 40
20.0
 41
0.0
 71
     5
 72
     1
  1
\A1;340
  7
ED20
 11
0.0
 21
1.0
 31
0.0
  0
POINT
  5
936
100
AcDbEntity
  8
DEFPOINTS
  6
BYBLOCK
 62
     0
100
AcDbPoint
 10
1061.411286
 20
290.0
 30
0.0
  0
POINT
  5
937
100
AcDbEntity
  8
DEFPOINTS
  6
BYBLOCK
 62
     0
100
AcDbPoint
 10
1061.411286
 20
-50.0
 30
0.0
  0
POINT
  5
938
100
AcDbEntity
  8
DEFPOINTS
  6
BYBLOCK
 62
     0
100
AcDbPoint
 10
1183.009354
 20
-50.0
 30
0.0
  0
ENDBLK
  5
939
100
AcDbEntity
  8
0
100
AcDbBlockEnd
  0
BLOCK
  5
991
100
AcDbEntity
  8
0
100
AcDbBlockBegin
  2
AROTOR
 70
     0
 10
0.0
 20
0.0
 30
0.0
  3
AROTOR
  1

  0
ARC
  5
9A2
100
AcDbEntity
  8
V0-VYPLNE
  6
DASHED
 62
    52
100
AcDbCircle
 10
183.488866
 20
-350.537996
 30
0.0
 40
595.669442
100
AcDbArc
 50
89.227405
 51
111.825582
  0
ARC
  5
9A3
100
AcDbEntity
  8
V0-VYPLNE
  6
DASHED
 62
    52
100
AcDbCircle
 10
97.003139
 20
-68.892063
 30
0.0
 40
303.043927
100
AcDbArc
 50
116.44849
 51
141.790666
  0
ARC
  5
9A4
100
AcDbEntity
  8
V0-VYPLNE
  6
DASHED
 62
    52
100
AcDbCircle
 10
-89.894799
 20
-51.140116
 30
0.0
 40
44.495532
100
AcDbArc
 50
257.175907
 51
309.010287
  0
ARC
  5
9A5
100
AcDbEntity
  8
V0-VYPLNE
  6
DASHED
 62
    52
100
AcDbCircle
 10
-101.298199
 20
-20.85812
 30
0.0
 40
44.495532
100
AcDbArc
 50
239.175907
 51
291.010287
  0
ARC
  5
9A6
100
AcDbEntity
  8
V0-VYPLNE
  6
DASHED
 62
    52
100
AcDbCircle
 10
-51.140116
 20
89.894799
 30
0.0
 40
44.495532
100
AcDbArc
 50
167.175907
 51
219.010287
  0
ARC
  5
9A7
100
AcDbEntity
  8
V0-VYPLNE
  6
DASHED
 62
    52
100
AcDbCircle
 10
0.0
 20
0.0
 30
0.0
 40
106.465069
100
AcDbArc
 50
91.687982
 51
89.730531
  0
CIRCLE
  5
9A8
100
AcDbEntity
  8
V0-VYPLNE
  6
DASHED
 62
    52
100
AcDbCircle
 10
0.0
 20
0.0
 30
0.0
 40
136.78334
  0
ARC
  5
9A9
100
AcDbEntity
  8
V0-VYPLNE
  6
DASHED
 62
    52
100
AcDbCircle
 10
-102.785826
 20
11.465614
 30
0.0
 40
44.495532
100
AcDbArc
 50
221.175907
 51
273.010287
  0
ARC
  5
9AA
100
AcDbEntity
  8
V0-VYPLNE
  6
DASHED
 62
    52
100
AcDbCircle
 10
110.67042
 20
7.654315
 30
0.0
 40
247.662789
100
AcDbArc
 50
192.990197
 51
193.153718
  0
ARC
  5
9AB
100
AcDbEntity
  8
V0-VYPLNE
  6
DASHED
 62
    52
100
AcDbCircle
 10
-76.416161
 20
69.691869
 30
0.0
 40
44.495532
100
AcDbArc
 50
185.175907
 51
237.010287
  0
ARC
  5
9AC
100
AcDbEntity
  8
V0-VYPLNE
  6
DASHED
 62
    52
100
AcDbCircle
 10
-94.21206
 20
42.667014
 30
0.0
 40
44.495532
100
AcDbArc
 50
203.175907
 51
255.010287
  0
ARC
  5
9AD
100
AcDbEntity
  8
V0-VYPLNE
  6
DASHED
 62
    52
100
AcDbCircle
 10
0.0
 20
0.0
 30
0.0
 40
143.919654
100
AcDbArc
 50
299.236959
 51
3.688819
  0
ARC
  5
9AE
100
AcDbEntity
  8
V0-VYPLNE
  6
DASHED
 62
    52
100
AcDbCircle
 10
94.21206
 20
-42.667014
 30
0.0
 40
44.495532
100
AcDbArc
 50
23.175907
 51
75.010287
  0
LINE
  5
9AF
100
AcDbEntity
  8
V0-VYPLNE
  6
DASHDOT
 62
    41
100
AcDbLine
 10
0.0
 20
0.0
 30
0.0
 11
0.0
 21
-34.564774
 31
0.0
  0
ARC
  5
9B0
100
AcDbEntity
  8
V0-VYPLNE
  6
DASHED
 62
    52
100
AcDbCircle
 10
51.140116
 20
-89.894799
 30
0.0
 40
44.495532
100
AcDbArc
 50
347.175907
 51
39.010287
  0
ARC
  5
9B1
100
AcDbEntity
  8
V0-VYPLNE
  6
DASHED
 62
    52
100
AcDbCircle
 10
-42.667014
 20
-94.21206
 30
0.0
 40
44.495532
100
AcDbArc
 50
293.175907
 51
345.010287
  0
ARC
  5
9B2
100
AcDbEntity
  8
V0-VYPLNE
  6
DASHED
 62
    52
100
AcDbCircle
 10
-69.691869
 20
-76.416161
 30
0.0
 40
44.495532
100
AcDbArc
 50
275.175907
 51
327.010287
  0
ARC
  5
9B3
100
AcDbEntity
  8
V0-VYPLNE
  6
DASHED
 62
    52
100
AcDbCircle
 10
-11.465614
 20
-102.785826
 30
0.0
 40
44.495532
100
AcDbArc
 50
311.175907
 51
3.010287
  0
ARC
  5
9B4
100
AcDbEntity
  8
V0-VYPLNE
  6
DASHED
 62
    52
100
AcDbCircle
 10
20.85812
 20
-101.298199
 30
0.0
 40
44.495532
100
AcDbArc
 50
329.175907
 51
21.010287
  0
ARC
  5
9B5
100
AcDbEntity
  8
V0-VYPLNE
  6
DASHED
 62
    52
100
AcDbCircle
 10
76.416161
 20
-69.691869
 30
0.0
 40
44.495532
100
AcDbArc
 50
5.175907
 51
57.010287
  0
ARC
  5
9B6
100
AcDbEntity
  8
V0-VYPLNE
  6
DASHED
 62
    52
100
AcDbCircle
 10
101.298199
 20
20.85812
 30
0.0
 40
44.495532
100
AcDbArc
 50
59.175907
 51
111.010287
  0
ARC
  5
9B7
100
AcDbEntity
  8
V0-VYPLNE
  6
DASHED
 62
    52
100
AcDbCircle
 10
89.894799
 20
51.140116
 30
0.0
 40
44.495532
100
AcDbArc
 50
77.175907
 51
129.010287
  0
ARC
  5
9B8
100
AcDbEntity
  8
V0-VYPLNE
  6
DASHED
 62
    52
100
AcDbCircle
 10
42.667014
 20
94.21206
 30
0.0
 40
44.495532
100
AcDbArc
 50
113.175907
 51
165.010287
  0
ARC
  5
9B9
100
AcDbEntity
  8
V0-VYPLNE
  6
DASHED
 62
    52
100
AcDbCircle
 10
11.465614
 20
102.785826
 30
0.0
 40
44.495532
100
AcDbArc
 50
131.175907
 51
183.010287
  0
ARC
  5
9BA
100
AcDbEntity
  8
V0-VYPLNE
  6
DASHED
 62
    52
100
AcDbCircle
 10
-20.85812
 20
101.298199
 30
0.0
 40
44.495532
100
AcDbArc
 50
149.175907
 51
201.010287
  0
ARC
  5
9BB
100
AcDbEntity
  8
V0-VYPLNE
  6
DASHED
 62
    52
100
AcDbCircle
 10
69.691869
 20
76.416161
 30
0.0
 40
44.495532
100
AcDbArc
 50
95.175907
 51
147.010287
  0
LINE
  5
9BC
100
AcDbEntity
  8
V0-VYPLNE
  6
DASHDOT
 62
    41
100
AcDbLine
 10
0.0
 20
0.0
 30
0.0
 11
28.300002
 21
0.0
 31
0.0
  0
LINE
  5
9BD
100
AcDbEntity
  8
V0-VYPLNE
  6
DASHDOT
 62
    52
100
AcDbLine
 10
0.0
 20
0.0
 30
0.0
 11
0.0
 21
34.564774
 31
0.0
  0
LINE
  5
9BE
100
AcDbEntity
  8
V0-VYPLNE
  6
DASHDOT
 62
    41
100
AcDbLine
 10
0.0
 20
0.0
 30
0.0
 11
-28.300002
 21
0.0
 31
0.0
  0
ARC
  5
9BF
100
AcDbEntity
  8
V0-VYPLNE
  6
DASHED
 62
    52
100
AcDbCircle
 10
102.785826
 20
-11.465614
 30
0.0
 40
44.495532
100
AcDbArc
 50
41.175907
 51
93.010287
  0
LINE
  5
9C0
100
AcDbEntity
  8
V0-VYPLNE
  6
DASHED
 62
    52
100
AcDbLine
 10
143.62148
 20
9.259441
 30
0.0
 11
143.62148
 21
28.612266
 31
0.0
  0
ARC
  5
9C1
100
AcDbEntity
  8
V0-VYPLNE
  6
DASHED
 62
    52
100
AcDbCircle
 10
151.837952
 20
30.047907
 30
0.0
 40
8.340952
100
AcDbArc
 50
0.0
 51
189.911078
  0
ARC
  5
9C2
100
AcDbEntity
  8
V0-VYPLNE
  6
DASHED
 62
    52
100
AcDbCircle
 10
-13.295909
 20
15.39813
 30
0.0
 40
163.901019
100
AcDbArc
 50
142.02389
 51
300.663833
  0
ENDBLK
  5
992
100
AcDbEntity
  8
0
100
AcDbBlockEnd
  0
BLOCK
  5
998
100
AcDbEntity
  8
0
100
AcDbBlockBegin
  2
AZNAK
 70
     0
 10
0.0
 20
0.0
 30
0.0
  3
AZNAK
  1

  0
LINE
  5
995
100
AcDbEntity
  8
V0-NAZVY
 62
   210
100
AcDbLine
 10
-24.212224
 20
-21.995765
 30
0.0
 11
29.715001
 21
-13.197458
 31
0.0
  0
LINE
  5
996
100
AcDbEntity
  8
V0-NAZVY
 62
   210
100
AcDbLine
 10
-24.212224
 20
21.995765
 30
0.0
 11
29.715001
 21
13.197458
 31
0.0
  0
CIRCLE
  5
997
100
AcDbEntity
  8
V0-NAZVY
 62
   210
100
AcDbCircle
 10
0.0
 20
0.0
 30
0.0
 40
33.029256
  0
ENDBLK
  5
999
100
AcDbEntity
  8
0
100
AcDbBlockEnd
  0
ENDSEC
  0
SECTION
  2
ENTITIES
  0
MTEXT
  5
5A9
100
AcDbEntity
  8
V0-ZBYTEK
 62
   130
100
AcDbMText
 10
868.272012
 20
-402.199329
 30
0.0
 40
31.5
 41
892.3329
 71
     5
 72
     5
  1
RADIALNI VENTILATOR 
  7
ED10
  0
MTEXT
  5
5AA
100
AcDbEntity
  8
V0-ZBYTEK
100
AcDbMText
 10
864.685708
 20
-470.384184
 30
0.0
 40
22.5
 41
353.465
 71
     5
 72
     5
  1
PRO CTYRHRANNE POTRUBI
  7
ED10
  0
MTEXT
  5
5AB
100
AcDbEntity
  8
V0-NAZVY
100
AcDbMText
 10
853.835654
 20
-319.746918
 30
0.0
 40
56.25
 41
462.6912
 71
     5
 72
     5
  1
ILB/ILT 250
  7
ED10
  0
LINE
  5
5AD
100
AcDbEntity
  8
V0-OBRYS
100
AcDbLine
 10
-120.0
 20
-50.0
 30
0.0
 11
-115.0
 21
-50.0
 31
0.0
  0
LINE
  5
5AE
100
AcDbEntity
  8
V0-OBRYS
100
AcDbLine
 10
1081.411286
 20
-40.0
 30
0.0
 11
1081.411286
 21
280.0
 31
0.0
  0
LINE
  5
5AF
100
AcDbEntity
  8
V0-OBRYS
100
AcDbLine
 10
1071.411286
 20
290.0
 30
0.0
 11
551.411286
 21
290.0
 31
0.0
  0
LINE
  5
5B0
100
AcDbEntity
  8
V0-OBRYS
100
AcDbLine
 10
541.411286
 20
280.0
 30
0.0
 11
541.411286
 21
-40.0
 31
0.0
  0
LINE
  5
5B1
100
AcDbEntity
  8
V0-OBRYS
100
AcDbLine
 10
561.411286
 20
290.0
 30
0.0
 11
561.411286
 21
-50.0
 31
0.0
  0
LINE
  5
5B2
100
AcDbEntity
  8
V0-OBRYS
100
AcDbLine
 10
1081.411286
 20
269.0
 30
0.0
 11
541.411286
 21
269.0
 31
0.0
  0
LINE
  5
5B3
100
AcDbEntity
  8
V0-OBRYS
100
AcDbLine
 10
1061.411286
 20
-50.0
 30
0.0
 11
1061.411286
 21
290.0
 31
0.0
  0
LINE
  5
5B4
100
AcDbEntity
  8
V0-OBRYS
100
AcDbLine
 10
541.411286
 20
-29.0
 30
0.0
 11
1081.411286
 21
-29.0
 31
0.0
  0
ARC
  5
5B5
100
AcDbEntity
  8
V0-OBRYS
100
AcDbCircle
 10
551.411286
 20
-40.0
 30
0.0
 40
10.0
100
AcDbArc
 50
180.0
 51
270.0
  0
ARC
  5
5B6
100
AcDbEntity
  8
V0-OBRYS
100
AcDbCircle
 10
551.411286
 20
280.0
 30
0.0
 40
10.0
100
AcDbArc
 50
90.0
 51
180.0
  0
ARC
  5
5B7
100
AcDbEntity
  8
V0-OBRYS
100
AcDbCircle
 10
1071.411286
 20
280.0
 30
0.0
 40
10.0
100
AcDbArc
 50
0.0
 51
90.0
  0
ARC
  5
5B8
100
AcDbEntity
  8
V0-OBRYS
100
AcDbCircle
 10
1071.411286
 20
-40.0
 30
0.0
 40
10.0
100
AcDbArc
 50
270.0
 51
0.0
  0
LINE
  5
5BA
100
AcDbEntity
  8
V0-OBRYS
100
AcDbLine
 10
561.411286
 20
175.470214
 30
0.0
 11
1061.411286
 21
175.470214
 31
0.0
  0
LINE
  5
5D4
100
AcDbEntity
  8
V0-OBRYS
100
AcDbLine
 10
576.584764
 20
175.636926
 30
0.0
 11
576.584764
 21
-29.825678
 31
0.0
  0
CIRCLE
  5
5D5
100
AcDbEntity
  8
V0-OBRYS
100
AcDbCircle
 10
551.411286
 20
-40.0
 30
0.0
 40
4.5
  0
LINE
  5
5D6
100
AcDbEntity
  8
V0-VYPLNE
100
AcDbLine
 10
-127.051175
 20
-40.0
 30
0.0
 11
-106.04967
 21
-40.0
 31
0.0
  0
LINE
  5
5D7
100
AcDbEntity
  8
V0-VYPLNE
100
AcDbLine
 10
557.177975
 20
-40.0
 30
0.0
 11
560.438189
 21
-40.0
 31
0.0
  0
LINE
  5
5D8
100
AcDbEntity
  8
V0-VYPLNE
100
AcDbLine
 10
551.411286
 20
-48.629782
 30
0.0
 11
551.411286
 21
-30.94382
 31
0.0
  0
LINE
  5
5D9
100
AcDbEntity
  8
V0-VYPLNE
100
AcDbLine
 10
-127.051175
 20
280.0
 30
0.0
 11
-106.04967
 21
280.0
 31
0.0
  0
LINE
  5
5DA
100
AcDbEntity
  8
V0-VYPLNE
100
AcDbLine
 10
551.411286
 20
288.629782
 30
0.0
 11
551.411286
 21
270.94382
 31
0.0
  0
CIRCLE
  5
5DB
100
AcDbEntity
  8
V0-OBRYS
100
AcDbCircle
 10
551.411286
 20
280.0
 30
0.0
 40
4.5
  0
CIRCLE
  5
5DC
100
AcDbEntity
  8
V0-OBRYS
100
AcDbCircle
 10
1071.411286
 20
279.0
 30
0.0
 40
4.5
  0
LINE
  5
5DD
100
AcDbEntity
  8
V0-VYPLNE
100
AcDbLine
 10
1071.411286
 20
287.629782
 30
0.0
 11
1071.411286
 21
269.94382
 31
0.0
  0
LINE
  5
5DE
100
AcDbEntity
  8
V0-VYPLNE
100
AcDbLine
 10
1080.36213
 20
279.0
 30
0.0
 11
1065.644596
 21
279.0
 31
0.0
  0
LINE
  5
5DF
100
AcDbEntity
  8
V0-VYPLNE
100
AcDbLine
 10
1080.36213
 20
-39.0
 30
0.0
 11
1065.644596
 21
-39.0
 31
0.0
  0
LINE
  5
5E0
100
AcDbEntity
  8
V0-VYPLNE
100
AcDbLine
 10
1071.411286
 20
-47.629782
 30
0.0
 11
1071.411286
 21
-29.94382
 31
0.0
  0
CIRCLE
  5
5E1
100
AcDbEntity
  8
V0-OBRYS
100
AcDbCircle
 10
1071.411286
 20
-39.0
 30
0.0
 40
4.5
  0
LINE
  5
5E2
100
AcDbEntity
  8
V0-VYPLNE
100
AcDbLine
 10
1065.644596
 20
-39.0
 30
0.0
 11
1062.384383
 21
-39.0
 31
0.0
  0
LINE
  5
5E8
100
AcDbEntity
  8
V0-OBRYS
100
AcDbLine
 10
445.0
 20
-50.0
 30
0.0
 11
445.0
 21
290.0
 31
0.0
  0
LINE
  5
5E9
100
AcDbEntity
  8
V0-OBRYS
100
AcDbLine
 10
-120.0
 20
-50.0
 30
0.0
 11
-120.0
 21
290.0
 31
0.0
  0
LINE
  5
5EC
100
AcDbEntity
  8
V0-OBRYS
100
AcDbLine
 10
445.0
 20
290.0
 30
0.0
 11
440.0
 21
290.0
 31
0.0
  0
LINE
  5
5ED
100
AcDbEntity
  8
V0-OBRYS
100
AcDbLine
 10
551.411286
 20
-50.0
 30
0.0
 11
1071.411286
 21
-50.0
 31
0.0
  0
LINE
  5
5EE
100
AcDbEntity
  8
V0-OBRYS
100
AcDbLine
 10
440.0
 20
270.0
 30
0.0
 11
-115.0
 21
270.0
 31
0.0
  0
LINE
  5
5EF
100
AcDbEntity
  8
V0-OBRYS
100
AcDbLine
 10
-115.0
 20
-30.0
 30
0.0
 11
440.0
 21
-30.0
 31
0.0
  0
LINE
  5
5F1
100
AcDbEntity
  8
V0-OBRYS
100
AcDbLine
 10
-115.0
 20
-50.0
 30
0.0
 11
-115.0
 21
290.0
 31
0.0
  0
LINE
  5
5F2
100
AcDbEntity
  8
V0-OBRYS
100
AcDbLine
 10
440.0
 20
-50.0
 30
0.0
 11
440.0
 21
290.0
 31
0.0
  0
LINE
  5
5F3
100
AcDbEntity
  8
V0-OBRYS
100
AcDbLine
 10
-115.0
 20
290.0
 30
0.0
 11
-120.0
 21
290.0
 31
0.0
  0
LINE
  5
5F4
100
AcDbEntity
  8
V0-OBRYS
100
AcDbLine
 10
440.0
 20
-50.0
 30
0.0
 11
445.0
 21
-50.0
 31
0.0
  0
LINE
  5
5F7
100
AcDbEntity
  8
V0-VYPLNE
100
AcDbLine
 10
536.08064
 20
280.0
 30
0.0
 11
557.177975
 21
280.0
 31
0.0
  0
LINE
  5
5F8
100
AcDbEntity
  8
V0-VYPLNE
100
AcDbLine
 10
536.08064
 20
-40.0
 30
0.0
 11
557.177975
 21
-40.0
 31
0.0
  0
LINE
  5
5F9
100
AcDbEntity
  8
V0-VYPLNE
100
AcDbLine
 10
433.166486
 20
280.0
 30
0.0
 11
452.258763
 21
280.0
 31
0.0
  0
LINE
  5
5FA
100
AcDbEntity
  8
V0-VYPLNE
100
AcDbLine
 10
432.21187
 20
-40.0
 30
0.0
 11
450.349534
 21
-40.0
 31
0.0
  0
LINE
  5
5FB
100
AcDbEntity
  8
V0-OBRYS
100
AcDbLine
 10
440.0
 20
-653.50435
 30
0.0
 11
440.0
 21
-113.50435
 31
0.0
  0
LINE
  5
5FC
100
AcDbEntity
  8
V0-OBRYS
100
AcDbLine
 10
-115.0
 20
-653.50435
 30
0.0
 11
-115.0
 21
-113.50435
 31
0.0
  0
LINE
  5
5FD
100
AcDbEntity
  8
V0-OBRYS
100
AcDbLine
 10
-120.0
 20
-653.50435
 30
0.0
 11
-120.0
 21
-113.50435
 31
0.0
  0
LINE
  5
5FE
100
AcDbEntity
  8
V0-OBRYS
100
AcDbLine
 10
445.0
 20
-653.50435
 30
0.0
 11
445.0
 21
-113.50435
 31
0.0
  0
LINE
  5
5FF
100
AcDbEntity
  8
V0-OBRYS
100
AcDbLine
 10
-120.0
 20
-653.50435
 30
0.0
 11
-115.0
 21
-653.50435
 31
0.0
  0
LINE
  5
600
100
AcDbEntity
  8
V0-OBRYS
100
AcDbLine
 10
440.0
 20
-653.50435
 30
0.0
 11
445.0
 21
-653.50435
 31
0.0
  0
LINE
  5
601
100
AcDbEntity
  8
V0-OBRYS
100
AcDbLine
 10
-115.0
 20
-633.50435
 30
0.0
 11
440.0
 21
-633.50435
 31
0.0
  0
LINE
  5
602
100
AcDbEntity
  8
V0-OBRYS
100
AcDbLine
 10
440.0
 20
-133.50435
 30
0.0
 11
-115.0
 21
-133.50435
 31
0.0
  0
LINE
  5
603
100
AcDbEntity
  8
V0-VYPLNE
100
AcDbLine
 10
-127.051175
 20
-643.50435
 30
0.0
 11
-106.04967
 21
-643.50435
 31
0.0
  0
LINE
  5
604
100
AcDbEntity
  8
V0-VYPLNE
100
AcDbLine
 10
-127.051175
 20
-123.50435
 30
0.0
 11
-106.04967
 21
-123.50435
 31
0.0
  0
LINE
  5
605
100
AcDbEntity
  8
V0-OBRYS
100
AcDbLine
 10
-115.0
 20
-113.50435
 30
0.0
 11
-120.0
 21
-113.50435
 31
0.0
  0
LINE
  5
606
100
AcDbEntity
  8
V0-VYPLNE
100
AcDbLine
 10
432.21187
 20
-643.50435
 30
0.0
 11
450.349534
 21
-643.50435
 31
0.0
  0
LINE
  5
607
100
AcDbEntity
  8
V0-VYPLNE
100
AcDbLine
 10
433.166486
 20
-123.50435
 30
0.0
 11
452.258763
 21
-123.50435
 31
0.0
  0
LINE
  5
608
100
AcDbEntity
  8
V0-OBRYS
100
AcDbLine
 10
445.0
 20
-113.50435
 30
0.0
 11
440.0
 21
-113.50435
 31
0.0
  0
LINE
  5
63B
100
AcDbEntity
  8
V0-OBRYS
100
AcDbLine
 10
853.849848
 20
175.154613
 30
0.0
 11
853.849848
 21
-29.894697
 31
0.0
  0
MTEXT
  5
63C
100
AcDbEntity
  8
V0-ZBYTEK
 62
   130
100
AcDbMText
 10
827.990138
 20
338.445448
 30
0.0
 40
21.0
 41
594.8886
 71
     5
 72
     5
  1
POHLED NA VYSTUPNI STRANU
  7
ED10
  0
DIMENSION
  5
67D
100
AcDbEntity
  8
V0-VYPLNE
  6
CONTINUOUS
100
AcDbDimension
  2
*D1
 10
445.0
 20
318.538274
 30
0.0
 11
147.5
 21
318.538274
 31
0.0
 70
   160
  3
ED20
100
AcDbAlignedDimension
 13
-120.0
 23
290.0
 33
0.0
 14
445.0
 24
291.0
 34
0.0
100
AcDbRotatedDimension
  0
DIMENSION
  5
695
100
AcDbEntity
  8
V0-VYPLNE
  6
CONTINUOUS
100
AcDbDimension
  2
*D7
 10
1183.009354
 20
-50.0
 30
0.0
 11
1171.009354
 21
120.0
 31
0.0
 70
    32
  3
ED20
100
AcDbAlignedDimension
 13
1061.411286
 23
290.0
 33
0.0
 14
1061.411286
 24
-50.0
 34
0.0
 50
90.0
100
AcDbRotatedDimension
  0
DIMENSION
  5
6A2
100
AcDbEntity
  8
V0-VYPLNE
  6
CONTINUOUS
100
AcDbDimension
  2
*D6
 10
1149.800843
 20
-40.0
 30
0.0
 11
1137.798874
 21
120.0
 31
0.0
 70
    32
  3
ED20
100
AcDbAlignedDimension
 13
1080.36213
 23
280.0
 33
0.0
 14
1081.411286
 24
-40.0
 34
0.0
 50
90.0
100
AcDbRotatedDimension
  0
DIMENSION
  5
6BC
100
AcDbEntity
  8
V0-VYPLNE
  6
CONTINUOUS
100
AcDbDimension
  2
*D4
 10
1061.411286
 20
-81.716186
 30
0.0
 11
811.411286
 21
-69.716186
 31
0.0
 70
    32
  3
ED20
100
AcDbAlignedDimension
 13
561.411286
 23
-50.0
 33
0.0
 14
1061.411286
 24
-50.0
 34
0.0
100
AcDbRotatedDimension
  0
DIMENSION
  5
6C9
100
AcDbEntity
  8
V0-VYPLNE
  6
CONTINUOUS
100
AcDbDimension
  2
*D3
 10
1071.411286
 20
-112.370195
 30
0.0
 11
811.411286
 21
-100.368227
 31
0.0
 70
    32
  3
ED20
100
AcDbAlignedDimension
 13
551.411286
 23
-48.629782
 33
0.0
 14
1071.411286
 24
-48.629782
 34
0.0
100
AcDbRotatedDimension
  0
DIMENSION
  5
6D6
100
AcDbEntity
  8
V0-VYPLNE
  6
CONTINUOUS
100
AcDbDimension
  2
*D2
 10
1081.411286
 20
-142.724891
 30
0.0
 11
811.411286
 21
-130.724891
 31
0.0
 70
    32
  3
ED20
100
AcDbAlignedDimension
 13
541.411286
 23
-30.0
 33
0.0
 14
1081.411286
 24
-30.0
 34
0.0
100
AcDbRotatedDimension
  0
LINE
  5
6D7
100
AcDbEntity
  8
V0-VYPLNE
  6
CONTINUOUS
100
AcDbLine
 10
101.888227
 20
113.553883
 30
0.0
 11
193.831966
 21
113.553883
 31
0.0
  0
LINE
  5
6D8
100
AcDbEntity
  8
V0-VYPLNE
  6
CONTINUOUS
100
AcDbLine
 10
167.398884
 20
124.14053
 30
0.0
 11
193.831966
 21
113.553883
 31
0.0
  0
LINE
  5
6D9
100
AcDbEntity
  8
V0-VYPLNE
  6
CONTINUOUS
100
AcDbLine
 10
167.398884
 20
102.967237
 30
0.0
 11
193.831966
 21
113.553883
 31
0.0
  0
POINT
  5
6DB
100
AcDbEntity
  8
V0-VYPLNE
100
AcDbPoint
 10
-120.0
 20
120.0
 30
0.0
  0
POINT
  5
6DC
100
AcDbEntity
  8
V0-VYPLNE
100
AcDbPoint
 10
-120.0
 20
-383.50435
 30
0.0
  0
POINT
  5
6DF
100
AcDbEntity
  8
V0-VYPLNE
100
AcDbPoint
 10
811.411286
 20
120.0
 30
0.0
  0
LINE
  5
6E1
100
AcDbEntity
  8
V0-VYPLNE
  6
CONTINUOUS
100
AcDbLine
 10
-39.212974
 20
-371.811966
 30
0.0
 11
-12.779891
 21
-382.398612
 31
0.0
  0
LINE
  5
6E2
100
AcDbEntity
  8
V0-VYPLNE
  6
CONTINUOUS
100
AcDbLine
 10
-104.723631
 20
-382.398612
 30
0.0
 11
-12.779891
 21
-382.398612
 31
0.0
  0
LINE
  5
6E3
100
AcDbEntity
  8
V0-VYPLNE
  6
CONTINUOUS
100
AcDbLine
 10
-39.212974
 20
-392.985259
 30
0.0
 11
-12.779891
 21
-382.398612
 31
0.0
  0
MTEXT
  5
6E8
100
AcDbEntity
  8
V0-NAZVY
100
AcDbMText
 10
147.927332
 20
175.452758
 30
0.0
 40
37.5
 41
308.4608
 71
     5
 72
     5
  1
ILB/ILT 250
  7
ED10
  0
MTEXT
  5
6E9
100
AcDbEntity
  8
V0-NAZVY
100
AcDbMText
 10
19.864701
 20
-165.251561
 30
0.0
 40
37.5
 41
308.4608
 71
     5
 72
     5
  1
ILB/ILT 250
  7
ED10
  0
MTEXT
  5
6EA
100
AcDbEntity
  8
V0-NAZVY
100
AcDbMText
 10
808.381059
 20
225.723182
 30
0.0
 40
37.5
 41
308.4608
 71
     5
 72
     5
  1
ILB/ILT 250
  7
ED10
  0
LEADER
  5
6F1
100
AcDbEntity
  8
V0-VYPLNE
100
AcDbLeader
  3
ED20
 73
     0
 75
     1
 40
20.0
 41
27.43187
 76
     3
 10
548.042781
 20
276.924337
 30
0.0
 10
524.959577
 20
231.042348
 30
0.0
 10
509.959577
 20
231.042348
 30
0.0
 77
   256
340
6F2
  0
MTEXT
  5
6F2
102
{ACAD_REACTORS
330
6F1
102
}
100
AcDbEntity
  8
V0-VYPLNE
100
AcDbMText
 10
507.959577
 20
243.042348
 30
0.0
 40
20.0
 41
0.0
 71
     6
 72
     1
  1
\A1;%%c9
  7
ED20
  0
DIMENSION
  5
7C0
100
AcDbEntity
  8
V0-VYPLNE
  6
CONTINUOUS
 62
    41
100
AcDbDimension
  2
*D5
 10
1120.053932
 20
-29.0
 30
0.0
 11
1108.051963
 21
120.0
 31
0.0
 70
    32
  3
ED20
100
AcDbAlignedDimension
 13
1081.411286
 23
269.0
 33
0.0
 14
1081.411286
 24
-29.0
 34
0.0
 50
90.0
100
AcDbRotatedDimension
  0
LINE
  5
856
100
AcDbEntity
  8
V0-OBRYS
100
AcDbLine
 10
853.849848
 20
-16.190005
 30
0.0
 11
982.889195
 21
-16.190005
 31
0.0
  0
ELLIPSE
  5
857
100
AcDbEntity
  8
V0-OBRYS
100
AcDbEllipse
 10
1001.300828
 20
135.470214
 30
0.0
 11
72.0
 21
0.0000000000001163
 31
0.0
210
0.0
220
0.0
230
1.0
 40
0.555556
 41
1.570796326794895
 42
3.141592653589791
  0
LINE
  5
858
100
AcDbEntity
  8
V0-OBRYS
100
AcDbLine
 10
982.889195
 20
121.094239
 30
0.0
 11
853.849848
 21
121.094239
 31
0.0
  0
LINE
  5
859
100
AcDbEntity
  8
V0-OBRYS
100
AcDbLine
 10
875.712465
 20
134.729912
 30
0.0
 11
875.712465
 21
121.094239
 31
0.0
  0
LINE
  5
85A
100
AcDbEntity
  8
V0-VYPLNE
  6
CONTINUOUS
 62
    52
100
AcDbLine
 10
864.548219
 20
121.094239
 30
0.0
 11
864.548219
 21
-16.190005
 31
0.0
  0
LINE
  5
85B
100
AcDbEntity
  8
V0-VYPLNE
  6
CONTINUOUS
 62
    52
100
AcDbLine
 10
893.575249
 20
121.094239
 30
0.0
 11
893.575249
 21
-16.190005
 31
0.0
  0
LINE
  5
85C
100
AcDbEntity
  8
V0-VYPLNE
  6
CONTINUOUS
 62
    52
100
AcDbLine
 10
922.602284
 20
121.094239
 30
0.0
 11
922.602284
 21
-16.190005
 31
0.0
  0
LINE
  5
85D
100
AcDbEntity
  8
V0-OBRYS
100
AcDbLine
 10
853.849848
 20
134.729912
 30
0.0
 11
929.300828
 21
134.729912
 31
0.0
  0
LINE
  5
85E
100
AcDbEntity
  8
V0-OBRYS
100
AcDbLine
 10
929.300828
 20
134.729912
 30
0.0
 11
929.300828
 21
135.470214
 31
0.0
  0
LINE
  5
85F
100
AcDbEntity
  8
V0-OBRYS
100
AcDbLine
 10
982.889195
 20
-16.190005
 30
0.0
 11
982.889195
 21
121.094239
 31
0.0
  0
LINE
  5
860
100
AcDbEntity
  8
V0-VYPLNE
  6
CONTINUOUS
 62
    52
100
AcDbLine
 10
951.629314
 20
121.094239
 30
0.0
 11
951.629314
 21
-16.190005
 31
0.0
  0
INSERT
  5
99A
100
AcDbEntity
  8
0
100
AcDbBlockReference
  2
AZNAK
 10
336.048793
 20
113.173331
 30
0.0
  0
INSERT
  5
99B
100
AcDbEntity
  8
0
100
AcDbBlockReference
  2
AZNAK
 10
351.319704
 20
-208.664761
 30
0.0
  0
INSERT
  5
99C
100
AcDbEntity
  8
0
100
AcDbBlockReference
  2
AZNAK
 10
722.990824
 20
78.019717
 30
0.0
  0
INSERT
  5
9C5
100
AcDbEntity
  8
0
100
AcDbBlockReference
  2
AROTOR
 10
193.810059
 20
-442.872755
 30
0.0
 41
1.235
 42
1.235
 43
1.235
  0
VIEWPORT
  5
22
100
AcDbEntity
 67
     1
  8
0
100
AcDbViewport
 10
261.517699
 20
161.962666
 30
0.0
 40
523.035398
 41
323.925332
 68
    -1
 69
     1
1001
ACAD
1000
MVIEW
1002
{
1070
    16
1010
0.0
1020
0.0
1030
0.0
1010
0.0
1020
0.0
1030
1.0
1040
0.0
1040
323.925332
1040
261.517699
1040
161.962666
1040
50.0
1040
0.0
1040
0.0
1070
     0
1070
   100
1070
     1
1070
     1
1070
     0
1070
     0
1070
     0
1070
     0
1040
0.0
1040
0.0
1040
0.0
1040
1.0
1040
1.0
1040
10.0
1040
10.0
1070
     0
1002
{
1002
}
1002
}
  0
ENDSEC
  0
SECTION
  2
OBJECTS
  0
DICTIONARY
  5
C
100
AcDbDictionary
  3
ACAD_GROUP
350
D
  3
ACAD_MLINESTYLE
350
E
  3
ACDBVARIABLEDICTIONARY
350
5D
  0
DICTIONARY
  5
D
102
{ACAD_REACTORS
330
C
102
}
100
AcDbDictionary
  0
DICTIONARY
  5
E
102
{ACAD_REACTORS
330
C
102
}
100
AcDbDictionary
  3
STANDARD
350
13
  0
DICTIONARY
  5
5D
102
{ACAD_REACTORS
330
C
102
}
100
AcDbDictionary
  3
DIMADEC
350
5E
  3
SORTENTS
350
3D8
  0
MLINESTYLE
  5
13
102
{ACAD_REACTORS
330
E
102
}
100
AcDbMlineStyle
  2
STANDARD
 70
     0
  3

 62
     0
 51
90.0
 52
90.0
 71
     2
 49
0.5
 62
   256
  6
BYLAYER
 49
-0.5
 62
   256
  6
BYLAYER
  0
DICTIONARYVAR
  5
5E
102
{ACAD_REACTORS
330
5D
102
}
100
DictionaryVariables
280
     0
  1
0
  0
DICTIONARYVAR
  5
3D8
102
{ACAD_REACTORS
330
5D
102
}
100
DictionaryVariables
280
     0
  1
96
  0
ENDSEC
  0
EOF
