  0
SECTION
  2
HEADER
  9
$ACADVER
  1
AC1014
  9
$ACADMAINTVER
 70
     9
  9
$DWGCODEPAGE
  3
ANSI_1250
  9
$INSBASE
 10
0.0
 20
0.0
 30
0.0
  9
$EXTMIN
 10
1053.267240450548
 20
-1842.488088
 30
0.0
  9
$EXTMAX
 10
2801.694505494505
 20
438.999093
 30
0.0
  9
$LIMMIN
 10
0.0
 20
0.0
  9
$LIMMAX
 10
0.0
 20
0.0
  9
$ORTHOMODE
 70
     0
  9
$REGENMODE
 70
     1
  9
$FILLMODE
 70
     1
  9
$QTEXTMODE
 70
     0
  9
$MIRRTEXT
 70
     1
  9
$DRAGMODE
 70
     2
  9
$LTSCALE
 40
1.0
  9
$OSMODE
 70
    37
  9
$ATTMODE
 70
     1
  9
$TEXTSIZE
 40
0.2
  9
$TRACEWID
 40
0.05
  9
$TEXTSTYLE
  7
ED50
  9
$CLAYER
  8
V0-VYPLNE
  9
$CELTYPE
  6
CONTINUOUS
  9
$CECOLOR
 62
    41
  9
$CELTSCALE
 40
1.0
  9
$DELOBJ
 70
     1
  9
$DISPSILH
 70
     0
  9
$DIMSCALE
 40
1.0
  9
$DIMASZ
 40
40.0
  9
$DIMEXO
 40
1.0
  9
$DIMDLI
 40
0.38
  9
$DIMRND
 40
0.0
  9
$DIMDLE
 40
0.0
  9
$DIMEXE
 40
1.25
  9
$DIMTP
 40
0.0
  9
$DIMTM
 40
0.0
  9
$DIMTXT
 40
40.0
  9
$DIMCEN
 40
0.09
  9
$DIMTSZ
 40
0.0
  9
$DIMTOL
 70
     0
  9
$DIMLIM
 70
     0
  9
$DIMTIH
 70
     0
  9
$DIMTOH
 70
     0
  9
$DIMSE1
 70
     0
  9
$DIMSE2
 70
     0
  9
$DIMTAD
 70
     1
  9
$DIMZIN
 70
     0
  9
$DIMBLK
  1
OPEN
  9
$DIMASO
 70
     1
  9
$DIMSHO
 70
     1
  9
$DIMPOST
  1

  9
$DIMAPOST
  1

  9
$DIMALT
 70
     0
  9
$DIMALTD
 70
     2
  9
$DIMALTF
 40
25.4
  9
$DIMLFAC
 40
1.0
  9
$DIMTOFL
 70
     1
  9
$DIMTVP
 40
0.0
  9
$DIMTIX
 70
     1
  9
$DIMSOXD
 70
     0
  9
$DIMSAH
 70
     0
  9
$DIMBLK1
  1

  9
$DIMBLK2
  1

  9
$DIMSTYLE
  2
ED50
  9
$DIMCLRD
 70
     0
  9
$DIMCLRE
 70
    41
  9
$DIMCLRT
 70
    41
  9
$DIMTFAC
 40
1.0
  9
$DIMGAP
 40
2.0
  9
$DIMJUST
 70
     0
  9
$DIMSD1
 70
     0
  9
$DIMSD2
 70
     0
  9
$DIMTOLJ
 70
     1
  9
$DIMTZIN
 70
     0
  9
$DIMALTZ
 70
     0
  9
$DIMALTTZ
 70
     0
  9
$DIMFIT
 70
     3
  9
$DIMUPT
 70
     1
  9
$DIMUNIT
 70
     2
  9
$DIMDEC
 70
     0
  9
$DIMTDEC
 70
     4
  9
$DIMALTU
 70
     2
  9
$DIMALTTD
 70
     2
  9
$DIMTXSTY
  7
ED40
  9
$DIMAUNIT
 70
     0
  9
$LUNITS
 70
     2
  9
$LUPREC
 70
     4
  9
$SKETCHINC
 40
0.1
  9
$FILLETRAD
 40
0.5
  9
$AUNITS
 70
     0
  9
$AUPREC
 70
     0
  9
$MENU
  1
.
  9
$ELEVATION
 40
0.0
  9
$PELEVATION
 40
0.0
  9
$THICKNESS
 40
0.0
  9
$LIMCHECK
 70
     0
  9
$BLIPMODE
 70
     0
  9
$CHAMFERA
 40
0.5
  9
$CHAMFERB
 40
0.5
  9
$CHAMFERC
 40
1.0
  9
$CHAMFERD
 40
0.0
  9
$SKPOLY
 70
     0
  9
$TDCREATE
 40
2455643.632265764
  9
$TDUPDATE
 40
2455643.632265776
  9
$TDINDWG
 40
0.0000000116
  9
$TDUSRTIMER
 40
0.0000000116
  9
$USRTIMER
 70
     1
  9
$ANGBASE
 50
0.0
  9
$ANGDIR
 70
     0
  9
$PDMODE
 70
    35
  9
$PDSIZE
 40
20.0
  9
$PLINEWID
 40
0.0
  9
$COORDS
 70
     1
  9
$SPLFRAME
 70
     0
  9
$SPLINETYPE
 70
     6
  9
$SPLINESEGS
 70
     8
  9
$ATTDIA
 70
     0
  9
$ATTREQ
 70
     1
  9
$HANDLING
 70
     1
  9
$HANDSEED
  5
532E
  9
$SURFTAB1
 70
     6
  9
$SURFTAB2
 70
     6
  9
$SURFTYPE
 70
     6
  9
$SURFU
 70
     6
  9
$SURFV
 70
     6
  9
$UCSNAME
  2

  9
$UCSORG
 10
0.0
 20
0.0
 30
0.0
  9
$UCSXDIR
 10
1.0
 20
0.0
 30
0.0
  9
$UCSYDIR
 10
0.0
 20
1.0
 30
0.0
  9
$PUCSNAME
  2

  9
$PUCSORG
 10
0.0
 20
0.0
 30
0.0
  9
$PUCSXDIR
 10
1.0
 20
0.0
 30
0.0
  9
$PUCSYDIR
 10
0.0
 20
1.0
 30
0.0
  9
$USERI1
 70
     0
  9
$USERI2
 70
     0
  9
$USERI3
 70
     0
  9
$USERI4
 70
     0
  9
$USERI5
 70
     0
  9
$USERR1
 40
0.0
  9
$USERR2
 40
0.0
  9
$USERR3
 40
0.0
  9
$USERR4
 40
0.0
  9
$USERR5
 40
0.0
  9
$WORLDVIEW
 70
     1
  9
$SHADEDGE
 70
     3
  9
$SHADEDIF
 70
    70
  9
$TILEMODE
 70
     1
  9
$MAXACTVP
 70
    64
  9
$PINSBASE
 10
0.0
 20
0.0
 30
0.0
  9
$PLIMCHECK
 70
     0
  9
$PEXTMIN
 10
1.000000000000000E+20
 20
1.000000000000000E+20
 30
1.000000000000000E+20
  9
$PEXTMAX
 10
-1.000000000000000E+20
 20
-1.000000000000000E+20
 30
-1.000000000000000E+20
  9
$PLIMMIN
 10
0.0
 20
0.0
  9
$PLIMMAX
 10
0.0
 20
0.0
  9
$UNITMODE
 70
     0
  9
$VISRETAIN
 70
     1
  9
$PLINEGEN
 70
     0
  9
$PSLTSCALE
 70
     1
  9
$TREEDEPTH
 70
  3020
  9
$PICKSTYLE
 70
     1
  9
$CMLSTYLE
  2
STANDARD
  9
$CMLJUST
 70
     0
  9
$CMLSCALE
 40
1.0
  9
$PROXYGRAPHICS
 70
     1
  9
$MEASUREMENT
 70
     0
  0
ENDSEC
  0
SECTION
  2
CLASSES
  0
CLASS
  1
ACDBDICTIONARYWDFLT
  2
AcDbDictionaryWithDefault
  3
ObjectDBX Classes
 90
        0
280
     0
281
     0
  0
CLASS
  1
XRECORD
  2
AcDbXrecord
  3
AutoCAD 2000
 90
        0
280
     0
281
     0
  0
CLASS
  1
LWPOLYLINE
  2
AcDbPolyline
  3
AutoCAD 2000
 90
        0
280
     0
281
     1
  0
CLASS
  1
HATCH
  2
AcDbHatch
  3
AutoCAD 2000
 90
        0
280
     0
281
     1
  0
CLASS
  1
ACDBPLACEHOLDER
  2
AcDbPlaceHolder
  3
ObjectDBX Classes
 90
        0
280
     0
281
     0
  0
CLASS
  1
LAYOUT
  2
AcDbLayout
  3
ObjectDBX Classes
 90
        0
280
     0
281
     0
  0
ENDSEC
  0
SECTION
  2
TABLES
  0
TABLE
  2
VPORT
  5
525A
330
0
100
AcDbSymbolTable
 70
     2
  0
VPORT
  5
527B
102
{ACAD_XDICTIONARY
360
532C
102
}
330
525A
100
AcDbSymbolTableRecord
100
AcDbViewportTableRecord
  2
*ACTIVE
 70
     0
 10
0.0
 20
0.0
 11
1.0
 21
1.0
 12
1717.542993
 22
-614.697902
 13
0.0
 23
0.0
 14
10.0
 24
10.0
 15
10.0
 25
10.0
 16
0.0
 26
0.0
 36
1.0
 17
0.0
 27
0.0
 37
0.0
 40
2356.579636
 41
0.0075349699557758
 42
50.0
 43
0.0
 44
0.0
 50
0.0
 51
0.0000000000007958
 71
     0
 72
   100
 73
     1
 74
     3
 75
     0
 76
     0
 77
     0
 78
     0
  0
ENDTAB
  0
TABLE
  2
LTYPE
  5
5257
330
0
100
AcDbSymbolTable
 70
    25
  0
LTYPE
  5
5266
330
5257
100
AcDbSymbolTableRecord
100
AcDbLinetypeTableRecord
  2
BYBLOCK
 70
     0
  3

 72
    65
 73
     0
 40
0.0
  0
LTYPE
  5
5267
330
5257
100
AcDbSymbolTableRecord
100
AcDbLinetypeTableRecord
  2
BYLAYER
 70
     0
  3

 72
    65
 73
     0
 40
0.0
  0
LTYPE
  5
5268
330
5257
100
AcDbSymbolTableRecord
100
AcDbLinetypeTableRecord
  2
CONTINUOUS
 70
     0
  3
Solid line
 72
    65
 73
     0
 40
0.0
  0
LTYPE
  5
5283
330
5257
100
AcDbSymbolTableRecord
100
AcDbLinetypeTableRecord
  2
CENTER
 70
     0
  3
Center ____ _ ____ _ ____ _ ____ _ ____ _ ____
 72
    65
 73
     4
 40
2.0
 49
1.25
 74
     0
 49
-0.25
 74
     0
 49
0.25
 74
     0
 49
-0.25
 74
     0
  0
LTYPE
  5
5284
330
5257
100
AcDbSymbolTableRecord
100
AcDbLinetypeTableRecord
  2
DASHDOT
 70
     0
  3
Dashdot __ . __ . __ . __ . __ . __ . __ . __
 72
    65
 73
     4
 40
1.0
 49
0.5
 74
     0
 49
-0.25
 74
     0
 49
0.0
 74
     0
 49
-0.25
 74
     0
  0
LTYPE
  5
5285
330
5257
100
AcDbSymbolTableRecord
100
AcDbLinetypeTableRecord
  2
DASHED
 70
     0
  3
Dashed __ __ __ __ __ __ __ __ __ __ __ __ __ _
 72
    65
 73
     2
 40
0.75
 49
0.5
 74
     0
 49
-0.25
 74
     0
  0
LTYPE
  5
5286
330
5257
100
AcDbSymbolTableRecord
100
AcDbLinetypeTableRecord
  2
HIDDEN
 70
     0
  3
Hidden __ __ __ __ __ __ __ __ __ __ __ __ __ __
 72
    65
 73
     2
 40
0.375
 49
0.25
 74
     0
 49
-0.125
 74
     0
  0
LTYPE
  5
5287
330
5257
100
AcDbSymbolTableRecord
100
AcDbLinetypeTableRecord
  2
HIDDEN2
 70
     0
  3
Hidden2 _ _ _ _ _ _ _ _ _ _ _ _ _ _ _ _ _ 
 72
    65
 73
     2
 40
0.1875
 49
0.125
 74
     0
 49
-0.0625
 74
     0
  0
LTYPE
  5
5288
330
5257
100
AcDbSymbolTableRecord
100
AcDbLinetypeTableRecord
  2
BORDER
 70
     0
  3
Border __ __ . __ __ . __ __ . __ __ . __ __ .
 72
    65
 73
     6
 40
1.75
 49
0.5
 74
     0
 49
-0.25
 74
     0
 49
0.5
 74
     0
 49
-0.25
 74
     0
 49
0.0
 74
     0
 49
-0.25
 74
     0
  0
LTYPE
  5
5289
330
5257
100
AcDbSymbolTableRecord
100
AcDbLinetypeTableRecord
  2
BORDER2
 70
     0
  3
Border2 __.__.__.__.__.__.__.__.__.__.__.
 72
    65
 73
     6
 40
0.875
 49
0.25
 74
     0
 49
-0.125
 74
     0
 49
0.25
 74
     0
 49
-0.125
 74
     0
 49
0.0
 74
     0
 49
-0.125
 74
     0
  0
LTYPE
  5
528A
330
5257
100
AcDbSymbolTableRecord
100
AcDbLinetypeTableRecord
  2
BORDERX2
 70
     0
  3
Borderx2  ____  ____  .  ____  ____  .  ___
 72
    65
 73
     6
 40
3.5
 49
1.0
 74
     0
 49
-0.5
 74
     0
 49
1.0
 74
     0
 49
-0.5
 74
     0
 49
0.0
 74
     0
 49
-0.5
 74
     0
  0
LTYPE
  5
528B
330
5257
100
AcDbSymbolTableRecord
100
AcDbLinetypeTableRecord
  2
CENTER2
 70
     0
  3
Center2  ___ _ ___ _ ___ _ ___ _ ___ _ ___
 72
    65
 73
     4
 40
1.125
 49
0.75
 74
     0
 49
-0.125
 74
     0
 49
0.125
 74
     0
 49
-0.125
 74
     0
  0
LTYPE
  5
528C
330
5257
100
AcDbSymbolTableRecord
100
AcDbLinetypeTableRecord
  2
CENTERX2
 70
     0
  3
Centerx2  ________  __  ________  __  _____
 72
    65
 73
     4
 40
4.0
 49
2.5
 74
     0
 49
-0.5
 74
     0
 49
0.5
 74
     0
 49
-0.5
 74
     0
  0
LTYPE
  5
528D
330
5257
100
AcDbSymbolTableRecord
100
AcDbLinetypeTableRecord
  2
DASHDOT2
 70
     0
  3
Dashdot2  _._._._._._._._._._._._._._._.
 72
    65
 73
     4
 40
0.5
 49
0.25
 74
     0
 49
-0.125
 74
     0
 49
0.0
 74
     0
 49
-0.125
 74
     0
  0
LTYPE
  5
528E
330
5257
100
AcDbSymbolTableRecord
100
AcDbLinetypeTableRecord
  2
DASHDOTX2
 70
     0
  3
Dashdotx2 ____  .  ____  .  ____  .  ___
 72
    65
 73
     4
 40
2.0
 49
1.0
 74
     0
 49
-0.5
 74
     0
 49
0.0
 74
     0
 49
-0.5
 74
     0
  0
LTYPE
  5
528F
330
5257
100
AcDbSymbolTableRecord
100
AcDbLinetypeTableRecord
  2
DASHED2
 70
     0
  3
Dashed2 _ _ _ _ _ _ _ _ _ _ _ _ _ _ _ _ _ 
 72
    65
 73
     2
 40
0.375
 49
0.25
 74
     0
 49
-0.125
 74
     0
  0
LTYPE
  5
5290
330
5257
100
AcDbSymbolTableRecord
100
AcDbLinetypeTableRecord
  2
DASHEDX2
 70
     0
  3
Dashedx2 ____  ____  ____  ____  ____  ___
 72
    65
 73
     2
 40
1.5
 49
1.0
 74
     0
 49
-0.5
 74
     0
  0
LTYPE
  5
5291
330
5257
100
AcDbSymbolTableRecord
100
AcDbLinetypeTableRecord
  2
DIVIDE
 70
     0
  3
Divide ____ . . ____ . . ____ . . ____ . . ____
 72
    65
 73
     6
 40
1.25
 49
0.5
 74
     0
 49
-0.25
 74
     0
 49
0.0
 74
     0
 49
-0.25
 74
     0
 49
0.0
 74
     0
 49
-0.25
 74
     0
  0
LTYPE
  5
5292
330
5257
100
AcDbSymbolTableRecord
100
AcDbLinetypeTableRecord
  2
DIVIDE2
 70
     0
  3
Divide2 __..__..__..__..__..__..__..__.._
 72
    65
 73
     6
 40
0.625
 49
0.25
 74
     0
 49
-0.125
 74
     0
 49
0.0
 74
     0
 49
-0.125
 74
     0
 49
0.0
 74
     0
 49
-0.125
 74
     0
  0
LTYPE
  5
5293
330
5257
100
AcDbSymbolTableRecord
100
AcDbLinetypeTableRecord
  2
DIVIDEX2
 70
     0
  3
Dividex2 ________  .  .  ________  .  .  _
 72
    65
 73
     6
 40
2.5
 49
1.0
 74
     0
 49
-0.5
 74
     0
 49
0.0
 74
     0
 49
-0.5
 74
     0
 49
0.0
 74
     0
 49
-0.5
 74
     0
  0
LTYPE
  5
5294
330
5257
100
AcDbSymbolTableRecord
100
AcDbLinetypeTableRecord
  2
DOT
 70
     0
  3
Dot . . . . . . . . . . . . . . . . . . . . . . . .
 72
    65
 73
     2
 40
0.25
 49
0.0
 74
     0
 49
-0.25
 74
     0
  0
LTYPE
  5
5295
330
5257
100
AcDbSymbolTableRecord
100
AcDbLinetypeTableRecord
  2
DOT2
 70
     0
  3
Dot2 ........................................
 72
    65
 73
     2
 40
0.125
 49
0.0
 74
     0
 49
-0.125
 74
     0
  0
LTYPE
  5
5296
330
5257
100
AcDbSymbolTableRecord
100
AcDbLinetypeTableRecord
  2
DOTX2
 70
     0
  3
Dotx2 .  .  .  .  .  .  .  .  .  .  .  .  .  .
 72
    65
 73
     2
 40
0.5
 49
0.0
 74
     0
 49
-0.5
 74
     0
  0
LTYPE
  5
5297
330
5257
100
AcDbSymbolTableRecord
100
AcDbLinetypeTableRecord
  2
HIDDENX2
 70
     0
  3
Hiddenx2 ____ ____ ____ ____ ____ ____ ____ 
 72
    65
 73
     2
 40
0.75
 49
0.5
 74
     0
 49
-0.25
 74
     0
  0
LTYPE
  5
5298
330
5257
100
AcDbSymbolTableRecord
100
AcDbLinetypeTableRecord
  2
PHANTOM
 70
     0
  3
Phantom ______  __  __  ______  __  __  ______ 
 72
    65
 73
     6
 40
2.5
 49
1.25
 74
     0
 49
-0.25
 74
     0
 49
0.25
 74
     0
 49
-0.25
 74
     0
 49
0.25
 74
     0
 49
-0.25
 74
     0
  0
LTYPE
  5
5299
330
5257
100
AcDbSymbolTableRecord
100
AcDbLinetypeTableRecord
  2
PHANTOM2
 70
     0
  3
Phantom2 ___ _ _ ___ _ _ ___ _ _ ___ _ _
 72
    65
 73
     6
 40
1.25
 49
0.625
 74
     0
 49
-0.125
 74
     0
 49
0.125
 74
     0
 49
-0.125
 74
     0
 49
0.125
 74
     0
 49
-0.125
 74
     0
  0
LTYPE
  5
529A
330
5257
100
AcDbSymbolTableRecord
100
AcDbLinetypeTableRecord
  2
PHANTOMX2
 70
     0
  3
Phantomx2 ____________    ____    ____   _
 72
    65
 73
     6
 40
5.0
 49
2.5
 74
     0
 49
-0.5
 74
     0
 49
0.5
 74
     0
 49
-0.5
 74
     0
 49
0.5
 74
     0
 49
-0.5
 74
     0
  0
ENDTAB
  0
TABLE
  2
LAYER
  5
5254
330
0
100
AcDbSymbolTable
 70
     5
  0
LAYER
  5
5262
330
5254
100
AcDbSymbolTableRecord
100
AcDbLayerTableRecord
  2
0
 70
     0
 62
     7
  6
CONTINUOUS
  0
LAYER
  5
9E
330
5254
100
AcDbSymbolTableRecord
100
AcDbLayerTableRecord
  2
DEFPOINTS
 70
     0
 62
     7
  6
CONTINUOUS
  0
LAYER
  5
377
330
5254
100
AcDbSymbolTableRecord
100
AcDbLayerTableRecord
  2
V0-OBRYS
 70
     0
 62
    90
  6
CONTINUOUS
  0
LAYER
  5
378
330
5254
100
AcDbSymbolTableRecord
100
AcDbLayerTableRecord
  2
V0-VYPLNE
 70
     0
 62
    63
  6
DASHDOT
  0
LAYER
  5
1540
330
5254
100
AcDbSymbolTableRecord
100
AcDbLayerTableRecord
  2
VO-OBRYS
 70
     0
 62
    90
  6
CONTINUOUS
  0
ENDTAB
  0
TABLE
  2
STYLE
  5
5255
330
0
100
AcDbSymbolTable
 70
     7
  0
STYLE
  5
5263
330
5255
100
AcDbSymbolTableRecord
100
AcDbTextStyleTableRecord
  2
STANDARD
 70
     0
 40
0.0
 41
1.0
 50
0.0
 71
     0
 42
0.2
  3
ISOCP.shx
  4

1001
ACAD
1000
ISOCP.shx
1071
        0
  0
STYLE
  5
331
330
5255
100
AcDbSymbolTableRecord
100
AcDbTextStyleTableRecord
  2
ED20
 70
     0
 40
20.0
 41
1.0
 50
0.0
 71
     0
 42
0.2
  3
ISOCP.shx
  4

1001
ACAD
1000
ISOCP.shx
1071
        0
  0
STYLE
  5
648
330
5255
100
AcDbSymbolTableRecord
100
AcDbTextStyleTableRecord
  2
ED10
 70
     0
 40
10.0
 41
1.0
 50
0.0
 71
     0
 42
0.2
  3
ISOCP.shx
  4

1001
ACAD
1000
ISOCP.shx
1071
        0
  0
STYLE
  5
F38
330
5255
100
AcDbSymbolTableRecord
100
AcDbTextStyleTableRecord
  2
ED30
 70
     0
 40
30.0
 41
1.0
 50
0.0
 71
     0
 42
0.2
  3
ISOCP.shx
  4

1001
ACAD
1000
ISOCP.shx
1071
        0
  0
STYLE
  5
F39
330
5255
100
AcDbSymbolTableRecord
100
AcDbTextStyleTableRecord
  2
ED40
 70
     0
 40
40.0
 41
1.0
 50
0.0
 71
     0
 42
0.2
  3
ISOCP.shx
  4

1001
ACAD
1000
ISOCP.shx
1071
        0
  0
STYLE
  5
1B9D
330
5255
100
AcDbSymbolTableRecord
100
AcDbTextStyleTableRecord
  2
VD_RECOV_1_1B9D_
 70
     0
 40
0.0
 41
1.0
 50
0.0
 71
     0
 42
0.2
  3
ltypeshp.shx
  4

1001
ACAD
1000
ltypeshp.shx
1071
        0
  0
STYLE
  5
4C83
330
5255
100
AcDbSymbolTableRecord
100
AcDbTextStyleTableRecord
  2
ED50
 70
     0
 40
50.0
 41
1.0
 50
0.0
 71
     0
 42
0.2
  3
isocp.shx
  4

1001
ACAD
1000
isocp.shx
1071
        0
  0
ENDTAB
  0
TABLE
  2
VIEW
  5
5258
330
0
100
AcDbSymbolTable
 70
     0
  0
ENDTAB
  0
TABLE
  2
UCS
  5
5259
330
0
100
AcDbSymbolTable
 70
     0
  0
ENDTAB
  0
TABLE
  2
APPID
  5
525B
330
0
100
AcDbSymbolTable
 70
     7
  0
APPID
  5
5264
330
525B
100
AcDbSymbolTableRecord
100
AcDbRegAppTableRecord
  2
ACAD
 70
     0
  0
APPID
  5
527C
330
525B
100
AcDbSymbolTableRecord
100
AcDbRegAppTableRecord
  2
VD_INVISIBLE_NOT_FOR_READ
 70
     0
  0
APPID
  5
527D
330
525B
100
AcDbSymbolTableRecord
100
AcDbRegAppTableRecord
  2
VD_TEMPHATCH
 70
     0
  0
APPID
  5
527E
330
525B
100
AcDbSymbolTableRecord
100
AcDbRegAppTableRecord
  2
VDEXTRAPARAM
 70
     0
  0
APPID
  5
527F
330
525B
100
AcDbSymbolTableRecord
100
AcDbRegAppTableRecord
  2
PE_URL
 70
     0
  0
APPID
  5
5280
330
525B
100
AcDbSymbolTableRecord
100
AcDbRegAppTableRecord
  2
VD_UNKNOWN
 70
     0
  0
APPID
  5
52AB
330
525B
100
AcDbSymbolTableRecord
100
AcDbRegAppTableRecord
  2
CONTENTBLOCKICON
 70
     0
  0
ENDTAB
  0
TABLE
  2
DIMSTYLE
  5
525C
330
0
100
AcDbSymbolTable
 70
     5
  0
DIMSTYLE
105
5279
330
525C
100
AcDbSymbolTableRecord
100
AcDbDimStyleTableRecord
  2
STANDARD
 70
     0
  3

  4

  5
OPEN
  6

  7

 40
1.0
 41
15.0
 42
0.625
 43
0.38
 44
1.25
 45
0.0
 46
0.0
 47
0.0
 48
0.0
140
15.0
141
0.09
142
0.0
143
25.4
144
1.0
145
0.0
146
1.0
147
3.0
 71
     0
 72
     0
 73
     0
 74
     0
 75
     0
 76
     0
 77
     1
 78
     0
170
     0
171
     2
172
     1
173
     0
174
     1
175
     0
176
     0
177
     0
178
     0
270
     2
271
     0
272
     4
273
     2
274
     2
340
331
275
     0
280
     0
281
     0
282
     0
283
     1
284
     0
285
     0
286
     0
287
     3
288
     1
  0
DIMSTYLE
105
FE9
330
525C
100
AcDbSymbolTableRecord
100
AcDbDimStyleTableRecord
  2
ED20
 70
     0
  3

  4

  5
OPEN
  6

  7

 40
1.0
 41
20.0
 42
1.0
 43
0.38
 44
1.25
 45
0.0
 46
0.0
 47
0.0
 48
0.0
140
20.0
141
0.09
142
0.0
143
25.4
144
1.0
145
0.0
146
1.0
147
2.0
 71
     0
 72
     0
 73
     0
 74
     0
 75
     0
 76
     0
 77
     1
 78
     0
170
     0
171
     2
172
     1
173
     0
174
     1
175
     0
176
     0
177
    41
178
    41
270
     2
271
     0
272
     4
273
     2
274
     2
340
331
275
     0
280
     0
281
     0
282
     0
283
     1
284
     0
285
     0
286
     0
287
     3
288
     1
  0
DIMSTYLE
105
320E
330
525C
100
AcDbSymbolTableRecord
100
AcDbDimStyleTableRecord
  2
ED30
 70
     0
  3

  4

  5
OPEN
  6

  7

 40
1.0
 41
30.0
 42
1.0
 43
0.38
 44
1.25
 45
0.0
 46
0.0
 47
0.0
 48
0.0
140
30.0
141
0.09
142
0.0
143
25.4
144
1.0
145
0.0
146
1.0
147
2.0
 71
     0
 72
     0
 73
     0
 74
     0
 75
     0
 76
     0
 77
     1
 78
     0
170
     0
171
     2
172
     1
173
     0
174
     1
175
     0
176
     0
177
    41
178
    41
270
     2
271
     0
272
     4
273
     2
274
     2
340
F38
275
     0
280
     0
281
     0
282
     0
283
     1
284
     0
285
     0
286
     0
287
     3
288
     1
  0
DIMSTYLE
105
4105
330
525C
100
AcDbSymbolTableRecord
100
AcDbDimStyleTableRecord
  2
ED40
 70
     0
  3

  4

  5
OPEN
  6

  7

 40
1.0
 41
40.0
 42
1.0
 43
0.38
 44
1.25
 45
0.0
 46
0.0
 47
0.0
 48
0.0
140
40.0
141
0.09
142
0.0
143
25.4
144
1.0
145
0.0
146
1.0
147
2.0
 71
     0
 72
     0
 73
     0
 74
     0
 75
     0
 76
     0
 77
     1
 78
     0
170
     0
171
     2
172
     1
173
     0
174
     1
175
     0
176
     0
177
    41
178
    41
270
     2
271
     0
272
     4
273
     2
274
     2
340
F39
275
     0
280
     0
281
     0
282
     0
283
     1
284
     0
285
     0
286
     0
287
     3
288
     1
  0
DIMSTYLE
105
4C82
102
{ACAD_REACTORS
330
3F41
330
409E
330
4880
330
4881
330
509B
330
50B3
330
5144
102
}
330
525C
100
AcDbSymbolTableRecord
100
AcDbDimStyleTableRecord
  2
ED50
 70
     0
  3

  4

  5
OPEN
  6

  7

 40
1.0
 41
40.0
 42
1.0
 43
0.38
 44
1.25
 45
0.0
 46
0.0
 47
0.0
 48
0.0
140
40.0
141
0.09
142
0.0
143
25.4
144
1.0
145
0.0
146
1.0
147
2.0
 71
     0
 72
     0
 73
     0
 74
     0
 75
     0
 76
     0
 77
     1
 78
     0
170
     0
171
     2
172
     1
173
     0
174
     1
175
     0
176
     0
177
    41
178
    41
270
     2
271
     0
272
     4
273
     2
274
     2
340
F39
275
     0
280
     0
281
     0
282
     0
283
     1
284
     0
285
     0
286
     0
287
     3
288
     1
  0
ENDTAB
  0
TABLE
  2
BLOCK_RECORD
  5
5253
330
0
100
AcDbSymbolTable
 70
    16
  0
BLOCK_RECORD
  5
5271
330
5253
100
AcDbSymbolTableRecord
100
AcDbBlockTableRecord
  2
*MODEL_SPACE
  0
BLOCK_RECORD
  5
526D
330
5253
100
AcDbSymbolTableRecord
100
AcDbBlockTableRecord
  2
*PAPER_SPACE
  0
BLOCK_RECORD
  5
90
330
5253
100
AcDbSymbolTableRecord
100
AcDbBlockTableRecord
  2
_OPEN
  0
BLOCK_RECORD
  5
267B
330
5253
100
AcDbSymbolTableRecord
100
AcDbBlockTableRecord
  2
ASVORK
1001
CONTENTBLOCKICON
1071
        0
1004
2800000020000000200000000100040000000000000200000000000000000000000000000000000000000000000080000080000000808000800000008000800080800000C0C0C000808080000000FF0000FF000000FFFF00FF000000FF00FF00FFFF0000FFFFFF00FFFFFFFAAAAAAAAAAAAAAAAAAFFFFFFF
1004
FFFFFFFAFFFFFAFFFFFFFFFFAFFFFFFFFFFFFFFAFFFFFAFFFFFFFFFFAFFFFFFFFFFFFFFAFFFFFAFFFFFFFFFFAFFFFFFFFFFFFFFAFFFFFAFFFFFFFFFFAFFFFFFFFFFFFFFAFFFFFAFFFFFFFFFFAFFFFFFFFFFFFFFAFFFFFAFFFFFFFFFFAFFFFFFFFFFFFFFAFFFFFAFFFFFFFFFFAFFFFFFFFFFFFFFAFFFFFAFF
1004
FFFFFFFFAFFFFFFFFFFFFFFAFFFFFAFFFFFFFFFFAFFFFFFFFFFFFFFAFFFFFAFFFFFFFFFFAFFFFFFFFFFFFFFAFFFFFAFFFFFFFFFFAFFFFFFFFFFFFFFAFFFFFAFFFFFFFFFFAFFFFFFFFFFFFFFAFFFFFAFFFFFFFFFFAFFFFFFFFFFFFFFAFFFFFAFFFFFFFFFFAFFFFFFFFFFFFFFAFFFFFAFFFFFFFFFFAFFFFFFF
1004
FFFFFFFAFFFFFAFFFFFFFFFFFFFFFFFFFFFFFFFAFFFFFAFFFFFFFFFFAFFFFFFFFFFFFFFAFFFFFAFFFFFFFFFFAFFFFFFFFFFFFFFAFFFFFAFFFFFFFFFFAFFFFFFFFFFFFFFAFFFFFAFFFFFFFFFFAFFFFFFFFFFFFFFAFFFFFAFFFFFFFFFFAFFFFFFFFFFFFFFAFFFFFAFFFFFFFFFFAFFFFFFFFFFFFFFAFFFFFAFF
1004
FFFFFFFFAFFFFFFFFFFFFFFAFFFFFAFFFFFFFFFFAFFFFFFFFFFFFFFAFFFFFAFFFFFFFFFFAFFFFFFFFFFFFFFAFFFFFAFFFFFFFFFFAFFFFFFFFFFFFFFAFFFFFAFFFFFFFFFFAFFFFFFFFFFFFFFAFFFFFAFFFFFFFFFFAFFFFFFFFFFFFFFAFFFFFAFFFFFFFFFFAFFFFFFFFFFFFFFAFFFFFAFFFFFFFFFFAFFFFFFF
1004
FFFFFFFAAAAAAAAAAAAAAAAAAFFFFFFF
  0
BLOCK_RECORD
  5
26B3
330
5253
100
AcDbSymbolTableRecord
100
AcDbBlockTableRecord
  2
ASVORKBOK
1001
CONTENTBLOCKICON
1071
        0
1004
2800000020000000200000000100040000000000000200000000000000000000000000000000000000000000000080000080000000808000800000008000800080800000C0C0C000808080000000FF0000FF000000FFFF00FF000000FF00FF00FFFF0000FFFFFF00FFFFFFFFFFFFFFFFFFFFFFFFFFFFFFFF
1004
FAAAAAAAAAAAAAAAAAAAAAAAAAAAAAAFFAFFFFFFFFFFFFFFFFFFFFFFFFFFFFFAAAFFFFFFFFFFFFFFFFFFFFFFFFFFFFAAAAAFAAFFFFFFFFFFFFFFFFFFFFAAAFFAFAFAAAFFFFFFFFFFFFFFFFFFFFAFAFFAFAFFAFFFFFFFFFFFFFFFFFFFFFFAFFFAFAFFFFFFFFFFFFFFFFFFFFFFFFFFFFFAFAFFFFFFFFFFFFFF
1004
FFFFFFFFFFFFFFFAFAFFFFFFFFFFFFFFFFFFFFFFFFFFFFFAFAFFFFFFFFFFFFFFFFFFFFFFFFFFFFFAFAFFFFFFFFFFFFFFFFFFFFFFFFFFFFFAFAFFFFFFFFFFFFFFFFFFFFFFFFFFFFFAFAFFFFFFFFFFFFFFFFFFFFFFFFFFFFFAFAFFFFFFFFFFFFFFFFFFFFFFFFFFFFFAFAFFFFFFFFFFFFFFFFFFFFFFFFFFFFFA
1004
FAFFFFFFFFFFFFFFBFFFFFFFFFFFFFFAFAFFFFFFFFFFFFFFFFFFFFFFFFFFFFFAFAFFFFFFFFFFFFFFFFFFFFFFFFFFFFFAFAFFFFFFFFFFFFFFFFFFFFFFFFFFFFFAFAFFFFFFFFFFFFFFFFFFFFFFFFFFFFFAFAFFFFFFFFFFFFFFFFFFFFFFFFFFFFFAFAFFFFFFFFFFFFFFFFFFFFFFFFFFFFFAFAFFFFFFFFFFFFFF
1004
FFFFFFFFFFFFFFFAFAFFFFFFFFFFFFFFFFFFFFFFFFFFFFFAFAFFFFFFFFFFFFFFFFFFFFFFFFFFFFFAFAFFAFFFFFFFFFFFFFFFFFFFFFFAFFFAFAFAAAFFFFFFFFFFFFFFFFFFFFAFAFFAFAFFAAFFFFFFFFFFFFFFFFFFFFAAAFFAFAFFFFFFFFFFFFFFFFFFFFFFFFFFFFFAFAFFFFFFFFFFFFFFFFFFFFFFFFFFFFFA
1004
FAAAAAAAAAAAAAAAAAAAAAAAAAAAAAAF
  0
BLOCK_RECORD
  5
4036
330
5253
100
AcDbSymbolTableRecord
100
AcDbBlockTableRecord
  2
VD_ANONYM_4036
  0
BLOCK_RECORD
  5
4835
330
5253
100
AcDbSymbolTableRecord
100
AcDbBlockTableRecord
  2
VD_ANONYM_4835
  0
BLOCK_RECORD
  5
5075
330
5253
100
AcDbSymbolTableRecord
100
AcDbBlockTableRecord
  2
VD_ANONYM_5075
  0
BLOCK_RECORD
  5
516F
330
5253
100
AcDbSymbolTableRecord
100
AcDbBlockTableRecord
  2
VDDIM_DEFAULT
  0
BLOCK_RECORD
  5
5171
330
5253
100
AcDbSymbolTableRecord
100
AcDbBlockTableRecord
  2
VDDIM_NONE
  0
BLOCK_RECORD
  5
52AD
330
5253
100
AcDbSymbolTableRecord
100
AcDbBlockTableRecord
  2
*D9
  0
BLOCK_RECORD
  5
52BA
330
5253
100
AcDbSymbolTableRecord
100
AcDbBlockTableRecord
  2
*D10
  0
BLOCK_RECORD
  5
52C8
330
5253
100
AcDbSymbolTableRecord
100
AcDbBlockTableRecord
  2
*D11
  0
BLOCK_RECORD
  5
52D5
330
5253
100
AcDbSymbolTableRecord
100
AcDbBlockTableRecord
  2
*D12
  0
BLOCK_RECORD
  5
52E2
330
5253
100
AcDbSymbolTableRecord
100
AcDbBlockTableRecord
  2
*D13
  0
BLOCK_RECORD
  5
52EE
330
5253
100
AcDbSymbolTableRecord
100
AcDbBlockTableRecord
  2
*D14
  0
BLOCK_RECORD
  5
52FB
330
5253
100
AcDbSymbolTableRecord
100
AcDbBlockTableRecord
  2
*D15
  0
ENDTAB
  0
ENDSEC
  0
SECTION
  2
BLOCKS
  0
BLOCK
  5
5272
330
5271
100
AcDbEntity
  8
0
100
AcDbBlockBegin
  2
*MODEL_SPACE
 70
     0
 71
     0
 10
0.0
 20
0.0
 30
0.0
  3
*MODEL_SPACE
  1

  0
ENDBLK
  5
5273
330
5271
100
AcDbEntity
  8
0
100
AcDbBlockEnd
  0
BLOCK
  5
526E
330
526D
100
AcDbEntity
 67
     1
  8
0
100
AcDbBlockBegin
  2
*PAPER_SPACE
 70
     0
 71
     0
 10
0.0
 20
0.0
 30
0.0
  3
*PAPER_SPACE
  1

  0
ENDBLK
  5
526F
330
526D
100
AcDbEntity
 67
     1
  8
0
100
AcDbBlockEnd
  0
BLOCK
  5
529B
330
90
100
AcDbEntity
  8
0
100
AcDbBlockBegin
  2
_OPEN
 70
     0
 71
     0
 10
0.0
 20
0.0
 30
0.0
  3
_OPEN
  1

  0
LINE
  5
92
330
90
100
AcDbEntity
  8
0
  6
BYBLOCK
 62
     0
100
AcDbLine
 10
-1.0
 20
0.166667
 30
0.0
 11
0.0
 21
0.0
 31
0.0
  0
LINE
  5
93
330
90
100
AcDbEntity
  8
0
  6
BYBLOCK
 62
     0
100
AcDbLine
 10
0.0
 20
0.0
 30
0.0
 11
-1.0
 21
-0.166667
 31
0.0
  0
LINE
  5
94
330
90
100
AcDbEntity
  8
0
  6
BYBLOCK
 62
     0
100
AcDbLine
 10
0.0
 20
0.0
 30
0.0
 11
-1.0
 21
0.0
 31
0.0
  0
ENDBLK
  5
529C
330
90
100
AcDbEntity
  8
0
100
AcDbBlockEnd
  0
BLOCK
  5
529D
330
267B
100
AcDbEntity
  8
0
100
AcDbBlockBegin
  2
ASVORK
 70
     0
 71
     0
 10
0.0
 20
0.0
 30
0.0
  3
ASVORK
  1

  0
LINE
  5
32CF
330
267B
100
AcDbEntity
  8
V0-OBRYS
  6
CONTINUOUS
 62
    90
100
AcDbLine
 10
-44.999998
 20
-40.000011
 30
0.0
 11
0.0000020000000021
 21
-40.000011
 31
0.0
  0
LINE
  5
32D0
330
267B
100
AcDbEntity
  8
V0-OBRYS
  6
CONTINUOUS
 62
    90
100
AcDbLine
 10
-44.999998
 20
39.999989
 30
0.0
 11
0.0000020000000021
 21
39.999989
 31
0.0
  0
LINE
  5
32D1
330
267B
100
AcDbEntity
  8
V0-OBRYS
  6
CONTINUOUS
 62
    90
100
AcDbLine
 10
-44.999998
 20
-0.000011
 30
0.0
 11
-44.999998
 21
-40.000011
 31
0.0
  0
LINE
  5
32D2
330
267B
100
AcDbEntity
  8
V0-OBRYS
  6
CONTINUOUS
 62
    90
100
AcDbLine
 10
-29.999998
 20
-0.000011
 30
0.0
 11
-29.999998
 21
-40.000011
 31
0.0
  0
LINE
  5
32D3
330
267B
100
AcDbEntity
  8
V0-OBRYS
  6
CONTINUOUS
 62
    90
100
AcDbLine
 10
-44.999998
 20
-0.000011
 30
0.0
 11
-44.999998
 21
39.999989
 31
0.0
  0
LINE
  5
32D4
330
267B
100
AcDbEntity
  8
V0-OBRYS
  6
CONTINUOUS
 62
    90
100
AcDbLine
 10
-29.999998
 20
-0.000011
 30
0.0
 11
-29.999998
 21
39.999989
 31
0.0
  0
LINE
  5
32D5
330
267B
100
AcDbEntity
  8
V0-OBRYS
  6
CONTINUOUS
 62
    90
100
AcDbLine
 10
0.000002
 20
-40.000011
 30
0.0
 11
0.000002
 21
-0.0000110000000006
 31
0.0
  0
LINE
  5
32D6
330
267B
100
AcDbEntity
  8
V0-OBRYS
  6
CONTINUOUS
 62
    90
100
AcDbLine
 10
0.000002
 20
39.999989
 30
0.0
 11
0.000002
 21
-0.0000110000000006
 31
0.0
  0
ENDBLK
  5
529E
330
267B
100
AcDbEntity
  8
0
100
AcDbBlockEnd
  0
BLOCK
  5
529F
330
26B3
100
AcDbEntity
  8
0
100
AcDbBlockBegin
  2
ASVORKBOK
 70
     0
 71
     0
 10
0.0
 20
0.0
 30
0.0
  3
ASVORKBOK
  1

  0
POINT
  5
26B5
330
26B3
100
AcDbEntity
  8
V0-VYPLNE
  6
DASHED
 62
    52
100
AcDbPoint
 10
0.0
 20
0.0
 30
0.0
  0
LINE
  5
26B6
330
26B3
100
AcDbEntity
  8
V0-OBRYS
  6
CONTINUOUS
 62
    90
100
AcDbLine
 10
36.1584
 20
40.176
 30
0.0
 11
-36.1584
 21
40.176
 31
0.0
  0
LINE
  5
26B7
330
26B3
100
AcDbEntity
  8
V0-OBRYS
  6
CONTINUOUS
 62
    90
100
AcDbLine
 10
-36.1584
 20
-40.176
 30
0.0
 11
36.1584
 21
-40.176
 31
0.0
  0
LINE
  5
26B8
330
26B3
100
AcDbEntity
  8
V0-OBRYS
  6
CONTINUOUS
 62
    90
100
AcDbLine
 10
-40.176
 20
36.1584
 30
0.0
 11
-40.176
 21
-36.1584
 31
0.0
  0
CIRCLE
  5
26B9
330
26B3
100
AcDbEntity
  8
V0-OBRYS
  6
CONTINUOUS
 62
    90
100
AcDbCircle
 10
-30.132
 20
-30.132
 30
0.0
 40
2.6784
  0
LINE
  5
26BA
330
26B3
100
AcDbEntity
  8
V0-OBRYS
  6
CONTINUOUS
 62
    90
100
AcDbLine
 10
-41.176195
 20
-33.63873
 30
0.0
 11
-34.765679
 21
-32.743337
 31
0.0
  0
LINE
  5
26BB
330
26B3
100
AcDbEntity
  8
V0-OBRYS
  6
CONTINUOUS
 62
    90
100
AcDbLine
 10
-41.957903
 20
-32.6585
 30
0.0
 11
-39.658484
 21
-26.607953
 31
0.0
  0
ARC
  5
26BC
330
26B3
100
AcDbEntity
  8
V0-OBRYS
  6
CONTINUOUS
 62
    90
100
AcDbCircle
 10
-36.1584
 20
-36.1584
 30
0.0
 40
4.0176
100
AcDbArc
 50
180.0
 51
270.0
  0
CIRCLE
  5
26BD
330
26B3
100
AcDbEntity
  8
V0-OBRYS
  6
CONTINUOUS
 62
    90
100
AcDbCircle
 10
-30.132
 20
30.132
 30
0.0
 40
2.6784
  0
ARC
  5
26BE
330
26B3
100
AcDbEntity
  8
V0-OBRYS
  6
CONTINUOUS
 62
    90
100
AcDbCircle
 10
-36.1584
 20
36.1584
 30
0.0
 40
4.0176
100
AcDbArc
 50
90.0
 51
180.0
  0
LINE
  5
26BF
330
26B3
100
AcDbEntity
  8
V0-OBRYS
  6
CONTINUOUS
 62
    90
100
AcDbLine
 10
40.176
 20
-36.1584
 30
0.0
 11
40.176
 21
36.1584
 31
0.0
  0
LINE
  5
26C0
330
26B3
100
AcDbEntity
  8
V0-OBRYS
  6
CONTINUOUS
 62
    90
100
AcDbLine
 10
41.176195
 20
-33.63873
 30
0.0
 11
34.765679
 21
-32.743337
 31
0.0
  0
ARC
  5
26C1
330
26B3
100
AcDbEntity
  8
V0-OBRYS
  6
CONTINUOUS
 62
    90
100
AcDbCircle
 10
36.1584
 20
-36.1584
 30
0.0
 40
4.0176
100
AcDbArc
 50
270.0
 51
0.0
  0
CIRCLE
  5
26C2
330
26B3
100
AcDbEntity
  8
V0-OBRYS
  6
CONTINUOUS
 62
    90
100
AcDbCircle
 10
30.132
 20
-30.132
 30
0.0
 40
2.6784
  0
CIRCLE
  5
26C3
330
26B3
100
AcDbEntity
  8
V0-OBRYS
  6
CONTINUOUS
 62
    90
100
AcDbCircle
 10
30.132
 20
30.132
 30
0.0
 40
2.6784
  0
ARC
  5
26C4
330
26B3
100
AcDbEntity
  8
V0-OBRYS
  6
CONTINUOUS
 62
    90
100
AcDbCircle
 10
36.1584
 20
36.1584
 30
0.0
 40
4.0176
100
AcDbArc
 50
0.0
 51
90.0
  0
ENDBLK
  5
52A0
330
26B3
100
AcDbEntity
  8
0
100
AcDbBlockEnd
  0
BLOCK
  5
52A1
330
4036
100
AcDbEntity
  8
0
100
AcDbBlockBegin
  2
VD_ANONYM_4036
 70
     0
 71
     0
 10
0.0
 20
0.0
 30
0.0
  3
VD_ANONYM_4036
  1

  0
LINE
  5
4C90
330
4036
100
AcDbEntity
  8
0
  6
BYBLOCK
 62
    41
100
AcDbLine
 10
1170.51027
 20
78.999813
 30
0.0
 11
1027.571833
 21
78.999813
 31
0.0
  0
LINE
  5
4C91
330
4036
100
AcDbEntity
  8
0
  6
BYBLOCK
 62
    41
100
AcDbLine
 10
1170.51027
 20
-101.001627
 30
0.0
 11
1027.571833
 21
-101.001627
 31
0.0
  0
LINE
  5
4C92
330
4036
100
AcDbEntity
  8
0
  6
BYBLOCK
 62
    41
100
AcDbLine
 10
1028.821833
 20
28.999813
 30
0.0
 11
1028.821833
 21
-51.001627
 31
0.0
  0
INSERT
  5
4C93
330
4036
100
AcDbEntity
  8
0
  6
BYBLOCK
 62
    41
100
AcDbBlockReference
  2
_OPEN
 10
1028.821833
 20
78.999813
 30
0.0
 41
50.0
 42
50.0
 43
50.0
 50
90.0
  0
INSERT
  5
4C94
330
4036
100
AcDbEntity
  8
0
  6
BYBLOCK
 62
    41
100
AcDbBlockReference
  2
_OPEN
 10
1028.821833
 20
-101.001627
 30
0.0
 41
50.0
 42
50.0
 43
50.0
 50
270.0
  0
POINT
  5
4C96
330
4036
100
AcDbEntity
  8
DEFPOINTS
  6
BYBLOCK
 62
     0
100
AcDbPoint
 10
1171.51027
 20
78.999813
 30
0.0
  0
POINT
  5
4C97
330
4036
100
AcDbEntity
  8
DEFPOINTS
  6
BYBLOCK
 62
     0
100
AcDbPoint
 10
1171.51027
 20
-101.001627
 30
0.0
  0
POINT
  5
4C98
330
4036
100
AcDbEntity
  8
DEFPOINTS
  6
BYBLOCK
 62
     0
100
AcDbPoint
 10
1028.821833
 20
-101.001627
 30
0.0
  0
TEXT
  5
516B
330
4036
100
AcDbEntity
  8
0
  6
BYBLOCK
 62
    41
100
AcDbText
 10
1026.821833
 20
-105.048526047619
 30
0.0
 40
50.0
  1
Ř180
 50
90.0
  7
ED50
100
AcDbText
  0
ENDBLK
  5
52A2
330
4036
100
AcDbEntity
  8
0
100
AcDbBlockEnd
  0
BLOCK
  5
52A3
330
4835
100
AcDbEntity
  8
0
100
AcDbBlockBegin
  2
VD_ANONYM_4835
 70
     0
 71
     0
 10
0.0
 20
0.0
 30
0.0
  3
VD_ANONYM_4835
  1

  0
LINE
  5
4CA8
330
4835
100
AcDbEntity
  8
0
  6
BYBLOCK
 62
    41
100
AcDbLine
 10
1363.902694
 20
-12.001013
 30
0.0
 11
1363.902694
 21
-710.4705510000001
 31
0.0
  0
LINE
  5
4CA9
330
4835
100
AcDbEntity
  8
0
  6
BYBLOCK
 62
    41
100
AcDbLine
 10
1144.51003
 20
-12.000907
 30
0.0
 11
1144.51003
 21
-710.470551
 31
0.0
  0
LINE
  5
4CAA
330
4835
100
AcDbEntity
  8
0
  6
BYBLOCK
 62
    41
100
AcDbLine
 10
1313.902694
 20
-709.220551
 30
0.0
 11
1194.51003
 21
-709.220551
 31
0.0
  0
INSERT
  5
4CAB
330
4835
100
AcDbEntity
  8
0
  6
BYBLOCK
 62
    41
100
AcDbBlockReference
  2
_OPEN
 10
1363.902694
 20
-709.220551
 30
0.0
 41
50.0
 42
50.0
 43
50.0
  0
INSERT
  5
4CAC
330
4835
100
AcDbEntity
  8
0
  6
BYBLOCK
 62
    41
100
AcDbBlockReference
  2
_OPEN
 10
1144.51003
 20
-709.220551
 30
0.0
 41
50.0
 42
50.0
 43
50.0
 50
180.0
  0
POINT
  5
4CAE
330
4835
100
AcDbEntity
  8
DEFPOINTS
  6
BYBLOCK
 62
     0
100
AcDbPoint
 10
1363.902694
 20
-11.001013
 30
0.0
  0
POINT
  5
4CAF
330
4835
100
AcDbEntity
  8
DEFPOINTS
  6
BYBLOCK
 62
     0
100
AcDbPoint
 10
1144.51003
 20
-11.000907
 30
0.0
  0
POINT
  5
4CB0
330
4835
100
AcDbEntity
  8
DEFPOINTS
  6
BYBLOCK
 62
     0
100
AcDbPoint
 10
1144.51003
 20
-709.220551
 30
0.0
  0
TEXT
  5
516C
330
4835
100
AcDbEntity
  8
0
  6
BYBLOCK
 62
    41
100
AcDbText
 10
1186.463201761905
 20
-707.215629
 30
0.0
 40
50.0
  1
219
  7
ED50
100
AcDbText
  0
ENDBLK
  5
52A4
330
4835
100
AcDbEntity
  8
0
100
AcDbBlockEnd
  0
BLOCK
  5
52A5
330
5075
100
AcDbEntity
  8
0
100
AcDbBlockBegin
  2
VD_ANONYM_5075
 70
     0
 71
     0
 10
0.0
 20
0.0
 30
0.0
  3
VD_ANONYM_5075
  1

  0
LINE
  5
5077
330
5075
100
AcDbEntity
  8
0
  6
BYBLOCK
 62
    41
100
AcDbLine
 10
1260.980991
 20
379.431643
 30
0.0
 11
1524.644081
 21
379.431643
 31
0.0
  0
LINE
  5
5078
330
5075
100
AcDbEntity
  8
0
  6
BYBLOCK
 62
    41
100
AcDbLine
 10
1260.980991
 20
-401.433457
 30
0.0
 11
1524.644081
 21
-401.433457
 31
0.0
  0
LINE
  5
5079
330
5075
100
AcDbEntity
  8
0
  6
BYBLOCK
 62
    41
100
AcDbLine
 10
1523.394081
 20
329.431643
 30
0.0
 11
1523.394081
 21
-351.433457
 31
0.0
  0
INSERT
  5
507A
330
5075
100
AcDbEntity
  8
0
  6
BYBLOCK
 62
    41
100
AcDbBlockReference
  2
_OPEN
 10
1523.394081
 20
379.431643
 30
0.0
 41
50.0
 42
50.0
 43
50.0
 50
90.0
  0
INSERT
  5
507B
330
5075
100
AcDbEntity
  8
0
  6
BYBLOCK
 62
    41
100
AcDbBlockReference
  2
_OPEN
 10
1523.394081
 20
-401.433457
 30
0.0
 41
50.0
 42
50.0
 43
50.0
 50
270.0
  0
POINT
  5
507D
330
5075
100
AcDbEntity
  8
DEFPOINTS
  6
BYBLOCK
 62
     0
100
AcDbPoint
 10
1259.980991
 20
379.431643
 30
0.0
  0
POINT
  5
507E
330
5075
100
AcDbEntity
  8
DEFPOINTS
  6
BYBLOCK
 62
     0
100
AcDbPoint
 10
1259.980991
 20
-401.433457
 30
0.0
  0
POINT
  5
507F
330
5075
100
AcDbEntity
  8
DEFPOINTS
  6
BYBLOCK
 62
     0
100
AcDbPoint
 10
1523.394081
 20
-401.433457
 30
0.0
  0
TEXT
  5
516D
330
5075
100
AcDbEntity
  8
0
  6
BYBLOCK
 62
    41
100
AcDbText
 10
1521.394081
 20
-75.28662128571432
 30
0.0
 40
50.0
  1
781
 50
90.0
  7
ED50
100
AcDbText
  0
ENDBLK
  5
52A6
330
5075
100
AcDbEntity
  8
0
100
AcDbBlockEnd
  0
BLOCK
  5
52A7
330
516F
100
AcDbEntity
  8
0
100
AcDbBlockBegin
  2
VDDIM_DEFAULT
 70
     0
 71
     0
 10
0.0
 20
0.0
 30
0.0
  3
VDDIM_DEFAULT
  1

  0
LWPOLYLINE
  5
5170
330
516F
100
AcDbEntity
  8
0
  6
CONTINUOUS
 62
     0
100
AcDbPolyline
 90
        4
 70
     0
 43
0.0
 10
0.0
 20
0.0
 10
-1.0
 20
-0.1665
 10
-1.0
 20
0.1665
 10
0.0
 20
0.0
1001
VDEXTRAPARAM
1071
        1
1071
        0
1071
        0
1040
1.0
1000

1000

1040
0.0
1040
0.0
  0
HATCH
  5
52AC
330
516F
100
AcDbEntity
  8
0
  6
CONTINUOUS
 62
     0
100
AcDbHatch
 10
0.0
 20
0.0
 30
0.0
210
0.0
220
0.0
230
1.0
  2
SOLID
 70
     1
 71
     0
 91
        1
 92
        2
 72
     0
 73
     1
 93
        3
 10
0.0
 20
0.0
 10
-1.0
 20
-0.1665
 10
-1.0
 20
0.1665
 97
        0
 75
     0
 76
     1
 98
        1
 10
0.0
 20
0.0
1001
VDEXTRAPARAM
1071
        1
1071
        0
1071
        0
1040
1.0
1000

1000

1040
0.0
1040
0.0
1001
VD_TEMPHATCH
1000
VD_TEMPHATCH
  0
ENDBLK
  5
52A8
330
516F
100
AcDbEntity
  8
0
100
AcDbBlockEnd
  0
BLOCK
  5
52A9
330
5171
100
AcDbEntity
  8
0
100
AcDbBlockBegin
  2
VDDIM_NONE
 70
     0
 71
     0
 10
0.0
 20
0.0
 30
0.0
  3
VDDIM_NONE
  1

  0
ENDBLK
  5
52AA
330
5171
100
AcDbEntity
  8
0
100
AcDbBlockEnd
  0
BLOCK
  5
52B8
330
52AD
100
AcDbEntity
  8
0
100
AcDbBlockBegin
  2
*D9
 70
     1
 71
     0
 10
0.0
 20
0.0
 30
0.0
  3
*D9
  1

  0
LINE
  5
52AE
330
52AD
100
AcDbEntity
  8
V0-VYPLNE
 62
    41
100
AcDbLine
 10
1345.878441
 20
343.998643
 30
0.0
 11
1450.487179000047
 21
343.998643
 31
0.0
  0
LINE
  5
52AF
330
52AD
100
AcDbEntity
  8
V0-VYPLNE
 62
    41
100
AcDbLine
 10
1345.878441
 20
-366.000457
 30
0.0
 11
1450.487179000047
 21
-366.000457
 31
0.0
  0
LINE
  5
52B0
330
52AD
100
AcDbEntity
  8
V0-VYPLNE
 62
     0
100
AcDbLine
 10
1449.237179000047
 20
293.9986430000001
 30
0.0
 11
1449.237179000047
 21
77.90385490476194
 31
0.0
  0
LINE
  5
52B1
330
52AD
100
AcDbEntity
  8
V0-VYPLNE
 62
     0
100
AcDbLine
 10
1449.237179000047
 20
-316.0004569999999
 30
0.0
 11
1449.237179000047
 21
-99.90566890476191
 31
0.0
  0
INSERT
  5
52B2
330
52AD
100
AcDbEntity
  8
V0-VYPLNE
 62
     0
100
AcDbBlockReference
  2
_OPEN
 10
1449.237179000047
 20
343.9986430000001
 30
0.0
 41
50.0
 42
50.0
 43
50.0
 50
90.0
  0
INSERT
  5
52B3
330
52AD
100
AcDbEntity
  8
V0-VYPLNE
 62
     0
100
AcDbBlockReference
  2
_OPEN
 10
1449.237179000047
 20
-366.0004569999999
 30
0.0
 41
50.0
 42
50.0
 43
50.0
 50
270.0
  0
MTEXT
  5
52B4
330
52AD
100
AcDbEntity
  8
V0-VYPLNE
 62
    41
100
AcDbMText
 10
1449.237179
 20
-11.000907
 30
0.0
 40
50.0
 41
0.0
 71
     5
 72
     1
  1
%%c\A1;710
  7
ED40
 11
0.0
 21
1.0
 31
0.0
  0
POINT
  5
52B5
330
52AD
100
AcDbEntity
  8
DEFPOINTS
 62
     0
100
AcDbPoint
 10
1344.878441
 20
343.998643
 30
0.0
  0
POINT
  5
52B6
330
52AD
100
AcDbEntity
  8
DEFPOINTS
 62
     0
100
AcDbPoint
 10
1344.878441
 20
-366.000457
 30
0.0
  0
POINT
  5
52B7
330
52AD
100
AcDbEntity
  8
DEFPOINTS
 62
     0
100
AcDbPoint
 10
1449.237179000047
 20
-366.000457
 30
0.0
  0
ENDBLK
  5
52B9
330
52AD
100
AcDbEntity
  8
0
100
AcDbBlockEnd
  0
BLOCK
  5
52C6
330
52BA
100
AcDbEntity
  8
0
100
AcDbBlockBegin
  2
*D10
 70
     1
 71
     0
 10
0.0
 20
0.0
 30
0.0
  3
*D10
  1

  0
LINE
  5
52BB
330
52BA
100
AcDbEntity
  8
V0-OBRYS
 62
    41
100
AcDbLine
 10
1253.321191
 20
-462.000907
 30
0.0
 11
1253.321191
 21
-615.3293570000761
 31
0.0
  0
LINE
  5
52BC
330
52BA
100
AcDbEntity
  8
V0-OBRYS
 62
    41
100
AcDbLine
 10
1344.878441
 20
-367.000457
 30
0.0
 11
1344.878441
 21
-615.3293570000761
 31
0.0
  0
LINE
  5
52BD
330
52BA
100
AcDbEntity
  8
V0-OBRYS
 62
     0
100
AcDbLine
 10
1203.321191
 20
-614.0793570000761
 30
0.0
 11
1153.321191
 21
-614.0793570000761
 31
0.0
  0
LINE
  5
52BE
330
52BA
100
AcDbEntity
  8
V0-OBRYS
 62
     0
100
AcDbLine
 10
1394.878441
 20
-614.0793570000761
 30
0.0
 11
1444.878441
 21
-614.0793570000761
 31
0.0
  0
LINE
  5
52BF
330
52BA
100
AcDbEntity
  8
V0-OBRYS
 62
     0
100
AcDbLine
 10
1253.321191
 20
-614.0793570000761
 30
0.0
 11
1344.878441
 21
-614.0793570000761
 31
0.0
  0
INSERT
  5
52C0
330
52BA
100
AcDbEntity
  8
V0-OBRYS
 62
     0
100
AcDbBlockReference
  2
_OPEN
 10
1253.321191
 20
-614.0793570000761
 30
0.0
 41
50.0
 42
50.0
 43
50.0
  0
INSERT
  5
52C1
330
52BA
100
AcDbEntity
  8
V0-OBRYS
 62
     0
100
AcDbBlockReference
  2
_OPEN
 10
1344.878441
 20
-614.0793570000761
 30
0.0
 41
50.0
 42
50.0
 43
50.0
 50
180.0
  0
MTEXT
  5
52C2
330
52BA
100
AcDbEntity
  8
V0-OBRYS
 62
    41
100
AcDbMText
 10
1299.099816
 20
-614.079357
 30
0.0
 40
50.0
 41
0.0
 71
     5
 72
     1
  1
\A1;92
  7
ED40
  0
POINT
  5
52C3
330
52BA
100
AcDbEntity
  8
DEFPOINTS
 62
     0
100
AcDbPoint
 10
1253.321191
 20
-461.000907
 30
0.0
  0
POINT
  5
52C4
330
52BA
100
AcDbEntity
  8
DEFPOINTS
 62
     0
100
AcDbPoint
 10
1344.878441
 20
-366.000457
 30
0.0
  0
POINT
  5
52C5
330
52BA
100
AcDbEntity
  8
DEFPOINTS
 62
     0
100
AcDbPoint
 10
1344.878441
 20
-614.0793570000761
 30
0.0
  0
ENDBLK
  5
52C7
330
52BA
100
AcDbEntity
  8
0
100
AcDbBlockEnd
  0
BLOCK
  5
52D3
330
52C8
100
AcDbEntity
  8
0
100
AcDbBlockBegin
  2
*D11
 70
     1
 71
     0
 10
0.0
 20
0.0
 30
0.0
  3
*D11
  1

  0
LINE
  5
52C9
330
52C8
100
AcDbEntity
  8
V0-VYPLNE
 62
    41
100
AcDbLine
 10
1783.305888
 20
-451.762981
 30
0.0
 11
1783.305888
 21
-731.731903999811
 31
0.0
  0
LINE
  5
52CA
330
52C8
100
AcDbEntity
  8
V0-VYPLNE
 62
    41
100
AcDbLine
 10
2683.240332
 20
-451.762981
 30
0.0
 11
2683.240332
 21
-731.731903999811
 31
0.0
  0
LINE
  5
52CB
330
52C8
100
AcDbEntity
  8
V0-VYPLNE
 62
     0
100
AcDbLine
 10
1833.305888
 20
-730.481903999811
 30
0.0
 11
2161.004510714286
 21
-730.481903999811
 31
0.0
  0
LINE
  5
52CC
330
52C8
100
AcDbEntity
  8
V0-VYPLNE
 62
     0
100
AcDbLine
 10
2633.240332
 20
-730.481903999811
 30
0.0
 11
2293.575939285714
 21
-730.481903999811
 31
0.0
  0
INSERT
  5
52CD
330
52C8
100
AcDbEntity
  8
V0-VYPLNE
 62
     0
100
AcDbBlockReference
  2
_OPEN
 10
1783.305888
 20
-730.481903999811
 30
0.0
 41
50.0
 42
50.0
 43
50.0
 50
180.0
  0
INSERT
  5
52CE
330
52C8
100
AcDbEntity
  8
V0-VYPLNE
 62
     0
100
AcDbBlockReference
  2
_OPEN
 10
2683.240332
 20
-730.481903999811
 30
0.0
 41
50.0
 42
50.0
 43
50.0
  0
MTEXT
  5
52CF
330
52C8
100
AcDbEntity
  8
V0-VYPLNE
 62
    41
100
AcDbMText
 10
2227.290225
 20
-730.481904
 30
0.0
 40
50.0
 41
0.0
 71
     5
 72
     1
  1
\A1;900
  7
ED40
  0
POINT
  5
52D0
330
52C8
100
AcDbEntity
  8
DEFPOINTS
 62
     0
100
AcDbPoint
 10
1783.305888
 20
-450.762981
 30
0.0
  0
POINT
  5
52D1
330
52C8
100
AcDbEntity
  8
DEFPOINTS
 62
     0
100
AcDbPoint
 10
2683.240332
 20
-450.762981
 30
0.0
  0
POINT
  5
52D2
330
52C8
100
AcDbEntity
  8
DEFPOINTS
 62
     0
100
AcDbPoint
 10
2683.240332
 20
-730.481903999811
 30
0.0
  0
ENDBLK
  5
52D4
330
52C8
100
AcDbEntity
  8
0
100
AcDbBlockEnd
  0
BLOCK
  5
52E0
330
52D5
100
AcDbEntity
  8
0
100
AcDbBlockBegin
  2
*D12
 70
     1
 71
     0
 10
0.0
 20
0.0
 30
0.0
  3
*D12
  1

  0
LINE
  5
52D6
330
52D5
100
AcDbEntity
  8
V0-OBRYS
 62
    41
100
AcDbLine
 10
1833.616953
 20
-456.164289
 30
0.0
 11
1833.616953
 21
-633.1689830000978
 31
0.0
  0
LINE
  5
52D7
330
52D5
100
AcDbEntity
  8
V0-OBRYS
 62
    41
100
AcDbLine
 10
2632.3667
 20
-456.164357
 30
0.0
 11
2632.3667
 21
-633.1689830000978
 31
0.0
  0
LINE
  5
52D8
330
52D5
100
AcDbEntity
  8
V0-OBRYS
 62
     0
100
AcDbLine
 10
1883.616953
 20
-631.9189830000978
 30
0.0
 11
2152.784222714286
 21
-631.9189830000978
 31
0.0
  0
LINE
  5
52D9
330
52D5
100
AcDbEntity
  8
V0-OBRYS
 62
     0
100
AcDbLine
 10
2582.3667
 20
-631.9189830000978
 30
0.0
 11
2285.355651285714
 21
-631.9189830000978
 31
0.0
  0
INSERT
  5
52DA
330
52D5
100
AcDbEntity
  8
V0-OBRYS
 62
     0
100
AcDbBlockReference
  2
_OPEN
 10
1833.616953
 20
-631.9189830000978
 30
0.0
 41
50.0
 42
50.0
 43
50.0
 50
180.0
  0
INSERT
  5
52DB
330
52D5
100
AcDbEntity
  8
V0-OBRYS
 62
     0
100
AcDbBlockReference
  2
_OPEN
 10
2632.3667
 20
-631.9189830000978
 30
0.0
 41
50.0
 42
50.0
 43
50.0
  0
MTEXT
  5
52DC
330
52D5
100
AcDbEntity
  8
V0-OBRYS
 62
    41
100
AcDbMText
 10
2219.069937
 20
-631.918983
 30
0.0
 40
50.0
 41
0.0
 71
     5
 72
     1
  1
800
  7
ED40
  0
POINT
  5
52DD
330
52D5
100
AcDbEntity
  8
DEFPOINTS
 62
     0
100
AcDbPoint
 10
1833.616953
 20
-455.164289
 30
0.0
  0
POINT
  5
52DE
330
52D5
100
AcDbEntity
  8
DEFPOINTS
 62
     0
100
AcDbPoint
 10
2632.3667
 20
-455.164357
 30
0.0
  0
POINT
  5
52DF
330
52D5
100
AcDbEntity
  8
DEFPOINTS
 62
     0
100
AcDbPoint
 10
2632.3667
 20
-631.9189830000978
 30
0.0
  0
ENDBLK
  5
52E1
330
52D5
100
AcDbEntity
  8
0
100
AcDbBlockEnd
  0
BLOCK
  5
52EC
330
52E2
100
AcDbEntity
  8
0
100
AcDbBlockBegin
  2
*D13
 70
     1
 71
     0
 10
0.0
 20
0.0
 30
0.0
  3
*D13
  1

  0
LINE
  5
52E3
330
52E2
100
AcDbEntity
  8
V0-VYPLNE
 62
    41
100
AcDbLine
 10
1257.006127
 20
392.036212
 30
0.0
 11
1538.34871400008
 21
392.036212
 31
0.0
  0
LINE
  5
52E4
330
52E2
100
AcDbEntity
  8
V0-VYPLNE
 62
    41
100
AcDbLine
 10
1252.43792
 20
-406.959115
 30
0.0
 11
1538.34871400008
 21
-406.959115
 31
0.0
  0
LINE
  5
52E5
330
52E2
100
AcDbEntity
  8
V0-VYPLNE
 62
     0
100
AcDbLine
 10
1537.09871400008
 20
342.036212
 30
0.0
 11
1537.09871400008
 21
-356.9591149999999
 31
0.0
  0
INSERT
  5
52E6
330
52E2
100
AcDbEntity
  8
V0-VYPLNE
 62
     0
100
AcDbBlockReference
  2
_OPEN
 10
1537.09871400008
 20
392.036212
 30
0.0
 41
50.0
 42
50.0
 43
50.0
 50
89.99999999999999
  0
INSERT
  5
52E7
330
52E2
100
AcDbEntity
  8
V0-VYPLNE
 62
     0
100
AcDbBlockReference
  2
_OPEN
 10
1537.09871400008
 20
-406.9591149999999
 30
0.0
 41
50.0
 42
50.0
 43
50.0
 50
270.0
  0
MTEXT
  5
52E8
330
52E2
100
AcDbEntity
  8
V0-VYPLNE
 62
    41
100
AcDbMText
 10
1510.09871400008
 20
-7.46145150000001
 30
0.0
 40
50.0
 41
0.0
 71
     5
 72
     1
  1
%%c810
  7
ED40
 11
0.0
 21
1.0
 31
0.0
  0
POINT
  5
52E9
330
52E2
100
AcDbEntity
  8
DEFPOINTS
 62
     0
100
AcDbPoint
 10
1256.006127
 20
392.036212
 30
0.0
  0
POINT
  5
52EA
330
52E2
100
AcDbEntity
  8
DEFPOINTS
 62
     0
100
AcDbPoint
 10
1251.43792
 20
-406.959115
 30
0.0
  0
POINT
  5
52EB
330
52E2
100
AcDbEntity
  8
DEFPOINTS
 62
     0
100
AcDbPoint
 10
1537.09871400008
 20
-406.959115
 30
0.0
  0
ENDBLK
  5
52ED
330
52E2
100
AcDbEntity
  8
0
100
AcDbBlockEnd
  0
BLOCK
  5
52F9
330
52EE
100
AcDbEntity
  8
0
100
AcDbBlockBegin
  2
*D14
 70
     1
 71
     0
 10
0.0
 20
0.0
 30
0.0
  3
*D14
  1

  0
LINE
  5
52EF
330
52EE
100
AcDbEntity
  8
V0-VYPLNE
 62
    41
100
AcDbLine
 10
1345.878441
 20
-367.000457
 30
0.0
 11
1345.878441
 21
-702.5247560000304
 31
0.0
  0
LINE
  5
52F0
330
52EE
100
AcDbEntity
  8
V0-VYPLNE
 62
    41
100
AcDbLine
 10
1139.510032
 20
-52.000918
 30
0.0
 11
1139.510032
 21
-702.5247560000304
 31
0.0
  0
LINE
  5
52F1
330
52EE
100
AcDbEntity
  8
V0-VYPLNE
 62
     0
100
AcDbLine
 10
1295.878441
 20
-701.2747560000304
 30
0.0
 11
1304.670746285714
 21
-701.2747560000304
 31
0.0
  0
LINE
  5
52F2
330
52EE
100
AcDbEntity
  8
V0-VYPLNE
 62
     0
100
AcDbLine
 10
1189.510032
 20
-701.2747560000304
 30
0.0
 11
1172.099317714286
 21
-701.2747560000304
 31
0.0
  0
INSERT
  5
52F3
330
52EE
100
AcDbEntity
  8
V0-VYPLNE
 62
     0
100
AcDbBlockReference
  2
_OPEN
 10
1345.878441
 20
-701.2747560000304
 30
0.0
 41
50.0
 42
50.0
 43
50.0
  0
INSERT
  5
52F4
330
52EE
100
AcDbEntity
  8
V0-VYPLNE
 62
     0
100
AcDbBlockReference
  2
_OPEN
 10
1139.510032
 20
-701.2747560000304
 30
0.0
 41
50.0
 42
50.0
 43
50.0
 50
180.0
  0
MTEXT
  5
52F5
330
52EE
100
AcDbEntity
  8
V0-VYPLNE
 62
    41
100
AcDbMText
 10
1238.385032
 20
-701.274756
 30
0.0
 40
50.0
 41
0.0
 71
     5
 72
     1
  1
\A1;206
  7
ED40
  0
POINT
  5
52F6
330
52EE
100
AcDbEntity
  8
DEFPOINTS
 62
     0
100
AcDbPoint
 10
1345.878441
 20
-366.000457
 30
0.0
  0
POINT
  5
52F7
330
52EE
100
AcDbEntity
  8
DEFPOINTS
 62
     0
100
AcDbPoint
 10
1139.510032
 20
-51.000918
 30
0.0
  0
POINT
  5
52F8
330
52EE
100
AcDbEntity
  8
DEFPOINTS
 62
     0
100
AcDbPoint
 10
1139.510032
 20
-701.2747560000304
 30
0.0
  0
ENDBLK
  5
52FA
330
52EE
100
AcDbEntity
  8
0
100
AcDbBlockEnd
  0
BLOCK
  5
5307
330
52FB
100
AcDbEntity
  8
0
100
AcDbBlockBegin
  2
*D15
 70
     1
 71
     0
 10
0.0
 20
0.0
 30
0.0
  3
*D15
  1

  0
LINE
  5
52FC
330
52FB
100
AcDbEntity
  8
V0-VYPLNE
 62
    41
100
AcDbLine
 10
1253.321191
 20
-462.000907
 30
0.0
 11
1253.321191
 21
-542.0408319999697
 31
0.0
  0
LINE
  5
52FD
330
52FB
100
AcDbEntity
  8
V0-VYPLNE
 62
    41
100
AcDbLine
 10
1236.721191
 20
-462.000907
 30
0.0
 11
1236.721191
 21
-542.0408319999697
 31
0.0
  0
LINE
  5
52FE
330
52FB
100
AcDbEntity
  8
V0-VYPLNE
 62
     0
100
AcDbLine
 10
1303.321191
 20
-540.7908319999697
 30
0.0
 11
1353.321191
 21
-540.7908319999697
 31
0.0
  0
LINE
  5
52FF
330
52FB
100
AcDbEntity
  8
V0-VYPLNE
 62
     0
100
AcDbLine
 10
1186.721191
 20
-540.7908319999697
 30
0.0
 11
1046.911929095238
 21
-540.7908319999697
 31
0.0
  0
LINE
  5
5300
330
52FB
100
AcDbEntity
  8
V0-VYPLNE
 62
     0
100
AcDbLine
 10
1253.321191
 20
-540.7908319999697
 30
0.0
 11
1236.721191
 21
-540.7908319999697
 31
0.0
  0
INSERT
  5
5301
330
52FB
100
AcDbEntity
  8
V0-VYPLNE
 62
     0
100
AcDbBlockReference
  2
_OPEN
 10
1253.321191
 20
-540.7908319999697
 30
0.0
 41
50.0
 42
50.0
 43
50.0
 50
180.0
  0
INSERT
  5
5302
330
52FB
100
AcDbEntity
  8
V0-VYPLNE
 62
     0
100
AcDbBlockReference
  2
_OPEN
 10
1236.721191
 20
-540.7908319999697
 30
0.0
 41
50.0
 42
50.0
 43
50.0
  0
MTEXT
  5
5303
330
52FB
100
AcDbEntity
  8
V0-VYPLNE
 62
    41
100
AcDbMText
 10
1085.816691
 20
-540.790832
 30
0.0
 40
50.0
 41
0.0
 71
     5
 72
     1
  1
\A1;17
  7
ED40
  0
POINT
  5
5304
330
52FB
100
AcDbEntity
  8
DEFPOINTS
 62
     0
100
AcDbPoint
 10
1253.321191
 20
-461.000907
 30
0.0
  0
POINT
  5
5305
330
52FB
100
AcDbEntity
  8
DEFPOINTS
 62
     0
100
AcDbPoint
 10
1236.721191
 20
-461.000907
 30
0.0
  0
POINT
  5
5306
330
52FB
100
AcDbEntity
  8
DEFPOINTS
 62
     0
100
AcDbPoint
 10
1236.721191
 20
-540.7908319999697
 30
0.0
  0
ENDBLK
  5
5308
330
52FB
100
AcDbEntity
  8
0
100
AcDbBlockEnd
  0
ENDSEC
  0
SECTION
  2
ENTITIES
  0
TEXT
  5
3152
330
5271
100
AcDbEntity
  8
V0-VYPLNE
  6
CONTINUOUS
 62
    51
100
AcDbText
 10
1991.074557892857
 20
-1366.559023961905
 30
0.0
 40
64.8
  1
Axiální ventilátor
  7
ED30
100
AcDbText
  0
TEXT
  5
3154
330
5271
100
AcDbEntity
  8
V0-VYPLNE
 62
     6
100
AcDbText
 10
1885.0
 20
-1243.2359
 30
0.0
 40
86.40000000000001
  1
HXBR/HXTR 710
  7
ED40
100
AcDbText
  0
LINE
  5
3F3A
330
5271
100
AcDbEntity
  8
V0-OBRYS
  6
CONTINUOUS
 62
    90
 48
2.0
100
AcDbLine
 10
1344.878441
 20
-366.000457
 30
0.0
 11
1277.083015
 21
-366.000457
 31
0.0
  0
LINE
  5
3F3B
330
5271
100
AcDbEntity
  8
V0-OBRYS
  6
CONTINUOUS
 62
    90
 48
2.0
100
AcDbLine
 10
1344.878441
 20
343.998643
 30
0.0
 11
1277.083015
 21
343.998643
 31
0.0
  0
ARC
  5
3F3C
330
5271
100
AcDbEntity
  8
V0-OBRYS
  6
CONTINUOUS
 62
    90
 48
2.0
100
AcDbCircle
 10
1277.083015
 20
-392.575207
 30
0.0
 40
26.57475
100
AcDbArc
 50
90.0
 51
149.420799
  0
LINE
  5
3F3D
330
5271
100
AcDbEntity
  8
V0-OBRYS
  6
CONTINUOUS
 62
    90
 48
2.0
100
AcDbLine
 10
1252.980991
 20
-401.433457
 30
0.0
 11
1254.204101
 21
-379.055863
 31
0.0
  0
ARC
  5
3F3F
330
5271
100
AcDbEntity
  8
V0-OBRYS
  6
CONTINUOUS
 62
    90
 48
2.0
100
AcDbCircle
 10
1277.083015
 20
370.573393
 30
0.0
 40
26.57475
100
AcDbArc
 50
210.579201
 51
270.0
  0
LINE
  5
3F40
330
5271
100
AcDbEntity
  8
V0-OBRYS
  6
CONTINUOUS
 62
    90
 48
2.0
100
AcDbLine
 10
1252.980991
 20
379.431643
 30
0.0
 11
1254.204101
 21
357.054049
 31
0.0
  0
DIMENSION
  5
3F41
330
5271
100
AcDbEntity
  8
V0-VYPLNE
  6
CONTINUOUS
 62
    41
100
AcDbDimension
  2
*D9
 10
1449.237179000047
 20
-366.000457
 30
0.0
 11
1449.237179
 21
-11.000907
 31
0.0
 70
   160
  1
%%c<>
  3
ED50
100
AcDbAlignedDimension
 13
1344.878441
 23
343.998643
 33
0.0
 14
1344.878441
 24
-366.000457
 34
0.0
 50
90.0
100
AcDbRotatedDimension
1001
ACAD
1000
DSTYLE
1002
{
1070
    41
1040
50.0
1070
   140
1040
50.0
1002
}
  0
LINE
  5
3F42
330
5271
100
AcDbEntity
  8
V0-OBRYS
  6
CONTINUOUS
 62
    90
 48
2.0
100
AcDbLine
 10
1344.878441
 20
-11.000907
 30
0.0
 11
1344.878441
 21
343.998643
 31
0.0
  0
LINE
  5
3F43
330
5271
100
AcDbEntity
  8
V0-OBRYS
  6
CONTINUOUS
 62
    90
 48
2.0
100
AcDbLine
 10
1344.878441
 20
-11.000907
 30
0.0
 11
1344.878441
 21
-366.000457
 31
0.0
  0
LINE
  5
3F5C
330
5271
100
AcDbEntity
  8
V0-VYPLNE
  6
DASHED
 62
    52
100
AcDbLine
 10
1258.681671
 20
-119.17372
 30
0.0
 11
1274.815098
 21
-360.621978
 31
0.0
  0
LINE
  5
3F5D
330
5271
100
AcDbEntity
  8
V0-VYPLNE
  6
DASHED
 62
    52
100
AcDbLine
 10
1340.760398
 20
-119.17372
 30
0.0
 11
1324.62697
 21
-360.621978
 31
0.0
  0
LINE
  5
3F6B
330
5271
100
AcDbEntity
  8
V0-VYPLNE
  6
DASHED
 62
    52
100
AcDbLine
 10
1274.815098
 20
-360.621978
 30
0.0
 11
1324.62697
 21
-360.621978
 31
0.0
  0
ELLIPSE
  5
3F6C
330
5271
100
AcDbEntity
  8
V0-VYPLNE
  6
DASHED
 62
    52
100
AcDbEllipse
 10
293.731999
 20
-100.746661
 30
0.0
 11
-90.48858875219298
 21
1178.04067163847
 31
0.0
210
0.0
220
0.0
230
-1.0
 40
0.903582
 41
1.483551230843942
 42
1.563720166184106
  0
LINE
  5
3F6D
330
5271
100
AcDbEntity
  8
V0-VYPLNE
  6
DASHED
 62
    52
100
AcDbLine
 10
1258.721034
 20
-10.64894
 30
0.0
 11
1258.721034
 21
89.67106
 31
0.0
  0
LINE
  5
3F6E
330
5271
100
AcDbEntity
  8
V0-VYPLNE
  6
DASHED
 62
    52
100
AcDbLine
 10
1297.721034
 20
94.70048199999999
 30
0.0
 11
1297.721034
 21
-10.64894
 31
0.0
  0
LINE
  5
3F6F
330
5271
100
AcDbEntity
  8
V0-VYPLNE
  6
DASHDOT
 62
    63
100
AcDbLine
 10
1195.917908
 20
-11.001013
 30
0.0
 11
1363.902694
 21
-11.001013
 31
0.0
  0
ELLIPSE
  5
3F70
330
5271
100
AcDbEntity
  8
V0-VYPLNE
  6
DASHED
 62
    52
100
AcDbEllipse
 10
1299.173564
 20
42.424614
 30
0.0
 11
-165.3937014262147
 21
11.09983232222158
 31
0.0
210
0.0
220
0.0
230
-1.0
 40
0.955501
 41
-1.852520712961567
 42
-1.388260977460198
  0
LINE
  5
3F71
330
5271
100
AcDbEntity
  8
V0-VYPLNE
  6
DASHED
 62
    52
100
AcDbLine
 10
1259.356234
 20
-22.695027
 30
0.0
 11
1345.465076
 21
1.810407999999999
 31
0.0
  0
LINE
  5
3F72
330
5271
100
AcDbEntity
  8
V0-VYPLNE
  6
DASHED
 62
    52
100
AcDbLine
 10
1297.721034
 20
-115.998362
 30
0.0
 11
1297.721034
 21
-10.64894
 31
0.0
  0
LINE
  5
3F73
330
5271
100
AcDbEntity
  8
V0-VYPLNE
  6
DASHED
 62
    52
100
AcDbLine
 10
1258.721034
 20
-10.64894
 30
0.0
 11
1258.721034
 21
-110.96894
 31
0.0
  0
LINE
  5
3F74
330
5271
100
AcDbEntity
  8
V0-VYPLNE
  6
DASHED
 62
    52
100
AcDbLine
 10
1264.827739
 20
-112.41928
 30
0.0
 11
1258.681671
 21
-119.17372
 31
0.0
  0
ELLIPSE
  5
3F75
330
5271
100
AcDbEntity
  8
V0-VYPLNE
  6
DASHED
 62
    52
100
AcDbEllipse
 10
1297.721034
 20
-11.001013
 30
0.0
 11
6.821210263296962E-13
 21
7.458195139447457
 31
0.0
210
0.0
220
0.0
230
-1.0
 40
0.909091
 41
0.0
 42
6.283185307179586
  0
ELLIPSE
  5
3F76
330
5271
100
AcDbEntity
  8
V0-VYPLNE
  6
DASHED
 62
    52
100
AcDbEllipse
 10
293.731999
 20
79.448781
 30
0.0
 11
90.48858875242678
 21
1178.040671638779
 31
0.0
210
0.0
220
0.0
230
-1.0
 40
0.903582
 41
1.577872487405522
 42
1.658041422745664
  0
ELLIPSE
  5
3F78
330
5271
100
AcDbEntity
  8
V0-VYPLNE
  6
DASHED
 62
    52
100
AcDbEllipse
 10
1339.078708
 20
-106.97393
 30
0.0
 11
-7.8346973290802
 21
2.993262335647586
 31
0.0
210
0.0
220
0.0
230
-1.0
 40
0.790223
 41
2.346836735397626
 42
3.616065469384971
  0
LINE
  5
3F79
330
5271
100
AcDbEntity
  8
V0-VYPLNE
  6
DASHED
 62
    52
100
AcDbLine
 10
1274.815098
 20
339.324098
 30
0.0
 11
1324.62697
 21
339.324098
 31
0.0
  0
ELLIPSE
  5
3F7A
330
5271
100
AcDbEntity
  8
V0-VYPLNE
  6
DASHED
 62
    52
100
AcDbEllipse
 10
1299.173564
 20
-63.722494
 30
0.0
 11
165.3937014262156
 21
11.09983232222367
 31
0.0
210
0.0
220
0.0
230
-1.0
 40
0.9555010000000007
 41
-1.753331676129595
 42
-1.289071940628225
  0
LINE
  5
3F7B
330
5271
100
AcDbEntity
  8
V0-VYPLNE
  6
DASHED
 62
    52
100
AcDbLine
 10
1258.681671
 20
97.87584
 30
0.0
 11
1274.815098
 21
339.324098
 31
0.0
  0
LINE
  5
3F7C
330
5271
100
AcDbEntity
  8
V0-VYPLNE
  6
DASHED
 62
    52
100
AcDbLine
 10
1264.827739
 20
91.12139999999999
 30
0.0
 11
1258.681671
 21
97.87584
 31
0.0
  0
LINE
  5
3F7D
330
5271
100
AcDbEntity
  8
V0-VYPLNE
  6
DASHED
 62
    52
100
AcDbLine
 10
1340.760398
 20
97.87584
 30
0.0
 11
1324.62697
 21
339.324098
 31
0.0
  0
LINE
  5
3F8B
330
5271
100
AcDbEntity
  8
V0-OBRYS
  6
CONTINUOUS
 62
    90
 48
2.0
100
AcDbLine
 10
1236.721191
 20
438.999093
 30
0.0
 11
1236.721191
 21
-11.00090699999998
 31
0.0
  0
LINE
  5
3F91
330
5271
100
AcDbEntity
  8
V0-OBRYS
  6
CONTINUOUS
 62
    90
 48
2.0
100
AcDbLine
 10
1236.721191
 20
-461.000907
 30
0.0
 11
1236.721191
 21
-11.00090699999998
 31
0.0
  0
LINE
  5
3F92
330
5271
100
AcDbEntity
  8
V0-OBRYS
  6
CONTINUOUS
 62
    90
 48
2.0
100
AcDbLine
 10
1214.090934
 20
-317.568871
 30
0.0
 11
1214.090934
 21
-174.25365
 31
0.0
  0
LINE
  5
3F93
330
5271
100
AcDbEntity
  8
V0-OBRYS
  6
CONTINUOUS
 62
    90
 48
2.0
100
AcDbLine
 10
1216.901635
 20
-317.568871
 30
0.0
 11
1216.901635
 21
-174.25365
 31
0.0
  0
LINE
  5
3F94
330
5271
100
AcDbEntity
  8
V0-OBRYS
  6
CONTINUOUS
 62
    90
 48
2.0
100
AcDbLine
 10
1253.321191
 20
-461.000907
 30
0.0
 11
1236.721191
 21
-461.000907
 31
0.0
  0
ARC
  5
3F97
330
5271
100
AcDbEntity
  8
V0-OBRYS
  6
CONTINUOUS
 62
    90
 48
2.0
100
AcDbCircle
 10
1223.090934
 20
-317.568871
 30
0.0
 40
6.189299
100
AcDbArc
 50
180.0
 51
215.946405
  0
ARC
  5
3F98
330
5271
100
AcDbEntity
  8
V0-OBRYS
  6
CONTINUOUS
 62
    90
 48
2.0
100
AcDbCircle
 10
1227.534701
 20
-317.476612
 30
0.0
 40
13.444084
100
AcDbArc
 50
180.393192
 51
223.416411
  0
CIRCLE
  5
3F99
330
5271
100
AcDbEntity
  8
V0-OBRYS
  6
CONTINUOUS
 62
    90
 48
2.0
100
AcDbCircle
 10
1211.195912
 20
-310.42224
 30
0.0
 40
2.894689
  0
CIRCLE
  5
3F9A
330
5271
100
AcDbEntity
  8
V0-OBRYS
  6
CONTINUOUS
 62
    90
 48
2.0
100
AcDbCircle
 10
1211.195912
 20
-288.82224
 30
0.0
 40
2.894689
  0
LINE
  5
3F9B
330
5271
100
AcDbEntity
  8
V0-OBRYS
  6
CONTINUOUS
 62
    90
 48
2.0
100
AcDbLine
 10
1233.886152
 20
-406.546817
 30
0.0
 11
1233.886152
 21
-389.754848
 31
0.0
  0
ARC
  5
3F9C
330
5271
100
AcDbEntity
  8
V0-OBRYS
  6
CONTINUOUS
 62
    90
 48
2.0
100
AcDbCircle
 10
1235.303672
 20
-406.546817
 30
0.0
 40
1.41752
100
AcDbArc
 50
180.0
 51
0.0
  0
CIRCLE
  5
3FA2
330
5271
100
AcDbEntity
  8
V0-OBRYS
  6
CONTINUOUS
 62
    90
 48
2.0
100
AcDbCircle
 10
1211.195912
 20
-267.22224
 30
0.0
 40
2.894689
  0
CIRCLE
  5
3FA3
330
5271
100
AcDbEntity
  8
V0-OBRYS
  6
CONTINUOUS
 62
    90
 48
2.0
100
AcDbCircle
 10
1211.195912
 20
-205.62224
 30
0.0
 40
2.894689
  0
CIRCLE
  5
3FA4
330
5271
100
AcDbEntity
  8
V0-OBRYS
  6
CONTINUOUS
 62
    90
 48
2.0
100
AcDbCircle
 10
1211.195912
 20
-184.02224
 30
0.0
 40
2.894689
  0
ARC
  5
3FA6
330
5271
100
AcDbEntity
  8
V0-OBRYS
  6
CONTINUOUS
 62
    90
 48
2.0
100
AcDbCircle
 10
1223.090934
 20
152.251836
 30
0.0
 40
6.189299
100
AcDbArc
 50
180.0
 51
191.903847
  0
ARC
  5
3FA7
330
5271
100
AcDbEntity
  8
V0-OBRYS
  6
CONTINUOUS
 62
    90
 48
2.0
100
AcDbCircle
 10
1223.090934
 20
152.251836
 30
0.0
 40
9.0
100
AcDbArc
 50
180.0
 51
191.903847
  0
ARC
  5
3FAA
330
5271
100
AcDbEntity
  8
V0-OBRYS
  6
CONTINUOUS
 62
    90
 48
2.0
100
AcDbCircle
 10
1220.053465
 20
79.396551
 30
0.0
 40
11.810701
100
AcDbArc
 50
1.052754
 51
11.903847
  0
ARC
  5
3FAB
330
5271
100
AcDbEntity
  8
V0-OBRYS
  6
CONTINUOUS
 62
    90
 48
2.0
100
AcDbCircle
 10
1220.053465
 20
79.396551
 30
0.0
 40
9.0
100
AcDbArc
 50
0.0
 51
11.903847
  0
CIRCLE
  5
3FAC
330
5271
100
AcDbEntity
  8
V0-OBRYS
  6
CONTINUOUS
 62
    90
 48
2.0
100
AcDbCircle
 10
1211.32239
 20
266.820426
 30
0.0
 40
2.894689
  0
LINE
  5
3FAD
330
5271
100
AcDbEntity
  8
V0-OBRYS
  6
CONTINUOUS
 62
    90
 48
2.0
100
AcDbLine
 10
1216.901635
 20
295.567058
 30
0.0
 11
1216.901635
 21
152.251836
 31
0.0
  0
LINE
  5
3FAE
330
5271
100
AcDbEntity
  8
V0-OBRYS
  6
CONTINUOUS
 62
    90
 48
2.0
100
AcDbLine
 10
1214.090934
 20
295.567058
 30
0.0
 11
1214.090934
 21
152.251836
 31
0.0
  0
CIRCLE
  5
3FAF
330
5271
100
AcDbEntity
  8
V0-OBRYS
  6
CONTINUOUS
 62
    90
 48
2.0
100
AcDbCircle
 10
1211.32239
 20
205.220426
 30
0.0
 40
2.894689
  0
CIRCLE
  5
3FB0
330
5271
100
AcDbEntity
  8
V0-OBRYS
  6
CONTINUOUS
 62
    90
 48
2.0
100
AcDbCircle
 10
1211.32239
 20
162.020426
 30
0.0
 40
2.894689
  0
CIRCLE
  5
3FB1
330
5271
100
AcDbEntity
  8
V0-OBRYS
  6
CONTINUOUS
 62
    90
 48
2.0
100
AcDbCircle
 10
1211.32239
 20
183.620426
 30
0.0
 40
2.894689
  0
ARC
  5
3FB4
330
5271
100
AcDbEntity
  8
V0-OBRYS
  6
CONTINUOUS
 62
    90
 48
2.0
100
AcDbCircle
 10
1223.090934
 20
295.567058
 30
0.0
 40
6.189299
100
AcDbArc
 50
144.607521
 51
180.0
  0
CIRCLE
  5
3FB5
330
5271
100
AcDbEntity
  8
V0-OBRYS
  6
CONTINUOUS
 62
    90
 48
2.0
100
AcDbCircle
 10
1211.32239
 20
288.420426
 30
0.0
 40
2.894689
  0
ARC
  5
3FB6
330
5271
100
AcDbEntity
  8
V0-OBRYS
  6
CONTINUOUS
 62
    90
 48
2.0
100
AcDbCircle
 10
1223.090934
 20
295.567058
 30
0.0
 40
9.0
100
AcDbArc
 50
144.271055
 51
180.0
  0
ARC
  5
3FB7
330
5271
100
AcDbEntity
  8
V0-OBRYS
  6
CONTINUOUS
 62
    90
 48
2.0
100
AcDbCircle
 10
1235.303672
 20
384.545004
 30
0.0
 40
1.41752
100
AcDbArc
 50
0.0
 51
180.0
  0
LINE
  5
3FB8
330
5271
100
AcDbEntity
  8
V0-OBRYS
  6
CONTINUOUS
 62
    90
 48
2.0
100
AcDbLine
 10
1233.886152
 20
384.545004
 30
0.0
 11
1233.886152
 21
367.753034
 31
0.0
  0
LINE
  5
3FB9
330
5271
100
AcDbEntity
  8
V0-OBRYS
  6
CONTINUOUS
 62
    90
 48
2.0
100
AcDbLine
 10
1253.321191
 20
438.999093
 30
0.0
 11
1236.721191
 21
438.999093
 31
0.0
  0
LINE
  5
4016
330
5271
100
AcDbEntity
  8
V0-OBRYS
  6
CONTINUOUS
 62
    90
 48
2.0
100
AcDbLine
 10
1195.499806
 20
57.577264
 30
0.0
 11
1170.448036
 21
42.428131
 31
0.0
  0
LINE
  5
4017
330
5271
100
AcDbEntity
  8
V0-OBRYS
  6
CONTINUOUS
 62
    90
 48
2.0
100
AcDbLine
 10
1196.257965
 20
73.483856
 30
0.0
 11
1169.689883
 21
51.517613
 31
0.0
  0
LINE
  5
4018
330
5271
100
AcDbEntity
  8
V0-OBRYS
  6
CONTINUOUS
 62
    90
 48
2.0
100
AcDbLine
 10
1195.499806
 20
2.282927
 30
0.0
 11
1169.689883
 21
1.525471
 31
0.0
  0
LINE
  5
4019
330
5271
100
AcDbEntity
  8
V0-OBRYS
  6
CONTINUOUS
 62
    90
 48
2.0
100
AcDbLine
 10
1195.499806
 20
20.461888
 30
0.0
 11
1169.689883
 21
17.43206
 31
0.0
  0
LINE
  5
401A
330
5271
100
AcDbEntity
  8
V0-OBRYS
  6
CONTINUOUS
 62
    90
 48
2.0
100
AcDbLine
 10
1196.257965
 20
38.640846
 30
0.0
 11
1168.931724
 21
31.823736
 31
0.0
  0
LINE
  5
401B
330
5271
100
AcDbEntity
  8
V0-OBRYS
  6
CONTINUOUS
 62
    90
 48
2.0
100
AcDbLine
 10
1195.499806
 20
-42.463702
 30
0.0
 11
1169.689883
 21
-39.433874
 31
0.0
  0
LINE
  5
401C
330
5271
100
AcDbEntity
  8
V0-OBRYS
  6
CONTINUOUS
 62
    90
 48
2.0
100
AcDbLine
 10
1195.499806
 20
-24.284741
 30
0.0
 11
1169.689883
 21
-23.527285
 31
0.0
  0
LINE
  5
401D
330
5271
100
AcDbEntity
  8
V0-OBRYS
  6
CONTINUOUS
 62
    90
 48
2.0
100
AcDbLine
 10
1196.257965
 20
-60.64266
 30
0.0
 11
1168.931724
 21
-53.82555
 31
0.0
  0
LINE
  5
401E
330
5271
100
AcDbEntity
  8
V0-OBRYS
  6
CONTINUOUS
 62
    90
 48
2.0
100
AcDbLine
 10
1196.257965
 20
-95.48567
 30
0.0
 11
1169.689883
 21
-73.51942699999999
 31
0.0
  0
LINE
  5
401F
330
5271
100
AcDbEntity
  8
V0-OBRYS
  6
CONTINUOUS
 62
    90
 48
2.0
100
AcDbLine
 10
1195.499806
 20
-79.579078
 30
0.0
 11
1170.448036
 21
-64.429945
 31
0.0
  0
LINE
  5
4021
330
5271
100
AcDbEntity
  8
V0-OBRYS
  6
CONTINUOUS
 62
    90
 48
2.0
100
AcDbLine
 10
1182.29963
 20
-101.001627
 30
0.0
 11
1236.72115
 21
-101.001627
 31
0.0
  0
LINE
  5
4022
330
5271
100
AcDbEntity
  8
V0-OBRYS
  6
CONTINUOUS
 62
    90
 48
2.0
100
AcDbLine
 10
1182.29963
 20
78.999813
 30
0.0
 11
1236.72115
 21
78.999813
 31
0.0
  0
LINE
  5
4023
330
5271
100
AcDbEntity
  8
V0-OBRYS
  6
CONTINUOUS
 62
    90
 48
2.0
100
AcDbLine
 10
1169.51003
 20
-11.000907
 30
0.0
 11
1169.51003
 21
-85.21202700000001
 31
0.0
  0
ARC
  5
4024
330
5271
100
AcDbEntity
  8
V0-OBRYS
  6
CONTINUOUS
 62
    90
 48
2.0
100
AcDbCircle
 10
1182.779924
 20
-87.53798999999999
 30
0.0
 40
13.472201
100
AcDbArc
 50
170.05812
 51
267.95693
  0
LINE
  5
4025
330
5271
100
AcDbEntity
  8
V0-OBRYS
  6
CONTINUOUS
 62
    90
 48
2.0
100
AcDbLine
 10
1169.51003
 20
-11.000907
 30
0.0
 11
1169.51003
 21
63.21021300000001
 31
0.0
  0
ARC
  5
4026
330
5271
100
AcDbEntity
  8
V0-OBRYS
  6
CONTINUOUS
 62
    90
 48
2.0
100
AcDbCircle
 10
1182.779924
 20
65.536177
 30
0.0
 40
13.472201
100
AcDbArc
 50
92.04307
 51
189.94188
  0
LINE
  5
4028
330
5271
100
AcDbEntity
  8
V0-OBRYS
  6
CONTINUOUS
 62
    90
 48
2.0
100
AcDbLine
 10
1196.51027
 20
-11.000907
 30
0.0
 11
1196.51027
 21
-101.001627
 31
0.0
  0
LINE
  5
4029
330
5271
100
AcDbEntity
  8
V0-OBRYS
  6
CONTINUOUS
 62
    90
 48
2.0
100
AcDbLine
 10
1196.257965
 20
-95.48567
 30
0.0
 11
1236.72115
 21
-95.48567
 31
0.0
  0
LINE
  5
402A
330
5271
100
AcDbEntity
  8
V0-OBRYS
  6
CONTINUOUS
 62
    90
 48
2.0
100
AcDbLine
 10
1200.048742
 20
-42.463702
 30
0.0
 11
1236.72115
 21
-42.463702
 31
0.0
  0
LINE
  5
402B
330
5271
100
AcDbEntity
  8
V0-OBRYS
  6
CONTINUOUS
 62
    90
 48
2.0
100
AcDbLine
 10
1196.257965
 20
-60.64266
 30
0.0
 11
1236.72115
 21
-60.64266
 31
0.0
  0
LINE
  5
402C
330
5271
100
AcDbEntity
  8
V0-OBRYS
  6
CONTINUOUS
 62
    90
 48
2.0
100
AcDbLine
 10
1195.499806
 20
-79.579078
 30
0.0
 11
1236.72115
 21
-79.579078
 31
0.0
  0
LINE
  5
402D
330
5271
100
AcDbEntity
  8
V0-OBRYS
  6
CONTINUOUS
 62
    90
 48
2.0
100
AcDbLine
 10
1195.499806
 20
-42.463702
 30
0.0
 11
1200.048742
 21
-42.463702
 31
0.0
  0
LINE
  5
402E
330
5271
100
AcDbEntity
  8
V0-OBRYS
  6
CONTINUOUS
 62
    90
 48
2.0
100
AcDbLine
 10
1196.51027
 20
-11.000907
 30
0.0
 11
1196.51027
 21
78.999813
 31
0.0
  0
LINE
  5
402F
330
5271
100
AcDbEntity
  8
V0-OBRYS
  6
CONTINUOUS
 62
    90
 48
2.0
100
AcDbLine
 10
1200.048742
 20
20.461888
 30
0.0
 11
1236.72115
 21
20.461888
 31
0.0
  0
LINE
  5
4030
330
5271
100
AcDbEntity
  8
V0-OBRYS
  6
CONTINUOUS
 62
    90
 48
2.0
100
AcDbLine
 10
1195.499806
 20
-24.284741
 30
0.0
 11
1236.72115
 21
-24.284741
 31
0.0
  0
LINE
  5
4031
330
5271
100
AcDbEntity
  8
V0-OBRYS
  6
CONTINUOUS
 62
    90
 48
2.0
100
AcDbLine
 10
1195.499806
 20
2.282927
 30
0.0
 11
1236.72115
 21
2.282927
 31
0.0
  0
LINE
  5
4032
330
5271
100
AcDbEntity
  8
V0-OBRYS
  6
CONTINUOUS
 62
    90
 48
2.0
100
AcDbLine
 10
1196.257965
 20
38.640846
 30
0.0
 11
1236.72115
 21
38.640846
 31
0.0
  0
LINE
  5
4033
330
5271
100
AcDbEntity
  8
V0-OBRYS
  6
CONTINUOUS
 62
    90
 48
2.0
100
AcDbLine
 10
1195.499806
 20
20.461888
 30
0.0
 11
1200.048742
 21
20.461888
 31
0.0
  0
LINE
  5
4034
330
5271
100
AcDbEntity
  8
V0-OBRYS
  6
CONTINUOUS
 62
    90
 48
2.0
100
AcDbLine
 10
1195.499806
 20
57.577264
 30
0.0
 11
1236.72115
 21
57.577264
 31
0.0
  0
LINE
  5
4035
330
5271
100
AcDbEntity
  8
V0-OBRYS
  6
CONTINUOUS
 62
    90
 48
2.0
100
AcDbLine
 10
1196.257965
 20
73.483856
 30
0.0
 11
1236.72115
 21
73.483856
 31
0.0
  0
LINE
  5
404E
330
5271
100
AcDbEntity
  8
V0-VYPLNE
  6
DASHED
 62
    52
100
AcDbLine
 10
1250.992166
 20
-93.106827
 30
0.0
 11
1250.992166
 21
-11.000907
 31
0.0
  0
LINE
  5
4050
330
5271
100
AcDbEntity
  8
V0-VYPLNE
  6
DASHED
 62
    52
100
AcDbLine
 10
1236.721237
 20
-95.48567
 30
0.0
 11
1250.992166
 21
-95.48567
 31
0.0
  0
LINE
  5
4051
330
5271
100
AcDbEntity
  8
V0-VYPLNE
  6
DASHED
 62
    52
100
AcDbLine
 10
1236.721237
 20
-101.001627
 30
0.0
 11
1253.097366
 21
-101.001627
 31
0.0
  0
LINE
  5
4052
330
5271
100
AcDbEntity
  8
V0-VYPLNE
  6
DASHED
 62
    52
100
AcDbLine
 10
1236.721237
 20
-79.579078
 30
0.0
 11
1250.992166
 21
-79.579078
 31
0.0
  0
LINE
  5
4053
330
5271
100
AcDbEntity
  8
V0-VYPLNE
  6
DASHED
 62
    52
100
AcDbLine
 10
1236.721237
 20
-60.64266
 30
0.0
 11
1268.234013
 21
-60.64266
 31
0.0
  0
LINE
  5
4054
330
5271
100
AcDbEntity
  8
V0-VYPLNE
  6
DASHED
 62
    52
100
AcDbLine
 10
1236.721237
 20
-42.463702
 30
0.0
 11
1250.992166
 21
-42.463702
 31
0.0
  0
ARC
  5
4055
330
5271
100
AcDbEntity
  8
V0-VYPLNE
  6
DASHED
 62
    52
 48
2.0
100
AcDbCircle
 10
1249.674849
 20
-97.68618100000001
 30
0.0
 40
4.765061
100
AcDbArc
 50
315.910394
 51
73.951357
  0
LINE
  5
4056
330
5271
100
AcDbEntity
  8
V0-VYPLNE
  6
DASHED
 62
    52
100
AcDbLine
 10
1236.721237
 20
2.282927
 30
0.0
 11
1268.234013
 21
2.282927
 31
0.0
  0
LINE
  5
4057
330
5271
100
AcDbEntity
  8
V0-VYPLNE
  6
DASHED
 62
    52
100
AcDbLine
 10
1236.721237
 20
20.461888
 30
0.0
 11
1250.992166
 21
20.461888
 31
0.0
  0
LINE
  5
4058
330
5271
100
AcDbEntity
  8
V0-VYPLNE
  6
DASHED
 62
    52
100
AcDbLine
 10
1236.721237
 20
38.640846
 30
0.0
 11
1268.234013
 21
38.640846
 31
0.0
  0
LINE
  5
4059
330
5271
100
AcDbEntity
  8
V0-VYPLNE
  6
DASHED
 62
    52
100
AcDbLine
 10
1236.721237
 20
57.577264
 30
0.0
 11
1250.992166
 21
57.577264
 31
0.0
  0
LINE
  5
405A
330
5271
100
AcDbEntity
  8
V0-VYPLNE
  6
DASHED
 62
    52
100
AcDbLine
 10
1236.721237
 20
73.483856
 30
0.0
 11
1250.992166
 21
73.483856
 31
0.0
  0
LINE
  5
405B
330
5271
100
AcDbEntity
  8
V0-VYPLNE
  6
DASHED
 62
    52
100
AcDbLine
 10
1236.721237
 20
78.999813
 30
0.0
 11
1253.097366
 21
78.999813
 31
0.0
  0
LINE
  5
405C
330
5271
100
AcDbEntity
  8
V0-VYPLNE
  6
DASHED
 62
    52
100
AcDbLine
 10
1236.721237
 20
-24.284741
 30
0.0
 11
1268.234013
 21
-24.284741
 31
0.0
  0
LINE
  5
405D
330
5271
100
AcDbEntity
  8
V0-VYPLNE
  6
DASHED
 62
    52
100
AcDbLine
 10
1250.992166
 20
71.105013
 30
0.0
 11
1250.992166
 21
-11.000907
 31
0.0
  0
ARC
  5
405E
330
5271
100
AcDbEntity
  8
V0-VYPLNE
  6
DASHED
 62
    52
 48
2.0
100
AcDbCircle
 10
1249.674849
 20
75.684367
 30
0.0
 40
4.765061
100
AcDbArc
 50
286.048643
 51
44.089606
  0
DIMENSION
  5
409E
330
5271
100
AcDbEntity
  8
V0-OBRYS
  6
CONTINUOUS
 62
    90
100
AcDbDimension
  2
*D10
 10
1344.878441
 20
-614.0793570000761
 30
0.0
 11
1299.099816
 21
-614.079357
 31
0.0
 70
   160
  3
ED50
100
AcDbAlignedDimension
 13
1253.321191
 23
-461.000907
 33
0.0
 14
1344.878441
 24
-366.000457
 34
0.0
100
AcDbRotatedDimension
1001
ACAD
1000
DSTYLE
1002
{
1070
    41
1040
50.0
1070
   140
1040
50.0
1002
}
  0
LINE
  5
43F7
330
5271
100
AcDbEntity
  8
V0-OBRYS
  6
CONTINUOUS
 62
    90
100
AcDbLine
 10
1253.321191
 20
438.999093
 30
0.0
 11
1253.321191
 21
-461.000907
 31
0.0
  0
ARC
  5
460E
330
5271
100
AcDbEntity
  8
V0-OBRYS
  6
CONTINUOUS
 62
    90
 48
2.0
100
AcDbCircle
 10
1220.393345
 20
-101.192417
 30
0.0
 40
9.0
100
AcDbArc
 50
348.220473
 51
0.215669
  0
ARC
  5
4611
330
5271
100
AcDbEntity
  8
V0-OBRYS
  6
CONTINUOUS
 62
    90
 48
2.0
100
AcDbCircle
 10
1223.573433
 20
-174.115047
 30
0.0
 40
9.0
100
AcDbArc
 50
168.220473
 51
180.215669
  0
ARC
  5
4612
330
5271
100
AcDbEntity
  8
V0-OBRYS
  6
CONTINUOUS
 62
    90
 48
2.0
100
AcDbCircle
 10
1223.573433
 20
-174.115047
 30
0.0
 40
6.189299
100
AcDbArc
 50
168.220473
 51
180.215669
  0
ARC
  5
4613
330
5271
100
AcDbEntity
  8
V0-OBRYS
  6
CONTINUOUS
 62
    90
 48
2.0
100
AcDbCircle
 10
1220.393345
 20
-101.192417
 30
0.0
 40
11.810701
100
AcDbArc
 50
348.220473
 51
359.162914
  0
LINE
  5
4693
330
5271
100
AcDbEntity
  8
V0-OBRYS
  6
CONTINUOUS
 62
    90
100
AcDbLine
 10
1218.080285
 20
-321.202165
 30
0.0
 11
1236.815059
 21
-388.411945
 31
0.0
  0
LINE
  5
4694
330
5271
100
AcDbEntity
  8
V0-OBRYS
  6
CONTINUOUS
 62
    90
100
AcDbLine
 10
1217.769216
 20
-326.716672
 30
0.0
 11
1233.684874
 21
-389.549267
 31
0.0
  0
LINE
  5
4695
330
5271
100
AcDbEntity
  8
V0-OBRYS
  6
CONTINUOUS
 62
    90
100
AcDbLine
 10
1215.784836
 20
300.82262
 30
0.0
 11
1233.962492
 21
367.797498
 31
0.0
  0
LINE
  5
4696
330
5271
100
AcDbEntity
  8
V0-OBRYS
  6
CONTINUOUS
 62
    90
100
AcDbLine
 10
1218.045393
 20
299.15174
 30
0.0
 11
1236.461091
 21
367.298186
 31
0.0
  0
LINE
  5
47FC
330
5271
100
AcDbEntity
  8
0
  6
BYBLOCK
 62
    41
100
AcDbLine
 10
1253.321191
 20
-462.000907
 30
0.0
 11
1253.321191
 21
-487.138425
 31
0.0
  0
POINT
  5
4803
330
5271
100
AcDbEntity
  8
DEFPOINTS
  6
BYBLOCK
 62
     0
100
AcDbPoint
 10
1236.721191
 20
-461.000907
 30
0.0
  0
POINT
  5
4804
330
5271
100
AcDbEntity
  8
DEFPOINTS
  6
BYBLOCK
 62
     0
100
AcDbPoint
 10
1253.321191
 20
-461.000907
 30
0.0
  0
LINE
  5
484D
330
5271
100
AcDbEntity
  8
V0-OBRYS
  6
CONTINUOUS
 62
    90
100
AcDbLine
 10
1217.034735
 20
150.97517
 30
0.0
 11
1231.610178
 21
81.83274299999999
 31
0.0
  0
LINE
  5
484E
330
5271
100
AcDbEntity
  8
V0-OBRYS
  6
CONTINUOUS
 62
    90
100
AcDbLine
 10
1214.284477
 20
150.395407
 30
0.0
 11
1228.859921
 21
81.25297999999999
 31
0.0
  0
LINE
  5
484F
330
5271
100
AcDbEntity
  8
V0-OBRYS
  6
CONTINUOUS
 62
    90
100
AcDbLine
 10
1231.955318
 20
-103.603528
 30
0.0
 11
1217.514479
 21
-172.851525
 31
0.0
  0
LINE
  5
4850
330
5271
100
AcDbEntity
  8
V0-OBRYS
  6
CONTINUOUS
 62
    90
100
AcDbLine
 10
1229.203809
 20
-103.029733
 30
0.0
 11
1214.76297
 21
-172.277731
 31
0.0
  0
DIMENSION
  5
4880
330
5271
100
AcDbEntity
  8
V0-VYPLNE
  6
CONTINUOUS
 62
    41
100
AcDbDimension
  2
*D11
 10
2683.240332
 20
-730.481903999811
 30
0.0
 11
2227.290225
 21
-730.481904
 31
0.0
 70
   160
  3
ED50
100
AcDbAlignedDimension
 13
1783.305888
 23
-450.762981
 33
0.0
 14
2683.240332
 24
-450.762981
 34
0.0
100
AcDbRotatedDimension
1001
ACAD
1000
DSTYLE
1002
{
1070
    41
1040
50.0
1070
   140
1040
50.0
1002
}
  0
DIMENSION
  5
4881
330
5271
100
AcDbEntity
  8
V0-OBRYS
  6
CONTINUOUS
 62
    90
100
AcDbDimension
  2
*D12
 10
2632.3667
 20
-631.9189830000978
 30
0.0
 11
2219.069937
 21
-631.918983
 31
0.0
 70
   160
  1
800
  3
ED50
100
AcDbAlignedDimension
 13
1833.616953
 23
-455.164289
 33
0.0
 14
2632.3667
 24
-455.164357
 34
0.0
100
AcDbRotatedDimension
1001
ACAD
1000
DSTYLE
1002
{
1070
    41
1040
50.0
1070
   140
1040
50.0
1002
}
  0
LINE
  5
4883
330
5271
100
AcDbEntity
  8
V0-OBRYS
  6
CONTINUOUS
100
AcDbLine
 10
2683.240332
 20
410.330523
 30
0.0
 11
2683.240332
 21
-431.909421
 31
0.0
  0
LINE
  5
4884
330
5271
100
AcDbEntity
  8
V0-OBRYS
  6
CONTINUOUS
100
AcDbLine
 10
1783.305888
 20
-431.909421
 30
0.0
 11
1783.305888
 21
410.330523
 31
0.0
  0
LINE
  5
4885
330
5271
100
AcDbEntity
  8
V0-OBRYS
  6
CONTINUOUS
100
AcDbLine
 10
2654.674332
 20
-460.475421
 30
0.0
 11
1811.871888
 21
-460.475421
 31
0.0
  0
ARC
  5
4886
330
5271
100
AcDbEntity
  8
V0-OBRYS
  6
CONTINUOUS
100
AcDbCircle
 10
1811.871888
 20
-431.909421
 30
0.0
 40
28.566
100
AcDbArc
 50
180.0
 51
270.0
  0
LINE
  5
4887
330
5271
100
AcDbEntity
  8
V0-VYPLNE
  6
DASHDOT
 62
    63
100
AcDbLine
 10
1833.616953
 20
-455.164289
 30
0.0
 11
1833.616953
 21
-360.461469
 31
0.0
  0
CIRCLE
  5
4888
330
5271
100
AcDbEntity
  8
V0-OBRYS
  6
CONTINUOUS
 62
    90
100
AcDbCircle
 10
1833.616953
 20
-410.164289
 30
0.0
 40
11.25
  0
LINE
  5
4889
330
5271
100
AcDbEntity
  8
V0-VYPLNE
  6
DASHDOT
 62
    63
100
AcDbLine
 10
1788.616953
 20
-410.164289
 30
0.0
 11
1884.255503
 21
-410.164289
 31
0.0
  0
LINE
  5
488A
330
5271
100
AcDbEntity
  8
V0-VYPLNE
  6
DASHDOT
 62
    63
100
AcDbLine
 10
2632.3667
 20
-455.164357
 30
0.0
 11
2632.3667
 21
-359.525807
 31
0.0
  0
LINE
  5
488B
330
5271
100
AcDbEntity
  8
V0-VYPLNE
  6
DASHDOT
 62
    63
100
AcDbLine
 10
2677.9292
 20
-410.164357
 30
0.0
 11
2582.66388
 21
-410.164357
 31
0.0
  0
CIRCLE
  5
488C
330
5271
100
AcDbEntity
  8
V0-OBRYS
  6
CONTINUOUS
 62
    90
100
AcDbCircle
 10
2632.3667
 20
-410.164357
 30
0.0
 40
11.25
  0
ARC
  5
488D
330
5271
100
AcDbEntity
  8
V0-OBRYS
  6
CONTINUOUS
100
AcDbCircle
 10
2654.674332
 20
-431.909421
 30
0.0
 40
28.566
100
AcDbArc
 50
270.0
 51
0.0
  0
LINE
  5
488F
330
5271
100
AcDbEntity
  8
V0-OBRYS
  6
CONTINUOUS
100
AcDbLine
 10
1811.871888
 20
438.896523
 30
0.0
 11
2654.674332
 21
438.896523
 31
0.0
  0
LINE
  5
4890
330
5271
100
AcDbEntity
  8
V0-VYPLNE
  6
DASHDOT
 62
    63
100
AcDbLine
 10
1788.617021
 20
388.585458
 30
0.0
 11
1883.31984
 21
388.585458
 31
0.0
  0
CIRCLE
  5
4891
330
5271
100
AcDbEntity
  8
V0-OBRYS
  6
CONTINUOUS
 62
    90
100
AcDbCircle
 10
1833.617021
 20
388.585458
 30
0.0
 40
11.25
  0
LINE
  5
4892
330
5271
100
AcDbEntity
  8
V0-VYPLNE
  6
DASHDOT
 62
    63
100
AcDbLine
 10
1833.617021
 20
433.585458
 30
0.0
 11
1833.617021
 21
337.946908
 31
0.0
  0
ARC
  5
4893
330
5271
100
AcDbEntity
  8
V0-OBRYS
  6
CONTINUOUS
100
AcDbCircle
 10
1811.871888
 20
410.330523
 30
0.0
 40
28.566
100
AcDbArc
 50
90.0
 51
180.0
  0
LINE
  5
4894
330
5271
100
AcDbEntity
  8
V0-VYPLNE
  6
DASHDOT
 62
    63
100
AcDbLine
 10
2677.929268
 20
388.585391
 30
0.0
 11
2581.728218
 21
388.585391
 31
0.0
  0
LINE
  5
4895
330
5271
100
AcDbEntity
  8
V0-VYPLNE
  6
DASHDOT
 62
    63
100
AcDbLine
 10
2632.366768
 20
433.585391
 30
0.0
 11
2632.366768
 21
338.882571
 31
0.0
  0
CIRCLE
  5
4896
330
5271
100
AcDbEntity
  8
V0-OBRYS
  6
CONTINUOUS
 62
    90
100
AcDbCircle
 10
2632.366768
 20
388.585391
 30
0.0
 40
11.25
  0
ARC
  5
4897
330
5271
100
AcDbEntity
  8
V0-OBRYS
  6
CONTINUOUS
100
AcDbCircle
 10
2654.674332
 20
410.330523
 30
0.0
 40
28.566
100
AcDbArc
 50
0.0
 51
90.0
  0
CIRCLE
  5
490A
330
5271
100
AcDbEntity
  8
V0-OBRYS
  6
CONTINUOUS
 62
    90
100
AcDbCircle
 10
2232.99186
 20
-10.789449
 30
0.0
 40
341.205396
  0
CIRCLE
  5
490B
330
5271
100
AcDbEntity
  8
V0-OBRYS
  6
CONTINUOUS
 62
    90
100
AcDbCircle
 10
2232.99186
 20
-10.789449
 30
0.0
 40
387.820186
  0
LINE
  5
490C
330
5271
100
AcDbEntity
  8
V0-OBRYS
  6
CONTINUOUS
 62
    90
100
AcDbLine
 10
2064.986174
 20
-23.566426
 30
0.0
 11
2141.838563
 21
-17.721736
 31
0.0
  0
LINE
  5
490D
330
5271
100
AcDbEntity
  8
V0-OBRYS
  6
CONTINUOUS
 62
    90
100
AcDbLine
 10
2064.986174
 20
1.987527
 30
0.0
 11
2141.838563
 21
-3.857163
 31
0.0
  0
LINE
  5
490E
330
5271
100
AcDbEntity
  8
V0-OBRYS
  6
CONTINUOUS
 62
    90
100
AcDbLine
 10
2144.138026
 20
10.704184
 30
0.0
 11
2068.082118
 21
29.102015
 31
0.0
  0
LINE
  5
490F
330
5271
100
AcDbEntity
  8
V0-OBRYS
  6
CONTINUOUS
 62
    90
100
AcDbLine
 10
2076.595954
 20
53.117708
 30
0.0
 11
2148.367745
 21
23.790015
 31
0.0
  0
LINE
  5
4910
330
5271
100
AcDbEntity
  8
V0-OBRYS
  6
CONTINUOUS
 62
    90
100
AcDbLine
 10
2119.0929
 20
57.285133
 30
0.0
 11
2085.883779
 21
77.13340100000001
 31
0.0
  0
LINE
  5
4911
330
5271
100
AcDbEntity
  8
V0-OBRYS
  6
CONTINUOUS
 62
    90
100
AcDbLine
 10
2114.041207
 20
-103.376296
 30
0.0
 11
2120.560057
 21
-86.222995
 31
0.0
  0
LINE
  5
4912
330
5271
100
AcDbEntity
  8
V0-OBRYS
  6
CONTINUOUS
 62
    90
100
AcDbLine
 10
2101.623191
 20
-142.213849
 30
0.0
 11
2116.257348
 21
-106.15525
 31
0.0
  0
LINE
  5
4913
330
5271
100
AcDbEntity
  8
V0-OBRYS
  6
CONTINUOUS
 62
    90
100
AcDbLine
 10
2119.0929
 20
-78.864031
 30
0.0
 11
2085.883779
 21
-98.712299
 31
0.0
  0
LINE
  5
4914
330
5271
100
AcDbEntity
  8
V0-OBRYS
  6
CONTINUOUS
 62
    90
100
AcDbLine
 10
2076.595954
 20
-74.696606
 30
0.0
 11
2148.367745
 21
-45.368913
 31
0.0
  0
LINE
  5
4915
330
5271
100
AcDbEntity
  8
V0-OBRYS
  6
CONTINUOUS
 62
    90
100
AcDbLine
 10
2144.138026
 20
-32.283082
 30
0.0
 11
2068.082118
 21
-50.680913
 31
0.0
  0
ARC
  5
4916
330
5271
100
AcDbEntity
  8
V0-OBRYS
  6
CONTINUOUS
 62
    90
100
AcDbCircle
 10
2232.99186
 20
-10.789449
 30
0.0
 40
133.275988
100
AcDbArc
 50
148.716649
 51
211.283351
  0
ARC
  5
4917
330
5271
100
AcDbEntity
  8
V0-OBRYS
  6
CONTINUOUS
 62
    90
100
AcDbCircle
 10
2232.99186
 20
-10.789449
 30
0.0
 40
354.375
100
AcDbArc
 50
236.13779
 51
252.433638
  0
LINE
  5
4918
330
5271
100
AcDbEntity
  8
VO-OBRYS
  6
CONTINUOUS
100
AcDbLine
 10
2150.392565
 20
-49.960057
 30
0.0
 11
1916.954919
 21
-283.397702
 31
0.0
  0
LINE
  5
4919
330
5271
100
AcDbEntity
  8
VO-OBRYS
  6
CONTINUOUS
100
AcDbLine
 10
2193.821253
 20
-93.388745
 30
0.0
 11
1960.383607
 21
-326.826391
 31
0.0
  0
LINE
  5
491A
330
5271
100
AcDbEntity
  8
VO-OBRYS
  6
CONTINUOUS
100
AcDbLine
 10
2152.495564
 20
-54.117574
 30
0.0
 11
1920.085177
 21
-286.527961
 31
0.0
  0
LINE
  5
491B
330
5271
100
AcDbEntity
  8
VO-OBRYS
  6
CONTINUOUS
100
AcDbLine
 10
2189.663735
 20
-91.285746
 30
0.0
 11
1957.253349
 21
-323.696132
 31
0.0
  0
LINE
  5
491C
330
5271
100
AcDbEntity
  8
VO-OBRYS
  6
CONTINUOUS
100
AcDbLine
 10
2150.392565
 20
28.381158
 30
0.0
 11
1916.954919
 21
261.818804
 31
0.0
  0
LINE
  5
491D
330
5271
100
AcDbEntity
  8
VO-OBRYS
  6
CONTINUOUS
100
AcDbLine
 10
2193.821253
 20
71.80984700000001
 30
0.0
 11
1960.383607
 21
305.247493
 31
0.0
  0
LINE
  5
491E
330
5271
100
AcDbEntity
  8
VO-OBRYS
  6
CONTINUOUS
100
AcDbLine
 10
2152.495564
 20
32.538676
 30
0.0
 11
1920.085177
 21
264.949063
 31
0.0
  0
LINE
  5
491F
330
5271
100
AcDbEntity
  8
VO-OBRYS
  6
CONTINUOUS
100
AcDbLine
 10
2189.663735
 20
69.706847
 30
0.0
 11
1957.253349
 21
302.117234
 31
0.0
  0
LINE
  5
4920
330
5271
100
AcDbEntity
  8
V0-OBRYS
  6
CONTINUOUS
 62
    90
100
AcDbLine
 10
2090.358767
 20
177.093834
 30
0.0
 11
2130.163925
 21
149.277204
 31
0.0
  0
CIRCLE
  5
4921
330
5271
100
AcDbEntity
  8
V0-OBRYS
  6
CONTINUOUS
 62
    90
100
AcDbCircle
 10
2232.99186
 20
-10.789449
 30
0.0
 40
190.24962
  0
CIRCLE
  5
4922
330
5271
100
AcDbEntity
  8
V0-OBRYS
  6
CONTINUOUS
 62
    90
100
AcDbCircle
 10
2232.99186
 20
-10.789449
 30
0.0
 40
240.317353
  0
CIRCLE
  5
4923
330
5271
100
AcDbEntity
  8
V0-OBRYS
  6
CONTINUOUS
 62
    90
100
AcDbCircle
 10
2232.99186
 20
-10.789449
 30
0.0
 40
292.111563
  0
CIRCLE
  5
4924
330
5271
100
AcDbEntity
  8
V0-OBRYS
  6
CONTINUOUS
 62
    90
100
AcDbCircle
 10
2232.99186
 20
-10.789449
 30
0.0
 40
287.684709
  0
CIRCLE
  5
4925
330
5271
100
AcDbEntity
  8
V0-OBRYS
  6
CONTINUOUS
 62
    90
100
AcDbCircle
 10
2232.99186
 20
-10.789449
 30
0.0
 40
235.890499
  0
CIRCLE
  5
4926
330
5271
100
AcDbEntity
  8
V0-OBRYS
  6
CONTINUOUS
 62
    90
100
AcDbCircle
 10
2232.99186
 20
-10.789449
 30
0.0
 40
185.822766
  0
LINE
  5
4927
330
5271
100
AcDbEntity
  8
V0-OBRYS
  6
CONTINUOUS
 62
    90
100
AcDbLine
 10
1927.41217
 20
168.661641
 30
0.0
 11
1934.032038
 21
162.659901
 31
0.0
  0
LINE
  5
4928
330
5271
100
AcDbEntity
  8
V0-OBRYS
  6
CONTINUOUS
 62
    90
100
AcDbLine
 10
2061.283387
 20
-241.611224
 30
0.0
 11
2079.810803
 21
-195.959624
 31
0.0
  0
ARC
  5
4929
330
5271
100
AcDbEntity
  8
VO-OBRYS
  6
CONTINUOUS
100
AcDbCircle
 10
1938.669263
 20
-305.112047
 30
0.0
 40
30.70872
100
AcDbArc
 50
135.0
 51
315.0
  0
ARC
  5
492A
330
5271
100
AcDbEntity
  8
VO-OBRYS
  6
CONTINUOUS
100
AcDbCircle
 10
1938.669263
 20
-305.112047
 30
0.0
 40
26.281866
100
AcDbArc
 50
135.0
 51
315.0
  0
LINE
  5
492B
330
5271
100
AcDbEntity
  8
V0-OBRYS
  6
CONTINUOUS
 62
    90
100
AcDbLine
 10
2040.598128
 20
-292.579751
 30
0.0
 11
2059.564322
 21
-245.847004
 31
0.0
  0
LINE
  5
492C
330
5271
100
AcDbEntity
  8
V0-OBRYS
  6
CONTINUOUS
 62
    90
100
AcDbLine
 10
2035.534983
 20
-305.055353
 30
0.0
 11
2038.89522
 21
-296.775719
 31
0.0
  0
LINE
  5
492D
330
5271
100
AcDbEntity
  8
V0-OBRYS
  6
CONTINUOUS
 62
    90
100
AcDbLine
 10
1892.723801
 20
-36.063351
 30
0.0
 11
1941.086162
 21
-21.754328
 31
0.0
  0
ARC
  5
492E
330
5271
100
AcDbEntity
  8
V0-OBRYS
  6
CONTINUOUS
 62
    90
100
AcDbCircle
 10
2232.99186
 20
-10.789449
 30
0.0
 40
354.375
100
AcDbArc
 50
184.709219
 51
201.005067
  0
LINE
  5
492F
330
5271
100
AcDbEntity
  8
V0-OBRYS
  6
CONTINUOUS
 62
    90
100
AcDbLine
 10
1902.165528
 20
-137.815347
 30
0.0
 11
1910.985297
 21
-136.381749
 31
0.0
  0
LINE
  5
4930
330
5271
100
AcDbEntity
  8
V0-OBRYS
  6
CONTINUOUS
 62
    90
100
AcDbLine
 10
1879.813163
 20
-39.883236
 30
0.0
 11
1888.381515
 21
-37.348108
 31
0.0
  0
LINE
  5
4931
330
5271
100
AcDbEntity
  8
V0-OBRYS
  6
CONTINUOUS
 62
    90
100
AcDbLine
 10
1969.74854
 20
-126.830156
 30
0.0
 11
2018.378296
 21
-118.925697
 31
0.0
  0
LINE
  5
4932
330
5271
100
AcDbEntity
  8
V0-OBRYS
  6
CONTINUOUS
 62
    90
100
AcDbLine
 10
1915.454997
 20
-135.655228
 30
0.0
 11
1965.236432
 21
-127.563571
 31
0.0
  0
LINE
  5
4933
330
5271
100
AcDbEntity
  8
V0-OBRYS
  6
CONTINUOUS
 62
    90
100
AcDbLine
 10
2081.558053
 20
-191.654397
 30
0.0
 11
2099.819781
 21
-146.657455
 31
0.0
  0
LINE
  5
4934
330
5271
100
AcDbEntity
  8
V0-OBRYS
  6
CONTINUOUS
 62
    90
100
AcDbLine
 10
2022.964382
 20
-118.180258
 30
0.0
 11
2070.896774
 21
-110.389151
 31
0.0
  0
LINE
  5
4935
330
5271
100
AcDbEntity
  8
V0-OBRYS
  6
CONTINUOUS
 62
    90
100
AcDbLine
 10
2075.630266
 20
-109.619752
 30
0.0
 11
2114.041207
 21
-103.376296
 31
0.0
  0
LINE
  5
4936
330
5271
100
AcDbEntity
  8
V0-OBRYS
  6
CONTINUOUS
 62
    90
100
AcDbLine
 10
1997.168516
 20
-5.161181
 30
0.0
 11
2043.734543
 21
8.616358999999999
 31
0.0
  0
LINE
  5
4937
330
5271
100
AcDbEntity
  8
V0-OBRYS
  6
CONTINUOUS
 62
    90
100
AcDbLine
 10
1978.138056
 20
122.672269
 30
0.0
 11
2014.638169
 21
89.580344
 31
0.0
  0
LINE
  5
4938
330
5271
100
AcDbEntity
  8
V0-OBRYS
  6
CONTINUOUS
 62
    90
100
AcDbLine
 10
1945.469648
 20
-20.457381
 30
0.0
 11
1992.713161
 21
-6.479392000000001
 31
0.0
  0
LINE
  5
4939
330
5271
100
AcDbEntity
  8
V0-OBRYS
  6
CONTINUOUS
 62
    90
100
AcDbLine
 10
1937.386867
 20
159.618328
 30
0.0
 11
1974.751397
 21
125.742701
 31
0.0
  0
LINE
  5
493A
330
5271
100
AcDbEntity
  8
V0-OBRYS
  6
CONTINUOUS
 62
    90
100
AcDbLine
 10
2018.080355
 20
86.45957199999999
 30
0.0
 11
2054.057044
 21
53.842195
 31
0.0
  0
LINE
  5
493B
330
5271
100
AcDbEntity
  8
V0-OBRYS
  6
CONTINUOUS
 62
    90
100
AcDbLine
 10
2057.609869
 20
50.621114
 30
0.0
 11
2086.440029
 21
24.482962
 31
0.0
  0
LINE
  5
493C
330
5271
100
AcDbEntity
  8
V0-OBRYS
  6
CONTINUOUS
 62
    90
100
AcDbLine
 10
2048.333101
 20
9.976939
 30
0.0
 11
2085.649097
 21
21.017663
 31
0.0
  0
LINE
  5
493D
330
5271
100
AcDbEntity
  8
V0-OBRYS
  6
CONTINUOUS
 62
    90
100
AcDbLine
 10
2085.649097
 20
21.017663
 30
0.0
 11
2098.964917
 21
8.391496
 31
0.0
  0
LINE
  5
493E
330
5271
100
AcDbEntity
  8
V0-OBRYS
  6
CONTINUOUS
 62
    90
100
AcDbLine
 10
2086.440029
 20
24.482962
 30
0.0
 11
2103.915457
 21
30.081228
 31
0.0
  0
ARC
  5
493F
330
5271
100
AcDbEntity
  8
VO-OBRYS
  6
CONTINUOUS
100
AcDbCircle
 10
1938.669263
 20
283.533148
 30
0.0
 40
30.70872
100
AcDbArc
 50
45.0
 51
225.0
  0
ARC
  5
4940
330
5271
100
AcDbEntity
  8
VO-OBRYS
  6
CONTINUOUS
100
AcDbCircle
 10
1938.669263
 20
283.533148
 30
0.0
 40
26.281866
100
AcDbArc
 50
45.0
 51
225.0
  0
LINE
  5
4941
330
5271
100
AcDbEntity
  8
V0-OBRYS
  6
CONTINUOUS
 62
    90
100
AcDbLine
 10
2001.078263
 20
239.484812
 30
0.0
 11
2042.418947
 21
210.595126
 31
0.0
  0
ARC
  5
4942
330
5271
100
AcDbEntity
  8
V0-OBRYS
  6
CONTINUOUS
 62
    90
100
AcDbCircle
 10
2232.99186
 20
-10.789449
 30
0.0
 40
354.375
100
AcDbArc
 50
133.280648
 51
149.576495
  0
LINE
  5
4943
330
5271
100
AcDbEntity
  8
V0-OBRYS
  6
CONTINUOUS
 62
    90
100
AcDbLine
 10
1990.042106
 20
247.197096
 30
0.0
 11
1997.366429
 21
242.078715
 31
0.0
  0
LINE
  5
4944
330
5271
100
AcDbEntity
  8
V0-OBRYS
  6
CONTINUOUS
 62
    90
100
AcDbLine
 10
2046.166
 20
207.976612
 30
0.0
 11
2086.55028
 21
179.755279
 31
0.0
  0
LINE
  5
4945
330
5271
100
AcDbEntity
  8
V0-OBRYS
  6
CONTINUOUS
 62
    90
100
AcDbLine
 10
2538.571551
 20
168.661641
 30
0.0
 11
2531.951683
 21
162.659901
 31
0.0
  0
LINE
  5
4946
330
5271
100
AcDbEntity
  8
V0-OBRYS
  6
CONTINUOUS
 62
    90
100
AcDbLine
 10
2375.624954
 20
177.093834
 30
0.0
 11
2335.819796
 21
149.277204
 31
0.0
  0
LINE
  5
4947
330
5271
100
AcDbEntity
  8
VO-OBRYS
  6
CONTINUOUS
100
AcDbLine
 10
2315.591156
 20
28.381158
 30
0.0
 11
2549.028802
 21
261.818804
 31
0.0
  0
LINE
  5
4948
330
5271
100
AcDbEntity
  8
VO-OBRYS
  6
CONTINUOUS
100
AcDbLine
 10
2272.162468
 20
71.80984700000001
 30
0.0
 11
2505.600114
 21
305.247493
 31
0.0
  0
LINE
  5
4949
330
5271
100
AcDbEntity
  8
VO-OBRYS
  6
CONTINUOUS
100
AcDbLine
 10
2276.319986
 20
69.706847
 30
0.0
 11
2508.730372
 21
302.117234
 31
0.0
  0
LINE
  5
494A
330
5271
100
AcDbEntity
  8
VO-OBRYS
  6
CONTINUOUS
100
AcDbLine
 10
2313.488157
 20
32.538676
 30
0.0
 11
2545.898544
 21
264.949063
 31
0.0
  0
LINE
  5
494B
330
5271
100
AcDbEntity
  8
V0-OBRYS
  6
CONTINUOUS
 62
    90
100
AcDbLine
 10
2528.596854
 20
159.618328
 30
0.0
 11
2491.232324
 21
125.742701
 31
0.0
  0
LINE
  5
494C
330
5271
100
AcDbEntity
  8
V0-OBRYS
  6
CONTINUOUS
 62
    90
100
AcDbLine
 10
2550.528724
 20
-135.655228
 30
0.0
 11
2500.747289
 21
-127.563571
 31
0.0
  0
ARC
  5
494D
330
5271
100
AcDbEntity
  8
VO-OBRYS
  6
CONTINUOUS
100
AcDbCircle
 10
2527.314458
 20
-305.112047
 30
0.0
 40
26.281866
100
AcDbArc
 50
225.0
 51
45.0
  0
ARC
  5
494E
330
5271
100
AcDbEntity
  8
VO-OBRYS
  6
CONTINUOUS
100
AcDbCircle
 10
2527.314458
 20
-305.112047
 30
0.0
 40
30.70872
100
AcDbArc
 50
225.0
 51
45.0
  0
LINE
  5
494F
330
5271
100
AcDbEntity
  8
VO-OBRYS
  6
CONTINUOUS
100
AcDbLine
 10
2315.591156
 20
-49.960057
 30
0.0
 11
2549.028802
 21
-283.397702
 31
0.0
  0
LINE
  5
4950
330
5271
100
AcDbEntity
  8
VO-OBRYS
  6
CONTINUOUS
100
AcDbLine
 10
2313.488157
 20
-54.117574
 30
0.0
 11
2545.898544
 21
-286.527961
 31
0.0
  0
LINE
  5
4951
330
5271
100
AcDbEntity
  8
V0-OBRYS
  6
CONTINUOUS
 62
    90
100
AcDbLine
 10
2186.003385
 20
-241.952618
 30
0.0
 11
2209.797409
 21
-199.619889
 31
0.0
  0
LINE
  5
4952
330
5271
100
AcDbEntity
  8
V0-OBRYS
  6
CONTINUOUS
 62
    90
100
AcDbLine
 10
2279.980336
 20
-241.952618
 30
0.0
 11
2256.186312
 21
-199.619889
 31
0.0
  0
LINE
  5
4953
330
5271
100
AcDbEntity
  8
VO-OBRYS
  6
CONTINUOUS
100
AcDbLine
 10
2272.162468
 20
-93.388745
 30
0.0
 11
2505.600114
 21
-326.826391
 31
0.0
  0
LINE
  5
4954
330
5271
100
AcDbEntity
  8
VO-OBRYS
  6
CONTINUOUS
100
AcDbLine
 10
2276.319986
 20
-91.285746
 30
0.0
 11
2508.730372
 21
-323.696132
 31
0.0
  0
LINE
  5
4955
330
5271
100
AcDbEntity
  8
V0-OBRYS
  6
CONTINUOUS
 62
    90
100
AcDbLine
 10
2404.700334
 20
-241.611224
 30
0.0
 11
2386.172917
 21
-195.959624
 31
0.0
  0
LINE
  5
4956
330
5271
100
AcDbEntity
  8
V0-OBRYS
  6
CONTINUOUS
 62
    90
100
AcDbLine
 10
2333.34886
 20
-336.902306
 30
0.0
 11
2308.636955
 21
-292.936547
 31
0.0
  0
LINE
  5
4957
330
5271
100
AcDbEntity
  8
V0-OBRYS
  6
CONTINUOUS
 62
    90
100
AcDbLine
 10
2132.634861
 20
-336.902306
 30
0.0
 11
2157.346766
 21
-292.936547
 31
0.0
  0
LINE
  5
4958
330
5271
100
AcDbEntity
  8
V0-OBRYS
  6
CONTINUOUS
 62
    90
100
AcDbLine
 10
2126.037862
 20
-348.639242
 30
0.0
 11
2130.416066
 21
-340.849836
 31
0.0
  0
LINE
  5
4959
330
5271
100
AcDbEntity
  8
V0-OBRYS
  6
CONTINUOUS
 62
    90
100
AcDbLine
 10
2159.586612
 20
-288.951562
 30
0.0
 11
2183.726815
 21
-246.002938
 31
0.0
  0
LINE
  5
495A
330
5271
100
AcDbEntity
  8
V0-OBRYS
  6
CONTINUOUS
 62
    90
100
AcDbLine
 10
2306.397108
 20
-288.951562
 30
0.0
 11
2282.256906
 21
-246.002938
 31
0.0
  0
LINE
  5
495B
330
5271
100
AcDbEntity
  8
V0-OBRYS
  6
CONTINUOUS
 62
    90
100
AcDbLine
 10
2425.385593
 20
-292.579751
 30
0.0
 11
2406.419399
 21
-245.847004
 31
0.0
  0
ARC
  5
495C
330
5271
100
AcDbEntity
  8
V0-OBRYS
  6
CONTINUOUS
 62
    90
100
AcDbCircle
 10
2232.99186
 20
-10.789449
 30
0.0
 40
354.375
100
AcDbArc
 50
287.566362
 51
303.86221
  0
LINE
  5
495D
330
5271
100
AcDbEntity
  8
V0-OBRYS
  6
CONTINUOUS
 62
    90
100
AcDbLine
 10
2339.945859
 20
-348.639242
 30
0.0
 11
2335.567654
 21
-340.849836
 31
0.0
  0
LINE
  5
495E
330
5271
100
AcDbEntity
  8
V0-OBRYS
  6
CONTINUOUS
 62
    90
100
AcDbLine
 10
2430.448738
 20
-305.055353
 30
0.0
 11
2427.088501
 21
-296.775719
 31
0.0
  0
LINE
  5
495F
330
5271
100
AcDbEntity
  8
V0-OBRYS
  6
CONTINUOUS
 62
    90
100
AcDbLine
 10
2331.888897
 20
146.530214
 30
0.0
 11
2299.990769
 21
124.239172
 31
0.0
  0
LINE
  5
4960
330
5271
100
AcDbEntity
  8
V0-OBRYS
  6
CONTINUOUS
 62
    90
100
AcDbLine
 10
2301.066443
 20
103.109511
 30
0.0
 11
2320.914711
 21
136.318632
 31
0.0
  0
LINE
  5
4963
330
5271
100
AcDbEntity
  8
V0-OBRYS
  6
CONTINUOUS
 62
    90
100
AcDbLine
 10
2301.066443
 20
-124.688409
 30
0.0
 11
2320.914711
 21
-157.89753
 31
0.0
  0
LINE
  5
4968
330
5271
100
AcDbEntity
  8
V0-OBRYS
  6
CONTINUOUS
 62
    90
100
AcDbLine
 10
2212.147153
 20
-195.439384
 30
0.0
 11
2231.214653
 21
-161.51577
 31
0.0
  0
ARC
  5
4969
330
5271
100
AcDbEntity
  8
V0-OBRYS
  6
CONTINUOUS
 62
    90
100
AcDbCircle
 10
2232.99186
 20
-10.789449
 30
0.0
 40
133.275988
100
AcDbArc
 50
238.716649
 51
301.283351
  0
LINE
  5
496A
330
5271
100
AcDbEntity
  8
V0-OBRYS
  6
CONTINUOUS
 62
    90
100
AcDbLine
 10
2211.498227
 20
-99.64328399999999
 30
0.0
 11
2193.100396
 21
-175.699192
 31
0.0
  0
LINE
  5
496B
330
5271
100
AcDbEntity
  8
V0-OBRYS
  6
CONTINUOUS
 62
    90
100
AcDbLine
 10
2169.084703
 20
-167.185355
 30
0.0
 11
2198.412396
 21
-95.41356399999999
 31
0.0
  0
LINE
  5
496C
330
5271
100
AcDbEntity
  8
V0-OBRYS
  6
CONTINUOUS
 62
    90
100
AcDbLine
 10
2164.917278
 20
-124.688409
 30
0.0
 11
2145.06901
 21
-157.89753
 31
0.0
  0
LINE
  5
4970
330
5271
100
AcDbEntity
  8
V0-OBRYS
  6
CONTINUOUS
 62
    90
100
AcDbLine
 10
2254.485494
 20
-99.64328399999999
 30
0.0
 11
2272.883325
 21
-175.699192
 31
0.0
  0
LINE
  5
4971
330
5271
100
AcDbEntity
  8
V0-OBRYS
  6
CONTINUOUS
 62
    90
100
AcDbLine
 10
2245.768837
 20
-178.795135
 30
0.0
 11
2239.924147
 21
-101.942746
 31
0.0
  0
LINE
  5
4972
330
5271
100
AcDbEntity
  8
V0-OBRYS
  6
CONTINUOUS
 62
    90
100
AcDbLine
 10
2220.214884
 20
-178.795135
 30
0.0
 11
2224.329747
 21
-124.688409
 31
0.0
  0
LINE
  5
4973
330
5271
100
AcDbEntity
  8
V0-OBRYS
  6
CONTINUOUS
 62
    90
100
AcDbLine
 10
2296.899018
 20
-167.185355
 30
0.0
 11
2267.571324
 21
-95.41356399999999
 31
0.0
  0
LINE
  5
4974
330
5271
100
AcDbEntity
  8
V0-OBRYS
  6
CONTINUOUS
 62
    90
100
AcDbLine
 10
2253.836568
 20
-195.439384
 30
0.0
 11
2234.769068
 21
-161.51577
 31
0.0
  0
LINE
  5
4975
330
5271
100
AcDbEntity
  8
V0-OBRYS
  6
CONTINUOUS
 62
    90
100
AcDbLine
 10
2234.769068
 20
-161.51577
 30
0.0
 11
2244.115622
 21
-145.724219
 31
0.0
  0
LINE
  5
4976
330
5271
100
AcDbEntity
  8
V0-OBRYS
  6
CONTINUOUS
 62
    90
100
AcDbLine
 10
2231.214653
 20
-161.51577
 30
0.0
 11
2221.868099
 21
-145.724219
 31
0.0
  0
ARC
  5
4977
330
5271
100
AcDbEntity
  8
V0-OBRYS
  6
CONTINUOUS
 62
    90
100
AcDbCircle
 10
2232.99186
 20
-10.789449
 30
0.0
 40
133.275988
100
AcDbArc
 50
58.71664899999999
 51
121.283351
  0
LINE
  5
4979
330
5271
100
AcDbEntity
  8
V0-OBRYS
  6
CONTINUOUS
 62
    90
100
AcDbLine
 10
2164.917278
 20
103.109511
 30
0.0
 11
2145.06901
 21
136.318632
 31
0.0
  0
LINE
  5
497A
330
5271
100
AcDbEntity
  8
V0-OBRYS
  6
CONTINUOUS
 62
    90
100
AcDbLine
 10
2164.917278
 20
103.109511
 30
0.0
 11
2145.06901
 21
136.318632
 31
0.0
  0
LINE
  5
497B
330
5271
100
AcDbEntity
  8
V0-OBRYS
  6
CONTINUOUS
 62
    90
100
AcDbLine
 10
2165.992952
 20
124.239172
 30
0.0
 11
2164.423695
 21
105.956159
 31
0.0
  0
LINE
  5
497D
330
5271
100
AcDbEntity
  8
V0-OBRYS
  6
CONTINUOUS
 62
    90
100
AcDbLine
 10
2134.094824
 20
146.530214
 30
0.0
 11
2165.992952
 21
124.239172
 31
0.0
  0
LINE
  5
497E
330
5271
100
AcDbEntity
  8
V0-OBRYS
  6
CONTINUOUS
 62
    90
100
AcDbLine
 10
2205.439842
 20
103.109511
 30
0.0
 11
2193.100396
 21
154.120293
 31
0.0
  0
LINE
  5
497F
330
5271
100
AcDbEntity
  8
V0-OBRYS
  6
CONTINUOUS
 62
    90
100
AcDbLine
 10
2211.498227
 20
78.064385
 30
0.0
 11
2193.100396
 21
154.120293
 31
0.0
  0
LINE
  5
4980
330
5271
100
AcDbEntity
  8
V0-OBRYS
  6
CONTINUOUS
 62
    90
100
AcDbLine
 10
2169.084703
 20
145.606457
 30
0.0
 11
2186.449985
 21
103.109511
 31
0.0
  0
LINE
  5
4981
330
5271
100
AcDbEntity
  8
V0-OBRYS
  6
CONTINUOUS
 62
    90
100
AcDbLine
 10
2169.084703
 20
145.606457
 30
0.0
 11
2198.412396
 21
73.834666
 31
0.0
  0
LINE
  5
4982
330
5271
100
AcDbEntity
  8
V0-OBRYS
  6
CONTINUOUS
 62
    90
100
AcDbLine
 10
2169.195369
 20
125.781375
 30
0.0
 11
2184.468021
 21
115.608997
 31
0.0
  0
LINE
  5
4983
330
5271
100
AcDbEntity
  8
V0-OBRYS
  6
CONTINUOUS
 62
    90
100
AcDbLine
 10
2171.655689
 20
164.618573
 30
0.0
 11
2169.195369
 21
125.781375
 31
0.0
  0
LINE
  5
4984
330
5271
100
AcDbEntity
  8
V0-OBRYS
  6
CONTINUOUS
 62
    90
100
AcDbLine
 10
2254.485494
 20
78.064385
 30
0.0
 11
2272.883325
 21
154.120293
 31
0.0
  0
LINE
  5
4985
330
5271
100
AcDbEntity
  8
V0-OBRYS
  6
CONTINUOUS
 62
    90
100
AcDbLine
 10
2220.214884
 20
157.216237
 30
0.0
 11
2224.329747
 21
103.109511
 31
0.0
  0
LINE
  5
4986
330
5271
100
AcDbEntity
  8
V0-OBRYS
  6
CONTINUOUS
 62
    90
100
AcDbLine
 10
2220.214884
 20
157.216237
 30
0.0
 11
2226.059574
 21
80.363848
 31
0.0
  0
LINE
  5
4987
330
5271
100
AcDbEntity
  8
V0-OBRYS
  6
CONTINUOUS
 62
    90
100
AcDbLine
 10
2245.768837
 20
157.216237
 30
0.0
 11
2239.924147
 21
80.363848
 31
0.0
  0
LINE
  5
4988
330
5271
100
AcDbEntity
  8
V0-OBRYS
  6
CONTINUOUS
 62
    90
100
AcDbLine
 10
2299.990769
 20
124.239172
 30
0.0
 11
2301.560026
 21
105.956159
 31
0.0
  0
LINE
  5
4989
330
5271
100
AcDbEntity
  8
V0-OBRYS
  6
CONTINUOUS
 62
    90
100
AcDbLine
 10
2296.899018
 20
145.606457
 30
0.0
 11
2267.571324
 21
73.834666
 31
0.0
  0
LINE
  5
498A
330
5271
100
AcDbEntity
  8
V0-OBRYS
  6
CONTINUOUS
 62
    90
100
AcDbLine
 10
2296.788351
 20
125.781375
 30
0.0
 11
2281.5157
 21
115.608997
 31
0.0
  0
LINE
  5
498B
330
5271
100
AcDbEntity
  8
V0-OBRYS
  6
CONTINUOUS
 62
    90
100
AcDbLine
 10
2294.328032
 20
164.618573
 30
0.0
 11
2296.788351
 21
125.781375
 31
0.0
  0
ARC
  5
498D
330
5271
100
AcDbEntity
  8
V0-OBRYS
  6
CONTINUOUS
 62
    90
100
AcDbCircle
 10
2232.99186
 20
-10.789449
 30
0.0
 40
133.275988
100
AcDbArc
 50
328.716649
 51
31.283351
  0
LINE
  5
498E
330
5271
100
AcDbEntity
  8
V0-OBRYS
  6
CONTINUOUS
 62
    90
100
AcDbLine
 10
2443.019339
 20
-118.180258
 30
0.0
 11
2395.086947
 21
-110.389151
 31
0.0
  0
LINE
  5
498F
330
5271
100
AcDbEntity
  8
V0-OBRYS
  6
CONTINUOUS
 62
    90
100
AcDbLine
 10
2364.36053
 20
-142.213849
 30
0.0
 11
2349.726372
 21
-106.15525
 31
0.0
  0
LINE
  5
4990
330
5271
100
AcDbEntity
  8
V0-OBRYS
  6
CONTINUOUS
 62
    90
100
AcDbLine
 10
2384.425668
 20
-191.654397
 30
0.0
 11
2366.16394
 21
-146.657455
 31
0.0
  0
LINE
  5
4991
330
5271
100
AcDbEntity
  8
V0-OBRYS
  6
CONTINUOUS
 62
    90
100
AcDbLine
 10
2389.387767
 20
-74.696606
 30
0.0
 11
2317.615975
 21
-45.368913
 31
0.0
  0
LINE
  5
4992
330
5271
100
AcDbEntity
  8
V0-OBRYS
  6
CONTINUOUS
 62
    90
100
AcDbLine
 10
2390.353455
 20
-109.619752
 30
0.0
 11
2351.942514
 21
-103.376296
 31
0.0
  0
LINE
  5
4993
330
5271
100
AcDbEntity
  8
V0-OBRYS
  6
CONTINUOUS
 62
    90
100
AcDbLine
 10
2346.89082
 20
-78.864031
 30
0.0
 11
2380.099942
 21
-98.712299
 31
0.0
  0
LINE
  5
4994
330
5271
100
AcDbEntity
  8
V0-OBRYS
  6
CONTINUOUS
 62
    90
100
AcDbLine
 10
2321.845695
 20
-32.283082
 30
0.0
 11
2397.901603
 21
-50.680913
 31
0.0
  0
LINE
  5
4996
330
5271
100
AcDbEntity
  8
V0-OBRYS
  6
CONTINUOUS
 62
    90
100
AcDbLine
 10
2349.726372
 20
-106.15525
 30
0.0
 11
2331.55256
 21
-103.616809
 31
0.0
  0
LINE
  5
4997
330
5271
100
AcDbEntity
  8
V0-OBRYS
  6
CONTINUOUS
 62
    90
100
AcDbLine
 10
2351.942514
 20
-103.376296
 30
0.0
 11
2345.423664
 21
-86.222995
 31
0.0
  0
LINE
  5
4998
330
5271
100
AcDbEntity
  8
V0-OBRYS
  6
CONTINUOUS
 62
    90
100
AcDbLine
 10
2496.235181
 20
-126.830156
 30
0.0
 11
2447.605424
 21
-118.925697
 31
0.0
  0
LINE
  5
4999
330
5271
100
AcDbEntity
  8
V0-OBRYS
  6
CONTINUOUS
 62
    90
100
AcDbLine
 10
2447.903366
 20
86.45957199999999
 30
0.0
 11
2411.926676
 21
53.842195
 31
0.0
  0
LINE
  5
499A
330
5271
100
AcDbEntity
  8
V0-OBRYS
  6
CONTINUOUS
 62
    90
100
AcDbLine
 10
2346.89082
 20
57.285133
 30
0.0
 11
2380.099942
 21
77.13340100000001
 31
0.0
  0
LINE
  5
499B
330
5271
100
AcDbEntity
  8
V0-OBRYS
  6
CONTINUOUS
 62
    90
100
AcDbLine
 10
2389.387767
 20
53.117708
 30
0.0
 11
2317.615975
 21
23.790015
 31
0.0
  0
LINE
  5
499C
330
5271
100
AcDbEntity
  8
V0-OBRYS
  6
CONTINUOUS
 62
    90
100
AcDbLine
 10
2379.543692
 20
24.482962
 30
0.0
 11
2362.068264
 21
30.081228
 31
0.0
  0
LINE
  5
499D
330
5271
100
AcDbEntity
  8
V0-OBRYS
  6
CONTINUOUS
 62
    90
100
AcDbLine
 10
2380.334624
 20
21.017663
 30
0.0
 11
2367.018804
 21
8.391496
 31
0.0
  0
LINE
  5
499E
330
5271
100
AcDbEntity
  8
V0-OBRYS
  6
CONTINUOUS
 62
    90
100
AcDbLine
 10
2321.845695
 20
10.704184
 30
0.0
 11
2397.901603
 21
29.102015
 31
0.0
  0
LINE
  5
499F
330
5271
100
AcDbEntity
  8
V0-OBRYS
  6
CONTINUOUS
 62
    90
100
AcDbLine
 10
2400.997547
 20
1.987527
 30
0.0
 11
2324.145158
 21
-3.857163
 31
0.0
  0
LINE
  5
49A0
330
5271
100
AcDbEntity
  8
V0-OBRYS
  6
CONTINUOUS
 62
    90
100
AcDbLine
 10
2400.997547
 20
-23.566426
 30
0.0
 11
2324.145158
 21
-17.721736
 31
0.0
  0
LINE
  5
49A1
330
5271
100
AcDbEntity
  8
V0-OBRYS
  6
CONTINUOUS
 62
    90
100
AcDbLine
 10
2417.65062
 20
9.976939
 30
0.0
 11
2380.334624
 21
21.017663
 31
0.0
  0
LINE
  5
49A2
330
5271
100
AcDbEntity
  8
V0-OBRYS
  6
CONTINUOUS
 62
    90
100
AcDbLine
 10
2408.373852
 20
50.621114
 30
0.0
 11
2379.543692
 21
24.482962
 31
0.0
  0
LINE
  5
49A4
330
5271
100
AcDbEntity
  8
V0-OBRYS
  6
CONTINUOUS
 62
    90
100
AcDbLine
 10
2468.815205
 20
-5.161181
 30
0.0
 11
2422.249178
 21
8.616358999999999
 31
0.0
  0
LINE
  5
49A5
330
5271
100
AcDbEntity
  8
V0-OBRYS
  6
CONTINUOUS
 62
    90
100
AcDbLine
 10
2520.514073
 20
-20.457381
 30
0.0
 11
2473.27056
 21
-6.479392000000001
 31
0.0
  0
LINE
  5
49A6
330
5271
100
AcDbEntity
  8
V0-OBRYS
  6
CONTINUOUS
 62
    90
100
AcDbLine
 10
2487.845664
 20
122.672269
 30
0.0
 11
2451.345552
 21
89.580344
 31
0.0
  0
LINE
  5
49A7
330
5271
100
AcDbEntity
  8
V0-OBRYS
  6
CONTINUOUS
 62
    90
100
AcDbLine
 10
2573.25992
 20
-36.063351
 30
0.0
 11
2524.897558
 21
-21.754328
 31
0.0
  0
ARC
  5
49A8
330
5271
100
AcDbEntity
  8
V0-OBRYS
  6
CONTINUOUS
 62
    90
100
AcDbCircle
 10
2232.99186
 20
-10.789449
 30
0.0
 40
354.375
100
AcDbArc
 50
338.994933
 51
355.290781
  0
LINE
  5
49A9
330
5271
100
AcDbEntity
  8
V0-OBRYS
  6
CONTINUOUS
 62
    90
100
AcDbLine
 10
2563.818192
 20
-137.815347
 30
0.0
 11
2554.998423
 21
-136.381749
 31
0.0
  0
LINE
  5
49AA
330
5271
100
AcDbEntity
  8
V0-OBRYS
  6
CONTINUOUS
 62
    90
100
AcDbLine
 10
2586.170558
 20
-39.883236
 30
0.0
 11
2577.602206
 21
-37.348108
 31
0.0
  0
ARC
  5
49AB
330
5271
100
AcDbEntity
  8
VO-OBRYS
  6
CONTINUOUS
100
AcDbCircle
 10
2527.314458
 20
283.533148
 30
0.0
 40
30.70872
100
AcDbArc
 50
315.0
 51
135.0
  0
ARC
  5
49AC
330
5271
100
AcDbEntity
  8
VO-OBRYS
  6
CONTINUOUS
100
AcDbCircle
 10
2527.314458
 20
283.533148
 30
0.0
 40
26.281866
100
AcDbArc
 50
315.0
 51
135.0
  0
ARC
  5
49AD
330
5271
100
AcDbEntity
  8
V0-OBRYS
  6
CONTINUOUS
 62
    90
100
AcDbCircle
 10
2232.99186
 20
-10.789449
 30
0.0
 40
354.375
100
AcDbArc
 50
30.423505
 51
46.719352
  0
ARC
  5
49AE
330
5271
100
AcDbEntity
  8
V0-OBRYS
  6
CONTINUOUS
 62
    90
100
AcDbCircle
 10
2232.99186
 20
-10.789449
 30
0.0
 40
354.375
100
AcDbArc
 50
81.852076
 51
98.147924
  0
LINE
  5
49AF
330
5271
100
AcDbEntity
  8
V0-OBRYS
  6
CONTINUOUS
 62
    90
100
AcDbLine
 10
2178.437686
 20
271.675299
 30
0.0
 11
2175.322825
 21
222.505884
 31
0.0
  0
LINE
  5
49B0
330
5271
100
AcDbEntity
  8
V0-OBRYS
  6
CONTINUOUS
 62
    90
100
AcDbLine
 10
2175.029074
 20
217.868905
 30
0.0
 11
2171.958881
 21
169.404594
 31
0.0
  0
LINE
  5
49B1
330
5271
100
AcDbEntity
  8
V0-OBRYS
  6
CONTINUOUS
 62
    90
100
AcDbLine
 10
2181.915327
 20
326.571352
 30
0.0
 11
2178.726698
 21
276.237479
 31
0.0
  0
LINE
  5
49B2
330
5271
100
AcDbEntity
  8
V0-OBRYS
  6
CONTINUOUS
 62
    90
100
AcDbLine
 10
2182.766551
 20
340.008297
 30
0.0
 11
2182.201623
 21
331.090653
 31
0.0
  0
LINE
  5
49B3
330
5271
100
AcDbEntity
  8
V0-OBRYS
  6
CONTINUOUS
 62
    90
100
AcDbLine
 10
2287.546035
 20
271.675299
 30
0.0
 11
2290.660896
 21
222.505884
 31
0.0
  0
LINE
  5
49B4
330
5271
100
AcDbEntity
  8
V0-OBRYS
  6
CONTINUOUS
 62
    90
100
AcDbLine
 10
2290.954647
 20
217.868905
 30
0.0
 11
2294.02484
 21
169.404594
 31
0.0
  0
LINE
  5
49B5
330
5271
100
AcDbEntity
  8
V0-OBRYS
  6
CONTINUOUS
 62
    90
100
AcDbLine
 10
2284.068394
 20
326.571352
 30
0.0
 11
2287.257023
 21
276.237479
 31
0.0
  0
LINE
  5
49B6
330
5271
100
AcDbEntity
  8
V0-OBRYS
  6
CONTINUOUS
 62
    90
100
AcDbLine
 10
2283.217169
 20
340.008297
 30
0.0
 11
2283.782098
 21
331.090653
 31
0.0
  0
LINE
  5
49B7
330
5271
100
AcDbEntity
  8
V0-OBRYS
  6
CONTINUOUS
 62
    90
100
AcDbLine
 10
2419.817721
 20
207.976612
 30
0.0
 11
2379.433441
 21
179.755279
 31
0.0
  0
LINE
  5
49B8
330
5271
100
AcDbEntity
  8
V0-OBRYS
  6
CONTINUOUS
 62
    90
100
AcDbLine
 10
2475.941615
 20
247.197096
 30
0.0
 11
2468.617292
 21
242.078715
 31
0.0
  0
LINE
  5
49B9
330
5271
100
AcDbEntity
  8
V0-OBRYS
  6
CONTINUOUS
 62
    90
100
AcDbLine
 10
2464.905458
 20
239.484812
 30
0.0
 11
2423.564773
 21
210.595126
 31
0.0
  0
CIRCLE
  5
49BA
330
5271
100
AcDbEntity
  8
V0-OBRYS
  6
CONTINUOUS
 62
    90
100
AcDbCircle
 10
1938.669263
 20
283.533148
 30
0.0
 40
14.205545
  0
LINE
  5
49BB
330
5271
100
AcDbEntity
  8
V0-VYPLNE
  6
DASHDOT
 62
    63
100
AcDbLine
 10
2232.99186
 20
-10.789449
 30
0.0
 11
1901.855463
 21
320.346948
 31
0.0
  0
CIRCLE
  5
49BC
330
5271
100
AcDbEntity
  8
V0-OBRYS
  6
CONTINUOUS
 62
    90
100
AcDbCircle
 10
1938.669263
 20
-305.112047
 30
0.0
 40
14.205545
  0
LINE
  5
49BD
330
5271
100
AcDbEntity
  8
V0-VYPLNE
  6
DASHDOT
 62
    63
100
AcDbLine
 10
2232.99186
 20
-10.789449
 30
0.0
 11
1901.855463
 21
-341.925846
 31
0.0
  0
CIRCLE
  5
49BE
330
5271
100
AcDbEntity
  8
V0-OBRYS
  6
CONTINUOUS
 62
    90
100
AcDbCircle
 10
2527.314458
 20
-305.112047
 30
0.0
 40
14.205545
  0
LINE
  5
49BF
330
5271
100
AcDbEntity
  8
V0-VYPLNE
  6
DASHDOT
 62
    63
100
AcDbLine
 10
2232.99186
 20
-10.789449
 30
0.0
 11
2564.128258
 21
-341.925846
 31
0.0
  0
CIRCLE
  5
49C0
330
5271
100
AcDbEntity
  8
V0-OBRYS
  6
CONTINUOUS
 62
    90
100
AcDbCircle
 10
2527.314458
 20
283.533148
 30
0.0
 40
14.205545
  0
LINE
  5
49C1
330
5271
100
AcDbEntity
  8
V0-VYPLNE
  6
DASHDOT
 62
    63
100
AcDbLine
 10
2232.99186
 20
-10.789449
 30
0.0
 11
2564.128258
 21
320.346948
 31
0.0
  0
INSERT
  5
49D7
330
5271
100
AcDbEntity
  8
V0-OBRYS
  6
CONTINUOUS
 62
    90
100
AcDbBlockReference
  2
ASVORKBOK
 10
2232.99186
 20
-10.789449
 30
0.0
 41
1.125
 42
1.125
 43
1.125
  0
CIRCLE
  5
49D8
330
5271
100
AcDbEntity
  8
V0-OBRYS
  6
CONTINUOUS
 62
    90
100
AcDbCircle
 10
2232.99186
 20
-10.789449
 30
0.0
 40
91.41652000000001
  0
LINE
  5
49E8
330
5271
100
AcDbEntity
  8
0
  6
BYBLOCK
 62
    41
100
AcDbLine
 10
1253.321191
 20
-462.000907
 30
0.0
 11
1253.321191
 21
-493.699243
 31
0.0
  0
POINT
  5
49F0
330
5271
100
AcDbEntity
  8
DEFPOINTS
  6
BYBLOCK
 62
     0
100
AcDbPoint
 10
1253.321191
 20
-461.000907
 30
0.0
  0
POINT
  5
49F1
330
5271
100
AcDbEntity
  8
DEFPOINTS
  6
BYBLOCK
 62
     0
100
AcDbPoint
 10
1236.721191
 20
-461.000907
 30
0.0
  0
CIRCLE
  5
4B82
330
5271
100
AcDbEntity
  8
V0-OBRYS
  6
CONTINUOUS
 62
    90
 48
2.0
100
AcDbCircle
 10
1211.32239
 20
223.796184
 30
0.0
 40
2.894689
  0
CIRCLE
  5
4B83
330
5271
100
AcDbEntity
  8
V0-OBRYS
  6
CONTINUOUS
 62
    90
 48
2.0
100
AcDbCircle
 10
1211.32239
 20
245.396184
 30
0.0
 40
2.894689
  0
CIRCLE
  5
4B84
330
5271
100
AcDbEntity
  8
V0-OBRYS
  6
CONTINUOUS
 62
    90
 48
2.0
100
AcDbCircle
 10
1211.195912
 20
-249.411736
 30
0.0
 40
2.894689
  0
CIRCLE
  5
4B85
330
5271
100
AcDbEntity
  8
V0-OBRYS
  6
CONTINUOUS
 62
    90
 48
2.0
100
AcDbCircle
 10
1211.195912
 20
-227.811736
 30
0.0
 40
2.894689
  0
LINE
  5
4BA9
330
5271
100
AcDbEntity
  8
0
  6
BYBLOCK
 62
    41
100
AcDbLine
 10
1253.321191
 20
-462.000907
 30
0.0
 11
1253.321191
 21
-525.4174850000001
 31
0.0
  0
POINT
  5
4BB1
330
5271
100
AcDbEntity
  8
DEFPOINTS
  6
BYBLOCK
 62
     0
100
AcDbPoint
 10
1253.321191
 20
-461.000907
 30
0.0
  0
POINT
  5
4BB2
330
5271
100
AcDbEntity
  8
DEFPOINTS
  6
BYBLOCK
 62
     0
100
AcDbPoint
 10
1236.721191
 20
-461.000907
 30
0.0
  0
LINE
  5
4BD5
330
5271
100
AcDbEntity
  8
V0-OBRYS
  6
CONTINUOUS
 62
    90
100
AcDbLine
 10
1218.080285
 20
-1676.551827
 30
0.0
 11
1236.815059
 21
-1743.761607
 31
0.0
  0
LINE
  5
4BD6
330
5271
100
AcDbEntity
  8
V0-OBRYS
  6
CONTINUOUS
 62
    90
100
AcDbLine
 10
1217.769216
 20
-1682.066334
 30
0.0
 11
1233.684874
 21
-1744.89893
 31
0.0
  0
LINE
  5
4BD7
330
5271
100
AcDbEntity
  8
V0-OBRYS
  6
CONTINUOUS
 62
    90
100
AcDbLine
 10
1215.784836
 20
-1054.527042
 30
0.0
 11
1233.962492
 21
-987.552164
 31
0.0
  0
LINE
  5
4BD8
330
5271
100
AcDbEntity
  8
V0-OBRYS
  6
CONTINUOUS
 62
    90
100
AcDbLine
 10
1218.045393
 20
-1056.197923
 30
0.0
 11
1236.461091
 21
-988.051476
 31
0.0
  0
LINE
  5
4BD9
330
5271
100
AcDbEntity
  8
V0-OBRYS
  6
CONTINUOUS
 62
    90
 48
2.0
100
AcDbLine
 10
1196.257965
 20
-1281.865806
 30
0.0
 11
1236.72115
 21
-1281.865806
 31
0.0
  0
LINE
  5
4BDA
330
5271
100
AcDbEntity
  8
V0-OBRYS
  6
CONTINUOUS
 62
    90
 48
2.0
100
AcDbLine
 10
1195.499806
 20
-1297.772399
 30
0.0
 11
1236.72115
 21
-1297.772399
 31
0.0
  0
LINE
  5
4BDB
330
5271
100
AcDbEntity
  8
V0-OBRYS
  6
CONTINUOUS
 62
    90
 48
2.0
100
AcDbLine
 10
1196.257965
 20
-1316.708816
 30
0.0
 11
1236.72115
 21
-1316.708816
 31
0.0
  0
LINE
  5
4BDC
330
5271
100
AcDbEntity
  8
V0-OBRYS
  6
CONTINUOUS
 62
    90
 48
2.0
100
AcDbLine
 10
1195.499806
 20
-1353.066735
 30
0.0
 11
1236.72115
 21
-1353.066735
 31
0.0
  0
LINE
  5
4BDD
330
5271
100
AcDbEntity
  8
V0-OBRYS
  6
CONTINUOUS
 62
    90
 48
2.0
100
AcDbLine
 10
1195.499806
 20
-1379.634404
 30
0.0
 11
1236.72115
 21
-1379.634404
 31
0.0
  0
LINE
  5
4BDE
330
5271
100
AcDbEntity
  8
V0-OBRYS
  6
CONTINUOUS
 62
    90
 48
2.0
100
AcDbLine
 10
1200.048742
 20
-1334.887774
 30
0.0
 11
1236.72115
 21
-1334.887774
 31
0.0
  0
LINE
  5
4BDF
330
5271
100
AcDbEntity
  8
V0-OBRYS
  6
CONTINUOUS
 62
    90
 48
2.0
100
AcDbLine
 10
1195.499806
 20
-1434.92874
 30
0.0
 11
1236.72115
 21
-1434.92874
 31
0.0
  0
LINE
  5
4BE0
330
5271
100
AcDbEntity
  8
V0-OBRYS
  6
CONTINUOUS
 62
    90
 48
2.0
100
AcDbLine
 10
1196.257965
 20
-1415.992323
 30
0.0
 11
1236.72115
 21
-1415.992323
 31
0.0
  0
LINE
  5
4BE1
330
5271
100
AcDbEntity
  8
V0-OBRYS
  6
CONTINUOUS
 62
    90
 48
2.0
100
AcDbLine
 10
1200.048742
 20
-1397.813365
 30
0.0
 11
1236.72115
 21
-1397.813365
 31
0.0
  0
LINE
  5
4BE2
330
5271
100
AcDbEntity
  8
V0-OBRYS
  6
CONTINUOUS
 62
    90
 48
2.0
100
AcDbLine
 10
1196.257965
 20
-1450.835332
 30
0.0
 11
1236.72115
 21
-1450.835332
 31
0.0
  0
LINE
  5
4BE3
330
5271
100
AcDbEntity
  8
V0-OBRYS
  6
CONTINUOUS
 62
    90
 48
2.0
100
AcDbLine
 10
1182.29963
 20
-1276.349849
 30
0.0
 11
1236.72115
 21
-1276.349849
 31
0.0
  0
LINE
  5
4BE4
330
5271
100
AcDbEntity
  8
V0-OBRYS
  6
CONTINUOUS
 62
    90
 48
2.0
100
AcDbLine
 10
1182.29963
 20
-1456.351289
 30
0.0
 11
1236.72115
 21
-1456.351289
 31
0.0
  0
LINE
  5
4BE5
330
5271
100
AcDbEntity
  8
V0-VYPLNE
  6
DASHDOT
 62
    63
100
AcDbLine
 10
1195.917908
 20
-1366.350676
 30
0.0
 11
1363.902694
 21
-1366.350676
 31
0.0
  0
LINE
  5
4BE6
330
5271
100
AcDbEntity
  8
V0-OBRYS
  6
CONTINUOUS
 62
    90
100
AcDbLine
 10
1229.203809
 20
-1458.379396
 30
0.0
 11
1214.76297
 21
-1527.627393
 31
0.0
  0
LINE
  5
4BE7
330
5271
100
AcDbEntity
  8
V0-OBRYS
  6
CONTINUOUS
 62
    90
100
AcDbLine
 10
1231.955318
 20
-1458.95319
 30
0.0
 11
1217.514479
 21
-1528.201188
 31
0.0
  0
LINE
  5
4BE8
330
5271
100
AcDbEntity
  8
V0-OBRYS
  6
CONTINUOUS
 62
    90
100
AcDbLine
 10
1214.284477
 20
-1204.954255
 30
0.0
 11
1228.859921
 21
-1274.096683
 31
0.0
  0
LINE
  5
4BE9
330
5271
100
AcDbEntity
  8
V0-OBRYS
  6
CONTINUOUS
 62
    90
100
AcDbLine
 10
1217.034735
 20
-1204.374492
 30
0.0
 11
1231.610178
 21
-1273.51692
 31
0.0
  0
CIRCLE
  5
4BEA
330
5271
100
AcDbEntity
  8
V0-OBRYS
  6
CONTINUOUS
 62
    90
 48
2.0
100
AcDbCircle
 10
1211.195912
 20
-1604.761398
 30
0.0
 40
2.894689
  0
LINE
  5
4BEB
330
5271
100
AcDbEntity
  8
V0-OBRYS
  6
CONTINUOUS
 62
    90
 48
2.0
100
AcDbLine
 10
1214.090934
 20
-1672.918534
 30
0.0
 11
1214.090934
 21
-1529.603313
 31
0.0
  0
LINE
  5
4BEC
330
5271
100
AcDbEntity
  8
V0-OBRYS
  6
CONTINUOUS
 62
    90
 48
2.0
100
AcDbLine
 10
1216.901635
 20
-1672.918534
 30
0.0
 11
1216.901635
 21
-1529.603313
 31
0.0
  0
ARC
  5
4BED
330
5271
100
AcDbEntity
  8
V0-OBRYS
  6
CONTINUOUS
 62
    90
 48
2.0
100
AcDbCircle
 10
1227.534701
 20
-1672.826275
 30
0.0
 40
13.444084
100
AcDbArc
 50
180.393192
 51
223.416411
  0
CIRCLE
  5
4BEE
330
5271
100
AcDbEntity
  8
V0-OBRYS
  6
CONTINUOUS
 62
    90
 48
2.0
100
AcDbCircle
 10
1211.195912
 20
-1665.771902
 30
0.0
 40
2.894689
  0
ARC
  5
4BEF
330
5271
100
AcDbEntity
  8
V0-OBRYS
  6
CONTINUOUS
 62
    90
 48
2.0
100
AcDbCircle
 10
1223.090934
 20
-1672.918534
 30
0.0
 40
6.189299
100
AcDbArc
 50
180.0
 51
215.946405
  0
CIRCLE
  5
4BF0
330
5271
100
AcDbEntity
  8
V0-OBRYS
  6
CONTINUOUS
 62
    90
 48
2.0
100
AcDbCircle
 10
1211.195912
 20
-1644.171902
 30
0.0
 40
2.894689
  0
CIRCLE
  5
4BF1
330
5271
100
AcDbEntity
  8
V0-OBRYS
  6
CONTINUOUS
 62
    90
 48
2.0
100
AcDbCircle
 10
1211.195912
 20
-1622.571902
 30
0.0
 40
2.894689
  0
LINE
  5
4BF2
330
5271
100
AcDbEntity
  8
V0-OBRYS
  6
CONTINUOUS
 62
    90
 48
2.0
100
AcDbLine
 10
1196.51027
 20
-1366.350569
 30
0.0
 11
1196.51027
 21
-1456.351289
 31
0.0
  0
LINE
  5
4BF3
330
5271
100
AcDbEntity
  8
V0-OBRYS
  6
CONTINUOUS
 62
    90
 48
2.0
100
AcDbLine
 10
1169.51003
 20
-1366.350569
 30
0.0
 11
1169.51003
 21
-1440.561689
 31
0.0
  0
LINE
  5
4BF4
330
5271
100
AcDbEntity
  8
V0-OBRYS
  6
CONTINUOUS
 62
    90
 48
2.0
100
AcDbLine
 10
1196.257965
 20
-1415.992323
 30
0.0
 11
1168.931724
 21
-1409.175213
 31
0.0
  0
CIRCLE
  5
4BF5
330
5271
100
AcDbEntity
  8
V0-OBRYS
  6
CONTINUOUS
 62
    90
 48
2.0
100
AcDbCircle
 10
1211.195912
 20
-1583.161398
 30
0.0
 40
2.894689
  0
CIRCLE
  5
4BF6
330
5271
100
AcDbEntity
  8
V0-OBRYS
  6
CONTINUOUS
 62
    90
 48
2.0
100
AcDbCircle
 10
1211.195912
 20
-1560.971902
 30
0.0
 40
2.894689
  0
CIRCLE
  5
4BF7
330
5271
100
AcDbEntity
  8
V0-OBRYS
  6
CONTINUOUS
 62
    90
 48
2.0
100
AcDbCircle
 10
1211.195912
 20
-1539.371902
 30
0.0
 40
2.894689
  0
ARC
  5
4BF8
330
5271
100
AcDbEntity
  8
V0-OBRYS
  6
CONTINUOUS
 62
    90
 48
2.0
100
AcDbCircle
 10
1223.573433
 20
-1529.46471
 30
0.0
 40
9.0
100
AcDbArc
 50
168.220473
 51
180.215669
  0
ARC
  5
4BF9
330
5271
100
AcDbEntity
  8
V0-OBRYS
  6
CONTINUOUS
 62
    90
 48
2.0
100
AcDbCircle
 10
1223.573433
 20
-1529.46471
 30
0.0
 40
6.189299
100
AcDbArc
 50
168.220473
 51
180.215669
  0
LINE
  5
4BFA
330
5271
100
AcDbEntity
  8
V0-OBRYS
  6
CONTINUOUS
 62
    90
 48
2.0
100
AcDbLine
 10
1195.499806
 20
-1434.92874
 30
0.0
 11
1170.448036
 21
-1419.779608
 31
0.0
  0
LINE
  5
4BFB
330
5271
100
AcDbEntity
  8
V0-OBRYS
  6
CONTINUOUS
 62
    90
 48
2.0
100
AcDbLine
 10
1196.257965
 20
-1450.835332
 30
0.0
 11
1169.689883
 21
-1428.86909
 31
0.0
  0
ARC
  5
4BFC
330
5271
100
AcDbEntity
  8
V0-OBRYS
  6
CONTINUOUS
 62
    90
 48
2.0
100
AcDbCircle
 10
1182.779924
 20
-1442.887653
 30
0.0
 40
13.472201
100
AcDbArc
 50
170.05812
 51
267.95693
  0
LINE
  5
4BFD
330
5271
100
AcDbEntity
  8
V0-OBRYS
  6
CONTINUOUS
 62
    90
 48
2.0
100
AcDbLine
 10
1196.51027
 20
-1366.350569
 30
0.0
 11
1196.51027
 21
-1276.349849
 31
0.0
  0
LINE
  5
4BFE
330
5271
100
AcDbEntity
  8
V0-OBRYS
  6
CONTINUOUS
 62
    90
 48
2.0
100
AcDbLine
 10
1169.51003
 20
-1366.350569
 30
0.0
 11
1169.51003
 21
-1292.139449
 31
0.0
  0
LINE
  5
4C00
330
5271
100
AcDbEntity
  8
V0-OBRYS
  6
CONTINUOUS
 62
    90
 48
2.0
100
AcDbLine
 10
1195.499806
 20
-1379.634404
 30
0.0
 11
1169.689883
 21
-1378.876947
 31
0.0
  0
LINE
  5
4C01
330
5271
100
AcDbEntity
  8
V0-OBRYS
  6
CONTINUOUS
 62
    90
 48
2.0
100
AcDbLine
 10
1195.499806
 20
-1397.813365
 30
0.0
 11
1169.689883
 21
-1394.783536
 31
0.0
  0
LINE
  5
4C02
330
5271
100
AcDbEntity
  8
V0-OBRYS
  6
CONTINUOUS
 62
    90
 48
2.0
100
AcDbLine
 10
1195.499806
 20
-1397.813365
 30
0.0
 11
1200.048742
 21
-1397.813365
 31
0.0
  0
LINE
  5
4C03
330
5271
100
AcDbEntity
  8
V0-OBRYS
  6
CONTINUOUS
 62
    90
 48
2.0
100
AcDbLine
 10
1196.257965
 20
-1316.708816
 30
0.0
 11
1168.931724
 21
-1323.525926
 31
0.0
  0
LINE
  5
4C04
330
5271
100
AcDbEntity
  8
V0-OBRYS
  6
CONTINUOUS
 62
    90
 48
2.0
100
AcDbLine
 10
1195.499806
 20
-1334.887774
 30
0.0
 11
1169.689883
 21
-1337.917603
 31
0.0
  0
LINE
  5
4C05
330
5271
100
AcDbEntity
  8
V0-OBRYS
  6
CONTINUOUS
 62
    90
 48
2.0
100
AcDbLine
 10
1195.499806
 20
-1353.066735
 30
0.0
 11
1169.689883
 21
-1353.824192
 31
0.0
  0
LINE
  5
4C06
330
5271
100
AcDbEntity
  8
V0-OBRYS
  6
CONTINUOUS
 62
    90
 48
2.0
100
AcDbLine
 10
1195.499806
 20
-1334.887774
 30
0.0
 11
1200.048742
 21
-1334.887774
 31
0.0
  0
LINE
  5
4C07
330
5271
100
AcDbEntity
  8
V0-OBRYS
  6
CONTINUOUS
 62
    90
 48
2.0
100
AcDbLine
 10
1196.257965
 20
-1281.865806
 30
0.0
 11
1169.689883
 21
-1303.832049
 31
0.0
  0
LINE
  5
4C08
330
5271
100
AcDbEntity
  8
V0-OBRYS
  6
CONTINUOUS
 62
    90
 48
2.0
100
AcDbLine
 10
1195.499806
 20
-1297.772399
 30
0.0
 11
1170.448036
 21
-1312.921531
 31
0.0
  0
ARC
  5
4C09
330
5271
100
AcDbEntity
  8
V0-OBRYS
  6
CONTINUOUS
 62
    90
 48
2.0
100
AcDbCircle
 10
1182.779924
 20
-1289.813486
 30
0.0
 40
13.472201
100
AcDbArc
 50
92.04307
 51
189.94188
  0
LINE
  5
4C0A
330
5271
100
AcDbEntity
  8
V0-OBRYS
  6
CONTINUOUS
 62
    90
 48
2.0
100
AcDbLine
 10
1216.901635
 20
-1059.782605
 30
0.0
 11
1216.901635
 21
-1203.097826
 31
0.0
  0
LINE
  5
4C0B
330
5271
100
AcDbEntity
  8
V0-OBRYS
  6
CONTINUOUS
 62
    90
 48
2.0
100
AcDbLine
 10
1214.090934
 20
-1059.782605
 30
0.0
 11
1214.090934
 21
-1203.097826
 31
0.0
  0
CIRCLE
  5
4C0C
330
5271
100
AcDbEntity
  8
V0-OBRYS
  6
CONTINUOUS
 62
    90
 48
2.0
100
AcDbCircle
 10
1211.32239
 20
-1171.729236
 30
0.0
 40
2.894689
  0
CIRCLE
  5
4C0D
330
5271
100
AcDbEntity
  8
V0-OBRYS
  6
CONTINUOUS
 62
    90
 48
2.0
100
AcDbCircle
 10
1211.32239
 20
-1193.329236
 30
0.0
 40
2.894689
  0
ARC
  5
4C0E
330
5271
100
AcDbEntity
  8
V0-OBRYS
  6
CONTINUOUS
 62
    90
 48
2.0
100
AcDbCircle
 10
1223.090934
 20
-1203.097826
 30
0.0
 40
9.0
100
AcDbArc
 50
180.0
 51
191.903847
  0
ARC
  5
4C0F
330
5271
100
AcDbEntity
  8
V0-OBRYS
  6
CONTINUOUS
 62
    90
 48
2.0
100
AcDbCircle
 10
1223.090934
 20
-1203.097826
 30
0.0
 40
6.189299
100
AcDbArc
 50
180.0
 51
191.903847
  0
CIRCLE
  5
4C10
330
5271
100
AcDbEntity
  8
V0-OBRYS
  6
CONTINUOUS
 62
    90
 48
2.0
100
AcDbCircle
 10
1211.32239
 20
-1150.129236
 30
0.0
 40
2.894689
  0
CIRCLE
  5
4C11
330
5271
100
AcDbEntity
  8
V0-OBRYS
  6
CONTINUOUS
 62
    90
 48
2.0
100
AcDbCircle
 10
1211.32239
 20
-1131.553478
 30
0.0
 40
2.894689
  0
CIRCLE
  5
4C12
330
5271
100
AcDbEntity
  8
V0-OBRYS
  6
CONTINUOUS
 62
    90
 48
2.0
100
AcDbCircle
 10
1211.32239
 20
-1109.953478
 30
0.0
 40
2.894689
  0
CIRCLE
  5
4C13
330
5271
100
AcDbEntity
  8
V0-OBRYS
  6
CONTINUOUS
 62
    90
 48
2.0
100
AcDbCircle
 10
1211.32239
 20
-1088.529236
 30
0.0
 40
2.894689
  0
CIRCLE
  5
4C14
330
5271
100
AcDbEntity
  8
V0-OBRYS
  6
CONTINUOUS
 62
    90
 48
2.0
100
AcDbCircle
 10
1211.32239
 20
-1066.929236
 30
0.0
 40
2.894689
  0
ARC
  5
4C15
330
5271
100
AcDbEntity
  8
V0-OBRYS
  6
CONTINUOUS
 62
    90
 48
2.0
100
AcDbCircle
 10
1223.090934
 20
-1059.782605
 30
0.0
 40
6.189299
100
AcDbArc
 50
144.607521
 51
180.0
  0
ARC
  5
4C16
330
5271
100
AcDbEntity
  8
V0-OBRYS
  6
CONTINUOUS
 62
    90
 48
2.0
100
AcDbCircle
 10
1223.090934
 20
-1059.782605
 30
0.0
 40
9.0
100
AcDbArc
 50
144.271055
 51
180.0
  0
LINE
  5
4C17
330
5271
100
AcDbEntity
  8
V0-OBRYS
  6
CONTINUOUS
 62
    90
 48
2.0
100
AcDbLine
 10
1236.721191
 20
-1816.350569
 30
0.0
 11
1236.721191
 21
-1366.350569
 31
0.0
  0
LINE
  5
4C18
330
5271
100
AcDbEntity
  8
V0-OBRYS
  6
CONTINUOUS
 62
    90
100
AcDbLine
 10
1253.321191
 20
-916.350569
 30
0.0
 11
1253.321191
 21
-1816.350569
 31
0.0
  0
LINE
  5
4C19
330
5271
100
AcDbEntity
  8
V0-VYPLNE
  6
DASHED
 62
    52
100
AcDbLine
 10
1258.681671
 20
-1474.523383
 30
0.0
 11
1274.815098
 21
-1715.971641
 31
0.0
  0
LINE
  5
4C1A
330
5271
100
AcDbEntity
  8
V0-VYPLNE
  6
DASHED
 62
    52
100
AcDbLine
 10
1340.760398
 20
-1474.523383
 30
0.0
 11
1324.62697
 21
-1715.971641
 31
0.0
  0
LINE
  5
4C1B
330
5271
100
AcDbEntity
  8
V0-OBRYS
  6
CONTINUOUS
 62
    90
 48
2.0
100
AcDbLine
 10
1344.878441
 20
-1366.350569
 30
0.0
 11
1344.878441
 21
-1721.350119
 31
0.0
  0
LINE
  5
4C1C
330
5271
100
AcDbEntity
  8
0
  6
BYBLOCK
 62
    41
100
AcDbLine
 10
1253.321191
 20
-1817.350569
 30
0.0
 11
1253.321191
 21
-1842.488088
 31
0.0
  0
LINE
  5
4C1D
330
5271
100
AcDbEntity
  8
V0-OBRYS
  6
CONTINUOUS
 62
    90
 48
2.0
100
AcDbLine
 10
1253.321191
 20
-1816.350569
 30
0.0
 11
1236.721191
 21
-1816.350569
 31
0.0
  0
POINT
  5
4C1E
330
5271
100
AcDbEntity
  8
DEFPOINTS
  6
BYBLOCK
 62
     0
100
AcDbPoint
 10
1236.721191
 20
-1816.350569
 30
0.0
  0
POINT
  5
4C1F
330
5271
100
AcDbEntity
  8
DEFPOINTS
  6
BYBLOCK
 62
     0
100
AcDbPoint
 10
1236.721191
 20
-1816.350569
 30
0.0
  0
POINT
  5
4C20
330
5271
100
AcDbEntity
  8
DEFPOINTS
  6
BYBLOCK
 62
     0
100
AcDbPoint
 10
1236.721191
 20
-1816.350569
 30
0.0
  0
POINT
  5
4C21
330
5271
100
AcDbEntity
  8
DEFPOINTS
  6
BYBLOCK
 62
     0
100
AcDbPoint
 10
1253.321191
 20
-1816.350569
 30
0.0
  0
POINT
  5
4C22
330
5271
100
AcDbEntity
  8
DEFPOINTS
  6
BYBLOCK
 62
     0
100
AcDbPoint
 10
1253.321191
 20
-1816.350569
 30
0.0
  0
POINT
  5
4C23
330
5271
100
AcDbEntity
  8
DEFPOINTS
  6
BYBLOCK
 62
     0
100
AcDbPoint
 10
1253.321191
 20
-1816.350569
 30
0.0
  0
LINE
  5
4C24
330
5271
100
AcDbEntity
  8
V0-VYPLNE
  6
DASHED
 62
    52
100
AcDbLine
 10
1274.815098
 20
-1715.971641
 30
0.0
 11
1324.62697
 21
-1715.971641
 31
0.0
  0
LINE
  5
4C25
330
5271
100
AcDbEntity
  8
V0-OBRYS
  6
CONTINUOUS
 62
    90
 48
2.0
100
AcDbLine
 10
1344.878441
 20
-1721.350119
 30
0.0
 11
1277.083015
 21
-1721.350119
 31
0.0
  0
LINE
  5
4C26
330
5271
100
AcDbEntity
  8
V0-OBRYS
  6
CONTINUOUS
 62
    90
 48
2.0
100
AcDbLine
 10
1233.886152
 20
-1761.89648
 30
0.0
 11
1233.886152
 21
-1745.10451
 31
0.0
  0
LINE
  5
4C27
330
5271
100
AcDbEntity
  8
V0-OBRYS
  6
CONTINUOUS
 62
    90
 48
2.0
100
AcDbLine
 10
1252.980991
 20
-1756.783119
 30
0.0
 11
1254.204101
 21
-1734.405525
 31
0.0
  0
ARC
  5
4C28
330
5271
100
AcDbEntity
  8
V0-OBRYS
  6
CONTINUOUS
 62
    90
 48
2.0
100
AcDbCircle
 10
1235.303672
 20
-1761.89648
 30
0.0
 40
1.41752
100
AcDbArc
 50
180.0
 51
0.0
  0
ARC
  5
4C29
330
5271
100
AcDbEntity
  8
V0-OBRYS
  6
CONTINUOUS
 62
    90
 48
2.0
100
AcDbCircle
 10
1277.083015
 20
-1747.924869
 30
0.0
 40
26.57475
100
AcDbArc
 50
90.0
 51
149.420799
  0
LINE
  5
4C2A
330
5271
100
AcDbEntity
  8
V0-OBRYS
  6
CONTINUOUS
 62
    90
 48
2.0
100
AcDbLine
 10
1236.721191
 20
-916.350569
 30
0.0
 11
1236.721191
 21
-1366.350569
 31
0.0
  0
LINE
  5
4C2B
330
5271
100
AcDbEntity
  8
V0-VYPLNE
  6
DASHED
 62
    52
100
AcDbLine
 10
1258.681671
 20
-1257.473822
 30
0.0
 11
1274.815098
 21
-1016.025564
 31
0.0
  0
LINE
  5
4C2C
330
5271
100
AcDbEntity
  8
V0-VYPLNE
  6
DASHED
 62
    52
100
AcDbLine
 10
1340.760398
 20
-1257.473822
 30
0.0
 11
1324.62697
 21
-1016.025564
 31
0.0
  0
LINE
  5
4C2D
330
5271
100
AcDbEntity
  8
V0-OBRYS
  6
CONTINUOUS
 62
    90
 48
2.0
100
AcDbLine
 10
1344.878441
 20
-1366.350569
 30
0.0
 11
1344.878441
 21
-1011.351019
 31
0.0
  0
ELLIPSE
  5
4C2E
330
5271
100
AcDbEntity
  8
V0-VYPLNE
  6
DASHED
 62
    52
100
AcDbEllipse
 10
293.731999
 20
-1275.900881
 30
0.0
 11
90.48858875242678
 21
1178.040671638779
 31
0.0
210
0.0
220
0.0
230
-1.0
 40
0.903582
 41
1.577872487405522
 42
1.658041422745664
  0
LINE
  5
4C2F
330
5271
100
AcDbEntity
  8
V0-VYPLNE
  6
DASHED
 62
    52
100
AcDbLine
 10
1297.721034
 20
-1471.348024
 30
0.0
 11
1297.721034
 21
-1365.998603
 31
0.0
  0
LINE
  5
4C30
330
5271
100
AcDbEntity
  8
V0-VYPLNE
  6
DASHED
 62
    52
100
AcDbLine
 10
1250.992166
 20
-1448.456489
 30
0.0
 11
1250.992166
 21
-1366.350569
 31
0.0
  0
LINE
  5
4C31
330
5271
100
AcDbEntity
  8
V0-VYPLNE
  6
DASHED
 62
    52
100
AcDbLine
 10
1258.721034
 20
-1365.998603
 30
0.0
 11
1258.721034
 21
-1466.318603
 31
0.0
  0
ELLIPSE
  5
4C32
330
5271
100
AcDbEntity
  8
V0-VYPLNE
  6
DASHED
 62
    52
100
AcDbEllipse
 10
1299.173564
 20
-1312.925049
 30
0.0
 11
-165.3937014262176
 21
11.0998323222168
 31
0.0
210
0.0
220
0.0
230
-1.0
 40
0.955501
 41
-1.852520712961537
 42
-1.388260977460174
  0
LINE
  5
4C33
330
5271
100
AcDbEntity
  8
V0-VYPLNE
  6
DASHED
 62
    52
100
AcDbLine
 10
1264.827739
 20
-1467.768943
 30
0.0
 11
1258.681671
 21
-1474.523383
 31
0.0
  0
LINE
  5
4C34
330
5271
100
AcDbEntity
  8
V0-VYPLNE
  6
DASHED
 62
    52
100
AcDbLine
 10
1236.721237
 20
-1415.992323
 30
0.0
 11
1268.234013
 21
-1415.992323
 31
0.0
  0
LINE
  5
4C35
330
5271
100
AcDbEntity
  8
V0-VYPLNE
  6
DASHED
 62
    52
100
AcDbLine
 10
1236.721237
 20
-1450.835332
 30
0.0
 11
1250.992166
 21
-1450.835332
 31
0.0
  0
LINE
  5
4C36
330
5271
100
AcDbEntity
  8
V0-VYPLNE
  6
DASHED
 62
    52
100
AcDbLine
 10
1236.721237
 20
-1456.351289
 30
0.0
 11
1253.097366
 21
-1456.351289
 31
0.0
  0
ARC
  5
4C37
330
5271
100
AcDbEntity
  8
V0-OBRYS
  6
CONTINUOUS
 62
    90
 48
2.0
100
AcDbCircle
 10
1220.393345
 20
-1456.54208
 30
0.0
 40
11.810701
100
AcDbArc
 50
348.220473
 51
359.162914
  0
ARC
  5
4C38
330
5271
100
AcDbEntity
  8
V0-OBRYS
  6
CONTINUOUS
 62
    90
 48
2.0
100
AcDbCircle
 10
1220.393345
 20
-1456.54208
 30
0.0
 40
9.0
100
AcDbArc
 50
348.220473
 51
0.215669
  0
ARC
  5
4C39
330
5271
100
AcDbEntity
  8
V0-VYPLNE
  6
DASHED
 62
    52
 48
2.0
100
AcDbCircle
 10
1249.674849
 20
-1453.035843
 30
0.0
 40
4.765061
100
AcDbArc
 50
315.910394
 51
73.951357
  0
LINE
  5
4C3A
330
5271
100
AcDbEntity
  8
V0-VYPLNE
  6
DASHED
 62
    52
100
AcDbLine
 10
1236.721237
 20
-1434.92874
 30
0.0
 11
1250.992166
 21
-1434.92874
 31
0.0
  0
ELLIPSE
  5
4C3B
330
5271
100
AcDbEntity
  8
V0-VYPLNE
  6
DASHED
 62
    52
100
AcDbEllipse
 10
1339.078708
 20
-1462.323592
 30
0.0
 11
-7.8346973290802
 21
2.993262335647614
 31
0.0
210
0.0
220
0.0
230
-1.0
 40
0.7902230000000001
 41
2.346836735397626
 42
3.616065469384971
  0
ELLIPSE
  5
4C3C
330
5271
100
AcDbEntity
  8
V0-VYPLNE
  6
DASHED
 62
    52
100
AcDbEllipse
 10
293.731999
 20
-1456.096324
 30
0.0
 11
-90.48858875219298
 21
1178.04067163847
 31
0.0
210
0.0
220
0.0
230
-1.0
 40
0.903582
 41
1.483551230843942
 42
1.563720166184106
  0
LINE
  5
4C3D
330
5271
100
AcDbEntity
  8
V0-VYPLNE
  6
DASHED
 62
    52
100
AcDbLine
 10
1297.721034
 20
-1260.649181
 30
0.0
 11
1297.721034
 21
-1365.998603
 31
0.0
  0
LINE
  5
4C3E
330
5271
100
AcDbEntity
  8
V0-VYPLNE
  6
DASHED
 62
    52
100
AcDbLine
 10
1250.992166
 20
-1284.244649
 30
0.0
 11
1250.992166
 21
-1366.350569
 31
0.0
  0
LINE
  5
4C3F
330
5271
100
AcDbEntity
  8
V0-VYPLNE
  6
DASHED
 62
    52
100
AcDbLine
 10
1258.721034
 20
-1365.998603
 30
0.0
 11
1258.721034
 21
-1265.678603
 31
0.0
  0
LINE
  5
4C40
330
5271
100
AcDbEntity
  8
V0-VYPLNE
  6
DASHED
 62
    52
100
AcDbLine
 10
1259.356234
 20
-1378.044689
 30
0.0
 11
1345.465076
 21
-1353.539254
 31
0.0
  0
ELLIPSE
  5
4C41
330
5271
100
AcDbEntity
  8
V0-VYPLNE
  6
DASHED
 62
    52
100
AcDbEllipse
 10
1297.721034
 20
-1366.350676
 30
0.0
 11
6.821210263296962E-13
 21
7.458195139447525
 31
0.0
210
0.0
220
0.0
230
-1.0
 40
0.909091
 41
0.0
 42
6.283185307179586
  0
LINE
  5
4C45
330
5271
100
AcDbEntity
  8
V0-VYPLNE
  6
DASHED
 62
    52
100
AcDbLine
 10
1236.721237
 20
-1379.634404
 30
0.0
 11
1268.234013
 21
-1379.634404
 31
0.0
  0
LINE
  5
4C46
330
5271
100
AcDbEntity
  8
V0-VYPLNE
  6
DASHED
 62
    52
100
AcDbLine
 10
1236.721237
 20
-1397.813365
 30
0.0
 11
1250.992166
 21
-1397.813365
 31
0.0
  0
LINE
  5
4C47
330
5271
100
AcDbEntity
  8
V0-VYPLNE
  6
DASHED
 62
    52
100
AcDbLine
 10
1236.721237
 20
-1316.708816
 30
0.0
 11
1268.234013
 21
-1316.708816
 31
0.0
  0
LINE
  5
4C48
330
5271
100
AcDbEntity
  8
V0-VYPLNE
  6
DASHED
 62
    52
100
AcDbLine
 10
1236.721237
 20
-1353.066735
 30
0.0
 11
1268.234013
 21
-1353.066735
 31
0.0
  0
LINE
  5
4C49
330
5271
100
AcDbEntity
  8
V0-VYPLNE
  6
DASHED
 62
    52
100
AcDbLine
 10
1236.721237
 20
-1334.887774
 30
0.0
 11
1250.992166
 21
-1334.887774
 31
0.0
  0
ELLIPSE
  5
4C4A
330
5271
100
AcDbEntity
  8
V0-VYPLNE
  6
DASHED
 62
    52
100
AcDbEllipse
 10
1299.173564
 20
-1419.072156
 30
0.0
 11
165.3937014262181
 21
11.09983232222453
 31
0.0
210
0.0
220
0.0
230
-1.0
 40
0.9555010000000005
 41
-1.753331676129587
 42
-1.289071940628225
  0
LINE
  5
4C4B
330
5271
100
AcDbEntity
  8
V0-VYPLNE
  6
DASHED
 62
    52
100
AcDbLine
 10
1236.721237
 20
-1297.772399
 30
0.0
 11
1250.992166
 21
-1297.772399
 31
0.0
  0
LINE
  5
4C4C
330
5271
100
AcDbEntity
  8
V0-VYPLNE
  6
DASHED
 62
    52
100
AcDbLine
 10
1236.721237
 20
-1281.865806
 30
0.0
 11
1250.992166
 21
-1281.865806
 31
0.0
  0
LINE
  5
4C4D
330
5271
100
AcDbEntity
  8
V0-VYPLNE
  6
DASHED
 62
    52
100
AcDbLine
 10
1236.721237
 20
-1276.349849
 30
0.0
 11
1253.097366
 21
-1276.349849
 31
0.0
  0
ARC
  5
4C4E
330
5271
100
AcDbEntity
  8
V0-OBRYS
  6
CONTINUOUS
 62
    90
 48
2.0
100
AcDbCircle
 10
1220.053465
 20
-1275.953112
 30
0.0
 40
9.0
100
AcDbArc
 50
0.0
 51
11.903847
  0
ARC
  5
4C4F
330
5271
100
AcDbEntity
  8
V0-OBRYS
  6
CONTINUOUS
 62
    90
 48
2.0
100
AcDbCircle
 10
1220.053465
 20
-1275.953112
 30
0.0
 40
11.810701
100
AcDbArc
 50
1.052754
 51
11.903847
  0
ARC
  5
4C50
330
5271
100
AcDbEntity
  8
V0-VYPLNE
  6
DASHED
 62
    52
 48
2.0
100
AcDbCircle
 10
1249.674849
 20
-1279.665296
 30
0.0
 40
4.765061
100
AcDbArc
 50
286.048643
 51
44.089606
  0
LINE
  5
4C51
330
5271
100
AcDbEntity
  8
V0-VYPLNE
  6
DASHED
 62
    52
100
AcDbLine
 10
1264.827739
 20
-1264.228262
 30
0.0
 11
1258.681671
 21
-1257.473822
 31
0.0
  0
LINE
  5
4C52
330
5271
100
AcDbEntity
  8
V0-VYPLNE
  6
DASHED
 62
    52
100
AcDbLine
 10
1274.815098
 20
-1016.025564
 30
0.0
 11
1324.62697
 21
-1016.025564
 31
0.0
  0
LINE
  5
4C53
330
5271
100
AcDbEntity
  8
V0-OBRYS
  6
CONTINUOUS
 62
    90
 48
2.0
100
AcDbLine
 10
1344.878441
 20
-1011.351019
 30
0.0
 11
1277.083015
 21
-1011.351019
 31
0.0
  0
LINE
  5
4C54
330
5271
100
AcDbEntity
  8
V0-OBRYS
  6
CONTINUOUS
 62
    90
 48
2.0
100
AcDbLine
 10
1233.886152
 20
-970.804659
 30
0.0
 11
1233.886152
 21
-987.596629
 31
0.0
  0
LINE
  5
4C55
330
5271
100
AcDbEntity
  8
V0-OBRYS
  6
CONTINUOUS
 62
    90
 48
2.0
100
AcDbLine
 10
1252.980991
 20
-975.918019
 30
0.0
 11
1254.204101
 21
-998.295613
 31
0.0
  0
ARC
  5
4C56
330
5271
100
AcDbEntity
  8
V0-OBRYS
  6
CONTINUOUS
 62
    90
 48
2.0
100
AcDbCircle
 10
1277.083015
 20
-984.776269
 30
0.0
 40
26.57475
100
AcDbArc
 50
210.579201
 51
270.0
  0
ARC
  5
4C57
330
5271
100
AcDbEntity
  8
V0-OBRYS
  6
CONTINUOUS
 62
    90
 48
2.0
100
AcDbCircle
 10
1235.303672
 20
-970.804659
 30
0.0
 40
1.41752
100
AcDbArc
 50
0.0
 51
180.0
  0
LINE
  5
4C58
330
5271
100
AcDbEntity
  8
V0-OBRYS
  6
CONTINUOUS
 62
    90
 48
2.0
100
AcDbLine
 10
1253.321191
 20
-916.350569
 30
0.0
 11
1236.721191
 21
-916.350569
 31
0.0
  0
POINT
  5
4CCD
330
5271
100
AcDbEntity
  8
V0-VYPLNE
  6
CONTINUOUS
 62
    41
100
AcDbPoint
 10
1344.878441
 20
-11.000907
 30
0.0
  0
POINT
  5
4CCE
330
5271
100
AcDbEntity
  8
V0-VYPLNE
  6
CONTINUOUS
 62
    41
100
AcDbPoint
 10
1344.878441
 20
-1366.350569
 30
0.0
  0
DIMENSION
  5
509B
330
5271
100
AcDbEntity
  8
V0-VYPLNE
  6
CONTINUOUS
 62
    41
100
AcDbDimension
  2
*D13
 10
1537.09871400008
 20
-406.959115
 30
0.0
 11
1510.09871400008
 21
-7.46145150000001
 31
0.0
 70
    32
  1
%%c810
  3
ED50
100
AcDbAlignedDimension
 13
1256.006127
 23
392.036212
 33
0.0
 14
1251.43792
 24
-406.959115
 34
0.0
 50
90.0
100
AcDbRotatedDimension
1001
ACAD
1000
DSTYLE
1002
{
1070
    41
1040
50.0
1070
   140
1040
50.0
1002
}
  0
DIMENSION
  5
50B3
330
5271
100
AcDbEntity
  8
V0-VYPLNE
  6
CONTINUOUS
 62
    41
100
AcDbDimension
  2
*D14
 10
1139.510032
 20
-701.2747560000304
 30
0.0
 11
1238.385032
 21
-701.274756
 31
0.0
 70
   160
  3
ED50
100
AcDbAlignedDimension
 13
1345.878441
 23
-366.000457
 33
0.0
 14
1139.510032
 24
-51.000918
 34
0.0
100
AcDbRotatedDimension
1001
ACAD
1000
DSTYLE
1002
{
1070
    41
1040
50.0
1070
   140
1040
50.0
1002
}
  0
LINE
  5
50B4
330
5271
100
AcDbEntity
  8
V0-OBRYS
  6
CONTINUOUS
 62
    90
100
AcDbLine
 10
1139.510032
 20
-51.000918
 30
0.0
 11
1169.510032
 21
-51.000918
 31
0.0
  0
LINE
  5
50B5
330
5271
100
AcDbEntity
  8
V0-OBRYS
  6
CONTINUOUS
 62
    90
100
AcDbLine
 10
1139.510032
 20
28.999082
 30
0.0
 11
1169.510032
 21
28.999082
 31
0.0
  0
LINE
  5
50B6
330
5271
100
AcDbEntity
  8
V0-OBRYS
  6
CONTINUOUS
 62
    90
100
AcDbLine
 10
1139.510032
 20
-11.000918
 30
0.0
 11
1139.510032
 21
-51.000918
 31
0.0
  0
LINE
  5
50B7
330
5271
100
AcDbEntity
  8
V0-OBRYS
  6
CONTINUOUS
 62
    90
100
AcDbLine
 10
1154.510032
 20
-11.000918
 30
0.0
 11
1154.510032
 21
-51.000918
 31
0.0
  0
LINE
  5
50B8
330
5271
100
AcDbEntity
  8
V0-OBRYS
  6
CONTINUOUS
 62
    90
100
AcDbLine
 10
1139.510032
 20
-11.000918
 30
0.0
 11
1139.510032
 21
28.999082
 31
0.0
  0
LINE
  5
50B9
330
5271
100
AcDbEntity
  8
V0-OBRYS
  6
CONTINUOUS
 62
    90
100
AcDbLine
 10
1154.510032
 20
-11.000918
 30
0.0
 11
1154.510032
 21
28.999082
 31
0.0
  0
LINE
  5
50BA
330
5271
100
AcDbEntity
  8
V0-OBRYS
  6
CONTINUOUS
 62
    90
100
AcDbLine
 10
1169.510032
 20
-51.000918
 30
0.0
 11
1169.510032
 21
-11.000918
 31
0.0
  0
LINE
  5
50BB
330
5271
100
AcDbEntity
  8
V0-OBRYS
  6
CONTINUOUS
 62
    90
100
AcDbLine
 10
1169.510032
 20
28.999082
 30
0.0
 11
1169.510032
 21
-11.000918
 31
0.0
  0
LINE
  5
50BC
330
5271
100
AcDbEntity
  8
V0-OBRYS
  6
CONTINUOUS
 62
    90
100
AcDbLine
 10
1139.510032
 20
-1406.350581
 30
0.0
 11
1169.510032
 21
-1406.350581
 31
0.0
  0
LINE
  5
50BD
330
5271
100
AcDbEntity
  8
V0-OBRYS
  6
CONTINUOUS
 62
    90
100
AcDbLine
 10
1139.510032
 20
-1326.350581
 30
0.0
 11
1169.510032
 21
-1326.350581
 31
0.0
  0
LINE
  5
50BE
330
5271
100
AcDbEntity
  8
V0-OBRYS
  6
CONTINUOUS
 62
    90
100
AcDbLine
 10
1139.510032
 20
-1366.350581
 30
0.0
 11
1139.510032
 21
-1406.350581
 31
0.0
  0
LINE
  5
50BF
330
5271
100
AcDbEntity
  8
V0-OBRYS
  6
CONTINUOUS
 62
    90
100
AcDbLine
 10
1154.510032
 20
-1366.350581
 30
0.0
 11
1154.510032
 21
-1406.350581
 31
0.0
  0
LINE
  5
50C0
330
5271
100
AcDbEntity
  8
V0-OBRYS
  6
CONTINUOUS
 62
    90
100
AcDbLine
 10
1139.510032
 20
-1366.350581
 30
0.0
 11
1139.510032
 21
-1326.350581
 31
0.0
  0
LINE
  5
50C1
330
5271
100
AcDbEntity
  8
V0-OBRYS
  6
CONTINUOUS
 62
    90
100
AcDbLine
 10
1154.510032
 20
-1366.350581
 30
0.0
 11
1154.510032
 21
-1326.350581
 31
0.0
  0
LINE
  5
50C2
330
5271
100
AcDbEntity
  8
V0-OBRYS
  6
CONTINUOUS
 62
    90
100
AcDbLine
 10
1169.510032
 20
-1406.350581
 30
0.0
 11
1169.510032
 21
-1366.350581
 31
0.0
  0
LINE
  5
50C3
330
5271
100
AcDbEntity
  8
V0-OBRYS
  6
CONTINUOUS
 62
    90
100
AcDbLine
 10
1169.510032
 20
-1326.350581
 30
0.0
 11
1169.510032
 21
-1366.350581
 31
0.0
  0
DIMENSION
  5
5144
330
5271
100
AcDbEntity
  8
V0-VYPLNE
  6
CONTINUOUS
 62
    41
100
AcDbDimension
  2
*D15
 10
1236.721191
 20
-540.7908319999697
 30
0.0
 11
1085.816691
 21
-540.790832
 31
0.0
 70
   160
  3
ED50
100
AcDbAlignedDimension
 13
1253.321191
 23
-461.000907
 33
0.0
 14
1236.721191
 24
-461.000907
 34
0.0
100
AcDbRotatedDimension
1001
ACAD
1000
DSTYLE
1002
{
1070
    41
1040
50.0
1070
   140
1040
50.0
1002
}
  0
LWPOLYLINE
  5
5164
330
5271
100
AcDbEntity
  8
V0-OBRYS
  6
CONTINUOUS
 62
    41
100
AcDbPolyline
 90
        4
 70
     1
 43
0.0
 10
2605.427594646794
 20
-440.4749004991411
 10
2632.3667
 20
-410.164357
 10
2616.714209043986
 20
-447.573499884011
 10
2616.714209043986
 20
-447.573499884011
1001
VDEXTRAPARAM
1071
       65
1071
        0
1071
        0
1040
1.0
1000

1000

1040
0.0
1040
0.0
  0
HATCH
  5
5309
330
5271
100
AcDbEntity
  8
V0-OBRYS
  6
CONTINUOUS
 62
    41
100
AcDbHatch
 10
0.0
 20
0.0
 30
0.0
210
0.0
220
0.0
230
1.0
  2
SOLID
 70
     1
 71
     0
 91
        1
 92
        2
 72
     0
 73
     1
 93
        3
 10
2605.427594646794
 20
-440.4749004991411
 10
2632.3667
 20
-410.164357
 10
2616.714209043986
 20
-447.573499884011
 97
        0
 75
     0
 76
     1
 98
        1
 10
0.0
 20
0.0
1001
VDEXTRAPARAM
1071
       65
1071
        0
1071
        0
1040
1.0
1000

1000

1040
0.0
1040
0.0
1001
VD_TEMPHATCH
1000
VD_TEMPHATCH
  0
LWPOLYLINE
  5
5165
330
5271
100
AcDbEntity
  8
V0-OBRYS
  6
CONTINUOUS
 62
    41
100
AcDbPolyline
 90
        3
 70
     0
 43
0.0
 10
2611.07090184539
 20
-444.0242001915761
 10
2538.309719
 20
-559.712855
 10
2118.274286
 20
-559.712855
  0
TEXT
  5
516A
330
5271
100
AcDbEntity
  8
V0-OBRYS
  6
CONTINUOUS
 62
    41
100
AcDbText
 10
1992.738290428571
 20
-557.712855
 30
0.0
 40
45.0
  1
4 OTVORY %%c10
  7
ED50
100
AcDbText
  0
VIEWPORT
  5
530A
330
526D
100
AcDbEntity
 67
     1
  8
0
 60
     1
100
AcDbViewport
 10
261.517699
 20
148.5
 30
0.0
 40
297.0
 41
297.0
 68
     0
 69
     1
1001
VD_INVISIBLE_NOT_FOR_READ
1000
VD_INVISIBLE_NOT_FOR_READ
1001
ACAD
1000
MVIEW
1002
{
1070
    16
1010
0.0
1020
0.0
1030
0.0
1010
0.0
1020
0.0
1030
1.0
1040
6.2831853071796
1040
297.0
1040
261.517699
1040
148.5
1040
0.0
1040
0.0
1040
0.0
1070
     0
1070
   100
1070
     0
1070
     1
1070
     0
1070
     0
1070
     0
1070
     0
1040
0.0
1040
0.0
1040
0.0
1040
1.0
1040
1.0
1040
0.0
1040
0.0
1070
     0
1002
{
1002
}
1002
}
  0
VIEWPORT
  5
530B
330
526D
100
AcDbEntity
 67
     1
  8
0
 60
     1
100
AcDbViewport
 10
261.517699
 20
148.5
 30
0.0
 40
297.0
 41
297.0
 68
     0
 69
     2
1001
VD_INVISIBLE_NOT_FOR_READ
1000
VD_INVISIBLE_NOT_FOR_READ
1001
ACAD
1000
MVIEW
1002
{
1070
    16
1010
0.0
1020
0.0
1030
0.0
1010
0.0
1020
0.0
1030
1.0
1040
6.2831853071796
1040
297.0
1040
261.517699
1040
148.5
1040
0.0
1040
0.0
1040
0.0
1070
     0
1070
   100
1070
     0
1070
     1
1070
     0
1070
     0
1070
     0
1070
     0
1040
0.0
1040
0.0
1040
0.0
1040
1.0
1040
1.0
1040
0.0
1040
0.0
1070
     0
1002
{
1002
}
1002
}
  0
ENDSEC
  0
SECTION
  2
OBJECTS
  0
DICTIONARY
  5
525E
330
0
100
AcDbDictionary
  3
ACAD_GROUP
350
525F
  3
ACAD_LAYOUT
350
526C
  3
ACAD_MLINESTYLE
350
5269
  3
ACAD_PLOTSETTINGS
350
526B
  3
ACDBHEADERROUNDTRIPXREC
350
530C
  3
VECTORDRAW_OBJECTS
350
5281
  0
DICTIONARY
  5
532C
330
527B
100
AcDbDictionary
280
     1
  3
ACAD_XREC_ROUNDTRIP
360
532D
  0
DICTIONARY
  5
525F
102
{ACAD_REACTORS
330
525E
102
}
330
525E
100
AcDbDictionary
  0
DICTIONARY
  5
526C
102
{ACAD_REACTORS
330
525E
102
}
330
525E
100
AcDbDictionary
  0
DICTIONARY
  5
5269
102
{ACAD_REACTORS
330
525E
102
}
330
525E
100
AcDbDictionary
  3
STANDARD
350
526A
  0
DICTIONARY
  5
526B
102
{ACAD_REACTORS
330
525E
102
}
330
525E
100
AcDbDictionary
  0
DICTIONARY
  5
530C
102
{ACAD_REACTORS
330
525E
102
}
330
525E
100
AcDbDictionary
  3
CEPSNTYPE
350
5315
  3
DIMSTYLEDATA
350
532B
  3
FINGERPRINTGUID
350
5316
  3
HYPERLINKBASE
350
530F
  3
INSUNITS
350
5314
  3
LAYOUTDICT
350
5311
  3
LWETCUNION
350
5313
  3
PLOTSETDICT
350
5312
  3
PSVPSCALE
350
5318
  3
PUCSBASE
350
531B
  3
PUCSORGBACK
350
5321
  3
PUCSORGBOTTOM
350
531D
  3
PUCSORGFRONT
350
5320
  3
PUCSORGLEFT
350
531E
  3
PUCSORGRIGHT
350
531F
  3
PUCSORGTOP
350
531C
  3
PUCSORTHOREF
350
5319
  3
PUCSORTHOVIEW
350
531A
  3
STYLESHEET
350
5310
  3
TSTACKALIGN
350
530D
  3
TSTACKSIZE
350
530E
  3
UCSBASE
350
5324
  3
UCSORGBACK
350
532A
  3
UCSORGBOTTOM
350
5326
  3
UCSORGFRONT
350
5329
  3
UCSORGLEFT
350
5327
  3
UCSORGRIGHT
350
5328
  3
UCSORGTOP
350
5325
  3
UCSORTHOREF
350
5322
  3
UCSORTHOVIEW
350
5323
  3
VERSIONGUID
350
5317
  0
DICTIONARY
  5
5281
102
{ACAD_REACTORS
330
525E
102
}
330
525E
100
AcDbDictionary
  3
SERIALNO
350
5282
  0
XRECORD
  5
532D
102
{ACAD_REACTORS
330
532C
102
}
330
532C
100
AcDbXrecord
102
UCS
 74
     0
 71
     1
 10
0.0
 20
0.0
 30
0.0
 10
1.0
 20
0.0
 30
0.0
 10
0.0
 20
1.0
 30
0.0
146
0.0
 79
     0
102
VIEW
281
     0
  0
MLINESTYLE
  5
526A
102
{ACAD_REACTORS
330
5269
102
}
330
5269
100
AcDbMlineStyle
  2
Standard
 70
     0
  3

 62
   256
 51
90.0
 52
90.0
 71
     2
 49
0.5
 62
   256
  6
BYLAYER
 49
-0.5
 62
   256
  6
BYLAYER
  0
XRECORD
  5
5315
102
{ACAD_REACTORS
330
530C
102
}
330
530C
100
AcDbXrecord
 90
        0
  0
XRECORD
  5
532B
102
{ACAD_REACTORS
330
530C
102
}
330
530C
100
AcDbXrecord
1000
DSTYLE
1002
{
1070
    41
 40
40.0
1070
   342
340
90
1070
   177
 70
    41
1070
   178
 70
    41
1070
   271
 70
     0
1070
    44
 40
1.25
1070
    42
 40
1.0
1070
   147
 40
2.0
1070
    77
 70
     1
1070
    73
 70
     0
1070
   174
 70
     1
1070
   172
 70
     1
1070
    74
 70
     0
1070
   340
340
F39
1070
   140
 40
40.0
1070
   288
 70
     1
1002
}
  0
XRECORD
  5
5316
102
{ACAD_REACTORS
330
530C
102
}
330
530C
100
AcDbXrecord
  1
{FAEB1C30-E019-11D5-929B-00C0DF256EC4}
  0
XRECORD
  5
530F
102
{ACAD_REACTORS
330
530C
102
}
330
530C
100
AcDbXrecord
  1

  0
XRECORD
  5
5314
102
{ACAD_REACTORS
330
530C
102
}
330
530C
100
AcDbXrecord
 90
        1
  0
XRECORD
  5
5311
102
{ACAD_REACTORS
330
530C
102
}
330
530C
100
AcDbXrecord
340
526C
  0
XRECORD
  5
5313
102
{ACAD_REACTORS
330
530C
102
}
330
530C
100
AcDbXrecord
 90
     2560
  0
XRECORD
  5
5312
102
{ACAD_REACTORS
330
530C
102
}
330
530C
100
AcDbXrecord
340
526B
  0
XRECORD
  5
5318
102
{ACAD_REACTORS
330
530C
102
}
330
530C
100
AcDbXrecord
 40
0.0
  0
XRECORD
  5
531B
102
{ACAD_REACTORS
330
530C
102
}
330
530C
100
AcDbXrecord
340
0
  0
XRECORD
  5
5321
102
{ACAD_REACTORS
330
530C
102
}
330
530C
100
AcDbXrecord
 10
0.0
 20
0.0
 30
0.0
  0
XRECORD
  5
531D
102
{ACAD_REACTORS
330
530C
102
}
330
530C
100
AcDbXrecord
 10
0.0
 20
0.0
 30
0.0
  0
XRECORD
  5
5320
102
{ACAD_REACTORS
330
530C
102
}
330
530C
100
AcDbXrecord
 10
0.0
 20
0.0
 30
0.0
  0
XRECORD
  5
531E
102
{ACAD_REACTORS
330
530C
102
}
330
530C
100
AcDbXrecord
 10
0.0
 20
0.0
 30
0.0
  0
XRECORD
  5
531F
102
{ACAD_REACTORS
330
530C
102
}
330
530C
100
AcDbXrecord
 10
0.0
 20
0.0
 30
0.0
  0
XRECORD
  5
531C
102
{ACAD_REACTORS
330
530C
102
}
330
530C
100
AcDbXrecord
 10
0.0
 20
0.0
 30
0.0
  0
XRECORD
  5
5319
102
{ACAD_REACTORS
330
530C
102
}
330
530C
100
AcDbXrecord
340
0
  0
XRECORD
  5
531A
102
{ACAD_REACTORS
330
530C
102
}
330
530C
100
AcDbXrecord
 70
     0
  0
XRECORD
  5
5310
102
{ACAD_REACTORS
330
530C
102
}
330
530C
100
AcDbXrecord
  1

  0
XRECORD
  5
530D
102
{ACAD_REACTORS
330
530C
102
}
330
530C
100
AcDbXrecord
 90
        1
  0
XRECORD
  5
530E
102
{ACAD_REACTORS
330
530C
102
}
330
530C
100
AcDbXrecord
 90
       70
  0
XRECORD
  5
5324
102
{ACAD_REACTORS
330
530C
102
}
330
530C
100
AcDbXrecord
340
0
  0
XRECORD
  5
532A
102
{ACAD_REACTORS
330
530C
102
}
330
530C
100
AcDbXrecord
 10
0.0
 20
0.0
 30
0.0
  0
XRECORD
  5
5326
102
{ACAD_REACTORS
330
530C
102
}
330
530C
100
AcDbXrecord
 10
0.0
 20
0.0
 30
0.0
  0
XRECORD
  5
5329
102
{ACAD_REACTORS
330
530C
102
}
330
530C
100
AcDbXrecord
 10
0.0
 20
0.0
 30
0.0
  0
XRECORD
  5
5327
102
{ACAD_REACTORS
330
530C
102
}
330
530C
100
AcDbXrecord
 10
0.0
 20
0.0
 30
0.0
  0
XRECORD
  5
5328
102
{ACAD_REACTORS
330
530C
102
}
330
530C
100
AcDbXrecord
 10
0.0
 20
0.0
 30
0.0
  0
XRECORD
  5
5325
102
{ACAD_REACTORS
330
530C
102
}
330
530C
100
AcDbXrecord
 10
0.0
 20
0.0
 30
0.0
  0
XRECORD
  5
5322
102
{ACAD_REACTORS
330
530C
102
}
330
530C
100
AcDbXrecord
340
0
  0
XRECORD
  5
5323
102
{ACAD_REACTORS
330
530C
102
}
330
530C
100
AcDbXrecord
 70
     0
  0
XRECORD
  5
5317
102
{ACAD_REACTORS
330
530C
102
}
330
530C
100
AcDbXrecord
  1
{FAEB1C32-E019-11D5-929B-00C0DF256EC4}
  0
XRECORD
  5
5282
102
{ACAD_REACTORS
330
5281
102
}
330
5281
100
AcDbXrecord
1000
rInJVR9YY4Q8hfPWdUq5j5319
1070
     4
1070
     6
  0
ENDSEC
  0
EOF
