  0
SECTION
  2
HEADER
  9
$ACADVER
  1
AC1014
  9
$ACADMAINTVER
 70
     9
  9
$DWGCODEPAGE
  3
ANSI_1250
  9
$INSBASE
 10
0.0
 20
0.0
 30
0.0
  9
$EXTMIN
 10
1160.510031999998
 20
-1351.630106
 30
0.0
  9
$EXTMAX
 10
2461.12967032967
 20
343.999093
 30
0.0
  9
$LIMMIN
 10
0.0
 20
0.0
  9
$LIMMAX
 10
0.0
 20
0.0
  9
$ORTHOMODE
 70
     1
  9
$REGENMODE
 70
     1
  9
$FILLMODE
 70
     1
  9
$QTEXTMODE
 70
     0
  9
$MIRRTEXT
 70
     1
  9
$DRAGMODE
 70
     2
  9
$LTSCALE
 40
1.0
  9
$OSMODE
 70
    37
  9
$ATTMODE
 70
     1
  9
$TEXTSIZE
 40
0.2
  9
$TRACEWID
 40
0.05
  9
$TEXTSTYLE
  7
ED40
  9
$CLAYER
  8
V0-VYPLNE
  9
$CELTYPE
  6
CONTINUOUS
  9
$CECOLOR
 62
    41
  9
$CELTSCALE
 40
1.0
  9
$DELOBJ
 70
     1
  9
$DISPSILH
 70
     0
  9
$DIMSCALE
 40
1.0
  9
$DIMASZ
 40
40.0
  9
$DIMEXO
 40
1.0
  9
$DIMDLI
 40
0.38
  9
$DIMRND
 40
0.0
  9
$DIMDLE
 40
0.0
  9
$DIMEXE
 40
1.25
  9
$DIMTP
 40
0.0
  9
$DIMTM
 40
0.0
  9
$DIMTXT
 40
40.0
  9
$DIMCEN
 40
0.09
  9
$DIMTSZ
 40
0.0
  9
$DIMTOL
 70
     0
  9
$DIMLIM
 70
     0
  9
$DIMTIH
 70
     0
  9
$DIMTOH
 70
     0
  9
$DIMSE1
 70
     0
  9
$DIMSE2
 70
     0
  9
$DIMTAD
 70
     1
  9
$DIMZIN
 70
     0
  9
$DIMBLK
  1
OPEN
  9
$DIMASO
 70
     1
  9
$DIMSHO
 70
     1
  9
$DIMPOST
  1

  9
$DIMAPOST
  1

  9
$DIMALT
 70
     0
  9
$DIMALTD
 70
     2
  9
$DIMALTF
 40
25.4
  9
$DIMLFAC
 40
1.0
  9
$DIMTOFL
 70
     1
  9
$DIMTVP
 40
0.0
  9
$DIMTIX
 70
     1
  9
$DIMSOXD
 70
     0
  9
$DIMSAH
 70
     0
  9
$DIMBLK1
  1

  9
$DIMBLK2
  1

  9
$DIMSTYLE
  2
ED40
  9
$DIMCLRD
 70
     0
  9
$DIMCLRE
 70
    41
  9
$DIMCLRT
 70
    41
  9
$DIMTFAC
 40
1.0
  9
$DIMGAP
 40
2.0
  9
$DIMJUST
 70
     0
  9
$DIMSD1
 70
     0
  9
$DIMSD2
 70
     0
  9
$DIMTOLJ
 70
     1
  9
$DIMTZIN
 70
     0
  9
$DIMALTZ
 70
     0
  9
$DIMALTTZ
 70
     0
  9
$DIMFIT
 70
     3
  9
$DIMUPT
 70
     1
  9
$DIMUNIT
 70
     2
  9
$DIMDEC
 70
     0
  9
$DIMTDEC
 70
     4
  9
$DIMALTU
 70
     2
  9
$DIMALTTD
 70
     2
  9
$DIMTXSTY
  7
ED40
  9
$DIMAUNIT
 70
     0
  9
$LUNITS
 70
     2
  9
$LUPREC
 70
     4
  9
$SKETCHINC
 40
0.1
  9
$FILLETRAD
 40
0.5
  9
$AUNITS
 70
     0
  9
$AUPREC
 70
     0
  9
$MENU
  1
.
  9
$ELEVATION
 40
0.0
  9
$PELEVATION
 40
0.0
  9
$THICKNESS
 40
0.0
  9
$LIMCHECK
 70
     0
  9
$BLIPMODE
 70
     0
  9
$CHAMFERA
 40
0.5
  9
$CHAMFERB
 40
0.5
  9
$CHAMFERC
 40
1.0
  9
$CHAMFERD
 40
0.0
  9
$SKPOLY
 70
     0
  9
$TDCREATE
 40
2455643.631565359
  9
$TDUPDATE
 40
2455643.631565371
  9
$TDINDWG
 40
0.0000000116
  9
$TDUSRTIMER
 40
0.0000000116
  9
$USRTIMER
 70
     1
  9
$ANGBASE
 50
0.0
  9
$ANGDIR
 70
     0
  9
$PDMODE
 70
    35
  9
$PDSIZE
 40
20.0
  9
$PLINEWID
 40
0.0
  9
$COORDS
 70
     1
  9
$SPLFRAME
 70
     0
  9
$SPLINETYPE
 70
     6
  9
$SPLINESEGS
 70
     8
  9
$ATTDIA
 70
     0
  9
$ATTREQ
 70
     1
  9
$HANDLING
 70
     1
  9
$HANDSEED
  5
4DF2
  9
$SURFTAB1
 70
     6
  9
$SURFTAB2
 70
     6
  9
$SURFTYPE
 70
     6
  9
$SURFU
 70
     6
  9
$SURFV
 70
     6
  9
$UCSNAME
  2

  9
$UCSORG
 10
0.0
 20
0.0
 30
0.0
  9
$UCSXDIR
 10
1.0
 20
0.0
 30
0.0
  9
$UCSYDIR
 10
0.0
 20
1.0
 30
0.0
  9
$PUCSNAME
  2

  9
$PUCSORG
 10
0.0
 20
0.0
 30
0.0
  9
$PUCSXDIR
 10
1.0
 20
0.0
 30
0.0
  9
$PUCSYDIR
 10
0.0
 20
1.0
 30
0.0
  9
$USERI1
 70
     0
  9
$USERI2
 70
     0
  9
$USERI3
 70
     0
  9
$USERI4
 70
     0
  9
$USERI5
 70
     0
  9
$USERR1
 40
0.0
  9
$USERR2
 40
0.0
  9
$USERR3
 40
0.0
  9
$USERR4
 40
0.0
  9
$USERR5
 40
0.0
  9
$WORLDVIEW
 70
     1
  9
$SHADEDGE
 70
     3
  9
$SHADEDIF
 70
    70
  9
$TILEMODE
 70
     1
  9
$MAXACTVP
 70
    64
  9
$PINSBASE
 10
0.0
 20
0.0
 30
0.0
  9
$PLIMCHECK
 70
     0
  9
$PEXTMIN
 10
1.000000000000000E+20
 20
1.000000000000000E+20
 30
1.000000000000000E+20
  9
$PEXTMAX
 10
-1.000000000000000E+20
 20
-1.000000000000000E+20
 30
-1.000000000000000E+20
  9
$PLIMMIN
 10
0.0
 20
0.0
  9
$PLIMMAX
 10
0.0
 20
0.0
  9
$UNITMODE
 70
     0
  9
$VISRETAIN
 70
     1
  9
$PLINEGEN
 70
     0
  9
$PSLTSCALE
 70
     1
  9
$TREEDEPTH
 70
  3020
  9
$PICKSTYLE
 70
     1
  9
$CMLSTYLE
  2
STANDARD
  9
$CMLJUST
 70
     0
  9
$CMLSCALE
 40
1.0
  9
$PROXYGRAPHICS
 70
     1
  9
$MEASUREMENT
 70
     0
  0
ENDSEC
  0
SECTION
  2
CLASSES
  0
CLASS
  1
ACDBDICTIONARYWDFLT
  2
AcDbDictionaryWithDefault
  3
ObjectDBX Classes
 90
        0
280
     0
281
     0
  0
CLASS
  1
XRECORD
  2
AcDbXrecord
  3
AutoCAD 2000
 90
        0
280
     0
281
     0
  0
CLASS
  1
LWPOLYLINE
  2
AcDbPolyline
  3
AutoCAD 2000
 90
        0
280
     0
281
     1
  0
CLASS
  1
HATCH
  2
AcDbHatch
  3
AutoCAD 2000
 90
        0
280
     0
281
     1
  0
CLASS
  1
ACDBPLACEHOLDER
  2
AcDbPlaceHolder
  3
ObjectDBX Classes
 90
        0
280
     0
281
     0
  0
CLASS
  1
LAYOUT
  2
AcDbLayout
  3
ObjectDBX Classes
 90
        0
280
     0
281
     0
  0
ENDSEC
  0
SECTION
  2
TABLES
  0
TABLE
  2
VPORT
  5
4D36
330
0
100
AcDbSymbolTable
 70
     2
  0
VPORT
  5
4D57
102
{ACAD_XDICTIONARY
360
4DF0
102
}
330
4D36
100
AcDbSymbolTableRecord
100
AcDbViewportTableRecord
  2
*ACTIVE
 70
     0
 10
0.0
 20
0.0
 11
1.0
 21
1.0
 12
1625.039075
 22
-485.924888
 13
0.0
 23
0.0
 14
10.0
 24
10.0
 15
10.0
 25
10.0
 16
0.0
 26
0.0
 36
1.0
 17
0.0
 27
0.0
 37
0.0
 40
1888.737547
 41
0.009401389189227
 42
50.0
 43
0.0
 44
0.0
 50
0.0
 51
0.0000000000007958
 71
     0
 72
   100
 73
     1
 74
     3
 75
     0
 76
     0
 77
     0
 78
     0
  0
ENDTAB
  0
TABLE
  2
LTYPE
  5
4D33
330
0
100
AcDbSymbolTable
 70
    25
  0
LTYPE
  5
4D42
330
4D33
100
AcDbSymbolTableRecord
100
AcDbLinetypeTableRecord
  2
BYBLOCK
 70
     0
  3

 72
    65
 73
     0
 40
0.0
  0
LTYPE
  5
4D43
330
4D33
100
AcDbSymbolTableRecord
100
AcDbLinetypeTableRecord
  2
BYLAYER
 70
     0
  3

 72
    65
 73
     0
 40
0.0
  0
LTYPE
  5
4D44
330
4D33
100
AcDbSymbolTableRecord
100
AcDbLinetypeTableRecord
  2
CONTINUOUS
 70
     0
  3
Solid line
 72
    65
 73
     0
 40
0.0
  0
LTYPE
  5
4D5F
330
4D33
100
AcDbSymbolTableRecord
100
AcDbLinetypeTableRecord
  2
CENTER
 70
     0
  3
Center ____ _ ____ _ ____ _ ____ _ ____ _ ____
 72
    65
 73
     4
 40
2.0
 49
1.25
 74
     0
 49
-0.25
 74
     0
 49
0.25
 74
     0
 49
-0.25
 74
     0
  0
LTYPE
  5
4D60
330
4D33
100
AcDbSymbolTableRecord
100
AcDbLinetypeTableRecord
  2
DASHDOT
 70
     0
  3
Dashdot __ . __ . __ . __ . __ . __ . __ . __
 72
    65
 73
     4
 40
1.0
 49
0.5
 74
     0
 49
-0.25
 74
     0
 49
0.0
 74
     0
 49
-0.25
 74
     0
  0
LTYPE
  5
4D61
330
4D33
100
AcDbSymbolTableRecord
100
AcDbLinetypeTableRecord
  2
DASHED
 70
     0
  3
Dashed __ __ __ __ __ __ __ __ __ __ __ __ __ _
 72
    65
 73
     2
 40
0.75
 49
0.5
 74
     0
 49
-0.25
 74
     0
  0
LTYPE
  5
4D62
330
4D33
100
AcDbSymbolTableRecord
100
AcDbLinetypeTableRecord
  2
HIDDEN
 70
     0
  3
Hidden __ __ __ __ __ __ __ __ __ __ __ __ __ __
 72
    65
 73
     2
 40
0.375
 49
0.25
 74
     0
 49
-0.125
 74
     0
  0
LTYPE
  5
4D63
330
4D33
100
AcDbSymbolTableRecord
100
AcDbLinetypeTableRecord
  2
HIDDEN2
 70
     0
  3
Hidden2 _ _ _ _ _ _ _ _ _ _ _ _ _ _ _ _ _ 
 72
    65
 73
     2
 40
0.1875
 49
0.125
 74
     0
 49
-0.0625
 74
     0
  0
LTYPE
  5
4D64
330
4D33
100
AcDbSymbolTableRecord
100
AcDbLinetypeTableRecord
  2
BORDER
 70
     0
  3
Border __ __ . __ __ . __ __ . __ __ . __ __ .
 72
    65
 73
     6
 40
1.75
 49
0.5
 74
     0
 49
-0.25
 74
     0
 49
0.5
 74
     0
 49
-0.25
 74
     0
 49
0.0
 74
     0
 49
-0.25
 74
     0
  0
LTYPE
  5
4D65
330
4D33
100
AcDbSymbolTableRecord
100
AcDbLinetypeTableRecord
  2
BORDER2
 70
     0
  3
Border2 __.__.__.__.__.__.__.__.__.__.__.
 72
    65
 73
     6
 40
0.875
 49
0.25
 74
     0
 49
-0.125
 74
     0
 49
0.25
 74
     0
 49
-0.125
 74
     0
 49
0.0
 74
     0
 49
-0.125
 74
     0
  0
LTYPE
  5
4D66
330
4D33
100
AcDbSymbolTableRecord
100
AcDbLinetypeTableRecord
  2
BORDERX2
 70
     0
  3
Borderx2  ____  ____  .  ____  ____  .  ___
 72
    65
 73
     6
 40
3.5
 49
1.0
 74
     0
 49
-0.5
 74
     0
 49
1.0
 74
     0
 49
-0.5
 74
     0
 49
0.0
 74
     0
 49
-0.5
 74
     0
  0
LTYPE
  5
4D67
330
4D33
100
AcDbSymbolTableRecord
100
AcDbLinetypeTableRecord
  2
CENTER2
 70
     0
  3
Center2  ___ _ ___ _ ___ _ ___ _ ___ _ ___
 72
    65
 73
     4
 40
1.125
 49
0.75
 74
     0
 49
-0.125
 74
     0
 49
0.125
 74
     0
 49
-0.125
 74
     0
  0
LTYPE
  5
4D68
330
4D33
100
AcDbSymbolTableRecord
100
AcDbLinetypeTableRecord
  2
CENTERX2
 70
     0
  3
Centerx2  ________  __  ________  __  _____
 72
    65
 73
     4
 40
4.0
 49
2.5
 74
     0
 49
-0.5
 74
     0
 49
0.5
 74
     0
 49
-0.5
 74
     0
  0
LTYPE
  5
4D69
330
4D33
100
AcDbSymbolTableRecord
100
AcDbLinetypeTableRecord
  2
DASHDOT2
 70
     0
  3
Dashdot2  _._._._._._._._._._._._._._._.
 72
    65
 73
     4
 40
0.5
 49
0.25
 74
     0
 49
-0.125
 74
     0
 49
0.0
 74
     0
 49
-0.125
 74
     0
  0
LTYPE
  5
4D6A
330
4D33
100
AcDbSymbolTableRecord
100
AcDbLinetypeTableRecord
  2
DASHDOTX2
 70
     0
  3
Dashdotx2 ____  .  ____  .  ____  .  ___
 72
    65
 73
     4
 40
2.0
 49
1.0
 74
     0
 49
-0.5
 74
     0
 49
0.0
 74
     0
 49
-0.5
 74
     0
  0
LTYPE
  5
4D6B
330
4D33
100
AcDbSymbolTableRecord
100
AcDbLinetypeTableRecord
  2
DASHED2
 70
     0
  3
Dashed2 _ _ _ _ _ _ _ _ _ _ _ _ _ _ _ _ _ 
 72
    65
 73
     2
 40
0.375
 49
0.25
 74
     0
 49
-0.125
 74
     0
  0
LTYPE
  5
4D6C
330
4D33
100
AcDbSymbolTableRecord
100
AcDbLinetypeTableRecord
  2
DASHEDX2
 70
     0
  3
Dashedx2 ____  ____  ____  ____  ____  ___
 72
    65
 73
     2
 40
1.5
 49
1.0
 74
     0
 49
-0.5
 74
     0
  0
LTYPE
  5
4D6D
330
4D33
100
AcDbSymbolTableRecord
100
AcDbLinetypeTableRecord
  2
DIVIDE
 70
     0
  3
Divide ____ . . ____ . . ____ . . ____ . . ____
 72
    65
 73
     6
 40
1.25
 49
0.5
 74
     0
 49
-0.25
 74
     0
 49
0.0
 74
     0
 49
-0.25
 74
     0
 49
0.0
 74
     0
 49
-0.25
 74
     0
  0
LTYPE
  5
4D6E
330
4D33
100
AcDbSymbolTableRecord
100
AcDbLinetypeTableRecord
  2
DIVIDE2
 70
     0
  3
Divide2 __..__..__..__..__..__..__..__.._
 72
    65
 73
     6
 40
0.625
 49
0.25
 74
     0
 49
-0.125
 74
     0
 49
0.0
 74
     0
 49
-0.125
 74
     0
 49
0.0
 74
     0
 49
-0.125
 74
     0
  0
LTYPE
  5
4D6F
330
4D33
100
AcDbSymbolTableRecord
100
AcDbLinetypeTableRecord
  2
DIVIDEX2
 70
     0
  3
Dividex2 ________  .  .  ________  .  .  _
 72
    65
 73
     6
 40
2.5
 49
1.0
 74
     0
 49
-0.5
 74
     0
 49
0.0
 74
     0
 49
-0.5
 74
     0
 49
0.0
 74
     0
 49
-0.5
 74
     0
  0
LTYPE
  5
4D70
330
4D33
100
AcDbSymbolTableRecord
100
AcDbLinetypeTableRecord
  2
DOT
 70
     0
  3
Dot . . . . . . . . . . . . . . . . . . . . . . . .
 72
    65
 73
     2
 40
0.25
 49
0.0
 74
     0
 49
-0.25
 74
     0
  0
LTYPE
  5
4D71
330
4D33
100
AcDbSymbolTableRecord
100
AcDbLinetypeTableRecord
  2
DOT2
 70
     0
  3
Dot2 ........................................
 72
    65
 73
     2
 40
0.125
 49
0.0
 74
     0
 49
-0.125
 74
     0
  0
LTYPE
  5
4D72
330
4D33
100
AcDbSymbolTableRecord
100
AcDbLinetypeTableRecord
  2
DOTX2
 70
     0
  3
Dotx2 .  .  .  .  .  .  .  .  .  .  .  .  .  .
 72
    65
 73
     2
 40
0.5
 49
0.0
 74
     0
 49
-0.5
 74
     0
  0
LTYPE
  5
4D73
330
4D33
100
AcDbSymbolTableRecord
100
AcDbLinetypeTableRecord
  2
HIDDENX2
 70
     0
  3
Hiddenx2 ____ ____ ____ ____ ____ ____ ____ 
 72
    65
 73
     2
 40
0.75
 49
0.5
 74
     0
 49
-0.25
 74
     0
  0
LTYPE
  5
4D74
330
4D33
100
AcDbSymbolTableRecord
100
AcDbLinetypeTableRecord
  2
PHANTOM
 70
     0
  3
Phantom ______  __  __  ______  __  __  ______ 
 72
    65
 73
     6
 40
2.5
 49
1.25
 74
     0
 49
-0.25
 74
     0
 49
0.25
 74
     0
 49
-0.25
 74
     0
 49
0.25
 74
     0
 49
-0.25
 74
     0
  0
LTYPE
  5
4D75
330
4D33
100
AcDbSymbolTableRecord
100
AcDbLinetypeTableRecord
  2
PHANTOM2
 70
     0
  3
Phantom2 ___ _ _ ___ _ _ ___ _ _ ___ _ _
 72
    65
 73
     6
 40
1.25
 49
0.625
 74
     0
 49
-0.125
 74
     0
 49
0.125
 74
     0
 49
-0.125
 74
     0
 49
0.125
 74
     0
 49
-0.125
 74
     0
  0
LTYPE
  5
4D76
330
4D33
100
AcDbSymbolTableRecord
100
AcDbLinetypeTableRecord
  2
PHANTOMX2
 70
     0
  3
Phantomx2 ____________    ____    ____   _
 72
    65
 73
     6
 40
5.0
 49
2.5
 74
     0
 49
-0.5
 74
     0
 49
0.5
 74
     0
 49
-0.5
 74
     0
 49
0.5
 74
     0
 49
-0.5
 74
     0
  0
ENDTAB
  0
TABLE
  2
LAYER
  5
4D30
330
0
100
AcDbSymbolTable
 70
     5
  0
LAYER
  5
4D3E
330
4D30
100
AcDbSymbolTableRecord
100
AcDbLayerTableRecord
  2
0
 70
     0
 62
     7
  6
CONTINUOUS
  0
LAYER
  5
9E
330
4D30
100
AcDbSymbolTableRecord
100
AcDbLayerTableRecord
  2
DEFPOINTS
 70
     0
 62
     7
  6
CONTINUOUS
  0
LAYER
  5
377
330
4D30
100
AcDbSymbolTableRecord
100
AcDbLayerTableRecord
  2
V0-OBRYS
 70
     0
 62
    90
  6
CONTINUOUS
  0
LAYER
  5
378
330
4D30
100
AcDbSymbolTableRecord
100
AcDbLayerTableRecord
  2
V0-VYPLNE
 70
     0
 62
    63
  6
DASHDOT
  0
LAYER
  5
1540
330
4D30
100
AcDbSymbolTableRecord
100
AcDbLayerTableRecord
  2
VO-OBRYS
 70
     0
 62
    90
  6
CONTINUOUS
  0
ENDTAB
  0
TABLE
  2
STYLE
  5
4D31
330
0
100
AcDbSymbolTable
 70
     6
  0
STYLE
  5
4D3F
330
4D31
100
AcDbSymbolTableRecord
100
AcDbTextStyleTableRecord
  2
STANDARD
 70
     0
 40
0.0
 41
1.0
 50
0.0
 71
     0
 42
0.2
  3
ISOCP.shx
  4

1001
ACAD
1000
ISOCP.shx
1071
        0
  0
STYLE
  5
331
330
4D31
100
AcDbSymbolTableRecord
100
AcDbTextStyleTableRecord
  2
ED20
 70
     0
 40
20.0
 41
1.0
 50
0.0
 71
     0
 42
0.2
  3
ISOCP.shx
  4

1001
ACAD
1000
ISOCP.shx
1071
        0
  0
STYLE
  5
648
330
4D31
100
AcDbSymbolTableRecord
100
AcDbTextStyleTableRecord
  2
ED10
 70
     0
 40
10.0
 41
1.0
 50
0.0
 71
     0
 42
0.2
  3
ISOCP.shx
  4

1001
ACAD
1000
ISOCP.shx
1071
        0
  0
STYLE
  5
F38
330
4D31
100
AcDbSymbolTableRecord
100
AcDbTextStyleTableRecord
  2
ED30
 70
     0
 40
30.0
 41
1.0
 50
0.0
 71
     0
 42
0.2
  3
ISOCP.shx
  4

1001
ACAD
1000
ISOCP.shx
1071
        0
  0
STYLE
  5
F39
330
4D31
100
AcDbSymbolTableRecord
100
AcDbTextStyleTableRecord
  2
ED40
 70
     0
 40
40.0
 41
1.0
 50
0.0
 71
     0
 42
0.2
  3
ISOCP.shx
  4

1001
ACAD
1000
ISOCP.shx
1071
        0
  0
STYLE
  5
1B9D
330
4D31
100
AcDbSymbolTableRecord
100
AcDbTextStyleTableRecord
  2
VD_RECOV_1_1B9D_
 70
     0
 40
0.0
 41
1.0
 50
0.0
 71
     0
 42
0.2
  3
ltypeshp.shx
  4

1001
ACAD
1000
ltypeshp.shx
1071
        0
  0
ENDTAB
  0
TABLE
  2
VIEW
  5
4D34
330
0
100
AcDbSymbolTable
 70
     0
  0
ENDTAB
  0
TABLE
  2
UCS
  5
4D35
330
0
100
AcDbSymbolTable
 70
     0
  0
ENDTAB
  0
TABLE
  2
APPID
  5
4D37
330
0
100
AcDbSymbolTable
 70
     7
  0
APPID
  5
4D40
330
4D37
100
AcDbSymbolTableRecord
100
AcDbRegAppTableRecord
  2
ACAD
 70
     0
  0
APPID
  5
4D58
330
4D37
100
AcDbSymbolTableRecord
100
AcDbRegAppTableRecord
  2
VD_INVISIBLE_NOT_FOR_READ
 70
     0
  0
APPID
  5
4D59
330
4D37
100
AcDbSymbolTableRecord
100
AcDbRegAppTableRecord
  2
VD_TEMPHATCH
 70
     0
  0
APPID
  5
4D5A
330
4D37
100
AcDbSymbolTableRecord
100
AcDbRegAppTableRecord
  2
VDEXTRAPARAM
 70
     0
  0
APPID
  5
4D5B
330
4D37
100
AcDbSymbolTableRecord
100
AcDbRegAppTableRecord
  2
PE_URL
 70
     0
  0
APPID
  5
4D5C
330
4D37
100
AcDbSymbolTableRecord
100
AcDbRegAppTableRecord
  2
VD_UNKNOWN
 70
     0
  0
APPID
  5
4D7F
330
4D37
100
AcDbSymbolTableRecord
100
AcDbRegAppTableRecord
  2
CONTENTBLOCKICON
 70
     0
  0
ENDTAB
  0
TABLE
  2
DIMSTYLE
  5
4D38
330
0
100
AcDbSymbolTable
 70
     4
  0
DIMSTYLE
105
4D55
330
4D38
100
AcDbSymbolTableRecord
100
AcDbDimStyleTableRecord
  2
STANDARD
 70
     0
  3

  4

  5
OPEN
  6

  7

 40
1.0
 41
15.0
 42
0.625
 43
0.38
 44
1.25
 45
0.0
 46
0.0
 47
0.0
 48
0.0
140
15.0
141
0.09
142
0.0
143
25.4
144
1.0
145
0.0
146
1.0
147
3.0
 71
     0
 72
     0
 73
     0
 74
     0
 75
     0
 76
     0
 77
     1
 78
     0
170
     0
171
     2
172
     1
173
     0
174
     1
175
     0
176
     0
177
     0
178
     0
270
     2
271
     0
272
     4
273
     2
274
     2
340
331
275
     0
280
     0
281
     0
282
     0
283
     1
284
     0
285
     0
286
     0
287
     3
288
     1
  0
DIMSTYLE
105
FE9
330
4D38
100
AcDbSymbolTableRecord
100
AcDbDimStyleTableRecord
  2
ED20
 70
     0
  3

  4

  5
OPEN
  6

  7

 40
1.0
 41
20.0
 42
1.0
 43
0.38
 44
1.25
 45
0.0
 46
0.0
 47
0.0
 48
0.0
140
20.0
141
0.09
142
0.0
143
25.4
144
1.0
145
0.0
146
1.0
147
2.0
 71
     0
 72
     0
 73
     0
 74
     0
 75
     0
 76
     0
 77
     1
 78
     0
170
     0
171
     2
172
     1
173
     0
174
     1
175
     0
176
     0
177
    41
178
    41
270
     2
271
     0
272
     4
273
     2
274
     2
340
331
275
     0
280
     0
281
     0
282
     0
283
     1
284
     0
285
     0
286
     0
287
     3
288
     1
  0
DIMSTYLE
105
320E
330
4D38
100
AcDbSymbolTableRecord
100
AcDbDimStyleTableRecord
  2
ED30
 70
     0
  3

  4

  5
OPEN
  6

  7

 40
1.0
 41
30.0
 42
1.0
 43
0.38
 44
1.25
 45
0.0
 46
0.0
 47
0.0
 48
0.0
140
30.0
141
0.09
142
0.0
143
25.4
144
1.0
145
0.0
146
1.0
147
2.0
 71
     0
 72
     0
 73
     0
 74
     0
 75
     0
 76
     0
 77
     1
 78
     0
170
     0
171
     2
172
     1
173
     0
174
     1
175
     0
176
     0
177
    41
178
    41
270
     2
271
     0
272
     4
273
     2
274
     2
340
F38
275
     0
280
     0
281
     0
282
     0
283
     1
284
     0
285
     0
286
     0
287
     3
288
     1
  0
DIMSTYLE
105
4105
102
{ACAD_REACTORS
330
3F41
330
409E
330
41E1
330
41E2
330
4BCC
330
4BEF
102
}
330
4D38
100
AcDbSymbolTableRecord
100
AcDbDimStyleTableRecord
  2
ED40
 70
     0
  3

  4

  5
OPEN
  6

  7

 40
1.0
 41
40.0
 42
1.0
 43
0.38
 44
1.25
 45
0.0
 46
0.0
 47
0.0
 48
0.0
140
40.0
141
0.09
142
0.0
143
25.4
144
1.0
145
0.0
146
1.0
147
2.0
 71
     0
 72
     0
 73
     0
 74
     0
 75
     0
 76
     0
 77
     1
 78
     0
170
     0
171
     2
172
     1
173
     0
174
     1
175
     0
176
     0
177
    41
178
    41
270
     2
271
     0
272
     4
273
     2
274
     2
340
F39
275
     0
280
     0
281
     0
282
     0
283
     1
284
     0
285
     0
286
     0
287
     3
288
     1
  0
ENDTAB
  0
TABLE
  2
BLOCK_RECORD
  5
4D2F
330
0
100
AcDbSymbolTable
 70
    11
  0
BLOCK_RECORD
  5
4D4D
330
4D2F
100
AcDbSymbolTableRecord
100
AcDbBlockTableRecord
  2
*MODEL_SPACE
  0
BLOCK_RECORD
  5
4D49
330
4D2F
100
AcDbSymbolTableRecord
100
AcDbBlockTableRecord
  2
*PAPER_SPACE
  0
BLOCK_RECORD
  5
90
330
4D2F
100
AcDbSymbolTableRecord
100
AcDbBlockTableRecord
  2
_OPEN
  0
BLOCK_RECORD
  5
267B
330
4D2F
100
AcDbSymbolTableRecord
100
AcDbBlockTableRecord
  2
ASVORK
1001
CONTENTBLOCKICON
1071
        0
1004
2800000020000000200000000100040000000000000200000000000000000000000000000000000000000000000080000080000000808000800000008000800080800000C0C0C000808080000000FF0000FF000000FFFF00FF000000FF00FF00FFFF0000FFFFFF00FFFFFFFAAAAAAAAAAAAAAAAAAFFFFFFF
1004
FFFFFFFAFFFFFAFFFFFFFFFFAFFFFFFFFFFFFFFAFFFFFAFFFFFFFFFFAFFFFFFFFFFFFFFAFFFFFAFFFFFFFFFFAFFFFFFFFFFFFFFAFFFFFAFFFFFFFFFFAFFFFFFFFFFFFFFAFFFFFAFFFFFFFFFFAFFFFFFFFFFFFFFAFFFFFAFFFFFFFFFFAFFFFFFFFFFFFFFAFFFFFAFFFFFFFFFFAFFFFFFFFFFFFFFAFFFFFAFF
1004
FFFFFFFFAFFFFFFFFFFFFFFAFFFFFAFFFFFFFFFFAFFFFFFFFFFFFFFAFFFFFAFFFFFFFFFFAFFFFFFFFFFFFFFAFFFFFAFFFFFFFFFFAFFFFFFFFFFFFFFAFFFFFAFFFFFFFFFFAFFFFFFFFFFFFFFAFFFFFAFFFFFFFFFFAFFFFFFFFFFFFFFAFFFFFAFFFFFFFFFFAFFFFFFFFFFFFFFAFFFFFAFFFFFFFFFFAFFFFFFF
1004
FFFFFFFAFFFFFAFFFFFFFFFFFFFFFFFFFFFFFFFAFFFFFAFFFFFFFFFFAFFFFFFFFFFFFFFAFFFFFAFFFFFFFFFFAFFFFFFFFFFFFFFAFFFFFAFFFFFFFFFFAFFFFFFFFFFFFFFAFFFFFAFFFFFFFFFFAFFFFFFFFFFFFFFAFFFFFAFFFFFFFFFFAFFFFFFFFFFFFFFAFFFFFAFFFFFFFFFFAFFFFFFFFFFFFFFAFFFFFAFF
1004
FFFFFFFFAFFFFFFFFFFFFFFAFFFFFAFFFFFFFFFFAFFFFFFFFFFFFFFAFFFFFAFFFFFFFFFFAFFFFFFFFFFFFFFAFFFFFAFFFFFFFFFFAFFFFFFFFFFFFFFAFFFFFAFFFFFFFFFFAFFFFFFFFFFFFFFAFFFFFAFFFFFFFFFFAFFFFFFFFFFFFFFAFFFFFAFFFFFFFFFFAFFFFFFFFFFFFFFAFFFFFAFFFFFFFFFFAFFFFFFF
1004
FFFFFFFAAAAAAAAAAAAAAAAAAFFFFFFF
  0
BLOCK_RECORD
  5
4C63
330
4D2F
100
AcDbSymbolTableRecord
100
AcDbBlockTableRecord
  2
VDDIM_DEFAULT
  0
BLOCK_RECORD
  5
4C65
330
4D2F
100
AcDbSymbolTableRecord
100
AcDbBlockTableRecord
  2
VDDIM_NONE
  0
BLOCK_RECORD
  5
4D81
330
4D2F
100
AcDbSymbolTableRecord
100
AcDbBlockTableRecord
  2
*D5
  0
BLOCK_RECORD
  5
4D8E
330
4D2F
100
AcDbSymbolTableRecord
100
AcDbBlockTableRecord
  2
*D6
  0
BLOCK_RECORD
  5
4D9B
330
4D2F
100
AcDbSymbolTableRecord
100
AcDbBlockTableRecord
  2
*D7
  0
BLOCK_RECORD
  5
4DA8
330
4D2F
100
AcDbSymbolTableRecord
100
AcDbBlockTableRecord
  2
*D8
  0
BLOCK_RECORD
  5
4DB5
330
4D2F
100
AcDbSymbolTableRecord
100
AcDbBlockTableRecord
  2
*D9
  0
BLOCK_RECORD
  5
4DC1
330
4D2F
100
AcDbSymbolTableRecord
100
AcDbBlockTableRecord
  2
*D10
  0
ENDTAB
  0
ENDSEC
  0
SECTION
  2
BLOCKS
  0
BLOCK
  5
4D4E
330
4D4D
100
AcDbEntity
  8
0
100
AcDbBlockBegin
  2
*MODEL_SPACE
 70
     0
 71
     0
 10
0.0
 20
0.0
 30
0.0
  3
*MODEL_SPACE
  1

  0
ENDBLK
  5
4D4F
330
4D4D
100
AcDbEntity
  8
0
100
AcDbBlockEnd
  0
BLOCK
  5
4D4A
330
4D49
100
AcDbEntity
 67
     1
  8
0
100
AcDbBlockBegin
  2
*PAPER_SPACE
 70
     0
 71
     0
 10
0.0
 20
0.0
 30
0.0
  3
*PAPER_SPACE
  1

  0
ENDBLK
  5
4D4B
330
4D49
100
AcDbEntity
 67
     1
  8
0
100
AcDbBlockEnd
  0
BLOCK
  5
4D77
330
90
100
AcDbEntity
  8
0
100
AcDbBlockBegin
  2
_OPEN
 70
     0
 71
     0
 10
0.0
 20
0.0
 30
0.0
  3
_OPEN
  1

  0
LINE
  5
92
330
90
100
AcDbEntity
  8
0
  6
BYBLOCK
 62
     0
100
AcDbLine
 10
-1.0
 20
0.166667
 30
0.0
 11
0.0
 21
0.0
 31
0.0
  0
LINE
  5
93
330
90
100
AcDbEntity
  8
0
  6
BYBLOCK
 62
     0
100
AcDbLine
 10
0.0
 20
0.0
 30
0.0
 11
-1.0
 21
-0.166667
 31
0.0
  0
LINE
  5
94
330
90
100
AcDbEntity
  8
0
  6
BYBLOCK
 62
     0
100
AcDbLine
 10
0.0
 20
0.0
 30
0.0
 11
-1.0
 21
0.0
 31
0.0
  0
ENDBLK
  5
4D78
330
90
100
AcDbEntity
  8
0
100
AcDbBlockEnd
  0
BLOCK
  5
4D79
330
267B
100
AcDbEntity
  8
0
100
AcDbBlockBegin
  2
ASVORK
 70
     0
 71
     0
 10
0.0
 20
0.0
 30
0.0
  3
ASVORK
  1

  0
LINE
  5
32CF
330
267B
100
AcDbEntity
  8
V0-OBRYS
  6
CONTINUOUS
 62
    90
100
AcDbLine
 10
-44.999998
 20
-40.000011
 30
0.0
 11
0.0000020000000021
 21
-40.000011
 31
0.0
  0
LINE
  5
32D0
330
267B
100
AcDbEntity
  8
V0-OBRYS
  6
CONTINUOUS
 62
    90
100
AcDbLine
 10
-44.999998
 20
39.999989
 30
0.0
 11
0.0000020000000021
 21
39.999989
 31
0.0
  0
LINE
  5
32D1
330
267B
100
AcDbEntity
  8
V0-OBRYS
  6
CONTINUOUS
 62
    90
100
AcDbLine
 10
-44.999998
 20
-0.000011
 30
0.0
 11
-44.999998
 21
-40.000011
 31
0.0
  0
LINE
  5
32D2
330
267B
100
AcDbEntity
  8
V0-OBRYS
  6
CONTINUOUS
 62
    90
100
AcDbLine
 10
-29.999998
 20
-0.000011
 30
0.0
 11
-29.999998
 21
-40.000011
 31
0.0
  0
LINE
  5
32D3
330
267B
100
AcDbEntity
  8
V0-OBRYS
  6
CONTINUOUS
 62
    90
100
AcDbLine
 10
-44.999998
 20
-0.000011
 30
0.0
 11
-44.999998
 21
39.999989
 31
0.0
  0
LINE
  5
32D4
330
267B
100
AcDbEntity
  8
V0-OBRYS
  6
CONTINUOUS
 62
    90
100
AcDbLine
 10
-29.999998
 20
-0.000011
 30
0.0
 11
-29.999998
 21
39.999989
 31
0.0
  0
LINE
  5
32D5
330
267B
100
AcDbEntity
  8
V0-OBRYS
  6
CONTINUOUS
 62
    90
100
AcDbLine
 10
0.000002
 20
-40.000011
 30
0.0
 11
0.000002
 21
-0.0000110000000006
 31
0.0
  0
LINE
  5
32D6
330
267B
100
AcDbEntity
  8
V0-OBRYS
  6
CONTINUOUS
 62
    90
100
AcDbLine
 10
0.000002
 20
39.999989
 30
0.0
 11
0.000002
 21
-0.0000110000000006
 31
0.0
  0
ENDBLK
  5
4D7A
330
267B
100
AcDbEntity
  8
0
100
AcDbBlockEnd
  0
BLOCK
  5
4D7B
330
4C63
100
AcDbEntity
  8
0
100
AcDbBlockBegin
  2
VDDIM_DEFAULT
 70
     0
 71
     0
 10
0.0
 20
0.0
 30
0.0
  3
VDDIM_DEFAULT
  1

  0
LWPOLYLINE
  5
4C64
330
4C63
100
AcDbEntity
  8
0
  6
CONTINUOUS
 62
     0
100
AcDbPolyline
 90
        4
 70
     0
 43
0.0
 10
0.0
 20
0.0
 10
-1.0
 20
-0.1665
 10
-1.0
 20
0.1665
 10
0.0
 20
0.0
1001
VDEXTRAPARAM
1071
        1
1071
        0
1071
        0
1040
1.0
1000

1000

1040
0.0
1040
0.0
  0
HATCH
  5
4D80
330
4C63
100
AcDbEntity
  8
0
  6
CONTINUOUS
 62
     0
100
AcDbHatch
 10
0.0
 20
0.0
 30
0.0
210
0.0
220
0.0
230
1.0
  2
SOLID
 70
     1
 71
     0
 91
        1
 92
        2
 72
     0
 73
     1
 93
        3
 10
0.0
 20
0.0
 10
-1.0
 20
-0.1665
 10
-1.0
 20
0.1665
 97
        0
 75
     0
 76
     1
 98
        1
 10
0.0
 20
0.0
1001
VDEXTRAPARAM
1071
        1
1071
        0
1071
        0
1040
1.0
1000

1000

1040
0.0
1040
0.0
1001
VD_TEMPHATCH
1000
VD_TEMPHATCH
  0
ENDBLK
  5
4D7C
330
4C63
100
AcDbEntity
  8
0
100
AcDbBlockEnd
  0
BLOCK
  5
4D7D
330
4C65
100
AcDbEntity
  8
0
100
AcDbBlockBegin
  2
VDDIM_NONE
 70
     0
 71
     0
 10
0.0
 20
0.0
 30
0.0
  3
VDDIM_NONE
  1

  0
ENDBLK
  5
4D7E
330
4C65
100
AcDbEntity
  8
0
100
AcDbBlockEnd
  0
BLOCK
  5
4D8C
330
4D81
100
AcDbEntity
  8
0
100
AcDbBlockBegin
  2
*D5
 70
     1
 71
     0
 10
0.0
 20
0.0
 30
0.0
  3
*D5
  1

  0
LINE
  5
4D82
330
4D81
100
AcDbEntity
  8
V0-VYPLNE
 62
    41
100
AcDbLine
 10
1348.878441
 20
268.998643
 30
0.0
 11
1453.487178999989
 21
268.998643
 31
0.0
  0
LINE
  5
4D83
330
4D81
100
AcDbEntity
  8
V0-VYPLNE
 62
    41
100
AcDbLine
 10
1348.878441
 20
-291.000457
 30
0.0
 11
1453.487178999989
 21
-291.000457
 31
0.0
  0
LINE
  5
4D84
330
4D81
100
AcDbEntity
  8
V0-VYPLNE
 62
     0
100
AcDbLine
 10
1452.237178999989
 20
228.9986430000001
 30
0.0
 11
1452.237178999989
 21
59.57052157142869
 31
0.0
  0
LINE
  5
4D85
330
4D81
100
AcDbEntity
  8
V0-VYPLNE
 62
     0
100
AcDbLine
 10
1452.237178999989
 20
-251.0004569999999
 30
0.0
 11
1452.237178999989
 21
-81.57233557142865
 31
0.0
  0
INSERT
  5
4D86
330
4D81
100
AcDbEntity
  8
V0-VYPLNE
 62
     0
100
AcDbBlockReference
  2
_OPEN
 10
1452.237178999989
 20
268.9986430000001
 30
0.0
 41
40.0
 42
40.0
 43
40.0
 50
90.0
  0
INSERT
  5
4D87
330
4D81
100
AcDbEntity
  8
V0-VYPLNE
 62
     0
100
AcDbBlockReference
  2
_OPEN
 10
1452.237178999989
 20
-291.0004569999999
 30
0.0
 41
40.0
 42
40.0
 43
40.0
 50
270.0
  0
MTEXT
  5
4D88
330
4D81
100
AcDbEntity
  8
V0-VYPLNE
 62
    41
100
AcDbMText
 10
1452.237179
 20
-11.000907
 30
0.0
 40
40.0
 41
0.0
 71
     5
 72
     1
  1
%%c559
  7
ED40
 11
0.0
 21
1.0
 31
0.0
  0
POINT
  5
4D89
330
4D81
100
AcDbEntity
  8
DEFPOINTS
 62
     0
100
AcDbPoint
 10
1347.878441
 20
268.998643
 30
0.0
  0
POINT
  5
4D8A
330
4D81
100
AcDbEntity
  8
DEFPOINTS
 62
     0
100
AcDbPoint
 10
1347.878441
 20
-291.000457
 30
0.0
  0
POINT
  5
4D8B
330
4D81
100
AcDbEntity
  8
DEFPOINTS
 62
     0
100
AcDbPoint
 10
1452.237178999989
 20
-291.000457
 30
0.0
  0
ENDBLK
  5
4D8D
330
4D81
100
AcDbEntity
  8
0
100
AcDbBlockEnd
  0
BLOCK
  5
4D99
330
4D8E
100
AcDbEntity
  8
0
100
AcDbBlockBegin
  2
*D6
 70
     1
 71
     0
 10
0.0
 20
0.0
 30
0.0
  3
*D6
  1

  0
LINE
  5
4D8F
330
4D8E
100
AcDbEntity
  8
V0-OBRYS
 62
    41
100
AcDbLine
 10
1248.321191
 20
-367.000907
 30
0.0
 11
1248.321191
 21
-472.657643999983
 31
0.0
  0
LINE
  5
4D90
330
4D8E
100
AcDbEntity
  8
V0-OBRYS
 62
    41
100
AcDbLine
 10
1347.878441
 20
-292.000457
 30
0.0
 11
1347.878441
 21
-472.657643999983
 31
0.0
  0
LINE
  5
4D91
330
4D8E
100
AcDbEntity
  8
V0-OBRYS
 62
     0
100
AcDbLine
 10
1288.321191
 20
-471.407643999983
 30
0.0
 11
1266.171244571429
 21
-471.407643999983
 31
0.0
  0
LINE
  5
4D92
330
4D8E
100
AcDbEntity
  8
V0-OBRYS
 62
     0
100
AcDbLine
 10
1307.878441
 20
-471.407643999983
 30
0.0
 11
1333.028387428571
 21
-471.407643999983
 31
0.0
  0
INSERT
  5
4D93
330
4D8E
100
AcDbEntity
  8
V0-OBRYS
 62
     0
100
AcDbBlockReference
  2
_OPEN
 10
1248.321191
 20
-471.407643999983
 30
0.0
 41
40.0
 42
40.0
 43
40.0
 50
180.0
  0
INSERT
  5
4D94
330
4D8E
100
AcDbEntity
  8
V0-OBRYS
 62
     0
100
AcDbBlockReference
  2
_OPEN
 10
1347.878441
 20
-471.407643999983
 30
0.0
 41
40.0
 42
40.0
 43
40.0
  0
MTEXT
  5
4D95
330
4D8E
100
AcDbEntity
  8
V0-OBRYS
 62
    41
100
AcDbMText
 10
1299.599816
 20
-471.407644
 30
0.0
 40
40.0
 41
0.0
 71
     5
 72
     1
  1
99
  7
ED40
  0
POINT
  5
4D96
330
4D8E
100
AcDbEntity
  8
DEFPOINTS
 62
     0
100
AcDbPoint
 10
1248.321191
 20
-366.000907
 30
0.0
  0
POINT
  5
4D97
330
4D8E
100
AcDbEntity
  8
DEFPOINTS
 62
     0
100
AcDbPoint
 10
1347.878441
 20
-291.000457
 30
0.0
  0
POINT
  5
4D98
330
4D8E
100
AcDbEntity
  8
DEFPOINTS
 62
     0
100
AcDbPoint
 10
1347.878441
 20
-471.407643999983
 30
0.0
  0
ENDBLK
  5
4D9A
330
4D8E
100
AcDbEntity
  8
0
100
AcDbBlockEnd
  0
BLOCK
  5
4DA6
330
4D9B
100
AcDbEntity
  8
0
100
AcDbBlockBegin
  2
*D7
 70
     1
 71
     0
 10
0.0
 20
0.0
 30
0.0
  3
*D7
  1

  0
LINE
  5
4D9C
330
4D9B
100
AcDbEntity
  8
V0-VYPLNE
 62
    41
100
AcDbLine
 10
1723.734483
 20
-384.747484
 30
0.0
 11
1723.734483
 21
-630.0343080000021
 31
0.0
  0
LINE
  5
4D9D
330
4D9B
100
AcDbEntity
  8
V0-VYPLNE
 62
    41
100
AcDbLine
 10
2432.61945
 20
-384.747484
 30
0.0
 11
2432.61945
 21
-630.0343080000021
 31
0.0
  0
LINE
  5
4D9E
330
4D9B
100
AcDbEntity
  8
V0-VYPLNE
 62
     0
100
AcDbLine
 10
1763.734483
 20
-628.7843080000021
 30
0.0
 11
2028.562245571428
 21
-628.7843080000021
 31
0.0
  0
LINE
  5
4D9F
330
4D9B
100
AcDbEntity
  8
V0-VYPLNE
 62
     0
100
AcDbLine
 10
2392.61945
 20
-628.7843080000021
 30
0.0
 11
2135.419388428571
 21
-628.7843080000021
 31
0.0
  0
INSERT
  5
4DA0
330
4D9B
100
AcDbEntity
  8
V0-VYPLNE
 62
     0
100
AcDbBlockReference
  2
_OPEN
 10
1723.734483
 20
-628.7843080000021
 30
0.0
 41
40.0
 42
40.0
 43
40.0
 50
180.0
  0
INSERT
  5
4DA1
330
4D9B
100
AcDbEntity
  8
V0-VYPLNE
 62
     0
100
AcDbBlockReference
  2
_OPEN
 10
2432.61945
 20
-628.7843080000021
 30
0.0
 41
40.0
 42
40.0
 43
40.0
  0
MTEXT
  5
4DA2
330
4D9B
100
AcDbEntity
  8
V0-VYPLNE
 62
    41
100
AcDbMText
 10
2081.990817
 20
-628.784308
 30
0.0
 40
40.0
 41
0.0
 71
     5
 72
     1
  1
710
  7
ED40
  0
POINT
  5
4DA3
330
4D9B
100
AcDbEntity
  8
DEFPOINTS
 62
     0
100
AcDbPoint
 10
1723.734483
 20
-383.747484
 30
0.0
  0
POINT
  5
4DA4
330
4D9B
100
AcDbEntity
  8
DEFPOINTS
 62
     0
100
AcDbPoint
 10
2432.61945
 20
-383.747484
 30
0.0
  0
POINT
  5
4DA5
330
4D9B
100
AcDbEntity
  8
DEFPOINTS
 62
     0
100
AcDbPoint
 10
2432.61945
 20
-628.7843080000021
 30
0.0
  0
ENDBLK
  5
4DA7
330
4D9B
100
AcDbEntity
  8
0
100
AcDbBlockEnd
  0
BLOCK
  5
4DB3
330
4DA8
100
AcDbEntity
  8
0
100
AcDbBlockBegin
  2
*D8
 70
     1
 71
     0
 10
0.0
 20
0.0
 30
0.0
  3
*D8
  1

  0
LINE
  5
4DA9
330
4DA8
100
AcDbEntity
  8
V0-OBRYS
 62
    41
100
AcDbLine
 10
1762.908302
 20
-390.010308
 30
0.0
 11
1762.908302
 21
-547.9422819998581
 31
0.0
  0
LINE
  5
4DAA
330
4DA8
100
AcDbEntity
  8
V0-OBRYS
 62
    41
100
AcDbLine
 10
2393.445575
 20
-390.010364
 30
0.0
 11
2393.445575
 21
-547.9422819998581
 31
0.0
  0
LINE
  5
4DAB
330
4DA8
100
AcDbEntity
  8
V0-OBRYS
 62
     0
100
AcDbLine
 10
1802.908302
 20
-546.6922819998581
 30
0.0
 11
2021.63836652381
 21
-546.6922819998581
 31
0.0
  0
LINE
  5
4DAC
330
4DA8
100
AcDbEntity
  8
V0-OBRYS
 62
     0
100
AcDbLine
 10
2353.445575
 20
-546.6922819998581
 30
0.0
 11
2126.59074747619
 21
-546.6922819998581
 31
0.0
  0
INSERT
  5
4DAD
330
4DA8
100
AcDbEntity
  8
V0-OBRYS
 62
     0
100
AcDbBlockReference
  2
_OPEN
 10
1762.908302
 20
-546.6922819998581
 30
0.0
 41
40.0
 42
40.0
 43
40.0
 50
180.0
  0
INSERT
  5
4DAE
330
4DA8
100
AcDbEntity
  8
V0-OBRYS
 62
     0
100
AcDbBlockReference
  2
_OPEN
 10
2393.445575
 20
-546.6922819998581
 30
0.0
 41
40.0
 42
40.0
 43
40.0
  0
MTEXT
  5
4DAF
330
4DA8
100
AcDbEntity
  8
V0-OBRYS
 62
    41
100
AcDbMText
 10
2074.114557
 20
-546.692282
 30
0.0
 40
40.0
 41
0.0
 71
     5
 72
     1
  1
630
  7
ED40
  0
POINT
  5
4DB0
330
4DA8
100
AcDbEntity
  8
DEFPOINTS
 62
     0
100
AcDbPoint
 10
1762.908302
 20
-389.010308
 30
0.0
  0
POINT
  5
4DB1
330
4DA8
100
AcDbEntity
  8
DEFPOINTS
 62
     0
100
AcDbPoint
 10
2393.445575
 20
-389.010364
 30
0.0
  0
POINT
  5
4DB2
330
4DA8
100
AcDbEntity
  8
DEFPOINTS
 62
     0
100
AcDbPoint
 10
2393.445575
 20
-546.6922819998581
 30
0.0
  0
ENDBLK
  5
4DB4
330
4DA8
100
AcDbEntity
  8
0
100
AcDbBlockEnd
  0
BLOCK
  5
4DBF
330
4DB5
100
AcDbEntity
  8
0
100
AcDbBlockBegin
  2
*D9
 70
     1
 71
     0
 10
0.0
 20
0.0
 30
0.0
  3
*D9
  1

  0
LINE
  5
4DB6
330
4DB5
100
AcDbEntity
  8
V0-VYPLNE
 62
    41
100
AcDbLine
 10
1248.980991
 20
304.431643
 30
0.0
 11
1533.154710999981
 21
304.431643
 31
0.0
  0
LINE
  5
4DB7
330
4DB5
100
AcDbEntity
  8
V0-VYPLNE
 62
    41
100
AcDbLine
 10
1248.980991
 20
-326.433457
 30
0.0
 11
1533.154710999981
 21
-326.433457
 31
0.0
  0
LINE
  5
4DB8
330
4DB5
100
AcDbEntity
  8
V0-VYPLNE
 62
     0
100
AcDbLine
 10
1531.904710999981
 20
264.4316430000001
 30
0.0
 11
1531.904710999981
 21
-286.4334569999999
 31
0.0
  0
INSERT
  5
4DB9
330
4DB5
100
AcDbEntity
  8
V0-VYPLNE
 62
     0
100
AcDbBlockReference
  2
_OPEN
 10
1531.904710999981
 20
304.4316430000001
 30
0.0
 41
40.0
 42
40.0
 43
40.0
 50
90.0
  0
INSERT
  5
4DBA
330
4DB5
100
AcDbEntity
  8
V0-VYPLNE
 62
     0
100
AcDbBlockReference
  2
_OPEN
 10
1531.904710999981
 20
-326.4334569999999
 30
0.0
 41
40.0
 42
40.0
 43
40.0
 50
270.0
  0
MTEXT
  5
4DBB
330
4DB5
100
AcDbEntity
  8
V0-VYPLNE
 62
    41
100
AcDbMText
 10
1509.904710999981
 20
-11.00090699999998
 30
0.0
 40
40.0
 41
0.0
 71
     5
 72
     1
  1
%%C649
  7
ED40
 11
0.0
 21
1.0
 31
0.0
  0
POINT
  5
4DBC
330
4DB5
100
AcDbEntity
  8
DEFPOINTS
 62
     0
100
AcDbPoint
 10
1247.980991
 20
304.431643
 30
0.0
  0
POINT
  5
4DBD
330
4DB5
100
AcDbEntity
  8
DEFPOINTS
 62
     0
100
AcDbPoint
 10
1247.980991
 20
-326.433457
 30
0.0
  0
POINT
  5
4DBE
330
4DB5
100
AcDbEntity
  8
DEFPOINTS
 62
     0
100
AcDbPoint
 10
1531.904710999981
 20
-326.433457
 30
0.0
  0
ENDBLK
  5
4DC0
330
4DB5
100
AcDbEntity
  8
0
100
AcDbBlockEnd
  0
BLOCK
  5
4DCB
330
4DC1
100
AcDbEntity
  8
0
100
AcDbBlockBegin
  2
*D10
 70
     1
 71
     0
 10
0.0
 20
0.0
 30
0.0
  3
*D10
  1

  0
LINE
  5
4DC2
330
4DC1
100
AcDbEntity
  8
V0-VYPLNE
 62
    41
100
AcDbLine
 10
1160.510032
 20
-52.000918
 30
0.0
 11
1160.510032
 21
-536.254987000012
 31
0.0
  0
LINE
  5
4DC3
330
4DC1
100
AcDbEntity
  8
V0-VYPLNE
 62
    41
100
AcDbLine
 10
1348.878441
 20
-292.000457
 30
0.0
 11
1348.878441
 21
-536.254987000012
 31
0.0
  0
LINE
  5
4DC4
330
4DC1
100
AcDbEntity
  8
V0-VYPLNE
 62
     0
100
AcDbLine
 10
1200.510032
 20
-535.004987000012
 30
0.0
 11
1308.878441
 21
-535.004987000012
 31
0.0
  0
INSERT
  5
4DC5
330
4DC1
100
AcDbEntity
  8
V0-VYPLNE
 62
     0
100
AcDbBlockReference
  2
_OPEN
 10
1160.510032
 20
-535.004987000012
 30
0.0
 41
40.0
 42
40.0
 43
40.0
 50
180.0
  0
INSERT
  5
4DC6
330
4DC1
100
AcDbEntity
  8
V0-VYPLNE
 62
     0
100
AcDbBlockReference
  2
_OPEN
 10
1348.878441
 20
-535.004987000012
 30
0.0
 41
40.0
 42
40.0
 43
40.0
  0
MTEXT
  5
4DC7
330
4DC1
100
AcDbEntity
  8
V0-VYPLNE
 62
    41
100
AcDbMText
 10
1254.6942365
 20
-513.004987000012
 30
0.0
 40
40.0
 41
0.0
 71
     5
 72
     1
  1
\A1;188
  7
ED40
  0
POINT
  5
4DC8
330
4DC1
100
AcDbEntity
  8
DEFPOINTS
 62
     0
100
AcDbPoint
 10
1160.510032
 20
-51.000918
 30
0.0
  0
POINT
  5
4DC9
330
4DC1
100
AcDbEntity
  8
DEFPOINTS
 62
     0
100
AcDbPoint
 10
1348.878441
 20
-291.000457
 30
0.0
  0
POINT
  5
4DCA
330
4DC1
100
AcDbEntity
  8
DEFPOINTS
 62
     0
100
AcDbPoint
 10
1348.878441
 20
-535.004987000012
 30
0.0
  0
ENDBLK
  5
4DCC
330
4DC1
100
AcDbEntity
  8
0
100
AcDbBlockEnd
  0
ENDSEC
  0
SECTION
  2
ENTITIES
  0
TEXT
  5
3152
330
4D4D
100
AcDbEntity
  8
V0-VYPLNE
  6
CONTINUOUS
 62
    51
100
AcDbText
 10
1922.96493806853
 20
-944.9287819999736
 30
0.0
 40
43.2
  1
Axiální ventilátor
  7
ED30
100
AcDbText
  0
TEXT
  5
3154
330
4D4D
100
AcDbEntity
  8
V0-VYPLNE
 62
     6
100
AcDbText
 10
1850.0
 20
-864.77
 30
0.0
 40
57.6
  1
HXBR/HXTR 560
  7
ED40
100
AcDbText
  0
LINE
  5
3F3A
330
4D4D
100
AcDbEntity
  8
V0-OBRYS
  6
CONTINUOUS
 62
    90
 48
2.0
100
AcDbLine
 10
1347.878441
 20
-291.000457
 30
0.0
 11
1290.083015
 21
-291.000457
 31
0.0
  0
LINE
  5
3F3B
330
4D4D
100
AcDbEntity
  8
V0-OBRYS
  6
CONTINUOUS
 62
    90
 48
2.0
100
AcDbLine
 10
1347.878441
 20
268.998643
 30
0.0
 11
1290.083015
 21
268.998643
 31
0.0
  0
ARC
  5
3F3C
330
4D4D
100
AcDbEntity
  8
V0-OBRYS
  6
CONTINUOUS
 62
    90
 48
2.0
100
AcDbCircle
 10
1290.083015
 20
-317.575207
 30
0.0
 40
26.57475
100
AcDbArc
 50
90.0
 51
149.420799
  0
LINE
  5
3F3D
330
4D4D
100
AcDbEntity
  8
V0-OBRYS
  6
CONTINUOUS
 62
    90
 48
2.0
100
AcDbLine
 10
1247.980991
 20
-326.433457
 30
0.0
 11
1267.204101
 21
-304.055863
 31
0.0
  0
ARC
  5
3F3F
330
4D4D
100
AcDbEntity
  8
V0-OBRYS
  6
CONTINUOUS
 62
    90
 48
2.0
100
AcDbCircle
 10
1290.083015
 20
295.573393
 30
0.0
 40
26.57475
100
AcDbArc
 50
210.579201
 51
270.0
  0
LINE
  5
3F40
330
4D4D
100
AcDbEntity
  8
V0-OBRYS
  6
CONTINUOUS
 62
    90
 48
2.0
100
AcDbLine
 10
1247.980991
 20
304.431643
 30
0.0
 11
1267.204101
 21
282.054049
 31
0.0
  0
DIMENSION
  5
3F41
330
4D4D
100
AcDbEntity
  8
V0-VYPLNE
  6
CONTINUOUS
 62
    41
100
AcDbDimension
  2
*D5
 10
1452.237178999989
 20
-291.000457
 30
0.0
 11
1452.237179
 21
-11.000907
 31
0.0
 70
   160
  1
%%c559
  3
ED40
100
AcDbAlignedDimension
 13
1347.878441
 23
268.998643
 33
0.0
 14
1347.878441
 24
-291.000457
 34
0.0
 50
90.0
100
AcDbRotatedDimension
  0
LINE
  5
3F42
330
4D4D
100
AcDbEntity
  8
V0-OBRYS
  6
CONTINUOUS
 62
    90
 48
2.0
100
AcDbLine
 10
1347.878441
 20
-11.000907
 30
0.0
 11
1347.878441
 21
268.998643
 31
0.0
  0
LINE
  5
3F43
330
4D4D
100
AcDbEntity
  8
V0-OBRYS
  6
CONTINUOUS
 62
    90
 48
2.0
100
AcDbLine
 10
1347.878441
 20
-11.000907
 30
0.0
 11
1347.878441
 21
-291.000457
 31
0.0
  0
LINE
  5
3F5C
330
4D4D
100
AcDbEntity
  8
V0-VYPLNE
  6
DASHED
 62
    52
100
AcDbLine
 10
1266.681671
 20
-119.17372
 30
0.0
 11
1282.815098
 21
-285.621978
 31
0.0
  0
LINE
  5
3F5D
330
4D4D
100
AcDbEntity
  8
V0-VYPLNE
  6
DASHED
 62
    52
100
AcDbLine
 10
1338.760398
 20
-119.17372
 30
0.0
 11
1322.62697
 21
-285.621978
 31
0.0
  0
LINE
  5
3F6B
330
4D4D
100
AcDbEntity
  8
V0-VYPLNE
  6
DASHED
 62
    52
100
AcDbLine
 10
1282.815098
 20
-285.621978
 30
0.0
 11
1322.62697
 21
-285.621978
 31
0.0
  0
ELLIPSE
  5
3F6C
330
4D4D
100
AcDbEntity
  8
V0-VYPLNE
  6
DASHED
 62
    52
100
AcDbEllipse
 10
275.99323
 20
-22.154234
 30
0.0
 11
4.320099833421409E-11
 21
1174.336946725988
 31
0.0
210
0.0
220
0.0
230
-1.0
 40
0.9090909999999999
 41
1.480829966572563
 42
1.560998901912708
  0
LINE
  5
3F6D
330
4D4D
100
AcDbEntity
  8
V0-VYPLNE
  6
DASHED
 62
    52
100
AcDbLine
 10
1266.721034
 20
-10.64894
 30
0.0
 11
1266.721034
 21
89.67106
 31
0.0
  0
LINE
  5
3F6E
330
4D4D
100
AcDbEntity
  8
V0-VYPLNE
  6
DASHED
 62
    52
100
AcDbLine
 10
1302.721034
 20
94.70048199999999
 30
0.0
 11
1302.721034
 21
-10.64894
 31
0.0
  0
LINE
  5
3F6F
330
4D4D
100
AcDbEntity
  8
V0-VYPLNE
  6
DASHDOT
 62
    63
100
AcDbLine
 10
1213.917908
 20
-11.001013
 30
0.0
 11
1366.902694
 21
-11.001013
 31
0.0
  0
ELLIPSE
  5
3F70
330
4D4D
100
AcDbEntity
  8
V0-VYPLNE
  6
DASHED
 62
    52
100
AcDbEllipse
 10
1302.721034
 20
42.414984
 30
0.0
 11
-6.821210263296962E-13
 21
158.4133457296311
 31
0.0
210
0.0
220
0.0
230
-1.0
 40
0.9090909999999999
 41
2.929991421004501
 42
3.394251156505872
  0
LINE
  5
3F71
330
4D4D
100
AcDbEntity
  8
V0-VYPLNE
  6
DASHED
 62
    52
100
AcDbLine
 10
1267.356234
 20
-22.695027
 30
0.0
 11
1341.465076
 21
1.810407999999999
 31
0.0
  0
LINE
  5
3F72
330
4D4D
100
AcDbEntity
  8
V0-VYPLNE
  6
DASHED
 62
    52
100
AcDbLine
 10
1302.721034
 20
-115.998362
 30
0.0
 11
1302.721034
 21
-10.64894
 31
0.0
  0
LINE
  5
3F73
330
4D4D
100
AcDbEntity
  8
V0-VYPLNE
  6
DASHED
 62
    52
100
AcDbLine
 10
1266.721034
 20
-10.64894
 30
0.0
 11
1266.721034
 21
-110.96894
 31
0.0
  0
LINE
  5
3F74
330
4D4D
100
AcDbEntity
  8
V0-VYPLNE
  6
DASHED
 62
    52
100
AcDbLine
 10
1272.827739
 20
-112.41928
 30
0.0
 11
1266.681671
 21
-119.17372
 31
0.0
  0
ELLIPSE
  5
3F75
330
4D4D
100
AcDbEntity
  8
V0-VYPLNE
  6
DASHED
 62
    52
100
AcDbEllipse
 10
1302.721034
 20
-11.001013
 30
0.0
 11
6.821210263296962E-13
 21
7.458195139447457
 31
0.0
210
0.0
220
0.0
230
-1.0
 40
0.909091
 41
0.0
 42
6.283185307179586
  0
ELLIPSE
  5
3F76
330
4D4D
100
AcDbEntity
  8
V0-VYPLNE
  6
DASHED
 62
    52
100
AcDbEllipse
 10
275.99323
 20
0.856354
 30
0.0
 11
5.400124791776761E-12
 21
1174.336946726077
 31
0.0
210
0.0
220
0.0
230
-1.0
 40
0.909091
 41
1.580593751677045
 42
1.660762687017184
  0
LINE
  5
3F77
330
4D4D
100
AcDbEntity
  8
V0-VYPLNE
  6
DASHED
 62
    52
100
AcDbLine
 10
1332.614329
 20
-112.41928
 30
0.0
 11
1338.760398
 21
-119.17372
 31
0.0
  0
ELLIPSE
  5
3F78
330
4D4D
100
AcDbEntity
  8
V0-VYPLNE
  6
DASHED
 62
    52
100
AcDbEllipse
 10
1331.287076
 20
-103.861366
 30
0.0
 11
6.821210263296962E-13
 21
8.799999999999983
 31
0.0
210
0.0
220
0.0
230
-1.0
 40
0.909091
 41
1.660762687017155
 42
2.929991421004478
  0
LINE
  5
3F79
330
4D4D
100
AcDbEntity
  8
V0-VYPLNE
  6
DASHED
 62
    52
100
AcDbLine
 10
1282.815098
 20
264.324098
 30
0.0
 11
1322.62697
 21
264.324098
 31
0.0
  0
ELLIPSE
  5
3F7A
330
4D4D
100
AcDbEntity
  8
V0-VYPLNE
  6
DASHED
 62
    52
100
AcDbEllipse
 10
1302.721034
 20
-63.712864
 30
0.0
 11
-1.136868377216160E-12
 21
158.413345729631
 31
0.0
210
0.0
220
0.0
230
-1.0
 40
0.9090910000000001
 41
-0.2526585029160793
 42
0.2116012325852628
  0
LINE
  5
3F7B
330
4D4D
100
AcDbEntity
  8
V0-VYPLNE
  6
DASHED
 62
    52
100
AcDbLine
 10
1266.681671
 20
97.87584
 30
0.0
 11
1282.815098
 21
264.324098
 31
0.0
  0
LINE
  5
3F7C
330
4D4D
100
AcDbEntity
  8
V0-VYPLNE
  6
DASHED
 62
    52
100
AcDbLine
 10
1272.827739
 20
91.12139999999999
 30
0.0
 11
1266.681671
 21
97.87584
 31
0.0
  0
LINE
  5
3F7D
330
4D4D
100
AcDbEntity
  8
V0-VYPLNE
  6
DASHED
 62
    52
100
AcDbLine
 10
1338.760398
 20
97.87584
 30
0.0
 11
1322.62697
 21
264.324098
 31
0.0
  0
LINE
  5
3F7E
330
4D4D
100
AcDbEntity
  8
V0-VYPLNE
  6
DASHED
 62
    52
100
AcDbLine
 10
1332.614329
 20
91.12139999999999
 30
0.0
 11
1338.760398
 21
97.87584
 31
0.0
  0
LINE
  5
3F8B
330
4D4D
100
AcDbEntity
  8
V0-OBRYS
  6
CONTINUOUS
 62
    90
 48
2.0
100
AcDbLine
 10
1236.721191
 20
343.999093
 30
0.0
 11
1236.721191
 21
-11.00090699999998
 31
0.0
  0
LINE
  5
3F91
330
4D4D
100
AcDbEntity
  8
V0-OBRYS
  6
CONTINUOUS
 62
    90
 48
2.0
100
AcDbLine
 10
1236.721191
 20
-366.000907
 30
0.0
 11
1236.721191
 21
-11.00090699999998
 31
0.0
  0
LINE
  5
3F92
330
4D4D
100
AcDbEntity
  8
V0-OBRYS
  6
CONTINUOUS
 62
    90
 48
2.0
100
AcDbLine
 10
1222.090934
 20
-242.568871
 30
0.0
 11
1222.090934
 21
-139.25365
 31
0.0
  0
LINE
  5
3F93
330
4D4D
100
AcDbEntity
  8
V0-OBRYS
  6
CONTINUOUS
 62
    90
 48
2.0
100
AcDbLine
 10
1224.901635
 20
-242.568871
 30
0.0
 11
1224.901635
 21
-139.25365
 31
0.0
  0
LINE
  5
3F94
330
4D4D
100
AcDbEntity
  8
V0-OBRYS
  6
CONTINUOUS
 62
    90
 48
2.0
100
AcDbLine
 10
1248.321191
 20
-366.000907
 30
0.0
 11
1236.721191
 21
-366.000907
 31
0.0
  0
ARC
  5
3F97
330
4D4D
100
AcDbEntity
  8
V0-OBRYS
  6
CONTINUOUS
 62
    90
 48
2.0
100
AcDbCircle
 10
1231.090934
 20
-242.568871
 30
0.0
 40
6.189299
100
AcDbArc
 50
180.0
 51
215.946405
  0
ARC
  5
3F98
330
4D4D
100
AcDbEntity
  8
V0-OBRYS
  6
CONTINUOUS
 62
    90
 48
2.0
100
AcDbCircle
 10
1235.534701
 20
-242.476612
 30
0.0
 40
13.444084
100
AcDbArc
 50
180.393192
 51
223.416411
  0
CIRCLE
  5
3F99
330
4D4D
100
AcDbEntity
  8
V0-OBRYS
  6
CONTINUOUS
 62
    90
 48
2.0
100
AcDbCircle
 10
1219.195912
 20
-235.42224
 30
0.0
 40
2.894689
  0
CIRCLE
  5
3F9A
330
4D4D
100
AcDbEntity
  8
V0-OBRYS
  6
CONTINUOUS
 62
    90
 48
2.0
100
AcDbCircle
 10
1219.195912
 20
-213.82224
 30
0.0
 40
2.894689
  0
LINE
  5
3F9B
330
4D4D
100
AcDbEntity
  8
V0-OBRYS
  6
CONTINUOUS
 62
    90
 48
2.0
100
AcDbLine
 10
1233.886152
 20
-331.546817
 30
0.0
 11
1233.886152
 21
-314.754848
 31
0.0
  0
ARC
  5
3F9C
330
4D4D
100
AcDbEntity
  8
V0-OBRYS
  6
CONTINUOUS
 62
    90
 48
2.0
100
AcDbCircle
 10
1235.303672
 20
-331.546817
 30
0.0
 40
1.41752
100
AcDbArc
 50
180.0
 51
0.0
  0
CIRCLE
  5
3FA2
330
4D4D
100
AcDbEntity
  8
V0-OBRYS
  6
CONTINUOUS
 62
    90
 48
2.0
100
AcDbCircle
 10
1219.195912
 20
-192.22224
 30
0.0
 40
2.894689
  0
CIRCLE
  5
3FA3
330
4D4D
100
AcDbEntity
  8
V0-OBRYS
  6
CONTINUOUS
 62
    90
 48
2.0
100
AcDbCircle
 10
1219.195912
 20
-170.62224
 30
0.0
 40
2.894689
  0
CIRCLE
  5
3FA4
330
4D4D
100
AcDbEntity
  8
V0-OBRYS
  6
CONTINUOUS
 62
    90
 48
2.0
100
AcDbCircle
 10
1219.195912
 20
-149.02224
 30
0.0
 40
2.894689
  0
ARC
  5
3FA6
330
4D4D
100
AcDbEntity
  8
V0-OBRYS
  6
CONTINUOUS
 62
    90
 48
2.0
100
AcDbCircle
 10
1231.090934
 20
117.251836
 30
0.0
 40
6.189299
100
AcDbArc
 50
180.0
 51
230.825893
  0
ARC
  5
3FA7
330
4D4D
100
AcDbEntity
  8
V0-OBRYS
  6
CONTINUOUS
 62
    90
 48
2.0
100
AcDbCircle
 10
1231.090934
 20
117.251836
 30
0.0
 40
9.0
100
AcDbArc
 50
180.0
 51
230.825893
  0
ARC
  5
3FAA
330
4D4D
100
AcDbEntity
  8
V0-OBRYS
  6
CONTINUOUS
 62
    90
 48
2.0
100
AcDbCircle
 10
1204.353879
 20
217.102518
 30
0.0
 40
138.729137
100
AcDbArc
 50
277.666871
 51
292.085242
  0
ARC
  5
3FAB
330
4D4D
100
AcDbEntity
  8
V0-OBRYS
  6
CONTINUOUS
 62
    90
 48
2.0
100
AcDbCircle
 10
1202.050043
 20
258.600554
 30
0.0
 40
180.106075
100
AcDbArc
 50
275.736873
 51
287.010184
  0
CIRCLE
  5
3FAC
330
4D4D
100
AcDbEntity
  8
V0-OBRYS
  6
CONTINUOUS
 62
    90
 48
2.0
100
AcDbCircle
 10
1219.32239
 20
191.820426
 30
0.0
 40
2.894689
  0
LINE
  5
3FAD
330
4D4D
100
AcDbEntity
  8
V0-OBRYS
  6
CONTINUOUS
 62
    90
 48
2.0
100
AcDbLine
 10
1224.901635
 20
220.567058
 30
0.0
 11
1224.901635
 21
117.251836
 31
0.0
  0
LINE
  5
3FAE
330
4D4D
100
AcDbEntity
  8
V0-OBRYS
  6
CONTINUOUS
 62
    90
 48
2.0
100
AcDbLine
 10
1222.090934
 20
220.567058
 30
0.0
 11
1222.090934
 21
117.251836
 31
0.0
  0
CIRCLE
  5
3FAF
330
4D4D
100
AcDbEntity
  8
V0-OBRYS
  6
CONTINUOUS
 62
    90
 48
2.0
100
AcDbCircle
 10
1219.32239
 20
170.220426
 30
0.0
 40
2.894689
  0
CIRCLE
  5
3FB0
330
4D4D
100
AcDbEntity
  8
V0-OBRYS
  6
CONTINUOUS
 62
    90
 48
2.0
100
AcDbCircle
 10
1219.32239
 20
127.020426
 30
0.0
 40
2.894689
  0
CIRCLE
  5
3FB1
330
4D4D
100
AcDbEntity
  8
V0-OBRYS
  6
CONTINUOUS
 62
    90
 48
2.0
100
AcDbCircle
 10
1219.32239
 20
148.620426
 30
0.0
 40
2.894689
  0
ARC
  5
3FB4
330
4D4D
100
AcDbEntity
  8
V0-OBRYS
  6
CONTINUOUS
 62
    90
 48
2.0
100
AcDbCircle
 10
1231.090934
 20
220.567058
 30
0.0
 40
6.189299
100
AcDbArc
 50
144.607521
 51
180.0
  0
CIRCLE
  5
3FB5
330
4D4D
100
AcDbEntity
  8
V0-OBRYS
  6
CONTINUOUS
 62
    90
 48
2.0
100
AcDbCircle
 10
1219.32239
 20
213.420426
 30
0.0
 40
2.894689
  0
ARC
  5
3FB6
330
4D4D
100
AcDbEntity
  8
V0-OBRYS
  6
CONTINUOUS
 62
    90
 48
2.0
100
AcDbCircle
 10
1231.090934
 20
220.567058
 30
0.0
 40
9.0
100
AcDbArc
 50
144.271055
 51
180.0
  0
ARC
  5
3FB7
330
4D4D
100
AcDbEntity
  8
V0-OBRYS
  6
CONTINUOUS
 62
    90
 48
2.0
100
AcDbCircle
 10
1235.303672
 20
309.545004
 30
0.0
 40
1.41752
100
AcDbArc
 50
0.0
 51
180.0
  0
LINE
  5
3FB8
330
4D4D
100
AcDbEntity
  8
V0-OBRYS
  6
CONTINUOUS
 62
    90
 48
2.0
100
AcDbLine
 10
1233.886152
 20
309.545004
 30
0.0
 11
1233.886152
 21
292.753034
 31
0.0
  0
LINE
  5
3FB9
330
4D4D
100
AcDbEntity
  8
V0-OBRYS
  6
CONTINUOUS
 62
    90
 48
2.0
100
AcDbLine
 10
1248.321191
 20
343.999093
 30
0.0
 11
1236.721191
 21
343.999093
 31
0.0
  0
LINE
  5
4016
330
4D4D
100
AcDbEntity
  8
V0-OBRYS
  6
CONTINUOUS
 62
    90
 48
2.0
100
AcDbLine
 10
1213.499806
 20
57.577264
 30
0.0
 11
1192.448036
 21
42.428131
 31
0.0
  0
LINE
  5
4017
330
4D4D
100
AcDbEntity
  8
V0-OBRYS
  6
CONTINUOUS
 62
    90
 48
2.0
100
AcDbLine
 10
1214.257965
 20
73.483856
 30
0.0
 11
1191.689883
 21
51.517613
 31
0.0
  0
LINE
  5
4018
330
4D4D
100
AcDbEntity
  8
V0-OBRYS
  6
CONTINUOUS
 62
    90
 48
2.0
100
AcDbLine
 10
1213.499806
 20
2.282927
 30
0.0
 11
1191.689883
 21
1.525471
 31
0.0
  0
LINE
  5
4019
330
4D4D
100
AcDbEntity
  8
V0-OBRYS
  6
CONTINUOUS
 62
    90
 48
2.0
100
AcDbLine
 10
1213.499806
 20
20.461888
 30
0.0
 11
1191.689883
 21
17.43206
 31
0.0
  0
LINE
  5
401A
330
4D4D
100
AcDbEntity
  8
V0-OBRYS
  6
CONTINUOUS
 62
    90
 48
2.0
100
AcDbLine
 10
1214.257965
 20
38.640846
 30
0.0
 11
1190.931724
 21
31.823736
 31
0.0
  0
LINE
  5
401B
330
4D4D
100
AcDbEntity
  8
V0-OBRYS
  6
CONTINUOUS
 62
    90
 48
2.0
100
AcDbLine
 10
1213.499806
 20
-42.463702
 30
0.0
 11
1191.689883
 21
-39.433874
 31
0.0
  0
LINE
  5
401C
330
4D4D
100
AcDbEntity
  8
V0-OBRYS
  6
CONTINUOUS
 62
    90
 48
2.0
100
AcDbLine
 10
1213.499806
 20
-24.284741
 30
0.0
 11
1191.689883
 21
-23.527285
 31
0.0
  0
LINE
  5
401D
330
4D4D
100
AcDbEntity
  8
V0-OBRYS
  6
CONTINUOUS
 62
    90
 48
2.0
100
AcDbLine
 10
1214.257965
 20
-60.64266
 30
0.0
 11
1190.931724
 21
-53.82555
 31
0.0
  0
LINE
  5
401E
330
4D4D
100
AcDbEntity
  8
V0-OBRYS
  6
CONTINUOUS
 62
    90
 48
2.0
100
AcDbLine
 10
1214.257965
 20
-95.48567
 30
0.0
 11
1191.689883
 21
-73.51942699999999
 31
0.0
  0
LINE
  5
401F
330
4D4D
100
AcDbEntity
  8
V0-OBRYS
  6
CONTINUOUS
 62
    90
 48
2.0
100
AcDbLine
 10
1213.499806
 20
-79.579078
 30
0.0
 11
1192.448036
 21
-64.429945
 31
0.0
  0
LINE
  5
4021
330
4D4D
100
AcDbEntity
  8
V0-OBRYS
  6
CONTINUOUS
 62
    90
 48
2.0
100
AcDbLine
 10
1204.29963
 20
-101.001627
 30
0.0
 11
1236.72115
 21
-101.001627
 31
0.0
  0
LINE
  5
4022
330
4D4D
100
AcDbEntity
  8
V0-OBRYS
  6
CONTINUOUS
 62
    90
 48
2.0
100
AcDbLine
 10
1204.29963
 20
78.999813
 30
0.0
 11
1236.72115
 21
78.999813
 31
0.0
  0
LINE
  5
4023
330
4D4D
100
AcDbEntity
  8
V0-OBRYS
  6
CONTINUOUS
 62
    90
 48
2.0
100
AcDbLine
 10
1191.51003
 20
-11.000907
 30
0.0
 11
1191.51003
 21
-85.21202700000001
 31
0.0
  0
ARC
  5
4024
330
4D4D
100
AcDbEntity
  8
V0-OBRYS
  6
CONTINUOUS
 62
    90
 48
2.0
100
AcDbCircle
 10
1204.779924
 20
-87.53798999999999
 30
0.0
 40
13.472201
100
AcDbArc
 50
170.05812
 51
267.95693
  0
LINE
  5
4025
330
4D4D
100
AcDbEntity
  8
V0-OBRYS
  6
CONTINUOUS
 62
    90
 48
2.0
100
AcDbLine
 10
1191.51003
 20
-11.000907
 30
0.0
 11
1191.51003
 21
63.21021300000001
 31
0.0
  0
ARC
  5
4026
330
4D4D
100
AcDbEntity
  8
V0-OBRYS
  6
CONTINUOUS
 62
    90
 48
2.0
100
AcDbCircle
 10
1204.779924
 20
65.536177
 30
0.0
 40
13.472201
100
AcDbArc
 50
92.04307
 51
189.94188
  0
LINE
  5
4028
330
4D4D
100
AcDbEntity
  8
V0-OBRYS
  6
CONTINUOUS
 62
    90
 48
2.0
100
AcDbLine
 10
1214.51027
 20
-11.000907
 30
0.0
 11
1214.51027
 21
-101.001627
 31
0.0
  0
LINE
  5
4029
330
4D4D
100
AcDbEntity
  8
V0-OBRYS
  6
CONTINUOUS
 62
    90
 48
2.0
100
AcDbLine
 10
1214.257965
 20
-95.48567
 30
0.0
 11
1236.72115
 21
-95.48567
 31
0.0
  0
LINE
  5
402A
330
4D4D
100
AcDbEntity
  8
V0-OBRYS
  6
CONTINUOUS
 62
    90
 48
2.0
100
AcDbLine
 10
1218.048742
 20
-42.463702
 30
0.0
 11
1236.72115
 21
-42.463702
 31
0.0
  0
LINE
  5
402B
330
4D4D
100
AcDbEntity
  8
V0-OBRYS
  6
CONTINUOUS
 62
    90
 48
2.0
100
AcDbLine
 10
1214.257965
 20
-60.64266
 30
0.0
 11
1236.72115
 21
-60.64266
 31
0.0
  0
LINE
  5
402C
330
4D4D
100
AcDbEntity
  8
V0-OBRYS
  6
CONTINUOUS
 62
    90
 48
2.0
100
AcDbLine
 10
1213.499806
 20
-79.579078
 30
0.0
 11
1236.72115
 21
-79.579078
 31
0.0
  0
LINE
  5
402D
330
4D4D
100
AcDbEntity
  8
V0-OBRYS
  6
CONTINUOUS
 62
    90
 48
2.0
100
AcDbLine
 10
1213.499806
 20
-42.463702
 30
0.0
 11
1218.048742
 21
-42.463702
 31
0.0
  0
LINE
  5
402E
330
4D4D
100
AcDbEntity
  8
V0-OBRYS
  6
CONTINUOUS
 62
    90
 48
2.0
100
AcDbLine
 10
1214.51027
 20
-11.000907
 30
0.0
 11
1214.51027
 21
78.999813
 31
0.0
  0
LINE
  5
402F
330
4D4D
100
AcDbEntity
  8
V0-OBRYS
  6
CONTINUOUS
 62
    90
 48
2.0
100
AcDbLine
 10
1218.048742
 20
20.461888
 30
0.0
 11
1236.72115
 21
20.461888
 31
0.0
  0
LINE
  5
4030
330
4D4D
100
AcDbEntity
  8
V0-OBRYS
  6
CONTINUOUS
 62
    90
 48
2.0
100
AcDbLine
 10
1213.499806
 20
-24.284741
 30
0.0
 11
1236.72115
 21
-24.284741
 31
0.0
  0
LINE
  5
4031
330
4D4D
100
AcDbEntity
  8
V0-OBRYS
  6
CONTINUOUS
 62
    90
 48
2.0
100
AcDbLine
 10
1213.499806
 20
2.282927
 30
0.0
 11
1236.72115
 21
2.282927
 31
0.0
  0
LINE
  5
4032
330
4D4D
100
AcDbEntity
  8
V0-OBRYS
  6
CONTINUOUS
 62
    90
 48
2.0
100
AcDbLine
 10
1214.257965
 20
38.640846
 30
0.0
 11
1236.72115
 21
38.640846
 31
0.0
  0
LINE
  5
4033
330
4D4D
100
AcDbEntity
  8
V0-OBRYS
  6
CONTINUOUS
 62
    90
 48
2.0
100
AcDbLine
 10
1213.499806
 20
20.461888
 30
0.0
 11
1218.048742
 21
20.461888
 31
0.0
  0
LINE
  5
4034
330
4D4D
100
AcDbEntity
  8
V0-OBRYS
  6
CONTINUOUS
 62
    90
 48
2.0
100
AcDbLine
 10
1213.499806
 20
57.577264
 30
0.0
 11
1236.72115
 21
57.577264
 31
0.0
  0
LINE
  5
4035
330
4D4D
100
AcDbEntity
  8
V0-OBRYS
  6
CONTINUOUS
 62
    90
 48
2.0
100
AcDbLine
 10
1214.257965
 20
73.483856
 30
0.0
 11
1236.72115
 21
73.483856
 31
0.0
  0
LINE
  5
404E
330
4D4D
100
AcDbEntity
  8
V0-VYPLNE
  6
DASHED
 62
    52
100
AcDbLine
 10
1258.992166
 20
-93.106827
 30
0.0
 11
1258.992166
 21
-11.000907
 31
0.0
  0
LINE
  5
4050
330
4D4D
100
AcDbEntity
  8
V0-VYPLNE
  6
DASHED
 62
    52
100
AcDbLine
 10
1236.721237
 20
-95.48567
 30
0.0
 11
1258.992166
 21
-95.48567
 31
0.0
  0
LINE
  5
4051
330
4D4D
100
AcDbEntity
  8
V0-VYPLNE
  6
DASHED
 62
    52
100
AcDbLine
 10
1236.721237
 20
-101.001627
 30
0.0
 11
1248.097366
 21
-101.001627
 31
0.0
  0
LINE
  5
4052
330
4D4D
100
AcDbEntity
  8
V0-VYPLNE
  6
DASHED
 62
    52
100
AcDbLine
 10
1236.721237
 20
-79.579078
 30
0.0
 11
1258.992166
 21
-79.579078
 31
0.0
  0
LINE
  5
4053
330
4D4D
100
AcDbEntity
  8
V0-VYPLNE
  6
DASHED
 62
    52
100
AcDbLine
 10
1236.721237
 20
-60.64266
 30
0.0
 11
1258.234013
 21
-60.64266
 31
0.0
  0
LINE
  5
4054
330
4D4D
100
AcDbEntity
  8
V0-VYPLNE
  6
DASHED
 62
    52
100
AcDbLine
 10
1236.721237
 20
-42.463702
 30
0.0
 11
1258.992166
 21
-42.463702
 31
0.0
  0
ARC
  5
4055
330
4D4D
100
AcDbEntity
  8
V0-VYPLNE
  6
DASHED
 62
    52
 48
2.0
100
AcDbCircle
 10
1248.481095
 20
-90.06637600000001
 30
0.0
 40
10.941982
100
AcDbArc
 50
267.99026
 51
343.866865
  0
LINE
  5
4056
330
4D4D
100
AcDbEntity
  8
V0-VYPLNE
  6
DASHED
 62
    52
100
AcDbLine
 10
1236.721237
 20
2.282927
 30
0.0
 11
1258.234013
 21
2.282927
 31
0.0
  0
LINE
  5
4057
330
4D4D
100
AcDbEntity
  8
V0-VYPLNE
  6
DASHED
 62
    52
100
AcDbLine
 10
1236.721237
 20
20.461888
 30
0.0
 11
1258.992166
 21
20.461888
 31
0.0
  0
LINE
  5
4058
330
4D4D
100
AcDbEntity
  8
V0-VYPLNE
  6
DASHED
 62
    52
100
AcDbLine
 10
1236.721237
 20
38.640846
 30
0.0
 11
1258.234013
 21
38.640846
 31
0.0
  0
LINE
  5
4059
330
4D4D
100
AcDbEntity
  8
V0-VYPLNE
  6
DASHED
 62
    52
100
AcDbLine
 10
1236.721237
 20
57.577264
 30
0.0
 11
1258.992166
 21
57.577264
 31
0.0
  0
LINE
  5
405A
330
4D4D
100
AcDbEntity
  8
V0-VYPLNE
  6
DASHED
 62
    52
100
AcDbLine
 10
1236.721237
 20
73.483856
 30
0.0
 11
1258.992166
 21
73.483856
 31
0.0
  0
LINE
  5
405B
330
4D4D
100
AcDbEntity
  8
V0-VYPLNE
  6
DASHED
 62
    52
100
AcDbLine
 10
1236.721237
 20
78.999813
 30
0.0
 11
1248.097366
 21
78.999813
 31
0.0
  0
LINE
  5
405C
330
4D4D
100
AcDbEntity
  8
V0-VYPLNE
  6
DASHED
 62
    52
100
AcDbLine
 10
1236.721237
 20
-24.284741
 30
0.0
 11
1258.234013
 21
-24.284741
 31
0.0
  0
LINE
  5
405D
330
4D4D
100
AcDbEntity
  8
V0-VYPLNE
  6
DASHED
 62
    52
100
AcDbLine
 10
1258.992166
 20
71.105013
 30
0.0
 11
1258.992166
 21
-11.000907
 31
0.0
  0
ARC
  5
405E
330
4D4D
100
AcDbEntity
  8
V0-VYPLNE
  6
DASHED
 62
    52
 48
2.0
100
AcDbCircle
 10
1248.481095
 20
68.064562
 30
0.0
 40
10.941982
100
AcDbArc
 50
16.133135
 51
92.00973999999999
  0
DIMENSION
  5
409E
330
4D4D
100
AcDbEntity
  8
V0-OBRYS
  6
CONTINUOUS
 62
    90
100
AcDbDimension
  2
*D6
 10
1347.878441
 20
-471.407643999983
 30
0.0
 11
1299.599816
 21
-471.407644
 31
0.0
 70
   160
  1
99
  3
ED40
100
AcDbAlignedDimension
 13
1248.321191
 23
-366.000907
 33
0.0
 14
1347.878441
 24
-291.000457
 34
0.0
100
AcDbRotatedDimension
  0
DIMENSION
  5
41E1
330
4D4D
100
AcDbEntity
  8
V0-VYPLNE
  6
CONTINUOUS
 62
    41
100
AcDbDimension
  2
*D7
 10
2432.61945
 20
-628.7843080000021
 30
0.0
 11
2081.990817
 21
-628.784308
 31
0.0
 70
   160
  1
710
  3
ED40
100
AcDbAlignedDimension
 13
1723.734483
 23
-383.747484
 33
0.0
 14
2432.61945
 24
-383.747484
 34
0.0
100
AcDbRotatedDimension
  0
DIMENSION
  5
41E2
330
4D4D
100
AcDbEntity
  8
V0-OBRYS
  6
CONTINUOUS
 62
    90
100
AcDbDimension
  2
*D8
 10
2393.445575
 20
-546.6922819998581
 30
0.0
 11
2074.114557
 21
-546.692282
 31
0.0
 70
   160
  1
630
  3
ED40
100
AcDbAlignedDimension
 13
1762.908302
 23
-389.010308
 33
0.0
 14
2393.445575
 24
-389.010364
 34
0.0
100
AcDbRotatedDimension
  0
LINE
  5
41E4
330
4D4D
100
AcDbEntity
  8
V0-OBRYS
  6
CONTINUOUS
100
AcDbLine
 10
2432.61945
 20
294.966416
 30
0.0
 11
2432.61945
 21
-368.887108
 31
0.0
  0
LINE
  5
41E5
330
4D4D
100
AcDbEntity
  8
V0-OBRYS
  6
CONTINUOUS
100
AcDbLine
 10
1723.734483
 20
-368.887108
 30
0.0
 11
1723.734483
 21
294.966416
 31
0.0
  0
LINE
  5
41E6
330
4D4D
100
AcDbEntity
  8
V0-OBRYS
  6
CONTINUOUS
100
AcDbLine
 10
2410.103728
 20
-391.402829
 30
0.0
 11
1746.250204
 21
-391.402829
 31
0.0
  0
ARC
  5
41E7
330
4D4D
100
AcDbEntity
  8
V0-OBRYS
  6
CONTINUOUS
100
AcDbCircle
 10
1746.250204
 20
-368.887108
 30
0.0
 40
22.515721
100
AcDbArc
 50
180.0
 51
270.0
  0
LINE
  5
41E8
330
4D4D
100
AcDbEntity
  8
V0-VYPLNE
  6
DASHDOT
 62
    63
100
AcDbLine
 10
1762.908302
 20
-389.010308
 30
0.0
 11
1762.908302
 21
-303.823471
 31
0.0
  0
CIRCLE
  5
41E9
330
4D4D
100
AcDbEntity
  8
V0-OBRYS
  6
CONTINUOUS
 62
    90
100
AcDbCircle
 10
1762.908302
 20
-352.228955
 30
0.0
 40
9.195338
  0
LINE
  5
41EA
330
4D4D
100
AcDbEntity
  8
V0-VYPLNE
  6
DASHDOT
 62
    63
100
AcDbLine
 10
1726.126949
 20
-352.228955
 30
0.0
 11
1804.298399
 21
-352.228955
 31
0.0
  0
LINE
  5
41EB
330
4D4D
100
AcDbEntity
  8
V0-VYPLNE
  6
DASHDOT
 62
    63
100
AcDbLine
 10
2393.445575
 20
-389.010364
 30
0.0
 11
2393.445575
 21
-305.598801
 31
0.0
  0
LINE
  5
41EC
330
4D4D
100
AcDbEntity
  8
V0-VYPLNE
  6
DASHDOT
 62
    63
100
AcDbLine
 10
2430.226928
 20
-352.229011
 30
0.0
 11
2352.82031
 21
-352.229011
 31
0.0
  0
CIRCLE
  5
41ED
330
4D4D
100
AcDbEntity
  8
V0-OBRYS
  6
CONTINUOUS
 62
    90
100
AcDbCircle
 10
2393.445575
 20
-352.229011
 30
0.0
 40
9.195338
  0
ARC
  5
41EE
330
4D4D
100
AcDbEntity
  8
V0-OBRYS
  6
CONTINUOUS
100
AcDbCircle
 10
2410.103728
 20
-368.887108
 30
0.0
 40
22.515721
100
AcDbArc
 50
270.0
 51
0.0
  0
LINE
  5
41F0
330
4D4D
100
AcDbEntity
  8
V0-OBRYS
  6
CONTINUOUS
100
AcDbLine
 10
1746.250204
 20
317.482137
 30
0.0
 11
2410.103728
 21
317.482137
 31
0.0
  0
LINE
  5
41F1
330
4D4D
100
AcDbEntity
  8
V0-VYPLNE
  6
DASHDOT
 62
    63
100
AcDbLine
 10
1726.127004
 20
278.308318
 30
0.0
 11
1803.533623
 21
278.308318
 31
0.0
  0
CIRCLE
  5
41F2
330
4D4D
100
AcDbEntity
  8
V0-OBRYS
  6
CONTINUOUS
 62
    90
100
AcDbCircle
 10
1762.908357
 20
278.308318
 30
0.0
 40
9.195338
  0
LINE
  5
41F3
330
4D4D
100
AcDbEntity
  8
V0-VYPLNE
  6
DASHDOT
 62
    63
100
AcDbLine
 10
1762.908357
 20
315.089671
 30
0.0
 11
1762.908357
 21
236.918221
 31
0.0
  0
ARC
  5
41F4
330
4D4D
100
AcDbEntity
  8
V0-OBRYS
  6
CONTINUOUS
100
AcDbCircle
 10
1746.250204
 20
294.966416
 30
0.0
 40
22.515721
100
AcDbArc
 50
90.0
 51
180.0
  0
LINE
  5
41F5
330
4D4D
100
AcDbEntity
  8
V0-VYPLNE
  6
DASHDOT
 62
    63
100
AcDbLine
 10
2430.226984
 20
278.308263
 30
0.0
 11
2352.055533
 21
278.308263
 31
0.0
  0
LINE
  5
41F6
330
4D4D
100
AcDbEntity
  8
V0-VYPLNE
  6
DASHDOT
 62
    63
100
AcDbLine
 10
2393.445631
 20
315.089616
 30
0.0
 11
2393.445631
 21
237.682997
 31
0.0
  0
CIRCLE
  5
41F7
330
4D4D
100
AcDbEntity
  8
V0-OBRYS
  6
CONTINUOUS
 62
    90
100
AcDbCircle
 10
2393.445631
 20
278.308263
 30
0.0
 40
9.195338
  0
ARC
  5
41F8
330
4D4D
100
AcDbEntity
  8
V0-OBRYS
  6
CONTINUOUS
100
AcDbCircle
 10
2410.103728
 20
294.966416
 30
0.0
 40
22.515721
100
AcDbArc
 50
0.0
 51
90.0
  0
CIRCLE
  5
424A
330
4D4D
100
AcDbEntity
  8
V0-OBRYS
  6
CONTINUOUS
 62
    90
100
AcDbCircle
 10
2078.176966
 20
-36.960346
 30
0.0
 40
274.426626
  0
CIRCLE
  5
424B
330
4D4D
100
AcDbEntity
  8
V0-OBRYS
  6
CONTINUOUS
 62
    90
100
AcDbCircle
 10
2078.176966
 20
-36.960346
 30
0.0
 40
311.918235
  0
LINE
  5
424C
330
4D4D
100
AcDbEntity
  8
V0-OBRYS
  6
CONTINUOUS
 62
    90
100
AcDbLine
 10
1943.052393
 20
-47.236686
 30
0.0
 11
1995.252941
 21
-43.266789
 31
0.0
  0
LINE
  5
424D
330
4D4D
100
AcDbEntity
  8
V0-OBRYS
  6
CONTINUOUS
 62
    90
100
AcDbLine
 10
1943.052393
 20
-26.684006
 30
0.0
 11
1995.252941
 21
-30.653903
 31
0.0
  0
LINE
  5
424E
330
4D4D
100
AcDbEntity
  8
V0-OBRYS
  6
CONTINUOUS
 62
    90
100
AcDbLine
 10
1997.34481
 20
-17.407147
 30
0.0
 11
1945.542416
 21
-4.876211
 31
0.0
  0
LINE
  5
424F
330
4D4D
100
AcDbEntity
  8
V0-OBRYS
  6
CONTINUOUS
 62
    90
100
AcDbLine
 10
1952.389973
 20
14.439267
 30
0.0
 11
2001.192672
 21
-5.502698000000001
 31
0.0
  0
LINE
  5
4250
330
4D4D
100
AcDbEntity
  8
V0-OBRYS
  6
CONTINUOUS
 62
    90
100
AcDbLine
 10
1986.56966
 20
17.791068
 30
0.0
 11
1959.860038
 21
33.754746
 31
0.0
  0
LINE
  5
4252
330
4D4D
100
AcDbEntity
  8
V0-OBRYS
  6
CONTINUOUS
 62
    90
100
AcDbLine
 10
1972.519022
 20
-142.663113
 30
0.0
 11
1984.289066
 21
-113.661697
 31
0.0
  0
LINE
  5
4253
330
4D4D
100
AcDbEntity
  8
V0-OBRYS
  6
CONTINUOUS
 62
    90
100
AcDbLine
 10
1986.56966
 20
-91.71176
 30
0.0
 11
1959.860038
 21
-107.675438
 31
0.0
  0
LINE
  5
4254
330
4D4D
100
AcDbEntity
  8
V0-OBRYS
  6
CONTINUOUS
 62
    90
100
AcDbLine
 10
1952.389973
 20
-88.35996
 30
0.0
 11
2001.192672
 21
-68.41799399999999
 31
0.0
  0
LINE
  5
4255
330
4D4D
100
AcDbEntity
  8
V0-OBRYS
  6
CONTINUOUS
 62
    90
100
AcDbLine
 10
1997.34481
 20
-56.513546
 30
0.0
 11
1945.542416
 21
-69.04448100000001
 31
0.0
  0
ARC
  5
4256
330
4D4D
100
AcDbEntity
  8
V0-OBRYS
  6
CONTINUOUS
 62
    90
100
AcDbCircle
 10
2078.176966
 20
-36.960346
 30
0.0
 40
107.191973
100
AcDbArc
 50
148.716649
 51
211.283351
  0
ARC
  5
4257
330
4D4D
100
AcDbEntity
  8
V0-OBRYS
  6
CONTINUOUS
 62
    90
100
AcDbCircle
 10
2078.176966
 20
-36.960346
 30
0.0
 40
285.01875
100
AcDbArc
 50
236.13779
 51
252.433638
  0
LINE
  5
4258
330
4D4D
100
AcDbEntity
  8
VO-OBRYS
  6
CONTINUOUS
100
AcDbLine
 10
2004.560203
 20
-75.64803600000001
 30
0.0
 11
1823.992969
 21
-256.21527
 31
0.0
  0
LINE
  5
4259
330
4D4D
100
AcDbEntity
  8
VO-OBRYS
  6
CONTINUOUS
100
AcDbLine
 10
2039.489277
 20
-110.577109
 30
0.0
 11
1858.922043
 21
-291.144344
 31
0.0
  0
LINE
  5
425A
330
4D4D
100
AcDbEntity
  8
VO-OBRYS
  6
CONTINUOUS
100
AcDbLine
 10
2006.355872
 20
-78.88761100000001
 30
0.0
 11
1826.510591
 21
-258.732892
 31
0.0
  0
LINE
  5
425B
330
4D4D
100
AcDbEntity
  8
VO-OBRYS
  6
CONTINUOUS
100
AcDbLine
 10
2036.249701
 20
-108.781441
 30
0.0
 11
1856.40442
 21
-288.626721
 31
0.0
  0
LINE
  5
425C
330
4D4D
100
AcDbEntity
  8
VO-OBRYS
  6
CONTINUOUS
100
AcDbLine
 10
2004.560203
 20
1.727344
 30
0.0
 11
1823.992969
 21
182.294578
 31
0.0
  0
LINE
  5
425D
330
4D4D
100
AcDbEntity
  8
VO-OBRYS
  6
CONTINUOUS
100
AcDbLine
 10
2039.489277
 20
36.656417
 30
0.0
 11
1858.922043
 21
217.223651
 31
0.0
  0
LINE
  5
425E
330
4D4D
100
AcDbEntity
  8
VO-OBRYS
  6
CONTINUOUS
100
AcDbLine
 10
2006.355872
 20
4.966919
 30
0.0
 11
1826.510591
 21
184.8122
 31
0.0
  0
LINE
  5
425F
330
4D4D
100
AcDbEntity
  8
VO-OBRYS
  6
CONTINUOUS
100
AcDbLine
 10
2036.249701
 20
34.860748
 30
0.0
 11
1856.40442
 21
214.706029
 31
0.0
  0
LINE
  5
4260
330
4D4D
100
AcDbEntity
  8
V0-OBRYS
  6
CONTINUOUS
 62
    90
100
AcDbLine
 10
1963.459207
 20
114.151494
 30
0.0
 11
1995.473927
 21
91.778976
 31
0.0
  0
CIRCLE
  5
4261
330
4D4D
100
AcDbEntity
  8
V0-OBRYS
  6
CONTINUOUS
 62
    90
100
AcDbCircle
 10
2078.176966
 20
-36.960346
 30
0.0
 40
153.015051
  0
CIRCLE
  5
4262
330
4D4D
100
AcDbEntity
  8
V0-OBRYS
  6
CONTINUOUS
 62
    90
100
AcDbCircle
 10
2078.176966
 20
-36.960346
 30
0.0
 40
193.283814
  0
CIRCLE
  5
4263
330
4D4D
100
AcDbEntity
  8
V0-OBRYS
  6
CONTINUOUS
 62
    90
100
AcDbCircle
 10
2078.176966
 20
-36.960346
 30
0.0
 40
234.941157
  0
CIRCLE
  5
4264
330
4D4D
100
AcDbEntity
  8
V0-OBRYS
  6
CONTINUOUS
 62
    90
100
AcDbCircle
 10
2078.176966
 20
-36.960346
 30
0.0
 40
231.380702
  0
CIRCLE
  5
4265
330
4D4D
100
AcDbEntity
  8
V0-OBRYS
  6
CONTINUOUS
 62
    90
100
AcDbCircle
 10
2078.176966
 20
-36.960346
 30
0.0
 40
189.723358
  0
CIRCLE
  5
4266
330
4D4D
100
AcDbEntity
  8
V0-OBRYS
  6
CONTINUOUS
 62
    90
100
AcDbCircle
 10
2078.176966
 20
-36.960346
 30
0.0
 40
149.454596
  0
LINE
  5
4267
330
4D4D
100
AcDbEntity
  8
V0-OBRYS
  6
CONTINUOUS
 62
    90
100
AcDbLine
 10
1832.403587
 20
107.369602
 30
0.0
 11
1837.727852
 21
102.542488
 31
0.0
  0
LINE
  5
4268
330
4D4D
100
AcDbEntity
  8
V0-OBRYS
  6
CONTINUOUS
 62
    90
100
AcDbLine
 10
1940.074294
 20
-222.607002
 30
0.0
 11
1954.975631
 21
-185.890073
 31
0.0
  0
ARC
  5
4269
330
4D4D
100
AcDbEntity
  8
VO-OBRYS
  6
CONTINUOUS
100
AcDbCircle
 10
1841.457506
 20
-273.679807
 30
0.0
 40
24.698585
100
AcDbArc
 50
135.0
 51
315.0
  0
ARC
  5
426A
330
4D4D
100
AcDbEntity
  8
VO-OBRYS
  6
CONTINUOUS
100
AcDbCircle
 10
1841.457506
 20
-273.679807
 30
0.0
 40
21.138129
100
AcDbArc
 50
135.0
 51
315.0
  0
LINE
  5
426B
330
4D4D
100
AcDbEntity
  8
V0-OBRYS
  6
CONTINUOUS
 62
    90
100
AcDbLine
 10
1923.437436
 20
-263.60026
 30
0.0
 11
1938.691675
 21
-226.013779
 31
0.0
  0
LINE
  5
426C
330
4D4D
100
AcDbEntity
  8
V0-OBRYS
  6
CONTINUOUS
 62
    90
100
AcDbLine
 10
1919.36522
 20
-273.634209
 30
0.0
 11
1922.067812
 21
-266.975018
 31
0.0
  0
LINE
  5
426D
330
4D4D
100
AcDbEntity
  8
V0-OBRYS
  6
CONTINUOUS
 62
    90
100
AcDbLine
 10
1804.504227
 20
-57.287785
 30
0.0
 11
1843.401384
 21
-45.779241
 31
0.0
  0
ARC
  5
426E
330
4D4D
100
AcDbEntity
  8
V0-OBRYS
  6
CONTINUOUS
 62
    90
100
AcDbCircle
 10
2078.176966
 20
-36.960346
 30
0.0
 40
285.01875
100
AcDbArc
 50
184.709219
 51
201.005067
  0
LINE
  5
426F
330
4D4D
100
AcDbEntity
  8
V0-OBRYS
  6
CONTINUOUS
 62
    90
100
AcDbLine
 10
1812.098074
 20
-139.125461
 30
0.0
 11
1819.191688
 21
-137.972439
 31
0.0
  0
LINE
  5
4270
330
4D4D
100
AcDbEntity
  8
V0-OBRYS
  6
CONTINUOUS
 62
    90
100
AcDbLine
 10
1794.120386
 20
-60.360063
 30
0.0
 11
1801.011789
 21
-58.321096
 31
0.0
  0
LINE
  5
4271
330
4D4D
100
AcDbEntity
  8
V0-OBRYS
  6
CONTINUOUS
 62
    90
100
AcDbLine
 10
1866.454124
 20
-130.290229
 30
0.0
 11
1905.566343
 21
-123.932785
 31
0.0
  0
LINE
  5
4272
330
4D4D
100
AcDbEntity
  8
V0-OBRYS
  6
CONTINUOUS
 62
    90
100
AcDbLine
 10
1822.786603
 20
-137.388108
 30
0.0
 11
1862.8251
 21
-130.880104
 31
0.0
  0
LINE
  5
4273
330
4D4D
100
AcDbEntity
  8
V0-OBRYS
  6
CONTINUOUS
 62
    90
100
AcDbLine
 10
1956.380919
 20
-182.42744
 30
0.0
 11
1971.068565
 21
-146.237042
 31
0.0
  0
LINE
  5
4274
330
4D4D
100
AcDbEntity
  8
V0-OBRYS
  6
CONTINUOUS
 62
    90
100
AcDbLine
 10
1909.254866
 20
-123.333239
 30
0.0
 11
1947.806204
 21
-117.066963
 31
0.0
  0
LINE
  5
4275
330
4D4D
100
AcDbEntity
  8
V0-OBRYS
  6
CONTINUOUS
 62
    90
100
AcDbLine
 10
1951.613284
 20
-116.448147
 30
0.0
 11
1982.506655
 21
-111.426625
 31
0.0
  0
LINE
  5
4276
330
4D4D
100
AcDbEntity
  8
V0-OBRYS
  6
CONTINUOUS
 62
    90
100
AcDbLine
 10
1888.507619
 20
-32.433611
 30
0.0
 11
1925.960009
 21
-21.352532
 31
0.0
  0
LINE
  5
4277
330
4D4D
100
AcDbEntity
  8
V0-OBRYS
  6
CONTINUOUS
 62
    90
100
AcDbLine
 10
1873.201693
 20
70.381007
 30
0.0
 11
1902.558212
 21
43.765645
 31
0.0
  0
LINE
  5
4278
330
4D4D
100
AcDbEntity
  8
V0-OBRYS
  6
CONTINUOUS
 62
    90
100
AcDbLine
 10
1846.926958
 20
-44.736126
 30
0.0
 11
1884.924241
 21
-33.493829
 31
0.0
  0
LINE
  5
4279
330
4D4D
100
AcDbEntity
  8
V0-OBRYS
  6
CONTINUOUS
 62
    90
100
AcDbLine
 10
1840.426093
 20
100.096195
 30
0.0
 11
1870.47785
 21
72.850512
 31
0.0
  0
LINE
  5
427A
330
4D4D
100
AcDbEntity
  8
V0-OBRYS
  6
CONTINUOUS
 62
    90
100
AcDbLine
 10
1905.326713
 20
41.255652
 30
0.0
 11
1934.26225
 21
15.021962
 31
0.0
  0
LINE
  5
427B
330
4D4D
100
AcDbEntity
  8
V0-OBRYS
  6
CONTINUOUS
 62
    90
100
AcDbLine
 10
1937.119736
 20
12.431293
 30
0.0
 11
1960.307422
 21
-8.591249999999999
 31
0.0
  0
LINE
  5
427C
330
4D4D
100
AcDbEntity
  8
V0-OBRYS
  6
CONTINUOUS
 62
    90
100
AcDbLine
 10
1929.658564
 20
-20.258236
 30
0.0
 11
1959.671287
 21
-11.37834
 31
0.0
  0
LINE
  5
427D
330
4D4D
100
AcDbEntity
  8
V0-OBRYS
  6
CONTINUOUS
 62
    90
100
AcDbLine
 10
1959.671287
 20
-11.37834
 30
0.0
 11
1970.38101
 21
-21.533386
 31
0.0
  0
LINE
  5
427E
330
4D4D
100
AcDbEntity
  8
V0-OBRYS
  6
CONTINUOUS
 62
    90
100
AcDbLine
 10
1960.307422
 20
-8.591250000000001
 30
0.0
 11
1974.362659
 21
-4.088645
 31
0.0
  0
ARC
  5
427F
330
4D4D
100
AcDbEntity
  8
VO-OBRYS
  6
CONTINUOUS
100
AcDbCircle
 10
1841.457506
 20
199.759114
 30
0.0
 40
24.698585
100
AcDbArc
 50
45.0
 51
225.0
  0
ARC
  5
4280
330
4D4D
100
AcDbEntity
  8
VO-OBRYS
  6
CONTINUOUS
100
AcDbCircle
 10
1841.457506
 20
199.759114
 30
0.0
 40
21.138129
100
AcDbArc
 50
45.0
 51
225.0
  0
LINE
  5
4281
330
4D4D
100
AcDbEntity
  8
V0-OBRYS
  6
CONTINUOUS
 62
    90
100
AcDbLine
 10
1891.652173
 20
164.331667
 30
0.0
 11
1924.901895
 21
141.096105
 31
0.0
  0
ARC
  5
4282
330
4D4D
100
AcDbEntity
  8
V0-OBRYS
  6
CONTINUOUS
 62
    90
100
AcDbCircle
 10
2078.176966
 20
-36.960346
 30
0.0
 40
285.01875
100
AcDbArc
 50
133.280648
 51
149.576495
  0
LINE
  5
4283
330
4D4D
100
AcDbEntity
  8
V0-OBRYS
  6
CONTINUOUS
 62
    90
100
AcDbLine
 10
1882.77595
 20
170.534547
 30
0.0
 11
1888.666798
 21
166.417906
 31
0.0
  0
LINE
  5
4284
330
4D4D
100
AcDbEntity
  8
V0-OBRYS
  6
CONTINUOUS
 62
    90
100
AcDbLine
 10
1927.915595
 20
138.990071
 30
0.0
 11
1960.396095
 21
116.292057
 31
0.0
  0
LINE
  5
4285
330
4D4D
100
AcDbEntity
  8
V0-OBRYS
  6
CONTINUOUS
 62
    90
100
AcDbLine
 10
2323.950346
 20
107.369602
 30
0.0
 11
2318.626081
 21
102.542488
 31
0.0
  0
LINE
  5
4286
330
4D4D
100
AcDbEntity
  8
V0-OBRYS
  6
CONTINUOUS
 62
    90
100
AcDbLine
 10
2192.894726
 20
114.151494
 30
0.0
 11
2160.880006
 21
91.778976
 31
0.0
  0
LINE
  5
4287
330
4D4D
100
AcDbEntity
  8
VO-OBRYS
  6
CONTINUOUS
100
AcDbLine
 10
2151.79373
 20
1.727344
 30
0.0
 11
2332.360964
 21
182.294578
 31
0.0
  0
LINE
  5
4288
330
4D4D
100
AcDbEntity
  8
VO-OBRYS
  6
CONTINUOUS
100
AcDbLine
 10
2116.864656
 20
36.656417
 30
0.0
 11
2297.43189
 21
217.223651
 31
0.0
  0
LINE
  5
4289
330
4D4D
100
AcDbEntity
  8
VO-OBRYS
  6
CONTINUOUS
100
AcDbLine
 10
2120.104232
 20
34.860748
 30
0.0
 11
2299.949512
 21
214.706029
 31
0.0
  0
LINE
  5
428A
330
4D4D
100
AcDbEntity
  8
VO-OBRYS
  6
CONTINUOUS
100
AcDbLine
 10
2149.998061
 20
4.966919
 30
0.0
 11
2329.843342
 21
184.8122
 31
0.0
  0
LINE
  5
428B
330
4D4D
100
AcDbEntity
  8
V0-OBRYS
  6
CONTINUOUS
 62
    90
100
AcDbLine
 10
2315.92784
 20
100.096195
 30
0.0
 11
2285.876082
 21
72.850512
 31
0.0
  0
LINE
  5
428C
330
4D4D
100
AcDbEntity
  8
V0-OBRYS
  6
CONTINUOUS
 62
    90
100
AcDbLine
 10
2333.56733
 20
-137.388108
 30
0.0
 11
2293.528833
 21
-130.880104
 31
0.0
  0
ARC
  5
428D
330
4D4D
100
AcDbEntity
  8
VO-OBRYS
  6
CONTINUOUS
100
AcDbCircle
 10
2314.896427
 20
-273.679807
 30
0.0
 40
21.138129
100
AcDbArc
 50
225.0
 51
45.0
  0
ARC
  5
428E
330
4D4D
100
AcDbEntity
  8
VO-OBRYS
  6
CONTINUOUS
100
AcDbCircle
 10
2314.896427
 20
-273.679807
 30
0.0
 40
24.698585
100
AcDbArc
 50
225.0
 51
45.0
  0
LINE
  5
428F
330
4D4D
100
AcDbEntity
  8
VO-OBRYS
  6
CONTINUOUS
100
AcDbLine
 10
2151.79373
 20
-75.64803600000001
 30
0.0
 11
2332.360964
 21
-256.21527
 31
0.0
  0
LINE
  5
4290
330
4D4D
100
AcDbEntity
  8
VO-OBRYS
  6
CONTINUOUS
100
AcDbLine
 10
2149.998061
 20
-78.88761100000001
 30
0.0
 11
2329.843342
 21
-258.732892
 31
0.0
  0
LINE
  5
4291
330
4D4D
100
AcDbEntity
  8
V0-OBRYS
  6
CONTINUOUS
 62
    90
100
AcDbLine
 10
2040.384807
 20
-222.88158
 30
0.0
 11
2059.522001
 21
-188.833972
 31
0.0
  0
LINE
  5
4292
330
4D4D
100
AcDbEntity
  8
V0-OBRYS
  6
CONTINUOUS
 62
    90
100
AcDbLine
 10
2115.969126
 20
-222.88158
 30
0.0
 11
2096.831932
 21
-188.833972
 31
0.0
  0
LINE
  5
4293
330
4D4D
100
AcDbEntity
  8
VO-OBRYS
  6
CONTINUOUS
100
AcDbLine
 10
2116.864656
 20
-110.577109
 30
0.0
 11
2297.43189
 21
-291.144344
 31
0.0
  0
LINE
  5
4294
330
4D4D
100
AcDbEntity
  8
VO-OBRYS
  6
CONTINUOUS
100
AcDbLine
 10
2120.104232
 20
-108.781441
 30
0.0
 11
2299.949512
 21
-288.626721
 31
0.0
  0
LINE
  5
4295
330
4D4D
100
AcDbEntity
  8
V0-OBRYS
  6
CONTINUOUS
 62
    90
100
AcDbLine
 10
2216.279639
 20
-222.607002
 30
0.0
 11
2201.378302
 21
-185.890073
 31
0.0
  0
LINE
  5
4296
330
4D4D
100
AcDbEntity
  8
V0-OBRYS
  6
CONTINUOUS
 62
    90
100
AcDbLine
 10
2158.892667
 20
-299.248258
 30
0.0
 11
2139.017235
 21
-263.887226
 31
0.0
  0
LINE
  5
4297
330
4D4D
100
AcDbEntity
  8
V0-OBRYS
  6
CONTINUOUS
 62
    90
100
AcDbLine
 10
1997.461266
 20
-299.248258
 30
0.0
 11
2017.336697
 21
-263.887226
 31
0.0
  0
LINE
  5
4298
330
4D4D
100
AcDbEntity
  8
V0-OBRYS
  6
CONTINUOUS
 62
    90
100
AcDbLine
 10
1992.155394
 20
-308.688109
 30
0.0
 11
1995.676721
 21
-302.4232
 31
0.0
  0
LINE
  5
4299
330
4D4D
100
AcDbEntity
  8
V0-OBRYS
  6
CONTINUOUS
 62
    90
100
AcDbLine
 10
2019.138174
 20
-260.68216
 30
0.0
 11
2038.553794
 21
-226.139195
 31
0.0
  0
LINE
  5
429A
330
4D4D
100
AcDbEntity
  8
V0-OBRYS
  6
CONTINUOUS
 62
    90
100
AcDbLine
 10
2137.215759
 20
-260.68216
 30
0.0
 11
2117.800139
 21
-226.139195
 31
0.0
  0
LINE
  5
429B
330
4D4D
100
AcDbEntity
  8
V0-OBRYS
  6
CONTINUOUS
 62
    90
100
AcDbLine
 10
2232.916497
 20
-263.60026
 30
0.0
 11
2217.662258
 21
-226.013779
 31
0.0
  0
ARC
  5
429C
330
4D4D
100
AcDbEntity
  8
V0-OBRYS
  6
CONTINUOUS
 62
    90
100
AcDbCircle
 10
2078.176966
 20
-36.960346
 30
0.0
 40
285.01875
100
AcDbArc
 50
287.566362
 51
303.86221
  0
LINE
  5
429D
330
4D4D
100
AcDbEntity
  8
V0-OBRYS
  6
CONTINUOUS
 62
    90
100
AcDbLine
 10
2164.198539
 20
-308.688109
 30
0.0
 11
2160.677212
 21
-302.4232
 31
0.0
  0
LINE
  5
429E
330
4D4D
100
AcDbEntity
  8
V0-OBRYS
  6
CONTINUOUS
 62
    90
100
AcDbLine
 10
2236.988712
 20
-273.634209
 30
0.0
 11
2234.286121
 21
-266.975018
 31
0.0
  0
LINE
  5
429F
330
4D4D
100
AcDbEntity
  8
V0-OBRYS
  6
CONTINUOUS
 62
    90
100
AcDbLine
 10
2157.71844
 20
89.569611
 30
0.0
 11
2132.063231
 21
71.641245
 31
0.0
  0
LINE
  5
42A0
330
4D4D
100
AcDbEntity
  8
V0-OBRYS
  6
CONTINUOUS
 62
    90
100
AcDbLine
 10
2132.92838
 20
54.64696
 30
0.0
 11
2148.892059
 21
81.356582
 31
0.0
  0
LINE
  5
42A3
330
4D4D
100
AcDbEntity
  8
V0-OBRYS
  6
CONTINUOUS
 62
    90
100
AcDbLine
 10
2132.92838
 20
-128.567653
 30
0.0
 11
2148.892059
 21
-155.277274
 31
0.0
  0
LINE
  5
42A8
330
4D4D
100
AcDbEntity
  8
V0-OBRYS
  6
CONTINUOUS
 62
    90
100
AcDbLine
 10
2061.411866
 20
-185.471651
 30
0.0
 11
2076.747584
 21
-158.187373
 31
0.0
  0
ARC
  5
42A9
330
4D4D
100
AcDbEntity
  8
V0-OBRYS
  6
CONTINUOUS
 62
    90
100
AcDbCircle
 10
2078.176966
 20
-36.960346
 30
0.0
 40
107.191973
100
AcDbArc
 50
238.716649
 51
301.283351
  0
LINE
  5
42AA
330
4D4D
100
AcDbEntity
  8
V0-OBRYS
  6
CONTINUOUS
 62
    90
100
AcDbLine
 10
2058.623767
 20
-117.792503
 30
0.0
 11
2046.092832
 21
-169.594896
 31
0.0
  0
LINE
  5
42AB
330
4D4D
100
AcDbEntity
  8
V0-OBRYS
  6
CONTINUOUS
 62
    90
100
AcDbLine
 10
2026.777353
 20
-162.747339
 30
0.0
 11
2046.719318
 21
-113.94464
 31
0.0
  0
LINE
  5
42AC
330
4D4D
100
AcDbEntity
  8
V0-OBRYS
  6
CONTINUOUS
 62
    90
100
AcDbLine
 10
2023.425552
 20
-128.567653
 30
0.0
 11
2007.461874
 21
-155.277274
 31
0.0
  0
LINE
  5
42B0
330
4D4D
100
AcDbEntity
  8
V0-OBRYS
  6
CONTINUOUS
 62
    90
100
AcDbLine
 10
2097.730166
 20
-117.792503
 30
0.0
 11
2110.261101
 21
-169.594896
 31
0.0
  0
LINE
  5
42B1
330
4D4D
100
AcDbEntity
  8
V0-OBRYS
  6
CONTINUOUS
 62
    90
100
AcDbLine
 10
2088.453306
 20
-172.084919
 30
0.0
 11
2084.48341
 21
-119.884371
 31
0.0
  0
LINE
  5
42B2
330
4D4D
100
AcDbEntity
  8
V0-OBRYS
  6
CONTINUOUS
 62
    90
100
AcDbLine
 10
2067.900627
 20
-172.084919
 30
0.0
 11
2071.870523
 21
-119.884371
 31
0.0
  0
LINE
  5
42B3
330
4D4D
100
AcDbEntity
  8
V0-OBRYS
  6
CONTINUOUS
 62
    90
100
AcDbLine
 10
2129.57658
 20
-162.747339
 30
0.0
 11
2109.634615
 21
-113.94464
 31
0.0
  0
LINE
  5
42B4
330
4D4D
100
AcDbEntity
  8
V0-OBRYS
  6
CONTINUOUS
 62
    90
100
AcDbLine
 10
2094.942067
 20
-185.471651
 30
0.0
 11
2079.606349
 21
-158.187373
 31
0.0
  0
LINE
  5
42B5
330
4D4D
100
AcDbEntity
  8
V0-OBRYS
  6
CONTINUOUS
 62
    90
100
AcDbLine
 10
2079.606349
 20
-158.187373
 30
0.0
 11
2087.123649
 21
-145.486454
 31
0.0
  0
LINE
  5
42B6
330
4D4D
100
AcDbEntity
  8
V0-OBRYS
  6
CONTINUOUS
 62
    90
100
AcDbLine
 10
2076.747584
 20
-158.187373
 30
0.0
 11
2069.230284
 21
-145.486454
 31
0.0
  0
ARC
  5
42B7
330
4D4D
100
AcDbEntity
  8
V0-OBRYS
  6
CONTINUOUS
 62
    90
100
AcDbCircle
 10
2078.176966
 20
-36.960346
 30
0.0
 40
107.191973
100
AcDbArc
 50
58.71664899999999
 51
121.283351
  0
LINE
  5
42B9
330
4D4D
100
AcDbEntity
  8
V0-OBRYS
  6
CONTINUOUS
 62
    90
100
AcDbLine
 10
2023.425552
 20
54.64696
 30
0.0
 11
2007.461874
 21
81.356582
 31
0.0
  0
LINE
  5
42BA
330
4D4D
100
AcDbEntity
  8
V0-OBRYS
  6
CONTINUOUS
 62
    90
100
AcDbLine
 10
2023.425552
 20
54.64696
 30
0.0
 11
2007.461874
 21
81.356582
 31
0.0
  0
LINE
  5
42BB
330
4D4D
100
AcDbEntity
  8
V0-OBRYS
  6
CONTINUOUS
 62
    90
100
AcDbLine
 10
2024.290702
 20
71.641245
 30
0.0
 11
2023.028571
 21
56.936478
 31
0.0
  0
LINE
  5
42BD
330
4D4D
100
AcDbEntity
  8
V0-OBRYS
  6
CONTINUOUS
 62
    90
100
AcDbLine
 10
1998.635493
 20
89.569611
 30
0.0
 11
2024.290702
 21
71.641245
 31
0.0
  0
LINE
  5
42BE
330
4D4D
100
AcDbEntity
  8
V0-OBRYS
  6
CONTINUOUS
 62
    90
100
AcDbLine
 10
2056.017272
 20
54.64696
 30
0.0
 11
2046.092832
 21
95.674204
 31
0.0
  0
LINE
  5
42BF
330
4D4D
100
AcDbEntity
  8
V0-OBRYS
  6
CONTINUOUS
 62
    90
100
AcDbLine
 10
2058.623767
 20
43.871811
 30
0.0
 11
2046.092832
 21
95.674204
 31
0.0
  0
LINE
  5
42C0
330
4D4D
100
AcDbEntity
  8
V0-OBRYS
  6
CONTINUOUS
 62
    90
100
AcDbLine
 10
2026.777353
 20
88.82664699999999
 30
0.0
 11
2040.744001
 21
54.64696
 31
0.0
  0
LINE
  5
42C1
330
4D4D
100
AcDbEntity
  8
V0-OBRYS
  6
CONTINUOUS
 62
    90
100
AcDbLine
 10
2026.777353
 20
88.82664699999999
 30
0.0
 11
2046.719318
 21
40.023948
 31
0.0
  0
LINE
  5
42C2
330
4D4D
100
AcDbEntity
  8
V0-OBRYS
  6
CONTINUOUS
 62
    90
100
AcDbLine
 10
2026.86636
 20
72.88161700000001
 30
0.0
 11
2039.149935
 21
64.700118
 31
0.0
  0
LINE
  5
42C3
330
4D4D
100
AcDbEntity
  8
V0-OBRYS
  6
CONTINUOUS
 62
    90
100
AcDbLine
 10
2028.84516
 20
104.11782
 30
0.0
 11
2026.86636
 21
72.88161700000001
 31
0.0
  0
LINE
  5
42C4
330
4D4D
100
AcDbEntity
  8
V0-OBRYS
  6
CONTINUOUS
 62
    90
100
AcDbLine
 10
2097.730166
 20
43.871811
 30
0.0
 11
2110.261101
 21
95.674204
 31
0.0
  0
LINE
  5
42C5
330
4D4D
100
AcDbEntity
  8
V0-OBRYS
  6
CONTINUOUS
 62
    90
100
AcDbLine
 10
2067.900627
 20
98.164227
 30
0.0
 11
2071.210152
 21
54.64696
 31
0.0
  0
LINE
  5
42C6
330
4D4D
100
AcDbEntity
  8
V0-OBRYS
  6
CONTINUOUS
 62
    90
100
AcDbLine
 10
2067.900627
 20
98.164227
 30
0.0
 11
2071.870523
 21
45.963679
 31
0.0
  0
LINE
  5
42C7
330
4D4D
100
AcDbEntity
  8
V0-OBRYS
  6
CONTINUOUS
 62
    90
100
AcDbLine
 10
2088.453306
 20
98.164227
 30
0.0
 11
2084.48341
 21
45.963679
 31
0.0
  0
LINE
  5
42C8
330
4D4D
100
AcDbEntity
  8
V0-OBRYS
  6
CONTINUOUS
 62
    90
100
AcDbLine
 10
2132.063231
 20
71.641245
 30
0.0
 11
2133.325362
 21
56.936478
 31
0.0
  0
LINE
  5
42C9
330
4D4D
100
AcDbEntity
  8
V0-OBRYS
  6
CONTINUOUS
 62
    90
100
AcDbLine
 10
2129.57658
 20
88.82664699999999
 30
0.0
 11
2109.634615
 21
40.023948
 31
0.0
  0
LINE
  5
42CA
330
4D4D
100
AcDbEntity
  8
V0-OBRYS
  6
CONTINUOUS
 62
    90
100
AcDbLine
 10
2129.487573
 20
72.88161700000001
 30
0.0
 11
2117.203998
 21
64.700118
 31
0.0
  0
LINE
  5
42CB
330
4D4D
100
AcDbEntity
  8
V0-OBRYS
  6
CONTINUOUS
 62
    90
100
AcDbLine
 10
2127.508773
 20
104.11782
 30
0.0
 11
2129.487573
 21
72.88161700000001
 31
0.0
  0
ARC
  5
42CD
330
4D4D
100
AcDbEntity
  8
V0-OBRYS
  6
CONTINUOUS
 62
    90
100
AcDbCircle
 10
2078.176966
 20
-36.960346
 30
0.0
 40
107.191973
100
AcDbArc
 50
328.716649
 51
31.283351
  0
LINE
  5
42CE
330
4D4D
100
AcDbEntity
  8
V0-OBRYS
  6
CONTINUOUS
 62
    90
100
AcDbLine
 10
2247.099067
 20
-123.333239
 30
0.0
 11
2208.547729
 21
-117.066963
 31
0.0
  0
LINE
  5
42CF
330
4D4D
100
AcDbEntity
  8
V0-OBRYS
  6
CONTINUOUS
 62
    90
100
AcDbLine
 10
2183.834911
 20
-142.663113
 30
0.0
 11
2172.064867
 21
-113.661697
 31
0.0
  0
LINE
  5
42D0
330
4D4D
100
AcDbEntity
  8
V0-OBRYS
  6
CONTINUOUS
 62
    90
100
AcDbLine
 10
2199.973014
 20
-182.42744
 30
0.0
 11
2185.285367
 21
-146.237042
 31
0.0
  0
LINE
  5
42D1
330
4D4D
100
AcDbEntity
  8
V0-OBRYS
  6
CONTINUOUS
 62
    90
100
AcDbLine
 10
2203.96396
 20
-88.35996
 30
0.0
 11
2155.161261
 21
-68.41799399999999
 31
0.0
  0
LINE
  5
42D2
330
4D4D
100
AcDbEntity
  8
V0-OBRYS
  6
CONTINUOUS
 62
    90
100
AcDbLine
 10
2204.740649
 20
-116.448147
 30
0.0
 11
2173.847278
 21
-111.426625
 31
0.0
  0
LINE
  5
42D3
330
4D4D
100
AcDbEntity
  8
V0-OBRYS
  6
CONTINUOUS
 62
    90
100
AcDbLine
 10
2169.784273
 20
-91.71176
 30
0.0
 11
2196.493895
 21
-107.675438
 31
0.0
  0
LINE
  5
42D4
330
4D4D
100
AcDbEntity
  8
V0-OBRYS
  6
CONTINUOUS
 62
    90
100
AcDbLine
 10
2159.009123
 20
-56.513546
 30
0.0
 11
2210.811516
 21
-69.04448100000001
 31
0.0
  0
LINE
  5
42D8
330
4D4D
100
AcDbEntity
  8
V0-OBRYS
  6
CONTINUOUS
 62
    90
100
AcDbLine
 10
2289.899809
 20
-130.290229
 30
0.0
 11
2250.78759
 21
-123.932785
 31
0.0
  0
LINE
  5
42D9
330
4D4D
100
AcDbEntity
  8
V0-OBRYS
  6
CONTINUOUS
 62
    90
100
AcDbLine
 10
2251.02722
 20
41.255652
 30
0.0
 11
2222.091683
 21
15.021962
 31
0.0
  0
LINE
  5
42DA
330
4D4D
100
AcDbEntity
  8
V0-OBRYS
  6
CONTINUOUS
 62
    90
100
AcDbLine
 10
2169.784273
 20
17.791068
 30
0.0
 11
2196.493895
 21
33.754746
 31
0.0
  0
LINE
  5
42DB
330
4D4D
100
AcDbEntity
  8
V0-OBRYS
  6
CONTINUOUS
 62
    90
100
AcDbLine
 10
2203.96396
 20
14.439267
 30
0.0
 11
2155.161261
 21
-5.502698000000001
 31
0.0
  0
LINE
  5
42DC
330
4D4D
100
AcDbEntity
  8
V0-OBRYS
  6
CONTINUOUS
 62
    90
100
AcDbLine
 10
2196.046511
 20
-8.591250000000001
 30
0.0
 11
2181.991274
 21
-4.088645
 31
0.0
  0
LINE
  5
42DD
330
4D4D
100
AcDbEntity
  8
V0-OBRYS
  6
CONTINUOUS
 62
    90
100
AcDbLine
 10
2196.682646
 20
-11.37834
 30
0.0
 11
2185.972922
 21
-21.533386
 31
0.0
  0
LINE
  5
42DE
330
4D4D
100
AcDbEntity
  8
V0-OBRYS
  6
CONTINUOUS
 62
    90
100
AcDbLine
 10
2159.009123
 20
-17.407147
 30
0.0
 11
2210.811516
 21
-4.876211
 31
0.0
  0
LINE
  5
42DF
330
4D4D
100
AcDbEntity
  8
V0-OBRYS
  6
CONTINUOUS
 62
    90
100
AcDbLine
 10
2213.30154
 20
-26.684006
 30
0.0
 11
2161.100992
 21
-30.653903
 31
0.0
  0
LINE
  5
42E0
330
4D4D
100
AcDbEntity
  8
V0-OBRYS
  6
CONTINUOUS
 62
    90
100
AcDbLine
 10
2213.30154
 20
-47.236686
 30
0.0
 11
2161.100992
 21
-43.266789
 31
0.0
  0
LINE
  5
42E1
330
4D4D
100
AcDbEntity
  8
V0-OBRYS
  6
CONTINUOUS
 62
    90
100
AcDbLine
 10
2226.695368
 20
-20.258236
 30
0.0
 11
2196.682646
 21
-11.37834
 31
0.0
  0
LINE
  5
42E2
330
4D4D
100
AcDbEntity
  8
V0-OBRYS
  6
CONTINUOUS
 62
    90
100
AcDbLine
 10
2219.234197
 20
12.431293
 30
0.0
 11
2196.046511
 21
-8.591249999999999
 31
0.0
  0
LINE
  5
42E4
330
4D4D
100
AcDbEntity
  8
V0-OBRYS
  6
CONTINUOUS
 62
    90
100
AcDbLine
 10
2267.846314
 20
-32.433611
 30
0.0
 11
2230.393924
 21
-21.352532
 31
0.0
  0
LINE
  5
42E5
330
4D4D
100
AcDbEntity
  8
V0-OBRYS
  6
CONTINUOUS
 62
    90
100
AcDbLine
 10
2309.426975
 20
-44.736126
 30
0.0
 11
2271.429692
 21
-33.493829
 31
0.0
  0
LINE
  5
42E6
330
4D4D
100
AcDbEntity
  8
V0-OBRYS
  6
CONTINUOUS
 62
    90
100
AcDbLine
 10
2283.15224
 20
70.381007
 30
0.0
 11
2253.795721
 21
43.765645
 31
0.0
  0
LINE
  5
42E7
330
4D4D
100
AcDbEntity
  8
V0-OBRYS
  6
CONTINUOUS
 62
    90
100
AcDbLine
 10
2351.849706
 20
-57.287785
 30
0.0
 11
2312.952549
 21
-45.779241
 31
0.0
  0
ARC
  5
42E8
330
4D4D
100
AcDbEntity
  8
V0-OBRYS
  6
CONTINUOUS
 62
    90
100
AcDbCircle
 10
2078.176966
 20
-36.960346
 30
0.0
 40
285.01875
100
AcDbArc
 50
338.994933
 51
355.290781
  0
LINE
  5
42E9
330
4D4D
100
AcDbEntity
  8
V0-OBRYS
  6
CONTINUOUS
 62
    90
100
AcDbLine
 10
2344.255859
 20
-139.125461
 30
0.0
 11
2337.162245
 21
-137.972439
 31
0.0
  0
LINE
  5
42EA
330
4D4D
100
AcDbEntity
  8
V0-OBRYS
  6
CONTINUOUS
 62
    90
100
AcDbLine
 10
2362.233547
 20
-60.360063
 30
0.0
 11
2355.342144
 21
-58.321096
 31
0.0
  0
ARC
  5
42EB
330
4D4D
100
AcDbEntity
  8
VO-OBRYS
  6
CONTINUOUS
100
AcDbCircle
 10
2314.896427
 20
199.759114
 30
0.0
 40
24.698585
100
AcDbArc
 50
315.0
 51
135.0
  0
ARC
  5
42EC
330
4D4D
100
AcDbEntity
  8
VO-OBRYS
  6
CONTINUOUS
100
AcDbCircle
 10
2314.896427
 20
199.759114
 30
0.0
 40
21.138129
100
AcDbArc
 50
315.0
 51
135.0
  0
ARC
  5
42ED
330
4D4D
100
AcDbEntity
  8
V0-OBRYS
  6
CONTINUOUS
 62
    90
100
AcDbCircle
 10
2078.176966
 20
-36.960346
 30
0.0
 40
285.01875
100
AcDbArc
 50
30.423505
 51
46.719352
  0
LINE
  5
42EF
330
4D4D
100
AcDbEntity
  8
V0-OBRYS
  6
CONTINUOUS
 62
    90
100
AcDbLine
 10
2034.299823
 20
190.222015
 30
0.0
 11
2031.794585
 21
150.675757
 31
0.0
  0
LINE
  5
42F0
330
4D4D
100
AcDbEntity
  8
V0-OBRYS
  6
CONTINUOUS
 62
    90
100
AcDbLine
 10
2031.558326
 20
146.946301
 30
0.0
 11
2029.089013
 21
107.967149
 31
0.0
  0
LINE
  5
42F1
330
4D4D
100
AcDbEntity
  8
V0-OBRYS
  6
CONTINUOUS
 62
    90
100
AcDbLine
 10
2037.09684
 20
234.374127
 30
0.0
 11
2034.532271
 21
193.891311
 31
0.0
  0
LINE
  5
42F2
330
4D4D
100
AcDbEntity
  8
V0-OBRYS
  6
CONTINUOUS
 62
    90
100
AcDbLine
 10
2037.781468
 20
245.18127
 30
0.0
 11
2037.327104
 21
238.008936
 31
0.0
  0
LINE
  5
42F3
330
4D4D
100
AcDbEntity
  8
V0-OBRYS
  6
CONTINUOUS
 62
    90
100
AcDbLine
 10
2122.05411
 20
190.222015
 30
0.0
 11
2124.559348
 21
150.675757
 31
0.0
  0
LINE
  5
42F4
330
4D4D
100
AcDbEntity
  8
V0-OBRYS
  6
CONTINUOUS
 62
    90
100
AcDbLine
 10
2124.795607
 20
146.946301
 30
0.0
 11
2127.26492
 21
107.967149
 31
0.0
  0
LINE
  5
42F5
330
4D4D
100
AcDbEntity
  8
V0-OBRYS
  6
CONTINUOUS
 62
    90
100
AcDbLine
 10
2119.257093
 20
234.374127
 30
0.0
 11
2121.821661
 21
193.891311
 31
0.0
  0
LINE
  5
42F6
330
4D4D
100
AcDbEntity
  8
V0-OBRYS
  6
CONTINUOUS
 62
    90
100
AcDbLine
 10
2118.572465
 20
245.18127
 30
0.0
 11
2119.026829
 21
238.008936
 31
0.0
  0
LINE
  5
42F7
330
4D4D
100
AcDbEntity
  8
V0-OBRYS
  6
CONTINUOUS
 62
    90
100
AcDbLine
 10
2228.438337
 20
138.990071
 30
0.0
 11
2195.957837
 21
116.292057
 31
0.0
  0
LINE
  5
42F8
330
4D4D
100
AcDbEntity
  8
V0-OBRYS
  6
CONTINUOUS
 62
    90
100
AcDbLine
 10
2273.577983
 20
170.534547
 30
0.0
 11
2267.687135
 21
166.417906
 31
0.0
  0
LINE
  5
42F9
330
4D4D
100
AcDbEntity
  8
V0-OBRYS
  6
CONTINUOUS
 62
    90
100
AcDbLine
 10
2264.70176
 20
164.331667
 30
0.0
 11
2231.452038
 21
141.096105
 31
0.0
  0
CIRCLE
  5
42FA
330
4D4D
100
AcDbEntity
  8
V0-OBRYS
  6
CONTINUOUS
 62
    90
100
AcDbCircle
 10
1841.457506
 20
199.759114
 30
0.0
 40
11.425317
  0
LINE
  5
42FB
330
4D4D
100
AcDbEntity
  8
V0-VYPLNE
  6
DASHDOT
 62
    63
100
AcDbLine
 10
2078.176966
 20
-36.960346
 30
0.0
 11
1811.848693
 21
229.367928
 31
0.0
  0
CIRCLE
  5
42FC
330
4D4D
100
AcDbEntity
  8
V0-OBRYS
  6
CONTINUOUS
 62
    90
100
AcDbCircle
 10
1841.457506
 20
-273.679807
 30
0.0
 40
11.425317
  0
LINE
  5
42FD
330
4D4D
100
AcDbEntity
  8
V0-VYPLNE
  6
DASHDOT
 62
    63
100
AcDbLine
 10
2078.176966
 20
-36.960346
 30
0.0
 11
1811.848693
 21
-303.28862
 31
0.0
  0
CIRCLE
  5
42FE
330
4D4D
100
AcDbEntity
  8
V0-OBRYS
  6
CONTINUOUS
 62
    90
100
AcDbCircle
 10
2314.896427
 20
-273.679807
 30
0.0
 40
11.425317
  0
LINE
  5
42FF
330
4D4D
100
AcDbEntity
  8
V0-VYPLNE
  6
DASHDOT
 62
    63
100
AcDbLine
 10
2078.176966
 20
-36.960346
 30
0.0
 11
2344.50524
 21
-303.28862
 31
0.0
  0
CIRCLE
  5
4300
330
4D4D
100
AcDbEntity
  8
V0-OBRYS
  6
CONTINUOUS
 62
    90
100
AcDbCircle
 10
2314.896427
 20
199.759114
 30
0.0
 40
11.425317
  0
LINE
  5
4301
330
4D4D
100
AcDbEntity
  8
V0-VYPLNE
  6
DASHDOT
 62
    63
100
AcDbLine
 10
2078.176966
 20
-36.960346
 30
0.0
 11
2344.50524
 21
229.367928
 31
0.0
  0
CIRCLE
  5
4325
330
4D4D
100
AcDbEntity
  8
V0-OBRYS
  6
CONTINUOUS
 62
    90
100
AcDbCircle
 10
2078.176966
 20
-36.960346
 30
0.0
 40
83.16348499999999
  0
LINE
  5
43F7
330
4D4D
100
AcDbEntity
  8
V0-OBRYS
  6
CONTINUOUS
 62
    90
100
AcDbLine
 10
1248.321191
 20
343.999093
 30
0.0
 11
1248.321191
 21
-366.000907
 31
0.0
  0
ARC
  5
44E8
330
4D4D
100
AcDbEntity
  8
V0-OBRYS
  6
CONTINUOUS
 62
    90
100
AcDbCircle
 10
2078.176966
 20
15.509517
 30
0.0
 40
233.197149
100
AcDbArc
 50
80.02463899999999
 51
99.97536100000001
  0
LINE
  5
460C
330
4D4D
100
AcDbEntity
  8
V0-OBRYS
  6
CONTINUOUS
 62
    90
100
AcDbLine
 10
1227.181283
 20
112.453706
 30
0.0
 11
1256.514037
 21
88.552561
 31
0.0
  0
LINE
  5
460D
330
4D4D
100
AcDbEntity
  8
V0-OBRYS
  6
CONTINUOUS
 62
    90
100
AcDbLine
 10
1225.405822
 20
110.274766
 30
0.0
 11
1254.738576
 21
86.373621
 31
0.0
  0
ARC
  5
460E
330
4D4D
100
AcDbEntity
  8
V0-OBRYS
  6
CONTINUOUS
 62
    90
 48
2.0
100
AcDbCircle
 10
1202.311659
 20
-280.642873
 30
0.0
 40
180.392824
100
AcDbArc
 50
72.982973
 51
84.247314
  0
LINE
  5
460F
330
4D4D
100
AcDbEntity
  8
V0-OBRYS
  6
CONTINUOUS
 62
    90
100
AcDbLine
 10
1227.64575
 20
-134.331667
 30
0.0
 11
1218.888329
 21
-110.32028
 31
0.0
  0
LINE
  5
4610
330
4D4D
100
AcDbEntity
  8
V0-OBRYS
  6
CONTINUOUS
 62
    90
100
AcDbLine
 10
1225.8621
 20
-132.159426
 30
0.0
 11
1255.104679
 21
-108.148038
 31
0.0
  0
ARC
  5
4611
330
4D4D
100
AcDbEntity
  8
V0-OBRYS
  6
CONTINUOUS
 62
    90
 48
2.0
100
AcDbCircle
 10
1231.573433
 20
-139.115047
 30
0.0
 40
9.0
100
AcDbArc
 50
129.389776
 51
180.215669
  0
ARC
  5
4612
330
4D4D
100
AcDbEntity
  8
V0-OBRYS
  6
CONTINUOUS
 62
    90
 48
2.0
100
AcDbCircle
 10
1231.573433
 20
-139.115047
 30
0.0
 40
6.189299
100
AcDbArc
 50
129.389776
 51
180.215669
  0
ARC
  5
4613
330
4D4D
100
AcDbEntity
  8
V0-OBRYS
  6
CONTINUOUS
 62
    90
 48
2.0
100
AcDbCircle
 10
1211.393345
 20
-101.192417
 30
0.0
 40
11.810701
100
AcDbArc
 50
309.389776
 51
359.162914
  0
LINE
  5
4693
330
4D4D
100
AcDbEntity
  8
V0-OBRYS
  6
CONTINUOUS
 62
    90
100
AcDbLine
 10
1226.080285
 20
-246.202165
 30
0.0
 11
1236.815059
 21
-313.411945
 31
0.0
  0
LINE
  5
4694
330
4D4D
100
AcDbEntity
  8
V0-OBRYS
  6
CONTINUOUS
 62
    90
100
AcDbLine
 10
1225.769216
 20
-251.716672
 30
0.0
 11
1233.684874
 21
-314.549267
 31
0.0
  0
LINE
  5
4695
330
4D4D
100
AcDbEntity
  8
V0-OBRYS
  6
CONTINUOUS
 62
    90
100
AcDbLine
 10
1223.784836
 20
225.82262
 30
0.0
 11
1233.962492
 21
292.797498
 31
0.0
  0
LINE
  5
4696
330
4D4D
100
AcDbEntity
  8
V0-OBRYS
  6
CONTINUOUS
 62
    90
100
AcDbLine
 10
1226.045393
 20
224.15174
 30
0.0
 11
1236.461091
 21
292.298186
 31
0.0
  0
POINT
  5
46C3
330
4D4D
100
AcDbEntity
  8
V0-VYPLNE
  6
DASHED
 62
    52
100
AcDbPoint
 10
2078.176966
 20
-36.960346
 30
0.0
  0
LINE
  5
46C4
330
4D4D
100
AcDbEntity
  8
V0-OBRYS
  6
CONTINUOUS
 62
    90
100
AcDbLine
 10
2114.412745
 20
3.301631
 30
0.0
 11
2041.941187
 21
3.301631
 31
0.0
  0
LINE
  5
46C5
330
4D4D
100
AcDbEntity
  8
V0-OBRYS
  6
CONTINUOUS
 62
    90
100
AcDbLine
 10
2041.941187
 20
-77.222323
 30
0.0
 11
2114.412745
 21
-77.222323
 31
0.0
  0
LINE
  5
46C6
330
4D4D
100
AcDbEntity
  8
V0-OBRYS
  6
CONTINUOUS
 62
    90
100
AcDbLine
 10
2037.91499
 20
-0.724567
 30
0.0
 11
2037.91499
 21
-73.196125
 31
0.0
  0
CIRCLE
  5
46C7
330
4D4D
100
AcDbEntity
  8
V0-OBRYS
  6
CONTINUOUS
 62
    90
100
AcDbCircle
 10
2047.980484
 20
-67.156829
 30
0.0
 40
2.684132
  0
ARC
  5
46CA
330
4D4D
100
AcDbEntity
  8
V0-OBRYS
  6
CONTINUOUS
 62
    90
100
AcDbCircle
 10
2041.941187
 20
-73.196125
 30
0.0
 40
4.026198
100
AcDbArc
 50
180.0
 51
270.0
  0
CIRCLE
  5
46CB
330
4D4D
100
AcDbEntity
  8
V0-OBRYS
  6
CONTINUOUS
 62
    90
100
AcDbCircle
 10
2047.980484
 20
-6.763864
 30
0.0
 40
2.684132
  0
ARC
  5
46CC
330
4D4D
100
AcDbEntity
  8
V0-OBRYS
  6
CONTINUOUS
 62
    90
100
AcDbCircle
 10
2041.941187
 20
-0.724567
 30
0.0
 40
4.026198
100
AcDbArc
 50
90.0
 51
180.0
  0
LINE
  5
46CD
330
4D4D
100
AcDbEntity
  8
V0-OBRYS
  6
CONTINUOUS
 62
    90
100
AcDbLine
 10
2118.438943
 20
-73.196125
 30
0.0
 11
2118.438943
 21
-0.7245669999999933
 31
0.0
  0
ARC
  5
46CF
330
4D4D
100
AcDbEntity
  8
V0-OBRYS
  6
CONTINUOUS
 62
    90
100
AcDbCircle
 10
2114.412745
 20
-73.196125
 30
0.0
 40
4.026198
100
AcDbArc
 50
270.0
 51
0.0
  0
CIRCLE
  5
46D0
330
4D4D
100
AcDbEntity
  8
V0-OBRYS
  6
CONTINUOUS
 62
    90
100
AcDbCircle
 10
2108.373449
 20
-67.156829
 30
0.0
 40
2.684132
  0
CIRCLE
  5
46D1
330
4D4D
100
AcDbEntity
  8
V0-OBRYS
  6
CONTINUOUS
 62
    90
100
AcDbCircle
 10
2108.373449
 20
-6.763864
 30
0.0
 40
2.684132
  0
ARC
  5
46D2
330
4D4D
100
AcDbEntity
  8
V0-OBRYS
  6
CONTINUOUS
 62
    90
100
AcDbCircle
 10
2114.412745
 20
-0.724567
 30
0.0
 40
4.026198
100
AcDbArc
 50
0.0
 51
90.0
  0
LINE
  5
46D3
330
4D4D
100
AcDbEntity
  8
V0-OBRYS
  6
CONTINUOUS
 62
    90
100
AcDbLine
 10
1226.045393
 20
-761.47746
 30
0.0
 11
1236.461091
 21
-693.331013
 31
0.0
  0
LINE
  5
46D4
330
4D4D
100
AcDbEntity
  8
V0-OBRYS
  6
CONTINUOUS
 62
    90
100
AcDbLine
 10
1223.784836
 20
-759.8065790000001
 30
0.0
 11
1233.962492
 21
-692.831701
 31
0.0
  0
LINE
  5
46D5
330
4D4D
100
AcDbEntity
  8
V0-OBRYS
  6
CONTINUOUS
 62
    90
100
AcDbLine
 10
1225.769216
 20
-1237.345871
 30
0.0
 11
1233.684874
 21
-1300.178467
 31
0.0
  0
LINE
  5
46D6
330
4D4D
100
AcDbEntity
  8
V0-OBRYS
  6
CONTINUOUS
 62
    90
100
AcDbLine
 10
1226.080285
 20
-1231.831364
 30
0.0
 11
1236.815059
 21
-1299.041144
 31
0.0
  0
LINE
  5
46D7
330
4D4D
100
AcDbEntity
  8
V0-OBRYS
  6
CONTINUOUS
 62
    90
100
AcDbLine
 10
1225.8621
 20
-1117.788625
 30
0.0
 11
1255.104679
 21
-1093.777238
 31
0.0
  0
LINE
  5
46D8
330
4D4D
100
AcDbEntity
  8
V0-OBRYS
  6
CONTINUOUS
 62
    90
100
AcDbLine
 10
1227.64575
 20
-1119.960867
 30
0.0
 11
1218.888329
 21
-1095.949479
 31
0.0
  0
ARC
  5
46D9
330
4D4D
100
AcDbEntity
  8
V0-OBRYS
  6
CONTINUOUS
 62
    90
 48
2.0
100
AcDbCircle
 10
1202.050043
 20
-727.028645
 30
0.0
 40
180.106075
100
AcDbArc
 50
275.736873
 51
287.010184
  0
LINE
  5
46DA
330
4D4D
100
AcDbEntity
  8
V0-OBRYS
  6
CONTINUOUS
 62
    90
100
AcDbLine
 10
1227.181283
 20
-873.175494
 30
0.0
 11
1256.514037
 21
-897.076638
 31
0.0
  0
LINE
  5
46DB
330
4D4D
100
AcDbEntity
  8
V0-OBRYS
  6
CONTINUOUS
 62
    90
 48
2.0
100
AcDbLine
 10
1214.257965
 20
-912.145343
 30
0.0
 11
1236.72115
 21
-912.145343
 31
0.0
  0
LINE
  5
46DC
330
4D4D
100
AcDbEntity
  8
V0-OBRYS
  6
CONTINUOUS
 62
    90
 48
2.0
100
AcDbLine
 10
1213.499806
 20
-928.051936
 30
0.0
 11
1236.72115
 21
-928.051936
 31
0.0
  0
LINE
  5
46DD
330
4D4D
100
AcDbEntity
  8
V0-OBRYS
  6
CONTINUOUS
 62
    90
 48
2.0
100
AcDbLine
 10
1214.257965
 20
-946.988353
 30
0.0
 11
1236.72115
 21
-946.988353
 31
0.0
  0
LINE
  5
46DE
330
4D4D
100
AcDbEntity
  8
V0-OBRYS
  6
CONTINUOUS
 62
    90
 48
2.0
100
AcDbLine
 10
1218.048742
 20
-965.167311
 30
0.0
 11
1236.72115
 21
-965.167311
 31
0.0
  0
LINE
  5
46DF
330
4D4D
100
AcDbEntity
  8
V0-OBRYS
  6
CONTINUOUS
 62
    90
 48
2.0
100
AcDbLine
 10
1213.499806
 20
-983.346272
 30
0.0
 11
1236.72115
 21
-983.346272
 31
0.0
  0
LINE
  5
46E0
330
4D4D
100
AcDbEntity
  8
V0-OBRYS
  6
CONTINUOUS
 62
    90
 48
2.0
100
AcDbLine
 10
1213.499806
 20
-1009.91394
 30
0.0
 11
1236.72115
 21
-1009.91394
 31
0.0
  0
LINE
  5
46E1
330
4D4D
100
AcDbEntity
  8
V0-OBRYS
  6
CONTINUOUS
 62
    90
 48
2.0
100
AcDbLine
 10
1218.048742
 20
-1028.092902
 30
0.0
 11
1236.72115
 21
-1028.092902
 31
0.0
  0
LINE
  5
46E2
330
4D4D
100
AcDbEntity
  8
V0-VYPLNE
  6
DASHDOT
 62
    63
100
AcDbLine
 10
1213.917908
 20
-996.630212
 30
0.0
 11
1366.902694
 21
-996.630212
 31
0.0
  0
LINE
  5
46E3
330
4D4D
100
AcDbEntity
  8
V0-OBRYS
  6
CONTINUOUS
 62
    90
 48
2.0
100
AcDbLine
 10
1213.499806
 20
-1065.208277
 30
0.0
 11
1236.72115
 21
-1065.208277
 31
0.0
  0
LINE
  5
46E4
330
4D4D
100
AcDbEntity
  8
V0-OBRYS
  6
CONTINUOUS
 62
    90
 48
2.0
100
AcDbLine
 10
1214.257965
 20
-1046.271859
 30
0.0
 11
1236.72115
 21
-1046.271859
 31
0.0
  0
LINE
  5
46E5
330
4D4D
100
AcDbEntity
  8
V0-OBRYS
  6
CONTINUOUS
 62
    90
 48
2.0
100
AcDbLine
 10
1214.257965
 20
-1081.114869
 30
0.0
 11
1236.72115
 21
-1081.114869
 31
0.0
  0
LINE
  5
46E6
330
4D4D
100
AcDbEntity
  8
V0-OBRYS
  6
CONTINUOUS
 62
    90
 48
2.0
100
AcDbLine
 10
1204.29963
 20
-906.629386
 30
0.0
 11
1236.72115
 21
-906.629386
 31
0.0
  0
LINE
  5
46E7
330
4D4D
100
AcDbEntity
  8
V0-OBRYS
  6
CONTINUOUS
 62
    90
 48
2.0
100
AcDbLine
 10
1204.29963
 20
-1086.630826
 30
0.0
 11
1236.72115
 21
-1086.630826
 31
0.0
  0
ARC
  5
46E8
330
4D4D
100
AcDbEntity
  8
V0-OBRYS
  6
CONTINUOUS
 62
    90
 48
2.0
100
AcDbCircle
 10
1235.534701
 20
-1228.105812
 30
0.0
 40
13.444084
100
AcDbArc
 50
180.393192
 51
223.416411
  0
LINE
  5
46E9
330
4D4D
100
AcDbEntity
  8
V0-OBRYS
  6
CONTINUOUS
 62
    90
 48
2.0
100
AcDbLine
 10
1222.090934
 20
-765.062142
 30
0.0
 11
1222.090934
 21
-868.377363
 31
0.0
  0
LINE
  5
46EA
330
4D4D
100
AcDbEntity
  8
V0-OBRYS
  6
CONTINUOUS
 62
    90
 48
2.0
100
AcDbLine
 10
1224.901635
 20
-765.062142
 30
0.0
 11
1224.901635
 21
-868.377363
 31
0.0
  0
LINE
  5
46EB
330
4D4D
100
AcDbEntity
  8
V0-OBRYS
  6
CONTINUOUS
 62
    90
 48
2.0
100
AcDbLine
 10
1214.51027
 20
-996.630106
 30
0.0
 11
1214.51027
 21
-1086.630826
 31
0.0
  0
LINE
  5
46EC
330
4D4D
100
AcDbEntity
  8
V0-OBRYS
  6
CONTINUOUS
 62
    90
 48
2.0
100
AcDbLine
 10
1191.51003
 20
-996.630106
 30
0.0
 11
1191.51003
 21
-1070.841226
 31
0.0
  0
LINE
  5
46ED
330
4D4D
100
AcDbEntity
  8
V0-OBRYS
  6
CONTINUOUS
 62
    90
 48
2.0
100
AcDbLine
 10
1214.257965
 20
-1046.271859
 30
0.0
 11
1190.931724
 21
-1039.454749
 31
0.0
  0
LINE
  5
46EE
330
4D4D
100
AcDbEntity
  8
V0-OBRYS
  6
CONTINUOUS
 62
    90
 48
2.0
100
AcDbLine
 10
1224.901635
 20
-1228.198071
 30
0.0
 11
1224.901635
 21
-1124.882849
 31
0.0
  0
LINE
  5
46EF
330
4D4D
100
AcDbEntity
  8
V0-OBRYS
  6
CONTINUOUS
 62
    90
 48
2.0
100
AcDbLine
 10
1222.090934
 20
-1228.198071
 30
0.0
 11
1222.090934
 21
-1124.882849
 31
0.0
  0
ARC
  5
46F0
330
4D4D
100
AcDbEntity
  8
V0-OBRYS
  6
CONTINUOUS
 62
    90
 48
2.0
100
AcDbCircle
 10
1231.090934
 20
-1228.198071
 30
0.0
 40
6.189299
100
AcDbArc
 50
180.0
 51
215.946405
  0
CIRCLE
  5
46F1
330
4D4D
100
AcDbEntity
  8
V0-OBRYS
  6
CONTINUOUS
 62
    90
 48
2.0
100
AcDbCircle
 10
1219.195912
 20
-1221.051439
 30
0.0
 40
2.894689
  0
CIRCLE
  5
46F2
330
4D4D
100
AcDbEntity
  8
V0-OBRYS
  6
CONTINUOUS
 62
    90
 48
2.0
100
AcDbCircle
 10
1219.195912
 20
-1199.451439
 30
0.0
 40
2.894689
  0
CIRCLE
  5
46F3
330
4D4D
100
AcDbEntity
  8
V0-OBRYS
  6
CONTINUOUS
 62
    90
 48
2.0
100
AcDbCircle
 10
1219.195912
 20
-1177.851439
 30
0.0
 40
2.894689
  0
CIRCLE
  5
46F4
330
4D4D
100
AcDbEntity
  8
V0-OBRYS
  6
CONTINUOUS
 62
    90
 48
2.0
100
AcDbCircle
 10
1219.195912
 20
-1156.251439
 30
0.0
 40
2.894689
  0
ARC
  5
46F5
330
4D4D
100
AcDbEntity
  8
V0-OBRYS
  6
CONTINUOUS
 62
    90
 48
2.0
100
AcDbCircle
 10
1231.573433
 20
-1124.744247
 30
0.0
 40
6.189299
100
AcDbArc
 50
129.389776
 51
180.215669
  0
ARC
  5
46F6
330
4D4D
100
AcDbEntity
  8
V0-OBRYS
  6
CONTINUOUS
 62
    90
 48
2.0
100
AcDbCircle
 10
1231.573433
 20
-1124.744247
 30
0.0
 40
9.0
100
AcDbArc
 50
129.389776
 51
180.215669
  0
CIRCLE
  5
46F7
330
4D4D
100
AcDbEntity
  8
V0-OBRYS
  6
CONTINUOUS
 62
    90
 48
2.0
100
AcDbCircle
 10
1219.195912
 20
-1134.651439
 30
0.0
 40
2.894689
  0
LINE
  5
46F8
330
4D4D
100
AcDbEntity
  8
V0-OBRYS
  6
CONTINUOUS
 62
    90
 48
2.0
100
AcDbLine
 10
1214.257965
 20
-1081.114869
 30
0.0
 11
1191.689883
 21
-1059.148627
 31
0.0
  0
ARC
  5
46F9
330
4D4D
100
AcDbEntity
  8
V0-OBRYS
  6
CONTINUOUS
 62
    90
 48
2.0
100
AcDbCircle
 10
1204.779924
 20
-1073.16719
 30
0.0
 40
13.472201
100
AcDbArc
 50
170.05812
 51
267.95693
  0
LINE
  5
46FA
330
4D4D
100
AcDbEntity
  8
V0-OBRYS
  6
CONTINUOUS
 62
    90
 48
2.0
100
AcDbLine
 10
1213.499806
 20
-1065.208277
 30
0.0
 11
1192.448036
 21
-1050.059144
 31
0.0
  0
LINE
  5
46FB
330
4D4D
100
AcDbEntity
  8
V0-OBRYS
  6
CONTINUOUS
 62
    90
 48
2.0
100
AcDbLine
 10
1214.51027
 20
-996.630106
 30
0.0
 11
1214.51027
 21
-906.629386
 31
0.0
  0
LINE
  5
46FC
330
4D4D
100
AcDbEntity
  8
V0-OBRYS
  6
CONTINUOUS
 62
    90
 48
2.0
100
AcDbLine
 10
1191.51003
 20
-996.630106
 30
0.0
 11
1191.51003
 21
-922.418986
 31
0.0
  0
LINE
  5
46FE
330
4D4D
100
AcDbEntity
  8
V0-OBRYS
  6
CONTINUOUS
 62
    90
 48
2.0
100
AcDbLine
 10
1213.499806
 20
-1028.092902
 30
0.0
 11
1191.689883
 21
-1025.063073
 31
0.0
  0
LINE
  5
46FF
330
4D4D
100
AcDbEntity
  8
V0-OBRYS
  6
CONTINUOUS
 62
    90
 48
2.0
100
AcDbLine
 10
1213.499806
 20
-1028.092902
 30
0.0
 11
1218.048742
 21
-1028.092902
 31
0.0
  0
LINE
  5
4700
330
4D4D
100
AcDbEntity
  8
V0-OBRYS
  6
CONTINUOUS
 62
    90
 48
2.0
100
AcDbLine
 10
1213.499806
 20
-1009.91394
 30
0.0
 11
1191.689883
 21
-1009.156484
 31
0.0
  0
LINE
  5
4701
330
4D4D
100
AcDbEntity
  8
V0-OBRYS
  6
CONTINUOUS
 62
    90
 48
2.0
100
AcDbLine
 10
1213.499806
 20
-983.346272
 30
0.0
 11
1191.689883
 21
-984.1037280000001
 31
0.0
  0
LINE
  5
4702
330
4D4D
100
AcDbEntity
  8
V0-OBRYS
  6
CONTINUOUS
 62
    90
 48
2.0
100
AcDbLine
 10
1214.257965
 20
-946.988353
 30
0.0
 11
1190.931724
 21
-953.805463
 31
0.0
  0
LINE
  5
4703
330
4D4D
100
AcDbEntity
  8
V0-OBRYS
  6
CONTINUOUS
 62
    90
 48
2.0
100
AcDbLine
 10
1213.499806
 20
-965.167311
 30
0.0
 11
1191.689883
 21
-968.197139
 31
0.0
  0
LINE
  5
4704
330
4D4D
100
AcDbEntity
  8
V0-OBRYS
  6
CONTINUOUS
 62
    90
 48
2.0
100
AcDbLine
 10
1213.499806
 20
-965.167311
 30
0.0
 11
1218.048742
 21
-965.167311
 31
0.0
  0
LINE
  5
4705
330
4D4D
100
AcDbEntity
  8
V0-OBRYS
  6
CONTINUOUS
 62
    90
100
AcDbLine
 10
1225.405822
 20
-875.354433
 30
0.0
 11
1254.738576
 21
-899.255578
 31
0.0
  0
ARC
  5
4706
330
4D4D
100
AcDbEntity
  8
V0-OBRYS
  6
CONTINUOUS
 62
    90
 48
2.0
100
AcDbCircle
 10
1204.779924
 20
-920.093023
 30
0.0
 40
13.472201
100
AcDbArc
 50
92.04307
 51
189.94188
  0
LINE
  5
4707
330
4D4D
100
AcDbEntity
  8
V0-OBRYS
  6
CONTINUOUS
 62
    90
 48
2.0
100
AcDbLine
 10
1214.257965
 20
-912.145343
 30
0.0
 11
1191.689883
 21
-934.111586
 31
0.0
  0
LINE
  5
4708
330
4D4D
100
AcDbEntity
  8
V0-OBRYS
  6
CONTINUOUS
 62
    90
 48
2.0
100
AcDbLine
 10
1213.499806
 20
-928.051936
 30
0.0
 11
1192.448036
 21
-943.201068
 31
0.0
  0
ARC
  5
4709
330
4D4D
100
AcDbEntity
  8
V0-OBRYS
  6
CONTINUOUS
 62
    90
 48
2.0
100
AcDbCircle
 10
1231.090934
 20
-868.377363
 30
0.0
 40
9.0
100
AcDbArc
 50
180.0
 51
230.825893
  0
ARC
  5
470A
330
4D4D
100
AcDbEntity
  8
V0-OBRYS
  6
CONTINUOUS
 62
    90
 48
2.0
100
AcDbCircle
 10
1231.090934
 20
-868.377363
 30
0.0
 40
6.189299
100
AcDbArc
 50
180.0
 51
230.825893
  0
CIRCLE
  5
470B
330
4D4D
100
AcDbEntity
  8
V0-OBRYS
  6
CONTINUOUS
 62
    90
 48
2.0
100
AcDbCircle
 10
1219.32239
 20
-858.608773
 30
0.0
 40
2.894689
  0
CIRCLE
  5
470C
330
4D4D
100
AcDbEntity
  8
V0-OBRYS
  6
CONTINUOUS
 62
    90
 48
2.0
100
AcDbCircle
 10
1219.32239
 20
-837.008773
 30
0.0
 40
2.894689
  0
CIRCLE
  5
470D
330
4D4D
100
AcDbEntity
  8
V0-OBRYS
  6
CONTINUOUS
 62
    90
 48
2.0
100
AcDbCircle
 10
1219.32239
 20
-815.408773
 30
0.0
 40
2.894689
  0
CIRCLE
  5
470E
330
4D4D
100
AcDbEntity
  8
V0-OBRYS
  6
CONTINUOUS
 62
    90
 48
2.0
100
AcDbCircle
 10
1219.32239
 20
-793.808773
 30
0.0
 40
2.894689
  0
ARC
  5
470F
330
4D4D
100
AcDbEntity
  8
V0-OBRYS
  6
CONTINUOUS
 62
    90
 48
2.0
100
AcDbCircle
 10
1231.090934
 20
-765.062142
 30
0.0
 40
9.0
100
AcDbArc
 50
144.271055
 51
180.0
  0
ARC
  5
4710
330
4D4D
100
AcDbEntity
  8
V0-OBRYS
  6
CONTINUOUS
 62
    90
 48
2.0
100
AcDbCircle
 10
1231.090934
 20
-765.062142
 30
0.0
 40
6.189299
100
AcDbArc
 50
144.607521
 51
180.0
  0
CIRCLE
  5
4711
330
4D4D
100
AcDbEntity
  8
V0-OBRYS
  6
CONTINUOUS
 62
    90
 48
2.0
100
AcDbCircle
 10
1219.32239
 20
-772.208773
 30
0.0
 40
2.894689
  0
LINE
  5
4712
330
4D4D
100
AcDbEntity
  8
V0-OBRYS
  6
CONTINUOUS
 62
    90
 48
2.0
100
AcDbLine
 10
1236.721191
 20
-1351.630106
 30
0.0
 11
1236.721191
 21
-996.630106
 31
0.0
  0
LINE
  5
4713
330
4D4D
100
AcDbEntity
  8
V0-OBRYS
  6
CONTINUOUS
 62
    90
100
AcDbLine
 10
1248.321191
 20
-641.630106
 30
0.0
 11
1248.321191
 21
-1351.630106
 31
0.0
  0
LINE
  5
4714
330
4D4D
100
AcDbEntity
  8
V0-VYPLNE
  6
DASHED
 62
    52
100
AcDbLine
 10
1266.681671
 20
-1104.80292
 30
0.0
 11
1282.815098
 21
-1271.251178
 31
0.0
  0
LINE
  5
4715
330
4D4D
100
AcDbEntity
  8
V0-VYPLNE
  6
DASHED
 62
    52
100
AcDbLine
 10
1338.760398
 20
-1104.80292
 30
0.0
 11
1322.62697
 21
-1271.251178
 31
0.0
  0
LINE
  5
4716
330
4D4D
100
AcDbEntity
  8
V0-OBRYS
  6
CONTINUOUS
 62
    90
 48
2.0
100
AcDbLine
 10
1347.878441
 20
-996.630106
 30
0.0
 11
1347.878441
 21
-1276.629656
 31
0.0
  0
LINE
  5
4717
330
4D4D
100
AcDbEntity
  8
V0-OBRYS
  6
CONTINUOUS
 62
    90
 48
2.0
100
AcDbLine
 10
1248.321191
 20
-1351.630106
 30
0.0
 11
1236.721191
 21
-1351.630106
 31
0.0
  0
LINE
  5
4718
330
4D4D
100
AcDbEntity
  8
V0-OBRYS
  6
CONTINUOUS
 62
    90
 48
2.0
100
AcDbLine
 10
1347.878441
 20
-1276.629656
 30
0.0
 11
1290.083015
 21
-1276.629656
 31
0.0
  0
LINE
  5
4719
330
4D4D
100
AcDbEntity
  8
V0-VYPLNE
  6
DASHED
 62
    52
100
AcDbLine
 10
1282.815098
 20
-1271.251178
 30
0.0
 11
1322.62697
 21
-1271.251178
 31
0.0
  0
ARC
  5
471A
330
4D4D
100
AcDbEntity
  8
V0-OBRYS
  6
CONTINUOUS
 62
    90
 48
2.0
100
AcDbCircle
 10
1290.083015
 20
-1303.204406
 30
0.0
 40
26.57475
100
AcDbArc
 50
90.0
 51
149.420799
  0
LINE
  5
471B
330
4D4D
100
AcDbEntity
  8
V0-OBRYS
  6
CONTINUOUS
 62
    90
 48
2.0
100
AcDbLine
 10
1247.980991
 20
-1312.062656
 30
0.0
 11
1267.204101
 21
-1289.685062
 31
0.0
  0
LINE
  5
471C
330
4D4D
100
AcDbEntity
  8
V0-OBRYS
  6
CONTINUOUS
 62
    90
 48
2.0
100
AcDbLine
 10
1233.886152
 20
-1317.176017
 30
0.0
 11
1233.886152
 21
-1300.384047
 31
0.0
  0
ARC
  5
471D
330
4D4D
100
AcDbEntity
  8
V0-OBRYS
  6
CONTINUOUS
 62
    90
 48
2.0
100
AcDbCircle
 10
1235.303672
 20
-1317.176017
 30
0.0
 40
1.41752
100
AcDbArc
 50
180.0
 51
0.0
  0
LINE
  5
471E
330
4D4D
100
AcDbEntity
  8
V0-OBRYS
  6
CONTINUOUS
 62
    90
 48
2.0
100
AcDbLine
 10
1236.721191
 20
-641.630106
 30
0.0
 11
1236.721191
 21
-996.630106
 31
0.0
  0
LINE
  5
471F
330
4D4D
100
AcDbEntity
  8
V0-OBRYS
  6
CONTINUOUS
 62
    90
 48
2.0
100
AcDbLine
 10
1347.878441
 20
-996.630106
 30
0.0
 11
1347.878441
 21
-716.630556
 31
0.0
  0
LINE
  5
4720
330
4D4D
100
AcDbEntity
  8
V0-VYPLNE
  6
DASHED
 62
    52
100
AcDbLine
 10
1266.681671
 20
-887.7533590000001
 30
0.0
 11
1282.815098
 21
-721.305101
 31
0.0
  0
LINE
  5
4721
330
4D4D
100
AcDbEntity
  8
V0-VYPLNE
  6
DASHED
 62
    52
100
AcDbLine
 10
1338.760398
 20
-887.7533590000001
 30
0.0
 11
1322.62697
 21
-721.305101
 31
0.0
  0
ELLIPSE
  5
4722
330
4D4D
100
AcDbEntity
  8
V0-VYPLNE
  6
DASHED
 62
    52
100
AcDbEllipse
 10
275.99323
 20
-984.772845
 30
0.0
 11
5.400124791776761E-12
 21
1174.336946726077
 31
0.0
210
0.0
220
0.0
230
-1.0
 40
0.909091
 41
1.580593751677045
 42
1.660762687017184
  0
LINE
  5
4723
330
4D4D
100
AcDbEntity
  8
V0-VYPLNE
  6
DASHED
 62
    52
100
AcDbLine
 10
1302.721034
 20
-1101.627561
 30
0.0
 11
1302.721034
 21
-996.278139
 31
0.0
  0
LINE
  5
4724
330
4D4D
100
AcDbEntity
  8
V0-VYPLNE
  6
DASHED
 62
    52
100
AcDbLine
 10
1266.721034
 20
-996.278139
 30
0.0
 11
1266.721034
 21
-1096.598139
 31
0.0
  0
LINE
  5
4725
330
4D4D
100
AcDbEntity
  8
V0-VYPLNE
  6
DASHED
 62
    52
100
AcDbLine
 10
1258.992166
 20
-1078.736026
 30
0.0
 11
1258.992166
 21
-996.630106
 31
0.0
  0
ELLIPSE
  5
4726
330
4D4D
100
AcDbEntity
  8
V0-VYPLNE
  6
DASHED
 62
    52
100
AcDbEllipse
 10
1302.721034
 20
-943.214216
 30
0.0
 11
-6.821210263296962E-13
 21
158.413345729631
 31
0.0
210
0.0
220
0.0
230
-1.0
 40
0.9090909999999999
 41
2.929991421004501
 42
3.394251156505872
  0
ARC
  5
4727
330
4D4D
100
AcDbEntity
  8
V0-OBRYS
  6
CONTINUOUS
 62
    90
 48
2.0
100
AcDbCircle
 10
1211.393345
 20
-1086.821616
 30
0.0
 40
11.810701
100
AcDbArc
 50
309.389776
 51
359.162914
  0
ARC
  5
4728
330
4D4D
100
AcDbEntity
  8
V0-OBRYS
  6
CONTINUOUS
 62
    90
 48
2.0
100
AcDbCircle
 10
1202.311659
 20
-1266.272073
 30
0.0
 40
180.392824
100
AcDbArc
 50
72.982973
 51
84.247314
  0
LINE
  5
4729
330
4D4D
100
AcDbEntity
  8
V0-VYPLNE
  6
DASHED
 62
    52
100
AcDbLine
 10
1272.827739
 20
-1098.04848
 30
0.0
 11
1266.681671
 21
-1104.80292
 31
0.0
  0
LINE
  5
472A
330
4D4D
100
AcDbEntity
  8
V0-VYPLNE
  6
DASHED
 62
    52
100
AcDbLine
 10
1236.721237
 20
-1081.114869
 30
0.0
 11
1258.992166
 21
-1081.114869
 31
0.0
  0
LINE
  5
472B
330
4D4D
100
AcDbEntity
  8
V0-VYPLNE
  6
DASHED
 62
    52
100
AcDbLine
 10
1236.721237
 20
-1086.630826
 30
0.0
 11
1248.097366
 21
-1086.630826
 31
0.0
  0
ARC
  5
472C
330
4D4D
100
AcDbEntity
  8
V0-VYPLNE
  6
DASHED
 62
    52
 48
2.0
100
AcDbCircle
 10
1248.481095
 20
-1075.695575
 30
0.0
 40
10.941982
100
AcDbArc
 50
267.99026
 51
343.866865
  0
LINE
  5
472D
330
4D4D
100
AcDbEntity
  8
V0-VYPLNE
  6
DASHED
 62
    52
100
AcDbLine
 10
1236.721237
 20
-1046.271859
 30
0.0
 11
1258.234013
 21
-1046.271859
 31
0.0
  0
LINE
  5
472E
330
4D4D
100
AcDbEntity
  8
V0-VYPLNE
  6
DASHED
 62
    52
100
AcDbLine
 10
1236.721237
 20
-1065.208277
 30
0.0
 11
1258.992166
 21
-1065.208277
 31
0.0
  0
ELLIPSE
  5
472F
330
4D4D
100
AcDbEntity
  8
V0-VYPLNE
  6
DASHED
 62
    52
100
AcDbEllipse
 10
1331.287076
 20
-1089.490565
 30
0.0
 11
6.821210263296962E-13
 21
8.799999999999955
 31
0.0
210
0.0
220
0.0
230
-1.0
 40
0.9090909999999999
 41
1.660762687017155
 42
2.929991421004478
  0
LINE
  5
4730
330
4D4D
100
AcDbEntity
  8
V0-VYPLNE
  6
DASHED
 62
    52
100
AcDbLine
 10
1332.614329
 20
-1098.04848
 30
0.0
 11
1338.760398
 21
-1104.80292
 31
0.0
  0
ELLIPSE
  5
4731
330
4D4D
100
AcDbEntity
  8
V0-VYPLNE
  6
DASHED
 62
    52
100
AcDbEllipse
 10
275.99323
 20
-1007.783433
 30
0.0
 11
4.320099833421409E-11
 21
1174.336946725988
 31
0.0
210
0.0
220
0.0
230
-1.0
 40
0.9090909999999999
 41
1.480829966572563
 42
1.560998901912708
  0
LINE
  5
4732
330
4D4D
100
AcDbEntity
  8
V0-VYPLNE
  6
DASHED
 62
    52
100
AcDbLine
 10
1266.721034
 20
-996.278139
 30
0.0
 11
1266.721034
 21
-895.958139
 31
0.0
  0
LINE
  5
4733
330
4D4D
100
AcDbEntity
  8
V0-VYPLNE
  6
DASHED
 62
    52
100
AcDbLine
 10
1302.721034
 20
-890.928718
 30
0.0
 11
1302.721034
 21
-996.278139
 31
0.0
  0
LINE
  5
4734
330
4D4D
100
AcDbEntity
  8
V0-VYPLNE
  6
DASHED
 62
    52
100
AcDbLine
 10
1258.992166
 20
-914.524186
 30
0.0
 11
1258.992166
 21
-996.630106
 31
0.0
  0
LINE
  5
4735
330
4D4D
100
AcDbEntity
  8
V0-VYPLNE
  6
DASHED
 62
    52
100
AcDbLine
 10
1267.356234
 20
-1008.324226
 30
0.0
 11
1341.465076
 21
-983.818791
 31
0.0
  0
ELLIPSE
  5
4736
330
4D4D
100
AcDbEntity
  8
V0-VYPLNE
  6
DASHED
 62
    52
100
AcDbEllipse
 10
1302.721034
 20
-996.630212
 30
0.0
 11
6.821210263296962E-13
 21
7.458195139447412
 31
0.0
210
0.0
220
0.0
230
-1.0
 40
0.909091
 41
0.0
 42
6.283185307179586
  0
LINE
  5
473A
330
4D4D
100
AcDbEntity
  8
V0-VYPLNE
  6
DASHED
 62
    52
100
AcDbLine
 10
1236.721237
 20
-1028.092902
 30
0.0
 11
1258.992166
 21
-1028.092902
 31
0.0
  0
LINE
  5
473B
330
4D4D
100
AcDbEntity
  8
V0-VYPLNE
  6
DASHED
 62
    52
100
AcDbLine
 10
1236.721237
 20
-1009.91394
 30
0.0
 11
1258.234013
 21
-1009.91394
 31
0.0
  0
LINE
  5
473C
330
4D4D
100
AcDbEntity
  8
V0-VYPLNE
  6
DASHED
 62
    52
100
AcDbLine
 10
1236.721237
 20
-983.346272
 30
0.0
 11
1258.234013
 21
-983.346272
 31
0.0
  0
LINE
  5
473D
330
4D4D
100
AcDbEntity
  8
V0-VYPLNE
  6
DASHED
 62
    52
100
AcDbLine
 10
1236.721237
 20
-946.988353
 30
0.0
 11
1258.234013
 21
-946.988353
 31
0.0
  0
LINE
  5
473E
330
4D4D
100
AcDbEntity
  8
V0-VYPLNE
  6
DASHED
 62
    52
100
AcDbLine
 10
1236.721237
 20
-965.167311
 30
0.0
 11
1258.992166
 21
-965.167311
 31
0.0
  0
ELLIPSE
  5
473F
330
4D4D
100
AcDbEntity
  8
V0-VYPLNE
  6
DASHED
 62
    52
100
AcDbEllipse
 10
1302.721034
 20
-1049.342063
 30
0.0
 11
-1.136868377216160E-12
 21
158.413345729631
 31
0.0
210
0.0
220
0.0
230
-1.0
 40
0.9090910000000001
 41
-0.2526585029160793
 42
0.2116012325852628
  0
LINE
  5
4740
330
4D4D
100
AcDbEntity
  8
V0-VYPLNE
  6
DASHED
 62
    52
100
AcDbLine
 10
1236.721237
 20
-928.051936
 30
0.0
 11
1258.992166
 21
-928.051936
 31
0.0
  0
LINE
  5
4741
330
4D4D
100
AcDbEntity
  8
V0-VYPLNE
  6
DASHED
 62
    52
100
AcDbLine
 10
1236.721237
 20
-912.145343
 30
0.0
 11
1258.992166
 21
-912.145343
 31
0.0
  0
LINE
  5
4742
330
4D4D
100
AcDbEntity
  8
V0-VYPLNE
  6
DASHED
 62
    52
100
AcDbLine
 10
1236.721237
 20
-906.629386
 30
0.0
 11
1248.097366
 21
-906.629386
 31
0.0
  0
ARC
  5
4743
330
4D4D
100
AcDbEntity
  8
V0-OBRYS
  6
CONTINUOUS
 62
    90
 48
2.0
100
AcDbCircle
 10
1204.353879
 20
-768.5266820000001
 30
0.0
 40
138.729137
100
AcDbArc
 50
277.666871
 51
292.085242
  0
ARC
  5
4744
330
4D4D
100
AcDbEntity
  8
V0-VYPLNE
  6
DASHED
 62
    52
 48
2.0
100
AcDbCircle
 10
1248.481095
 20
-917.564637
 30
0.0
 40
10.941982
100
AcDbArc
 50
16.133135
 51
92.00973999999999
  0
LINE
  5
4745
330
4D4D
100
AcDbEntity
  8
V0-VYPLNE
  6
DASHED
 62
    52
100
AcDbLine
 10
1272.827739
 20
-894.507799
 30
0.0
 11
1266.681671
 21
-887.7533590000001
 31
0.0
  0
LINE
  5
4746
330
4D4D
100
AcDbEntity
  8
V0-VYPLNE
  6
DASHED
 62
    52
100
AcDbLine
 10
1332.614329
 20
-894.507799
 30
0.0
 11
1338.760398
 21
-887.7533590000001
 31
0.0
  0
LINE
  5
4747
330
4D4D
100
AcDbEntity
  8
V0-OBRYS
  6
CONTINUOUS
 62
    90
 48
2.0
100
AcDbLine
 10
1347.878441
 20
-716.630556
 30
0.0
 11
1290.083015
 21
-716.630556
 31
0.0
  0
LINE
  5
4748
330
4D4D
100
AcDbEntity
  8
V0-VYPLNE
  6
DASHED
 62
    52
100
AcDbLine
 10
1282.815098
 20
-721.305101
 30
0.0
 11
1322.62697
 21
-721.305101
 31
0.0
  0
LINE
  5
4749
330
4D4D
100
AcDbEntity
  8
V0-OBRYS
  6
CONTINUOUS
 62
    90
 48
2.0
100
AcDbLine
 10
1247.980991
 20
-681.197556
 30
0.0
 11
1267.204101
 21
-703.57515
 31
0.0
  0
ARC
  5
474A
330
4D4D
100
AcDbEntity
  8
V0-OBRYS
  6
CONTINUOUS
 62
    90
 48
2.0
100
AcDbCircle
 10
1290.083015
 20
-690.055806
 30
0.0
 40
26.57475
100
AcDbArc
 50
210.579201
 51
270.0
  0
LINE
  5
474B
330
4D4D
100
AcDbEntity
  8
V0-OBRYS
  6
CONTINUOUS
 62
    90
 48
2.0
100
AcDbLine
 10
1233.886152
 20
-676.084196
 30
0.0
 11
1233.886152
 21
-692.876165
 31
0.0
  0
ARC
  5
474C
330
4D4D
100
AcDbEntity
  8
V0-OBRYS
  6
CONTINUOUS
 62
    90
 48
2.0
100
AcDbCircle
 10
1235.303672
 20
-676.084196
 30
0.0
 40
1.41752
100
AcDbArc
 50
0.0
 51
180.0
  0
LINE
  5
474D
330
4D4D
100
AcDbEntity
  8
V0-OBRYS
  6
CONTINUOUS
 62
    90
 48
2.0
100
AcDbLine
 10
1248.321191
 20
-641.630106
 30
0.0
 11
1236.721191
 21
-641.630106
 31
0.0
  0
LINE
  5
47FB
330
4D4D
100
AcDbEntity
  8
0
  6
BYBLOCK
 62
    41
100
AcDbLine
 10
1236.721191
 20
-367.000907
 30
0.0
 11
1236.721191
 21
-402.138425
 31
0.0
  0
LINE
  5
47FC
330
4D4D
100
AcDbEntity
  8
0
  6
BYBLOCK
 62
    41
100
AcDbLine
 10
1248.321191
 20
-367.000907
 30
0.0
 11
1248.321191
 21
-402.138425
 31
0.0
  0
LINE
  5
47FD
330
4D4D
100
AcDbEntity
  8
0
  6
BYBLOCK
 62
    41
100
AcDbLine
 10
1288.321191
 20
-400.888425
 30
0.0
 11
1328.321191
 21
-400.888425
 31
0.0
  0
LINE
  5
47FE
330
4D4D
100
AcDbEntity
  8
0
  6
BYBLOCK
 62
    41
100
AcDbLine
 10
1234.721191
 20
-400.888425
 30
0.0
 11
1184.318829
 21
-400.888425
 31
0.0
  0
LINE
  5
47FF
330
4D4D
100
AcDbEntity
  8
0
  6
BYBLOCK
 62
    41
100
AcDbLine
 10
1248.321191
 20
-400.888425
 30
0.0
 11
1236.721191
 21
-400.888425
 31
0.0
  0
INSERT
  5
4800
330
4D4D
100
AcDbEntity
  8
0
  6
BYBLOCK
 62
    41
100
AcDbBlockReference
  2
_OPEN
 10
1248.321191
 20
-400.888425
 30
0.0
 41
40.0
 42
40.0
 43
40.0
 50
180.0
  0
INSERT
  5
4801
330
4D4D
100
AcDbEntity
  8
0
  6
BYBLOCK
 62
    41
100
AcDbBlockReference
  2
_OPEN
 10
1236.721191
 20
-400.888425
 30
0.0
 41
40.0
 42
40.0
 43
40.0
  0
POINT
  5
4803
330
4D4D
100
AcDbEntity
  8
DEFPOINTS
  6
BYBLOCK
 62
     0
100
AcDbPoint
 10
1236.721191
 20
-366.000907
 30
0.0
  0
POINT
  5
4804
330
4D4D
100
AcDbEntity
  8
DEFPOINTS
  6
BYBLOCK
 62
     0
100
AcDbPoint
 10
1248.321191
 20
-366.000907
 30
0.0
  0
POINT
  5
4805
330
4D4D
100
AcDbEntity
  8
DEFPOINTS
  6
BYBLOCK
 62
     0
100
AcDbPoint
 10
1248.321191
 20
-400.888425
 30
0.0
  0
POINT
  5
480C
330
4D4D
100
AcDbEntity
  8
V0-VYPLNE
  6
CONTINUOUS
 62
    41
100
AcDbPoint
 10
1347.878441
 20
-11.000907
 30
0.0
  0
POINT
  5
480D
330
4D4D
100
AcDbEntity
  8
V0-VYPLNE
  6
CONTINUOUS
 62
    41
100
AcDbPoint
 10
1347.878441
 20
-996.630106
 30
0.0
  0
DIMENSION
  5
4BCC
330
4D4D
100
AcDbEntity
  8
V0-VYPLNE
  6
CONTINUOUS
 62
    41
100
AcDbDimension
  2
*D9
 10
1531.904710999981
 20
-326.433457
 30
0.0
 11
1509.904710999981
 21
-11.00090699999998
 31
0.0
 70
    32
  1
%%C649
  3
ED40
100
AcDbAlignedDimension
 13
1247.980991
 23
304.431643
 33
0.0
 14
1247.980991
 24
-326.433457
 34
0.0
 50
90.0
100
AcDbRotatedDimension
  0
DIMENSION
  5
4BEF
330
4D4D
100
AcDbEntity
  8
V0-VYPLNE
  6
CONTINUOUS
 62
    41
100
AcDbDimension
  2
*D10
 10
1348.878441
 20
-535.004987000012
 30
0.0
 11
1254.6942365
 21
-513.004987000012
 31
0.0
 70
    32
  3
ED40
100
AcDbAlignedDimension
 13
1160.510032
 23
-51.000918
 33
0.0
 14
1348.878441
 24
-291.000457
 34
0.0
100
AcDbRotatedDimension
  0
LINE
  5
4BF5
330
4D4D
100
AcDbEntity
  8
V0-OBRYS
  6
CONTINUOUS
 62
    90
100
AcDbLine
 10
1160.510032
 20
-1036.630117
 30
0.0
 11
1191.510032
 21
-1036.630117
 31
0.0
  0
LINE
  5
4BF6
330
4D4D
100
AcDbEntity
  8
V0-OBRYS
  6
CONTINUOUS
 62
    90
100
AcDbLine
 10
1160.510032
 20
-956.630117
 30
0.0
 11
1191.510032
 21
-956.630117
 31
0.0
  0
LINE
  5
4BF7
330
4D4D
100
AcDbEntity
  8
V0-OBRYS
  6
CONTINUOUS
 62
    90
100
AcDbLine
 10
1160.510032
 20
-996.630117
 30
0.0
 11
1160.510032
 21
-1036.630117
 31
0.0
  0
LINE
  5
4BF8
330
4D4D
100
AcDbEntity
  8
V0-OBRYS
  6
CONTINUOUS
 62
    90
100
AcDbLine
 10
1175.510032
 20
-996.630117
 30
0.0
 11
1175.510032
 21
-1036.630117
 31
0.0
  0
LINE
  5
4BF9
330
4D4D
100
AcDbEntity
  8
V0-OBRYS
  6
CONTINUOUS
 62
    90
100
AcDbLine
 10
1160.510032
 20
-996.630117
 30
0.0
 11
1160.510032
 21
-956.630117
 31
0.0
  0
LINE
  5
4BFA
330
4D4D
100
AcDbEntity
  8
V0-OBRYS
  6
CONTINUOUS
 62
    90
100
AcDbLine
 10
1175.510032
 20
-996.630117
 30
0.0
 11
1175.510032
 21
-956.630117
 31
0.0
  0
LINE
  5
4BFB
330
4D4D
100
AcDbEntity
  8
V0-OBRYS
  6
CONTINUOUS
 62
    90
100
AcDbLine
 10
1191.510032
 20
-1036.630117
 30
0.0
 11
1191.510032
 21
-996.630117
 31
0.0
  0
LINE
  5
4BFC
330
4D4D
100
AcDbEntity
  8
V0-OBRYS
  6
CONTINUOUS
 62
    90
100
AcDbLine
 10
1191.510032
 20
-956.630117
 30
0.0
 11
1191.510032
 21
-996.630117
 31
0.0
  0
LINE
  5
4BFD
330
4D4D
100
AcDbEntity
  8
V0-OBRYS
  6
CONTINUOUS
 62
    90
100
AcDbLine
 10
1160.510032
 20
-51.000918
 30
0.0
 11
1191.510032
 21
-51.000918
 31
0.0
  0
LINE
  5
4BFE
330
4D4D
100
AcDbEntity
  8
V0-OBRYS
  6
CONTINUOUS
 62
    90
100
AcDbLine
 10
1160.510032
 20
28.999082
 30
0.0
 11
1191.510032
 21
28.999082
 31
0.0
  0
LINE
  5
4BFF
330
4D4D
100
AcDbEntity
  8
V0-OBRYS
  6
CONTINUOUS
 62
    90
100
AcDbLine
 10
1160.510032
 20
-11.000918
 30
0.0
 11
1160.510032
 21
-51.000918
 31
0.0
  0
LINE
  5
4C00
330
4D4D
100
AcDbEntity
  8
V0-OBRYS
  6
CONTINUOUS
 62
    90
100
AcDbLine
 10
1175.510032
 20
-11.000918
 30
0.0
 11
1175.510032
 21
-51.000918
 31
0.0
  0
LINE
  5
4C01
330
4D4D
100
AcDbEntity
  8
V0-OBRYS
  6
CONTINUOUS
 62
    90
100
AcDbLine
 10
1160.510032
 20
-11.000918
 30
0.0
 11
1160.510032
 21
28.999082
 31
0.0
  0
LINE
  5
4C02
330
4D4D
100
AcDbEntity
  8
V0-OBRYS
  6
CONTINUOUS
 62
    90
100
AcDbLine
 10
1175.510032
 20
-11.000918
 30
0.0
 11
1175.510032
 21
28.999082
 31
0.0
  0
LINE
  5
4C03
330
4D4D
100
AcDbEntity
  8
V0-OBRYS
  6
CONTINUOUS
 62
    90
100
AcDbLine
 10
1191.510032
 20
-51.000918
 30
0.0
 11
1191.510032
 21
-11.000918
 31
0.0
  0
LINE
  5
4C04
330
4D4D
100
AcDbEntity
  8
V0-OBRYS
  6
CONTINUOUS
 62
    90
100
AcDbLine
 10
1191.510032
 20
28.999082
 30
0.0
 11
1191.510032
 21
-11.000918
 31
0.0
  0
LWPOLYLINE
  5
4C5A
330
4D4D
100
AcDbEntity
  8
V0-OBRYS
  6
CONTINUOUS
 62
    41
100
AcDbPolyline
 90
        4
 70
     1
 43
0.0
 10
2365.196987187753
 20
-379.6252526404915
 10
2388.796623
 20
-360.440436
 10
2372.694745871817
 20
-386.2421714638966
 10
2372.694745871817
 20
-386.2421714638966
1001
VDEXTRAPARAM
1071
       65
1071
        0
1071
        0
1040
1.0
1000

1000

1040
0.0
1040
0.0
  0
HATCH
  5
4DCD
330
4D4D
100
AcDbEntity
  8
V0-OBRYS
  6
CONTINUOUS
 62
    41
100
AcDbHatch
 10
0.0
 20
0.0
 30
0.0
210
0.0
220
0.0
230
1.0
  2
SOLID
 70
     1
 71
     0
 91
        1
 92
        2
 72
     0
 73
     1
 93
        3
 10
2365.196987187753
 20
-379.6252526404915
 10
2388.796623
 20
-360.440436
 10
2372.694745871817
 20
-386.2421714638966
 97
        0
 75
     0
 76
     1
 98
        1
 10
0.0
 20
0.0
1001
VDEXTRAPARAM
1071
       65
1071
        0
1071
        0
1040
1.0
1000

1000

1040
0.0
1040
0.0
1001
VD_TEMPHATCH
1000
VD_TEMPHATCH
  0
LWPOLYLINE
  5
4C5B
330
4D4D
100
AcDbEntity
  8
V0-OBRYS
  6
CONTINUOUS
 62
    41
100
AcDbPolyline
 90
        3
 70
     0
 43
0.0
 10
2368.945866529785
 20
-382.933712052194
 10
2300.874627
 20
-460.06655
 10
1949.623704
 20
-460.06655
  0
TEXT
  5
4C60
330
4D4D
100
AcDbEntity
  8
V0-OBRYS
  6
CONTINUOUS
 62
    41
100
AcDbText
 10
1843.608555571429
 20
-458.06655
 30
0.0
 40
38.0025
  1
4 OTVORY %%c10
  7
ED40
100
AcDbText
  0
TEXT
  5
4C61
330
4D4D
100
AcDbEntity
  8
0
  6
BYBLOCK
 62
    41
100
AcDbText
 10
1169.448783047619
 20
-398.884488
 30
0.0
 40
40.0
  1
12
  7
ED40
100
AcDbText
  0
VIEWPORT
  5
4DCE
330
4D49
100
AcDbEntity
 67
     1
  8
0
 60
     1
100
AcDbViewport
 10
261.517699
 20
148.5
 30
0.0
 40
297.0
 41
297.0
 68
     0
 69
     1
1001
VD_INVISIBLE_NOT_FOR_READ
1000
VD_INVISIBLE_NOT_FOR_READ
1001
ACAD
1000
MVIEW
1002
{
1070
    16
1010
0.0
1020
0.0
1030
0.0
1010
0.0
1020
0.0
1030
1.0
1040
6.2831853071796
1040
297.0
1040
261.517699
1040
148.5
1040
0.0
1040
0.0
1040
0.0
1070
     0
1070
   100
1070
     0
1070
     1
1070
     0
1070
     0
1070
     0
1070
     0
1040
0.0
1040
0.0
1040
0.0
1040
1.0
1040
1.0
1040
0.0
1040
0.0
1070
     0
1002
{
1002
}
1002
}
  0
VIEWPORT
  5
4DCF
330
4D49
100
AcDbEntity
 67
     1
  8
0
 60
     1
100
AcDbViewport
 10
261.517699
 20
148.5
 30
0.0
 40
297.0
 41
297.0
 68
     0
 69
     2
1001
VD_INVISIBLE_NOT_FOR_READ
1000
VD_INVISIBLE_NOT_FOR_READ
1001
ACAD
1000
MVIEW
1002
{
1070
    16
1010
0.0
1020
0.0
1030
0.0
1010
0.0
1020
0.0
1030
1.0
1040
6.2831853071796
1040
297.0
1040
261.517699
1040
148.5
1040
0.0
1040
0.0
1040
0.0
1070
     0
1070
   100
1070
     0
1070
     1
1070
     0
1070
     0
1070
     0
1070
     0
1040
0.0
1040
0.0
1040
0.0
1040
1.0
1040
1.0
1040
0.0
1040
0.0
1070
     0
1002
{
1002
}
1002
}
  0
ENDSEC
  0
SECTION
  2
OBJECTS
  0
DICTIONARY
  5
4D3A
330
0
100
AcDbDictionary
  3
ACAD_GROUP
350
4D3B
  3
ACAD_LAYOUT
350
4D48
  3
ACAD_MLINESTYLE
350
4D45
  3
ACAD_PLOTSETTINGS
350
4D47
  3
ACDBHEADERROUNDTRIPXREC
350
4DD0
  3
VECTORDRAW_OBJECTS
350
4D5D
  0
DICTIONARY
  5
4DF0
330
4D57
100
AcDbDictionary
280
     1
  3
ACAD_XREC_ROUNDTRIP
360
4DF1
  0
DICTIONARY
  5
4D3B
102
{ACAD_REACTORS
330
4D3A
102
}
330
4D3A
100
AcDbDictionary
  0
DICTIONARY
  5
4D48
102
{ACAD_REACTORS
330
4D3A
102
}
330
4D3A
100
AcDbDictionary
  0
DICTIONARY
  5
4D45
102
{ACAD_REACTORS
330
4D3A
102
}
330
4D3A
100
AcDbDictionary
  3
STANDARD
350
4D46
  0
DICTIONARY
  5
4D47
102
{ACAD_REACTORS
330
4D3A
102
}
330
4D3A
100
AcDbDictionary
  0
DICTIONARY
  5
4DD0
102
{ACAD_REACTORS
330
4D3A
102
}
330
4D3A
100
AcDbDictionary
  3
CEPSNTYPE
350
4DD9
  3
DIMSTYLEDATA
350
4DEF
  3
FINGERPRINTGUID
350
4DDA
  3
HYPERLINKBASE
350
4DD3
  3
INSUNITS
350
4DD8
  3
LAYOUTDICT
350
4DD5
  3
LWETCUNION
350
4DD7
  3
PLOTSETDICT
350
4DD6
  3
PSVPSCALE
350
4DDC
  3
PUCSBASE
350
4DDF
  3
PUCSORGBACK
350
4DE5
  3
PUCSORGBOTTOM
350
4DE1
  3
PUCSORGFRONT
350
4DE4
  3
PUCSORGLEFT
350
4DE2
  3
PUCSORGRIGHT
350
4DE3
  3
PUCSORGTOP
350
4DE0
  3
PUCSORTHOREF
350
4DDD
  3
PUCSORTHOVIEW
350
4DDE
  3
STYLESHEET
350
4DD4
  3
TSTACKALIGN
350
4DD1
  3
TSTACKSIZE
350
4DD2
  3
UCSBASE
350
4DE8
  3
UCSORGBACK
350
4DEE
  3
UCSORGBOTTOM
350
4DEA
  3
UCSORGFRONT
350
4DED
  3
UCSORGLEFT
350
4DEB
  3
UCSORGRIGHT
350
4DEC
  3
UCSORGTOP
350
4DE9
  3
UCSORTHOREF
350
4DE6
  3
UCSORTHOVIEW
350
4DE7
  3
VERSIONGUID
350
4DDB
  0
DICTIONARY
  5
4D5D
102
{ACAD_REACTORS
330
4D3A
102
}
330
4D3A
100
AcDbDictionary
  3
SERIALNO
350
4D5E
  0
XRECORD
  5
4DF1
102
{ACAD_REACTORS
330
4DF0
102
}
330
4DF0
100
AcDbXrecord
102
UCS
 74
     0
 71
     1
 10
0.0
 20
0.0
 30
0.0
 10
1.0
 20
0.0
 30
0.0
 10
0.0
 20
1.0
 30
0.0
146
0.0
 79
     0
102
VIEW
281
     0
  0
MLINESTYLE
  5
4D46
102
{ACAD_REACTORS
330
4D45
102
}
330
4D45
100
AcDbMlineStyle
  2
Standard
 70
     0
  3

 62
   256
 51
90.0
 52
90.0
 71
     2
 49
0.5
 62
   256
  6
BYLAYER
 49
-0.5
 62
   256
  6
BYLAYER
  0
XRECORD
  5
4DD9
102
{ACAD_REACTORS
330
4DD0
102
}
330
4DD0
100
AcDbXrecord
 90
        0
  0
XRECORD
  5
4DEF
102
{ACAD_REACTORS
330
4DD0
102
}
330
4DD0
100
AcDbXrecord
1000
DSTYLE
1002
{
1070
    41
 40
40.0
1070
   342
340
90
1070
   177
 70
    41
1070
   178
 70
    41
1070
   271
 70
     0
1070
    44
 40
1.25
1070
    42
 40
1.0
1070
   147
 40
2.0
1070
    77
 70
     1
1070
    73
 70
     0
1070
   174
 70
     1
1070
   172
 70
     1
1070
    74
 70
     0
1070
   340
340
F39
1070
   140
 40
40.0
1070
   288
 70
     1
1002
}
  0
XRECORD
  5
4DDA
102
{ACAD_REACTORS
330
4DD0
102
}
330
4DD0
100
AcDbXrecord
  1
{FAEB1C30-E019-11D5-929B-00C0DF256EC4}
  0
XRECORD
  5
4DD3
102
{ACAD_REACTORS
330
4DD0
102
}
330
4DD0
100
AcDbXrecord
  1

  0
XRECORD
  5
4DD8
102
{ACAD_REACTORS
330
4DD0
102
}
330
4DD0
100
AcDbXrecord
 90
        1
  0
XRECORD
  5
4DD5
102
{ACAD_REACTORS
330
4DD0
102
}
330
4DD0
100
AcDbXrecord
340
4D48
  0
XRECORD
  5
4DD7
102
{ACAD_REACTORS
330
4DD0
102
}
330
4DD0
100
AcDbXrecord
 90
     2560
  0
XRECORD
  5
4DD6
102
{ACAD_REACTORS
330
4DD0
102
}
330
4DD0
100
AcDbXrecord
340
4D47
  0
XRECORD
  5
4DDC
102
{ACAD_REACTORS
330
4DD0
102
}
330
4DD0
100
AcDbXrecord
 40
0.0
  0
XRECORD
  5
4DDF
102
{ACAD_REACTORS
330
4DD0
102
}
330
4DD0
100
AcDbXrecord
340
0
  0
XRECORD
  5
4DE5
102
{ACAD_REACTORS
330
4DD0
102
}
330
4DD0
100
AcDbXrecord
 10
0.0
 20
0.0
 30
0.0
  0
XRECORD
  5
4DE1
102
{ACAD_REACTORS
330
4DD0
102
}
330
4DD0
100
AcDbXrecord
 10
0.0
 20
0.0
 30
0.0
  0
XRECORD
  5
4DE4
102
{ACAD_REACTORS
330
4DD0
102
}
330
4DD0
100
AcDbXrecord
 10
0.0
 20
0.0
 30
0.0
  0
XRECORD
  5
4DE2
102
{ACAD_REACTORS
330
4DD0
102
}
330
4DD0
100
AcDbXrecord
 10
0.0
 20
0.0
 30
0.0
  0
XRECORD
  5
4DE3
102
{ACAD_REACTORS
330
4DD0
102
}
330
4DD0
100
AcDbXrecord
 10
0.0
 20
0.0
 30
0.0
  0
XRECORD
  5
4DE0
102
{ACAD_REACTORS
330
4DD0
102
}
330
4DD0
100
AcDbXrecord
 10
0.0
 20
0.0
 30
0.0
  0
XRECORD
  5
4DDD
102
{ACAD_REACTORS
330
4DD0
102
}
330
4DD0
100
AcDbXrecord
340
0
  0
XRECORD
  5
4DDE
102
{ACAD_REACTORS
330
4DD0
102
}
330
4DD0
100
AcDbXrecord
 70
     0
  0
XRECORD
  5
4DD4
102
{ACAD_REACTORS
330
4DD0
102
}
330
4DD0
100
AcDbXrecord
  1

  0
XRECORD
  5
4DD1
102
{ACAD_REACTORS
330
4DD0
102
}
330
4DD0
100
AcDbXrecord
 90
        1
  0
XRECORD
  5
4DD2
102
{ACAD_REACTORS
330
4DD0
102
}
330
4DD0
100
AcDbXrecord
 90
       70
  0
XRECORD
  5
4DE8
102
{ACAD_REACTORS
330
4DD0
102
}
330
4DD0
100
AcDbXrecord
340
0
  0
XRECORD
  5
4DEE
102
{ACAD_REACTORS
330
4DD0
102
}
330
4DD0
100
AcDbXrecord
 10
0.0
 20
0.0
 30
0.0
  0
XRECORD
  5
4DEA
102
{ACAD_REACTORS
330
4DD0
102
}
330
4DD0
100
AcDbXrecord
 10
0.0
 20
0.0
 30
0.0
  0
XRECORD
  5
4DED
102
{ACAD_REACTORS
330
4DD0
102
}
330
4DD0
100
AcDbXrecord
 10
0.0
 20
0.0
 30
0.0
  0
XRECORD
  5
4DEB
102
{ACAD_REACTORS
330
4DD0
102
}
330
4DD0
100
AcDbXrecord
 10
0.0
 20
0.0
 30
0.0
  0
XRECORD
  5
4DEC
102
{ACAD_REACTORS
330
4DD0
102
}
330
4DD0
100
AcDbXrecord
 10
0.0
 20
0.0
 30
0.0
  0
XRECORD
  5
4DE9
102
{ACAD_REACTORS
330
4DD0
102
}
330
4DD0
100
AcDbXrecord
 10
0.0
 20
0.0
 30
0.0
  0
XRECORD
  5
4DE6
102
{ACAD_REACTORS
330
4DD0
102
}
330
4DD0
100
AcDbXrecord
340
0
  0
XRECORD
  5
4DE7
102
{ACAD_REACTORS
330
4DD0
102
}
330
4DD0
100
AcDbXrecord
 70
     0
  0
XRECORD
  5
4DDB
102
{ACAD_REACTORS
330
4DD0
102
}
330
4DD0
100
AcDbXrecord
  1
{FAEB1C32-E019-11D5-929B-00C0DF256EC4}
  0
XRECORD
  5
4D5E
102
{ACAD_REACTORS
330
4D5D
102
}
330
4D5D
100
AcDbXrecord
1000
rInJVR9YY4Q8hfPWdUq5j5319
1070
     4
1070
     6
  0
ENDSEC
  0
EOF
