  0
SECTION
  2
HEADER
  9
$ACADVER
  1
AC1014
  9
$ACADMAINTVER
 70
     9
  9
$DWGCODEPAGE
  3
ANSI_1250
  9
$INSBASE
 10
0.0
 20
0.0
 30
0.0
  9
$EXTMIN
 10
1169.510031999998
 20
-1235.25572
 30
0.0
  9
$EXTMAX
 10
2225.82211300009
 20
303.999093
 30
0.0
  9
$LIMMIN
 10
0.0
 20
0.0
  9
$LIMMAX
 10
0.0
 20
0.0
  9
$ORTHOMODE
 70
     1
  9
$REGENMODE
 70
     1
  9
$FILLMODE
 70
     1
  9
$QTEXTMODE
 70
     0
  9
$MIRRTEXT
 70
     1
  9
$DRAGMODE
 70
     2
  9
$LTSCALE
 40
1.0
  9
$OSMODE
 70
    37
  9
$ATTMODE
 70
     1
  9
$TEXTSIZE
 40
0.2
  9
$TRACEWID
 40
0.05
  9
$TEXTSTYLE
  7
ED40
  9
$CLAYER
  8
V0-VYPLNE
  9
$CELTYPE
  6
CONTINUOUS
  9
$CECOLOR
 62
    41
  9
$CELTSCALE
 40
1.0
  9
$DELOBJ
 70
     1
  9
$DISPSILH
 70
     0
  9
$DIMSCALE
 40
1.0
  9
$DIMASZ
 40
30.0
  9
$DIMEXO
 40
1.0
  9
$DIMDLI
 40
0.38
  9
$DIMRND
 40
0.0
  9
$DIMDLE
 40
0.0
  9
$DIMEXE
 40
1.25
  9
$DIMTP
 40
0.0
  9
$DIMTM
 40
0.0
  9
$DIMTXT
 40
30.0
  9
$DIMCEN
 40
0.09
  9
$DIMTSZ
 40
0.0
  9
$DIMTOL
 70
     0
  9
$DIMLIM
 70
     0
  9
$DIMTIH
 70
     0
  9
$DIMTOH
 70
     0
  9
$DIMSE1
 70
     0
  9
$DIMSE2
 70
     0
  9
$DIMTAD
 70
     1
  9
$DIMZIN
 70
     0
  9
$DIMBLK
  1
OPEN
  9
$DIMASO
 70
     1
  9
$DIMSHO
 70
     1
  9
$DIMPOST
  1

  9
$DIMAPOST
  1

  9
$DIMALT
 70
     0
  9
$DIMALTD
 70
     2
  9
$DIMALTF
 40
25.4
  9
$DIMLFAC
 40
1.0
  9
$DIMTOFL
 70
     1
  9
$DIMTVP
 40
0.0
  9
$DIMTIX
 70
     1
  9
$DIMSOXD
 70
     0
  9
$DIMSAH
 70
     0
  9
$DIMBLK1
  1

  9
$DIMBLK2
  1

  9
$DIMSTYLE
  2
ED30
  9
$DIMCLRD
 70
     0
  9
$DIMCLRE
 70
    41
  9
$DIMCLRT
 70
    41
  9
$DIMTFAC
 40
1.0
  9
$DIMGAP
 40
2.0
  9
$DIMJUST
 70
     0
  9
$DIMSD1
 70
     0
  9
$DIMSD2
 70
     0
  9
$DIMTOLJ
 70
     1
  9
$DIMTZIN
 70
     0
  9
$DIMALTZ
 70
     0
  9
$DIMALTTZ
 70
     0
  9
$DIMFIT
 70
     3
  9
$DIMUPT
 70
     1
  9
$DIMUNIT
 70
     2
  9
$DIMDEC
 70
     0
  9
$DIMTDEC
 70
     4
  9
$DIMALTU
 70
     2
  9
$DIMALTTD
 70
     2
  9
$DIMTXSTY
  7
ED30
  9
$DIMAUNIT
 70
     0
  9
$LUNITS
 70
     2
  9
$LUPREC
 70
     4
  9
$SKETCHINC
 40
0.1
  9
$FILLETRAD
 40
0.5
  9
$AUNITS
 70
     0
  9
$AUPREC
 70
     0
  9
$MENU
  1
.
  9
$ELEVATION
 40
0.0
  9
$PELEVATION
 40
0.0
  9
$THICKNESS
 40
0.0
  9
$LIMCHECK
 70
     0
  9
$BLIPMODE
 70
     0
  9
$CHAMFERA
 40
0.5
  9
$CHAMFERB
 40
0.5
  9
$CHAMFERC
 40
1.0
  9
$CHAMFERD
 40
0.0
  9
$SKPOLY
 70
     0
  9
$TDCREATE
 40
2455643.631221563
  9
$TDUPDATE
 40
2455643.631221574
  9
$TDINDWG
 40
0.0000000116
  9
$TDUSRTIMER
 40
0.0000000116
  9
$USRTIMER
 70
     1
  9
$ANGBASE
 50
0.0
  9
$ANGDIR
 70
     0
  9
$PDMODE
 70
    35
  9
$PDSIZE
 40
20.0
  9
$PLINEWID
 40
0.0
  9
$COORDS
 70
     1
  9
$SPLFRAME
 70
     0
  9
$SPLINETYPE
 70
     6
  9
$SPLINESEGS
 70
     8
  9
$ATTDIA
 70
     0
  9
$ATTREQ
 70
     1
  9
$HANDLING
 70
     1
  9
$HANDSEED
  5
4BB0
  9
$SURFTAB1
 70
     6
  9
$SURFTAB2
 70
     6
  9
$SURFTYPE
 70
     6
  9
$SURFU
 70
     6
  9
$SURFV
 70
     6
  9
$UCSNAME
  2

  9
$UCSORG
 10
0.0
 20
0.0
 30
0.0
  9
$UCSXDIR
 10
1.0
 20
0.0
 30
0.0
  9
$UCSYDIR
 10
0.0
 20
1.0
 30
0.0
  9
$PUCSNAME
  2

  9
$PUCSORG
 10
0.0
 20
0.0
 30
0.0
  9
$PUCSXDIR
 10
1.0
 20
0.0
 30
0.0
  9
$PUCSYDIR
 10
0.0
 20
1.0
 30
0.0
  9
$USERI1
 70
     0
  9
$USERI2
 70
     0
  9
$USERI3
 70
     0
  9
$USERI4
 70
     0
  9
$USERI5
 70
     0
  9
$USERR1
 40
0.0
  9
$USERR2
 40
0.0
  9
$USERR3
 40
0.0
  9
$USERR4
 40
0.0
  9
$USERR5
 40
0.0
  9
$WORLDVIEW
 70
     1
  9
$SHADEDGE
 70
     3
  9
$SHADEDIF
 70
    70
  9
$TILEMODE
 70
     1
  9
$MAXACTVP
 70
    64
  9
$PINSBASE
 10
0.0
 20
0.0
 30
0.0
  9
$PLIMCHECK
 70
     0
  9
$PEXTMIN
 10
1.000000000000000E+20
 20
1.000000000000000E+20
 30
1.000000000000000E+20
  9
$PEXTMAX
 10
-1.000000000000000E+20
 20
-1.000000000000000E+20
 30
-1.000000000000000E+20
  9
$PLIMMIN
 10
0.0
 20
0.0
  9
$PLIMMAX
 10
0.0
 20
0.0
  9
$UNITMODE
 70
     0
  9
$VISRETAIN
 70
     1
  9
$PLINEGEN
 70
     0
  9
$PSLTSCALE
 70
     1
  9
$TREEDEPTH
 70
  3020
  9
$PICKSTYLE
 70
     1
  9
$CMLSTYLE
  2
STANDARD
  9
$CMLJUST
 70
     0
  9
$CMLSCALE
 40
1.0
  9
$PROXYGRAPHICS
 70
     1
  9
$MEASUREMENT
 70
     0
  0
ENDSEC
  0
SECTION
  2
CLASSES
  0
CLASS
  1
ACDBDICTIONARYWDFLT
  2
AcDbDictionaryWithDefault
  3
ObjectDBX Classes
 90
        0
280
     0
281
     0
  0
CLASS
  1
XRECORD
  2
AcDbXrecord
  3
AutoCAD 2000
 90
        0
280
     0
281
     0
  0
CLASS
  1
LWPOLYLINE
  2
AcDbPolyline
  3
AutoCAD 2000
 90
        0
280
     0
281
     1
  0
CLASS
  1
HATCH
  2
AcDbHatch
  3
AutoCAD 2000
 90
        0
280
     0
281
     1
  0
CLASS
  1
ACDBPLACEHOLDER
  2
AcDbPlaceHolder
  3
ObjectDBX Classes
 90
        0
280
     0
281
     0
  0
CLASS
  1
LAYOUT
  2
AcDbLayout
  3
ObjectDBX Classes
 90
        0
280
     0
281
     0
  0
ENDSEC
  0
SECTION
  2
TABLES
  0
TABLE
  2
VPORT
  5
4AE5
330
0
100
AcDbSymbolTable
 70
     2
  0
VPORT
  5
4B06
102
{ACAD_XDICTIONARY
360
4BAE
102
}
330
4AE5
100
AcDbSymbolTableRecord
100
AcDbViewportTableRecord
  2
*ACTIVE
 70
     0
 10
0.0
 20
0.0
 11
1.0
 21
1.0
 12
1746.596689
 22
-438.053197
 13
0.0
 23
0.0
 14
10.0
 24
10.0
 15
10.0
 25
10.0
 16
0.0
 26
0.0
 36
1.0
 17
0.0
 27
0.0
 37
0.0
 40
1744.614954
 41
0.0101780376896007
 42
50.0
 43
0.0
 44
0.0
 50
0.0
 51
0.0000000000007958
 71
     0
 72
   100
 73
     1
 74
     3
 75
     0
 76
     0
 77
     0
 78
     0
  0
ENDTAB
  0
TABLE
  2
LTYPE
  5
4AE2
330
0
100
AcDbSymbolTable
 70
    25
  0
LTYPE
  5
4AF1
330
4AE2
100
AcDbSymbolTableRecord
100
AcDbLinetypeTableRecord
  2
BYBLOCK
 70
     0
  3

 72
    65
 73
     0
 40
0.0
  0
LTYPE
  5
4AF2
330
4AE2
100
AcDbSymbolTableRecord
100
AcDbLinetypeTableRecord
  2
BYLAYER
 70
     0
  3

 72
    65
 73
     0
 40
0.0
  0
LTYPE
  5
4AF3
330
4AE2
100
AcDbSymbolTableRecord
100
AcDbLinetypeTableRecord
  2
CONTINUOUS
 70
     0
  3
Solid line
 72
    65
 73
     0
 40
0.0
  0
LTYPE
  5
4B0E
330
4AE2
100
AcDbSymbolTableRecord
100
AcDbLinetypeTableRecord
  2
CENTER
 70
     0
  3
Center ____ _ ____ _ ____ _ ____ _ ____ _ ____
 72
    65
 73
     4
 40
2.0
 49
1.25
 74
     0
 49
-0.25
 74
     0
 49
0.25
 74
     0
 49
-0.25
 74
     0
  0
LTYPE
  5
4B0F
330
4AE2
100
AcDbSymbolTableRecord
100
AcDbLinetypeTableRecord
  2
DASHDOT
 70
     0
  3
Dashdot __ . __ . __ . __ . __ . __ . __ . __
 72
    65
 73
     4
 40
1.0
 49
0.5
 74
     0
 49
-0.25
 74
     0
 49
0.0
 74
     0
 49
-0.25
 74
     0
  0
LTYPE
  5
4B10
330
4AE2
100
AcDbSymbolTableRecord
100
AcDbLinetypeTableRecord
  2
DASHED
 70
     0
  3
Dashed __ __ __ __ __ __ __ __ __ __ __ __ __ _
 72
    65
 73
     2
 40
0.75
 49
0.5
 74
     0
 49
-0.25
 74
     0
  0
LTYPE
  5
4B11
330
4AE2
100
AcDbSymbolTableRecord
100
AcDbLinetypeTableRecord
  2
HIDDEN
 70
     0
  3
Hidden __ __ __ __ __ __ __ __ __ __ __ __ __ __
 72
    65
 73
     2
 40
0.375
 49
0.25
 74
     0
 49
-0.125
 74
     0
  0
LTYPE
  5
4B12
330
4AE2
100
AcDbSymbolTableRecord
100
AcDbLinetypeTableRecord
  2
HIDDEN2
 70
     0
  3
Hidden2 _ _ _ _ _ _ _ _ _ _ _ _ _ _ _ _ _ 
 72
    65
 73
     2
 40
0.1875
 49
0.125
 74
     0
 49
-0.0625
 74
     0
  0
LTYPE
  5
4B13
330
4AE2
100
AcDbSymbolTableRecord
100
AcDbLinetypeTableRecord
  2
BORDER
 70
     0
  3
Border __ __ . __ __ . __ __ . __ __ . __ __ .
 72
    65
 73
     6
 40
1.75
 49
0.5
 74
     0
 49
-0.25
 74
     0
 49
0.5
 74
     0
 49
-0.25
 74
     0
 49
0.0
 74
     0
 49
-0.25
 74
     0
  0
LTYPE
  5
4B14
330
4AE2
100
AcDbSymbolTableRecord
100
AcDbLinetypeTableRecord
  2
BORDER2
 70
     0
  3
Border2 __.__.__.__.__.__.__.__.__.__.__.
 72
    65
 73
     6
 40
0.875
 49
0.25
 74
     0
 49
-0.125
 74
     0
 49
0.25
 74
     0
 49
-0.125
 74
     0
 49
0.0
 74
     0
 49
-0.125
 74
     0
  0
LTYPE
  5
4B15
330
4AE2
100
AcDbSymbolTableRecord
100
AcDbLinetypeTableRecord
  2
BORDERX2
 70
     0
  3
Borderx2  ____  ____  .  ____  ____  .  ___
 72
    65
 73
     6
 40
3.5
 49
1.0
 74
     0
 49
-0.5
 74
     0
 49
1.0
 74
     0
 49
-0.5
 74
     0
 49
0.0
 74
     0
 49
-0.5
 74
     0
  0
LTYPE
  5
4B16
330
4AE2
100
AcDbSymbolTableRecord
100
AcDbLinetypeTableRecord
  2
CENTER2
 70
     0
  3
Center2  ___ _ ___ _ ___ _ ___ _ ___ _ ___
 72
    65
 73
     4
 40
1.125
 49
0.75
 74
     0
 49
-0.125
 74
     0
 49
0.125
 74
     0
 49
-0.125
 74
     0
  0
LTYPE
  5
4B17
330
4AE2
100
AcDbSymbolTableRecord
100
AcDbLinetypeTableRecord
  2
CENTERX2
 70
     0
  3
Centerx2  ________  __  ________  __  _____
 72
    65
 73
     4
 40
4.0
 49
2.5
 74
     0
 49
-0.5
 74
     0
 49
0.5
 74
     0
 49
-0.5
 74
     0
  0
LTYPE
  5
4B18
330
4AE2
100
AcDbSymbolTableRecord
100
AcDbLinetypeTableRecord
  2
DASHDOT2
 70
     0
  3
Dashdot2  _._._._._._._._._._._._._._._.
 72
    65
 73
     4
 40
0.5
 49
0.25
 74
     0
 49
-0.125
 74
     0
 49
0.0
 74
     0
 49
-0.125
 74
     0
  0
LTYPE
  5
4B19
330
4AE2
100
AcDbSymbolTableRecord
100
AcDbLinetypeTableRecord
  2
DASHDOTX2
 70
     0
  3
Dashdotx2 ____  .  ____  .  ____  .  ___
 72
    65
 73
     4
 40
2.0
 49
1.0
 74
     0
 49
-0.5
 74
     0
 49
0.0
 74
     0
 49
-0.5
 74
     0
  0
LTYPE
  5
4B1A
330
4AE2
100
AcDbSymbolTableRecord
100
AcDbLinetypeTableRecord
  2
DASHED2
 70
     0
  3
Dashed2 _ _ _ _ _ _ _ _ _ _ _ _ _ _ _ _ _ 
 72
    65
 73
     2
 40
0.375
 49
0.25
 74
     0
 49
-0.125
 74
     0
  0
LTYPE
  5
4B1B
330
4AE2
100
AcDbSymbolTableRecord
100
AcDbLinetypeTableRecord
  2
DASHEDX2
 70
     0
  3
Dashedx2 ____  ____  ____  ____  ____  ___
 72
    65
 73
     2
 40
1.5
 49
1.0
 74
     0
 49
-0.5
 74
     0
  0
LTYPE
  5
4B1C
330
4AE2
100
AcDbSymbolTableRecord
100
AcDbLinetypeTableRecord
  2
DIVIDE
 70
     0
  3
Divide ____ . . ____ . . ____ . . ____ . . ____
 72
    65
 73
     6
 40
1.25
 49
0.5
 74
     0
 49
-0.25
 74
     0
 49
0.0
 74
     0
 49
-0.25
 74
     0
 49
0.0
 74
     0
 49
-0.25
 74
     0
  0
LTYPE
  5
4B1D
330
4AE2
100
AcDbSymbolTableRecord
100
AcDbLinetypeTableRecord
  2
DIVIDE2
 70
     0
  3
Divide2 __..__..__..__..__..__..__..__.._
 72
    65
 73
     6
 40
0.625
 49
0.25
 74
     0
 49
-0.125
 74
     0
 49
0.0
 74
     0
 49
-0.125
 74
     0
 49
0.0
 74
     0
 49
-0.125
 74
     0
  0
LTYPE
  5
4B1E
330
4AE2
100
AcDbSymbolTableRecord
100
AcDbLinetypeTableRecord
  2
DIVIDEX2
 70
     0
  3
Dividex2 ________  .  .  ________  .  .  _
 72
    65
 73
     6
 40
2.5
 49
1.0
 74
     0
 49
-0.5
 74
     0
 49
0.0
 74
     0
 49
-0.5
 74
     0
 49
0.0
 74
     0
 49
-0.5
 74
     0
  0
LTYPE
  5
4B1F
330
4AE2
100
AcDbSymbolTableRecord
100
AcDbLinetypeTableRecord
  2
DOT
 70
     0
  3
Dot . . . . . . . . . . . . . . . . . . . . . . . .
 72
    65
 73
     2
 40
0.25
 49
0.0
 74
     0
 49
-0.25
 74
     0
  0
LTYPE
  5
4B20
330
4AE2
100
AcDbSymbolTableRecord
100
AcDbLinetypeTableRecord
  2
DOT2
 70
     0
  3
Dot2 ........................................
 72
    65
 73
     2
 40
0.125
 49
0.0
 74
     0
 49
-0.125
 74
     0
  0
LTYPE
  5
4B21
330
4AE2
100
AcDbSymbolTableRecord
100
AcDbLinetypeTableRecord
  2
DOTX2
 70
     0
  3
Dotx2 .  .  .  .  .  .  .  .  .  .  .  .  .  .
 72
    65
 73
     2
 40
0.5
 49
0.0
 74
     0
 49
-0.5
 74
     0
  0
LTYPE
  5
4B22
330
4AE2
100
AcDbSymbolTableRecord
100
AcDbLinetypeTableRecord
  2
HIDDENX2
 70
     0
  3
Hiddenx2 ____ ____ ____ ____ ____ ____ ____ 
 72
    65
 73
     2
 40
0.75
 49
0.5
 74
     0
 49
-0.25
 74
     0
  0
LTYPE
  5
4B23
330
4AE2
100
AcDbSymbolTableRecord
100
AcDbLinetypeTableRecord
  2
PHANTOM
 70
     0
  3
Phantom ______  __  __  ______  __  __  ______ 
 72
    65
 73
     6
 40
2.5
 49
1.25
 74
     0
 49
-0.25
 74
     0
 49
0.25
 74
     0
 49
-0.25
 74
     0
 49
0.25
 74
     0
 49
-0.25
 74
     0
  0
LTYPE
  5
4B24
330
4AE2
100
AcDbSymbolTableRecord
100
AcDbLinetypeTableRecord
  2
PHANTOM2
 70
     0
  3
Phantom2 ___ _ _ ___ _ _ ___ _ _ ___ _ _
 72
    65
 73
     6
 40
1.25
 49
0.625
 74
     0
 49
-0.125
 74
     0
 49
0.125
 74
     0
 49
-0.125
 74
     0
 49
0.125
 74
     0
 49
-0.125
 74
     0
  0
LTYPE
  5
4B25
330
4AE2
100
AcDbSymbolTableRecord
100
AcDbLinetypeTableRecord
  2
PHANTOMX2
 70
     0
  3
Phantomx2 ____________    ____    ____   _
 72
    65
 73
     6
 40
5.0
 49
2.5
 74
     0
 49
-0.5
 74
     0
 49
0.5
 74
     0
 49
-0.5
 74
     0
 49
0.5
 74
     0
 49
-0.5
 74
     0
  0
ENDTAB
  0
TABLE
  2
LAYER
  5
4ADF
330
0
100
AcDbSymbolTable
 70
     5
  0
LAYER
  5
4AED
330
4ADF
100
AcDbSymbolTableRecord
100
AcDbLayerTableRecord
  2
0
 70
     0
 62
     7
  6
CONTINUOUS
  0
LAYER
  5
9E
330
4ADF
100
AcDbSymbolTableRecord
100
AcDbLayerTableRecord
  2
DEFPOINTS
 70
     0
 62
     7
  6
CONTINUOUS
  0
LAYER
  5
377
330
4ADF
100
AcDbSymbolTableRecord
100
AcDbLayerTableRecord
  2
V0-OBRYS
 70
     0
 62
    90
  6
CONTINUOUS
  0
LAYER
  5
378
330
4ADF
100
AcDbSymbolTableRecord
100
AcDbLayerTableRecord
  2
V0-VYPLNE
 70
     0
 62
    63
  6
DASHDOT
  0
LAYER
  5
1540
330
4ADF
100
AcDbSymbolTableRecord
100
AcDbLayerTableRecord
  2
VO-OBRYS
 70
     0
 62
    90
  6
CONTINUOUS
  0
ENDTAB
  0
TABLE
  2
STYLE
  5
4AE0
330
0
100
AcDbSymbolTable
 70
     6
  0
STYLE
  5
4AEE
330
4AE0
100
AcDbSymbolTableRecord
100
AcDbTextStyleTableRecord
  2
STANDARD
 70
     0
 40
0.0
 41
1.0
 50
0.0
 71
     0
 42
0.2
  3
ISOCP.shx
  4

1001
ACAD
1000
ISOCP.shx
1071
        0
  0
STYLE
  5
331
330
4AE0
100
AcDbSymbolTableRecord
100
AcDbTextStyleTableRecord
  2
ED20
 70
     0
 40
20.0
 41
1.0
 50
0.0
 71
     0
 42
0.2
  3
ISOCP.shx
  4

1001
ACAD
1000
ISOCP.shx
1071
        0
  0
STYLE
  5
648
330
4AE0
100
AcDbSymbolTableRecord
100
AcDbTextStyleTableRecord
  2
ED10
 70
     0
 40
10.0
 41
1.0
 50
0.0
 71
     0
 42
0.2
  3
ISOCP.shx
  4

1001
ACAD
1000
ISOCP.shx
1071
        0
  0
STYLE
  5
F38
330
4AE0
100
AcDbSymbolTableRecord
100
AcDbTextStyleTableRecord
  2
ED30
 70
     0
 40
30.0
 41
1.0
 50
0.0
 71
     0
 42
0.2
  3
ISOCP.shx
  4

1001
ACAD
1000
ISOCP.shx
1071
        0
  0
STYLE
  5
F39
330
4AE0
100
AcDbSymbolTableRecord
100
AcDbTextStyleTableRecord
  2
ED40
 70
     0
 40
40.0
 41
1.0
 50
0.0
 71
     0
 42
0.2
  3
ISOCP.shx
  4

1001
ACAD
1000
ISOCP.shx
1071
        0
  0
STYLE
  5
1B9D
330
4AE0
100
AcDbSymbolTableRecord
100
AcDbTextStyleTableRecord
  2
VD_RECOV_1_1B9D_
 70
     0
 40
0.0
 41
1.0
 50
0.0
 71
     0
 42
0.2
  3
ltypeshp.shx
  4

1001
ACAD
1000
ltypeshp.shx
1071
        0
  0
ENDTAB
  0
TABLE
  2
VIEW
  5
4AE3
330
0
100
AcDbSymbolTable
 70
     0
  0
ENDTAB
  0
TABLE
  2
UCS
  5
4AE4
330
0
100
AcDbSymbolTable
 70
     0
  0
ENDTAB
  0
TABLE
  2
APPID
  5
4AE6
330
0
100
AcDbSymbolTable
 70
     7
  0
APPID
  5
4AEF
330
4AE6
100
AcDbSymbolTableRecord
100
AcDbRegAppTableRecord
  2
ACAD
 70
     0
  0
APPID
  5
4B07
330
4AE6
100
AcDbSymbolTableRecord
100
AcDbRegAppTableRecord
  2
VD_INVISIBLE_NOT_FOR_READ
 70
     0
  0
APPID
  5
4B08
330
4AE6
100
AcDbSymbolTableRecord
100
AcDbRegAppTableRecord
  2
VD_TEMPHATCH
 70
     0
  0
APPID
  5
4B09
330
4AE6
100
AcDbSymbolTableRecord
100
AcDbRegAppTableRecord
  2
VDEXTRAPARAM
 70
     0
  0
APPID
  5
4B0A
330
4AE6
100
AcDbSymbolTableRecord
100
AcDbRegAppTableRecord
  2
PE_URL
 70
     0
  0
APPID
  5
4B0B
330
4AE6
100
AcDbSymbolTableRecord
100
AcDbRegAppTableRecord
  2
VD_UNKNOWN
 70
     0
  0
APPID
  5
4B30
330
4AE6
100
AcDbSymbolTableRecord
100
AcDbRegAppTableRecord
  2
CONTENTBLOCKICON
 70
     0
  0
ENDTAB
  0
TABLE
  2
DIMSTYLE
  5
4AE7
330
0
100
AcDbSymbolTable
 70
     4
  0
DIMSTYLE
105
4B04
330
4AE7
100
AcDbSymbolTableRecord
100
AcDbDimStyleTableRecord
  2
STANDARD
 70
     0
  3

  4

  5
OPEN
  6

  7

 40
1.0
 41
15.0
 42
0.625
 43
0.38
 44
1.25
 45
0.0
 46
0.0
 47
0.0
 48
0.0
140
15.0
141
0.09
142
0.0
143
25.4
144
1.0
145
0.0
146
1.0
147
3.0
 71
     0
 72
     0
 73
     0
 74
     0
 75
     0
 76
     0
 77
     1
 78
     0
170
     0
171
     2
172
     1
173
     0
174
     1
175
     0
176
     0
177
     0
178
     0
270
     2
271
     0
272
     4
273
     2
274
     2
340
331
275
     0
280
     0
281
     0
282
     0
283
     1
284
     0
285
     0
286
     0
287
     3
288
     1
  0
DIMSTYLE
105
FE9
330
4AE7
100
AcDbSymbolTableRecord
100
AcDbDimStyleTableRecord
  2
ED20
 70
     0
  3

  4

  5
OPEN
  6

  7

 40
1.0
 41
20.0
 42
1.0
 43
0.38
 44
1.25
 45
0.0
 46
0.0
 47
0.0
 48
0.0
140
20.0
141
0.09
142
0.0
143
25.4
144
1.0
145
0.0
146
1.0
147
2.0
 71
     0
 72
     0
 73
     0
 74
     0
 75
     0
 76
     0
 77
     1
 78
     0
170
     0
171
     2
172
     1
173
     0
174
     1
175
     0
176
     0
177
    41
178
    41
270
     2
271
     0
272
     4
273
     2
274
     2
340
331
275
     0
280
     0
281
     0
282
     0
283
     1
284
     0
285
     0
286
     0
287
     3
288
     1
  0
DIMSTYLE
105
320E
102
{ACAD_REACTORS
330
3F41
330
4084
330
409E
330
41E1
330
41E2
330
49AC
330
49D4
102
}
330
4AE7
100
AcDbSymbolTableRecord
100
AcDbDimStyleTableRecord
  2
ED30
 70
     0
  3

  4

  5
OPEN
  6

  7

 40
1.0
 41
30.0
 42
1.0
 43
0.38
 44
1.25
 45
0.0
 46
0.0
 47
0.0
 48
0.0
140
30.0
141
0.09
142
0.0
143
25.4
144
1.0
145
0.0
146
1.0
147
2.0
 71
     0
 72
     0
 73
     0
 74
     0
 75
     0
 76
     0
 77
     1
 78
     0
170
     0
171
     2
172
     1
173
     0
174
     1
175
     0
176
     0
177
    41
178
    41
270
     2
271
     0
272
     4
273
     2
274
     2
340
F38
275
     0
280
     0
281
     0
282
     0
283
     1
284
     0
285
     0
286
     0
287
     3
288
     1
  0
DIMSTYLE
105
4105
330
4AE7
100
AcDbSymbolTableRecord
100
AcDbDimStyleTableRecord
  2
ED40
 70
     0
  3

  4

  5
OPEN
  6

  7

 40
1.0
 41
40.0
 42
1.0
 43
0.38
 44
1.25
 45
0.0
 46
0.0
 47
0.0
 48
0.0
140
40.0
141
0.09
142
0.0
143
25.4
144
1.0
145
0.0
146
1.0
147
2.0
 71
     0
 72
     0
 73
     0
 74
     0
 75
     0
 76
     0
 77
     1
 78
     0
170
     0
171
     2
172
     1
173
     0
174
     1
175
     0
176
     0
177
    41
178
    41
270
     2
271
     0
272
     4
273
     2
274
     2
340
F39
275
     0
280
     0
281
     0
282
     0
283
     1
284
     0
285
     0
286
     0
287
     3
288
     1
  0
ENDTAB
  0
TABLE
  2
BLOCK_RECORD
  5
4ADE
330
0
100
AcDbSymbolTable
 70
    13
  0
BLOCK_RECORD
  5
4AFC
330
4ADE
100
AcDbSymbolTableRecord
100
AcDbBlockTableRecord
  2
*MODEL_SPACE
  0
BLOCK_RECORD
  5
4AF8
330
4ADE
100
AcDbSymbolTableRecord
100
AcDbBlockTableRecord
  2
*PAPER_SPACE
  0
BLOCK_RECORD
  5
90
330
4ADE
100
AcDbSymbolTableRecord
100
AcDbBlockTableRecord
  2
_OPEN
  0
BLOCK_RECORD
  5
267B
330
4ADE
100
AcDbSymbolTableRecord
100
AcDbBlockTableRecord
  2
ASVORK
1001
CONTENTBLOCKICON
1071
        0
1004
2800000020000000200000000100040000000000000200000000000000000000000000000000000000000000000080000080000000808000800000008000800080800000C0C0C000808080000000FF0000FF000000FFFF00FF000000FF00FF00FFFF0000FFFFFF00FFFFFFFAAAAAAAAAAAAAAAAAAFFFFFFF
1004
FFFFFFFAFFFFFAFFFFFFFFFFAFFFFFFFFFFFFFFAFFFFFAFFFFFFFFFFAFFFFFFFFFFFFFFAFFFFFAFFFFFFFFFFAFFFFFFFFFFFFFFAFFFFFAFFFFFFFFFFAFFFFFFFFFFFFFFAFFFFFAFFFFFFFFFFAFFFFFFFFFFFFFFAFFFFFAFFFFFFFFFFAFFFFFFFFFFFFFFAFFFFFAFFFFFFFFFFAFFFFFFFFFFFFFFAFFFFFAFF
1004
FFFFFFFFAFFFFFFFFFFFFFFAFFFFFAFFFFFFFFFFAFFFFFFFFFFFFFFAFFFFFAFFFFFFFFFFAFFFFFFFFFFFFFFAFFFFFAFFFFFFFFFFAFFFFFFFFFFFFFFAFFFFFAFFFFFFFFFFAFFFFFFFFFFFFFFAFFFFFAFFFFFFFFFFAFFFFFFFFFFFFFFAFFFFFAFFFFFFFFFFAFFFFFFFFFFFFFFAFFFFFAFFFFFFFFFFAFFFFFFF
1004
FFFFFFFAFFFFFAFFFFFFFFFFFFFFFFFFFFFFFFFAFFFFFAFFFFFFFFFFAFFFFFFFFFFFFFFAFFFFFAFFFFFFFFFFAFFFFFFFFFFFFFFAFFFFFAFFFFFFFFFFAFFFFFFFFFFFFFFAFFFFFAFFFFFFFFFFAFFFFFFFFFFFFFFAFFFFFAFFFFFFFFFFAFFFFFFFFFFFFFFAFFFFFAFFFFFFFFFFAFFFFFFFFFFFFFFAFFFFFAFF
1004
FFFFFFFFAFFFFFFFFFFFFFFAFFFFFAFFFFFFFFFFAFFFFFFFFFFFFFFAFFFFFAFFFFFFFFFFAFFFFFFFFFFFFFFAFFFFFAFFFFFFFFFFAFFFFFFFFFFFFFFAFFFFFAFFFFFFFFFFAFFFFFFFFFFFFFFAFFFFFAFFFFFFFFFFAFFFFFFFFFFFFFFAFFFFFAFFFFFFFFFFAFFFFFFFFFFFFFFAFFFFFAFFFFFFFFFFAFFFFFFF
1004
FFFFFFFAAAAAAAAAAAAAAAAAAFFFFFFF
  0
BLOCK_RECORD
  5
26B3
330
4ADE
100
AcDbSymbolTableRecord
100
AcDbBlockTableRecord
  2
ASVORKBOK
1001
CONTENTBLOCKICON
1071
        0
1004
2800000020000000200000000100040000000000000200000000000000000000000000000000000000000000000080000080000000808000800000008000800080800000C0C0C000808080000000FF0000FF000000FFFF00FF000000FF00FF00FFFF0000FFFFFF00FFFFFFFFFFFFFFFFFFFFFFFFFFFFFFFF
1004
FAAAAAAAAAAAAAAAAAAAAAAAAAAAAAAFFAFFFFFFFFFFFFFFFFFFFFFFFFFFFFFAAAFFFFFFFFFFFFFFFFFFFFFFFFFFFFAAAAAFAAFFFFFFFFFFFFFFFFFFFFAAAFFAFAFAAAFFFFFFFFFFFFFFFFFFFFAFAFFAFAFFAFFFFFFFFFFFFFFFFFFFFFFAFFFAFAFFFFFFFFFFFFFFFFFFFFFFFFFFFFFAFAFFFFFFFFFFFFFF
1004
FFFFFFFFFFFFFFFAFAFFFFFFFFFFFFFFFFFFFFFFFFFFFFFAFAFFFFFFFFFFFFFFFFFFFFFFFFFFFFFAFAFFFFFFFFFFFFFFFFFFFFFFFFFFFFFAFAFFFFFFFFFFFFFFFFFFFFFFFFFFFFFAFAFFFFFFFFFFFFFFFFFFFFFFFFFFFFFAFAFFFFFFFFFFFFFFFFFFFFFFFFFFFFFAFAFFFFFFFFFFFFFFFFFFFFFFFFFFFFFA
1004
FAFFFFFFFFFFFFFFBFFFFFFFFFFFFFFAFAFFFFFFFFFFFFFFFFFFFFFFFFFFFFFAFAFFFFFFFFFFFFFFFFFFFFFFFFFFFFFAFAFFFFFFFFFFFFFFFFFFFFFFFFFFFFFAFAFFFFFFFFFFFFFFFFFFFFFFFFFFFFFAFAFFFFFFFFFFFFFFFFFFFFFFFFFFFFFAFAFFFFFFFFFFFFFFFFFFFFFFFFFFFFFAFAFFFFFFFFFFFFFF
1004
FFFFFFFFFFFFFFFAFAFFFFFFFFFFFFFFFFFFFFFFFFFFFFFAFAFFFFFFFFFFFFFFFFFFFFFFFFFFFFFAFAFFAFFFFFFFFFFFFFFFFFFFFFFAFFFAFAFAAAFFFFFFFFFFFFFFFFFFFFAFAFFAFAFFAAFFFFFFFFFFFFFFFFFFFFAAAFFAFAFFFFFFFFFFFFFFFFFFFFFFFFFFFFFAFAFFFFFFFFFFFFFFFFFFFFFFFFFFFFFA
1004
FAAAAAAAAAAAAAAAAAAAAAAAAAAAAAAF
  0
BLOCK_RECORD
  5
4A03
330
4ADE
100
AcDbSymbolTableRecord
100
AcDbBlockTableRecord
  2
VDDIM_DEFAULT
  0
BLOCK_RECORD
  5
4A05
330
4ADE
100
AcDbSymbolTableRecord
100
AcDbBlockTableRecord
  2
VDDIM_NONE
  0
BLOCK_RECORD
  5
4B32
330
4ADE
100
AcDbSymbolTableRecord
100
AcDbBlockTableRecord
  2
*D6
  0
BLOCK_RECORD
  5
4B3E
330
4ADE
100
AcDbSymbolTableRecord
100
AcDbBlockTableRecord
  2
*D7
  0
BLOCK_RECORD
  5
4B4C
330
4ADE
100
AcDbSymbolTableRecord
100
AcDbBlockTableRecord
  2
*D8
  0
BLOCK_RECORD
  5
4B59
330
4ADE
100
AcDbSymbolTableRecord
100
AcDbBlockTableRecord
  2
*D9
  0
BLOCK_RECORD
  5
4B66
330
4ADE
100
AcDbSymbolTableRecord
100
AcDbBlockTableRecord
  2
*D10
  0
BLOCK_RECORD
  5
4B73
330
4ADE
100
AcDbSymbolTableRecord
100
AcDbBlockTableRecord
  2
*D11
  0
BLOCK_RECORD
  5
4B7F
330
4ADE
100
AcDbSymbolTableRecord
100
AcDbBlockTableRecord
  2
*D12
  0
ENDTAB
  0
ENDSEC
  0
SECTION
  2
BLOCKS
  0
BLOCK
  5
4AFD
330
4AFC
100
AcDbEntity
  8
0
100
AcDbBlockBegin
  2
*MODEL_SPACE
 70
     0
 71
     0
 10
0.0
 20
0.0
 30
0.0
  3
*MODEL_SPACE
  1

  0
ENDBLK
  5
4AFE
330
4AFC
100
AcDbEntity
  8
0
100
AcDbBlockEnd
  0
BLOCK
  5
4AF9
330
4AF8
100
AcDbEntity
 67
     1
  8
0
100
AcDbBlockBegin
  2
*PAPER_SPACE
 70
     0
 71
     0
 10
0.0
 20
0.0
 30
0.0
  3
*PAPER_SPACE
  1

  0
ENDBLK
  5
4AFA
330
4AF8
100
AcDbEntity
 67
     1
  8
0
100
AcDbBlockEnd
  0
BLOCK
  5
4B26
330
90
100
AcDbEntity
  8
0
100
AcDbBlockBegin
  2
_OPEN
 70
     0
 71
     0
 10
0.0
 20
0.0
 30
0.0
  3
_OPEN
  1

  0
LINE
  5
92
330
90
100
AcDbEntity
  8
0
  6
BYBLOCK
 62
     0
100
AcDbLine
 10
-1.0
 20
0.166667
 30
0.0
 11
0.0
 21
0.0
 31
0.0
  0
LINE
  5
93
330
90
100
AcDbEntity
  8
0
  6
BYBLOCK
 62
     0
100
AcDbLine
 10
0.0
 20
0.0
 30
0.0
 11
-1.0
 21
-0.166667
 31
0.0
  0
LINE
  5
94
330
90
100
AcDbEntity
  8
0
  6
BYBLOCK
 62
     0
100
AcDbLine
 10
0.0
 20
0.0
 30
0.0
 11
-1.0
 21
0.0
 31
0.0
  0
ENDBLK
  5
4B27
330
90
100
AcDbEntity
  8
0
100
AcDbBlockEnd
  0
BLOCK
  5
4B28
330
267B
100
AcDbEntity
  8
0
100
AcDbBlockBegin
  2
ASVORK
 70
     0
 71
     0
 10
0.0
 20
0.0
 30
0.0
  3
ASVORK
  1

  0
LINE
  5
32CF
330
267B
100
AcDbEntity
  8
V0-OBRYS
  6
CONTINUOUS
 62
    90
100
AcDbLine
 10
-44.999998
 20
-40.000011
 30
0.0
 11
0.0000020000000021
 21
-40.000011
 31
0.0
  0
LINE
  5
32D0
330
267B
100
AcDbEntity
  8
V0-OBRYS
  6
CONTINUOUS
 62
    90
100
AcDbLine
 10
-44.999998
 20
39.999989
 30
0.0
 11
0.0000020000000021
 21
39.999989
 31
0.0
  0
LINE
  5
32D1
330
267B
100
AcDbEntity
  8
V0-OBRYS
  6
CONTINUOUS
 62
    90
100
AcDbLine
 10
-44.999998
 20
-0.000011
 30
0.0
 11
-44.999998
 21
-40.000011
 31
0.0
  0
LINE
  5
32D2
330
267B
100
AcDbEntity
  8
V0-OBRYS
  6
CONTINUOUS
 62
    90
100
AcDbLine
 10
-29.999998
 20
-0.000011
 30
0.0
 11
-29.999998
 21
-40.000011
 31
0.0
  0
LINE
  5
32D3
330
267B
100
AcDbEntity
  8
V0-OBRYS
  6
CONTINUOUS
 62
    90
100
AcDbLine
 10
-44.999998
 20
-0.000011
 30
0.0
 11
-44.999998
 21
39.999989
 31
0.0
  0
LINE
  5
32D4
330
267B
100
AcDbEntity
  8
V0-OBRYS
  6
CONTINUOUS
 62
    90
100
AcDbLine
 10
-29.999998
 20
-0.000011
 30
0.0
 11
-29.999998
 21
39.999989
 31
0.0
  0
LINE
  5
32D5
330
267B
100
AcDbEntity
  8
V0-OBRYS
  6
CONTINUOUS
 62
    90
100
AcDbLine
 10
0.000002
 20
-40.000011
 30
0.0
 11
0.000002
 21
-0.0000110000000006
 31
0.0
  0
LINE
  5
32D6
330
267B
100
AcDbEntity
  8
V0-OBRYS
  6
CONTINUOUS
 62
    90
100
AcDbLine
 10
0.000002
 20
39.999989
 30
0.0
 11
0.000002
 21
-0.0000110000000006
 31
0.0
  0
ENDBLK
  5
4B29
330
267B
100
AcDbEntity
  8
0
100
AcDbBlockEnd
  0
BLOCK
  5
4B2A
330
26B3
100
AcDbEntity
  8
0
100
AcDbBlockBegin
  2
ASVORKBOK
 70
     0
 71
     0
 10
0.0
 20
0.0
 30
0.0
  3
ASVORKBOK
  1

  0
POINT
  5
26B5
330
26B3
100
AcDbEntity
  8
V0-VYPLNE
  6
DASHED
 62
    52
100
AcDbPoint
 10
0.0
 20
0.0
 30
0.0
  0
LINE
  5
26B6
330
26B3
100
AcDbEntity
  8
V0-OBRYS
  6
CONTINUOUS
 62
    90
100
AcDbLine
 10
36.1584
 20
40.176
 30
0.0
 11
-36.1584
 21
40.176
 31
0.0
  0
LINE
  5
26B7
330
26B3
100
AcDbEntity
  8
V0-OBRYS
  6
CONTINUOUS
 62
    90
100
AcDbLine
 10
-36.1584
 20
-40.176
 30
0.0
 11
36.1584
 21
-40.176
 31
0.0
  0
LINE
  5
26B8
330
26B3
100
AcDbEntity
  8
V0-OBRYS
  6
CONTINUOUS
 62
    90
100
AcDbLine
 10
-40.176
 20
36.1584
 30
0.0
 11
-40.176
 21
-36.1584
 31
0.0
  0
CIRCLE
  5
26B9
330
26B3
100
AcDbEntity
  8
V0-OBRYS
  6
CONTINUOUS
 62
    90
100
AcDbCircle
 10
-30.132
 20
-30.132
 30
0.0
 40
2.6784
  0
LINE
  5
26BA
330
26B3
100
AcDbEntity
  8
V0-OBRYS
  6
CONTINUOUS
 62
    90
100
AcDbLine
 10
-41.176195
 20
-33.63873
 30
0.0
 11
-34.765679
 21
-32.743337
 31
0.0
  0
LINE
  5
26BB
330
26B3
100
AcDbEntity
  8
V0-OBRYS
  6
CONTINUOUS
 62
    90
100
AcDbLine
 10
-41.957903
 20
-32.6585
 30
0.0
 11
-39.658484
 21
-26.607953
 31
0.0
  0
ARC
  5
26BC
330
26B3
100
AcDbEntity
  8
V0-OBRYS
  6
CONTINUOUS
 62
    90
100
AcDbCircle
 10
-36.1584
 20
-36.1584
 30
0.0
 40
4.0176
100
AcDbArc
 50
180.0
 51
270.0
  0
CIRCLE
  5
26BD
330
26B3
100
AcDbEntity
  8
V0-OBRYS
  6
CONTINUOUS
 62
    90
100
AcDbCircle
 10
-30.132
 20
30.132
 30
0.0
 40
2.6784
  0
ARC
  5
26BE
330
26B3
100
AcDbEntity
  8
V0-OBRYS
  6
CONTINUOUS
 62
    90
100
AcDbCircle
 10
-36.1584
 20
36.1584
 30
0.0
 40
4.0176
100
AcDbArc
 50
90.0
 51
180.0
  0
LINE
  5
26BF
330
26B3
100
AcDbEntity
  8
V0-OBRYS
  6
CONTINUOUS
 62
    90
100
AcDbLine
 10
40.176
 20
-36.1584
 30
0.0
 11
40.176
 21
36.1584
 31
0.0
  0
LINE
  5
26C0
330
26B3
100
AcDbEntity
  8
V0-OBRYS
  6
CONTINUOUS
 62
    90
100
AcDbLine
 10
41.176195
 20
-33.63873
 30
0.0
 11
34.765679
 21
-32.743337
 31
0.0
  0
ARC
  5
26C1
330
26B3
100
AcDbEntity
  8
V0-OBRYS
  6
CONTINUOUS
 62
    90
100
AcDbCircle
 10
36.1584
 20
-36.1584
 30
0.0
 40
4.0176
100
AcDbArc
 50
270.0
 51
0.0
  0
CIRCLE
  5
26C2
330
26B3
100
AcDbEntity
  8
V0-OBRYS
  6
CONTINUOUS
 62
    90
100
AcDbCircle
 10
30.132
 20
-30.132
 30
0.0
 40
2.6784
  0
CIRCLE
  5
26C3
330
26B3
100
AcDbEntity
  8
V0-OBRYS
  6
CONTINUOUS
 62
    90
100
AcDbCircle
 10
30.132
 20
30.132
 30
0.0
 40
2.6784
  0
ARC
  5
26C4
330
26B3
100
AcDbEntity
  8
V0-OBRYS
  6
CONTINUOUS
 62
    90
100
AcDbCircle
 10
36.1584
 20
36.1584
 30
0.0
 40
4.0176
100
AcDbArc
 50
0.0
 51
90.0
  0
ENDBLK
  5
4B2B
330
26B3
100
AcDbEntity
  8
0
100
AcDbBlockEnd
  0
BLOCK
  5
4B2C
330
4A03
100
AcDbEntity
  8
0
100
AcDbBlockBegin
  2
VDDIM_DEFAULT
 70
     0
 71
     0
 10
0.0
 20
0.0
 30
0.0
  3
VDDIM_DEFAULT
  1

  0
LWPOLYLINE
  5
4A04
330
4A03
100
AcDbEntity
  8
0
  6
CONTINUOUS
 62
     0
100
AcDbPolyline
 90
        4
 70
     0
 43
0.0
 10
0.0
 20
0.0
 10
-1.0
 20
-0.1665
 10
-1.0
 20
0.1665
 10
0.0
 20
0.0
1001
VDEXTRAPARAM
1071
        1
1071
        0
1071
        0
1040
1.0
1000

1000

1040
0.0
1040
0.0
  0
HATCH
  5
4B31
330
4A03
100
AcDbEntity
  8
0
  6
CONTINUOUS
 62
     0
100
AcDbHatch
 10
0.0
 20
0.0
 30
0.0
210
0.0
220
0.0
230
1.0
  2
SOLID
 70
     1
 71
     0
 91
        1
 92
        2
 72
     0
 73
     1
 93
        3
 10
0.0
 20
0.0
 10
-1.0
 20
-0.1665
 10
-1.0
 20
0.1665
 97
        0
 75
     0
 76
     1
 98
        1
 10
0.0
 20
0.0
1001
VDEXTRAPARAM
1071
        1
1071
        0
1071
        0
1040
1.0
1000

1000

1040
0.0
1040
0.0
1001
VD_TEMPHATCH
1000
VD_TEMPHATCH
  0
ENDBLK
  5
4B2D
330
4A03
100
AcDbEntity
  8
0
100
AcDbBlockEnd
  0
BLOCK
  5
4B2E
330
4A05
100
AcDbEntity
  8
0
100
AcDbBlockBegin
  2
VDDIM_NONE
 70
     0
 71
     0
 10
0.0
 20
0.0
 30
0.0
  3
VDDIM_NONE
  1

  0
ENDBLK
  5
4B2F
330
4A05
100
AcDbEntity
  8
0
100
AcDbBlockEnd
  0
BLOCK
  5
4B3C
330
4B32
100
AcDbEntity
  8
0
100
AcDbBlockBegin
  2
*D6
 70
     1
 71
     0
 10
0.0
 20
0.0
 30
0.0
  3
*D6
  1

  0
LINE
  5
4B33
330
4B32
100
AcDbEntity
  8
V0-VYPLNE
 62
    41
100
AcDbLine
 10
1345.878441
 20
238.998643
 30
0.0
 11
1423.141360000009
 21
238.9986430000001
 31
0.0
  0
LINE
  5
4B34
330
4B32
100
AcDbEntity
  8
V0-VYPLNE
 62
    41
100
AcDbLine
 10
1345.878441
 20
-261.000457
 30
0.0
 11
1423.141360000009
 21
-261.000457
 31
0.0
  0
LINE
  5
4B35
330
4B32
100
AcDbEntity
  8
V0-VYPLNE
 62
     0
100
AcDbLine
 10
1421.891360000009
 20
208.9986430000001
 30
0.0
 11
1421.891360000009
 21
-231.0004569999999
 31
0.0
  0
INSERT
  5
4B36
330
4B32
100
AcDbEntity
  8
V0-VYPLNE
 62
     0
100
AcDbBlockReference
  2
_OPEN
 10
1421.891360000009
 20
238.9986430000001
 30
0.0
 41
30.0
 42
30.0
 43
30.0
 50
90.0
  0
INSERT
  5
4B37
330
4B32
100
AcDbEntity
  8
V0-VYPLNE
 62
     0
100
AcDbBlockReference
  2
_OPEN
 10
1421.891360000009
 20
-261.0004569999999
 30
0.0
 41
30.0
 42
30.0
 43
30.0
 50
270.0
  0
MTEXT
  5
4B38
330
4B32
100
AcDbEntity
  8
V0-VYPLNE
 62
    41
100
AcDbMText
 10
1404.891360000009
 20
-11.00090699999998
 30
0.0
 40
30.0
 41
0.0
 71
     5
 72
     1
  1
%%c\A1;500
  7
ED30
 11
0.0
 21
1.0
 31
0.0
  0
POINT
  5
4B39
330
4B32
100
AcDbEntity
  8
DEFPOINTS
 62
     0
100
AcDbPoint
 10
1344.878441
 20
238.998643
 30
0.0
  0
POINT
  5
4B3A
330
4B32
100
AcDbEntity
  8
DEFPOINTS
 62
     0
100
AcDbPoint
 10
1344.878441
 20
-261.000457
 30
0.0
  0
POINT
  5
4B3B
330
4B32
100
AcDbEntity
  8
DEFPOINTS
 62
     0
100
AcDbPoint
 10
1421.891360000009
 20
-261.000457
 30
0.0
  0
ENDBLK
  5
4B3D
330
4B32
100
AcDbEntity
  8
0
100
AcDbBlockEnd
  0
BLOCK
  5
4B4A
330
4B3E
100
AcDbEntity
  8
0
100
AcDbBlockBegin
  2
*D7
 70
     1
 71
     0
 10
0.0
 20
0.0
 30
0.0
  3
*D7
  1

  0
LINE
  5
4B3F
330
4B3E
100
AcDbEntity
  8
V0-OBRYS
 62
    41
100
AcDbLine
 10
1236.721191
 20
-327.000907
 30
0.0
 11
1236.721191
 21
-372.1384249999537
 31
0.0
  0
LINE
  5
4B40
330
4B3E
100
AcDbEntity
  8
V0-OBRYS
 62
    41
100
AcDbLine
 10
1248.321191
 20
-327.000907
 30
0.0
 11
1248.321191
 21
-372.1384249999537
 31
0.0
  0
LINE
  5
4B41
330
4B3E
100
AcDbEntity
  8
V0-OBRYS
 62
     0
100
AcDbLine
 10
1206.721191
 20
-370.8884249999537
 30
0.0
 11
1176.721191
 21
-370.8884249999537
 31
0.0
  0
LINE
  5
4B42
330
4B3E
100
AcDbEntity
  8
V0-OBRYS
 62
     0
100
AcDbLine
 10
1278.321191
 20
-370.8884249999537
 30
0.0
 11
1348.864934142857
 21
-370.8884249999537
 31
0.0
  0
LINE
  5
4B43
330
4B3E
100
AcDbEntity
  8
V0-OBRYS
 62
     0
100
AcDbLine
 10
1236.721191
 20
-370.8884249999537
 30
0.0
 11
1248.321191
 21
-370.8884249999537
 31
0.0
  0
INSERT
  5
4B44
330
4B3E
100
AcDbEntity
  8
V0-OBRYS
 62
     0
100
AcDbBlockReference
  2
_OPEN
 10
1236.721191
 20
-370.8884249999537
 30
0.0
 41
30.0
 42
30.0
 43
30.0
  0
INSERT
  5
4B45
330
4B3E
100
AcDbEntity
  8
V0-OBRYS
 62
     0
100
AcDbBlockReference
  2
_OPEN
 10
1248.321191
 20
-370.8884249999537
 30
0.0
 41
30.0
 42
30.0
 43
30.0
 50
180.0
  0
MTEXT
  5
4B46
330
4B3E
100
AcDbEntity
  8
V0-OBRYS
 62
    41
100
AcDbMText
 10
1324.722077
 20
-370.888425
 30
0.0
 40
30.0
 41
0.0
 71
     5
 72
     1
  1
\A1;12
  7
ED30
  0
POINT
  5
4B47
330
4B3E
100
AcDbEntity
  8
DEFPOINTS
 62
     0
100
AcDbPoint
 10
1236.721191
 20
-326.000907
 30
0.0
  0
POINT
  5
4B48
330
4B3E
100
AcDbEntity
  8
DEFPOINTS
 62
     0
100
AcDbPoint
 10
1248.321191
 20
-326.000907
 30
0.0
  0
POINT
  5
4B49
330
4B3E
100
AcDbEntity
  8
DEFPOINTS
 62
     0
100
AcDbPoint
 10
1248.321191
 20
-370.8884249999537
 30
0.0
  0
ENDBLK
  5
4B4B
330
4B3E
100
AcDbEntity
  8
0
100
AcDbBlockEnd
  0
BLOCK
  5
4B57
330
4B4C
100
AcDbEntity
  8
0
100
AcDbBlockBegin
  2
*D8
 70
     1
 71
     0
 10
0.0
 20
0.0
 30
0.0
  3
*D8
  1

  0
LINE
  5
4B4D
330
4B4C
100
AcDbEntity
  8
V0-OBRYS
 62
    41
100
AcDbLine
 10
1248.321191
 20
-327.000907
 30
0.0
 11
1248.321191
 21
-424.6646979999549
 31
0.0
  0
LINE
  5
4B4E
330
4B4C
100
AcDbEntity
  8
V0-OBRYS
 62
    41
100
AcDbLine
 10
1344.878441
 20
-262.000457
 30
0.0
 11
1344.878441
 21
-424.6646979999549
 31
0.0
  0
LINE
  5
4B4F
330
4B4C
100
AcDbEntity
  8
V0-OBRYS
 62
     0
100
AcDbLine
 10
1278.321191
 20
-423.4146979999549
 30
0.0
 11
1270.314101714286
 21
-423.4146979999549
 31
0.0
  0
LINE
  5
4B50
330
4B4C
100
AcDbEntity
  8
V0-OBRYS
 62
     0
100
AcDbLine
 10
1314.878441
 20
-423.4146979999549
 30
0.0
 11
1322.885530285714
 21
-423.4146979999549
 31
0.0
  0
INSERT
  5
4B51
330
4B4C
100
AcDbEntity
  8
V0-OBRYS
 62
     0
100
AcDbBlockReference
  2
_OPEN
 10
1248.321191
 20
-423.4146979999549
 30
0.0
 41
30.0
 42
30.0
 43
30.0
 50
180.0
  0
INSERT
  5
4B52
330
4B4C
100
AcDbEntity
  8
V0-OBRYS
 62
     0
100
AcDbBlockReference
  2
_OPEN
 10
1344.878441
 20
-423.4146979999549
 30
0.0
 41
30.0
 42
30.0
 43
30.0
  0
MTEXT
  5
4B53
330
4B4C
100
AcDbEntity
  8
V0-OBRYS
 62
    41
100
AcDbMText
 10
1296.599816
 20
-423.414698
 30
0.0
 40
30.0
 41
0.0
 71
     5
 72
     1
  1
\A1;97
  7
ED30
  0
POINT
  5
4B54
330
4B4C
100
AcDbEntity
  8
DEFPOINTS
 62
     0
100
AcDbPoint
 10
1248.321191
 20
-326.000907
 30
0.0
  0
POINT
  5
4B55
330
4B4C
100
AcDbEntity
  8
DEFPOINTS
 62
     0
100
AcDbPoint
 10
1344.878441
 20
-261.000457
 30
0.0
  0
POINT
  5
4B56
330
4B4C
100
AcDbEntity
  8
DEFPOINTS
 62
     0
100
AcDbPoint
 10
1344.878441
 20
-423.4146979999549
 30
0.0
  0
ENDBLK
  5
4B58
330
4B4C
100
AcDbEntity
  8
0
100
AcDbBlockEnd
  0
BLOCK
  5
4B64
330
4B59
100
AcDbEntity
  8
0
100
AcDbBlockBegin
  2
*D9
 70
     1
 71
     0
 10
0.0
 20
0.0
 30
0.0
  3
*D9
  1

  0
LINE
  5
4B5A
330
4B59
100
AcDbEntity
  8
V0-VYPLNE
 62
    41
100
AcDbLine
 10
1596.261752
 20
-319.982379
 30
0.0
 11
1596.261752
 21
-508.8215919998474
 31
0.0
  0
LINE
  5
4B5B
330
4B59
100
AcDbEntity
  8
V0-VYPLNE
 62
    41
100
AcDbLine
 10
2225.822113
 20
-319.982379
 30
0.0
 11
2225.822113
 21
-508.8215919998474
 31
0.0
  0
LINE
  5
4B5C
330
4B59
100
AcDbEntity
  8
V0-VYPLNE
 62
     0
100
AcDbLine
 10
1626.261752
 20
-507.5715919998474
 30
0.0
 11
1874.571868142857
 21
-507.5715919998474
 31
0.0
  0
LINE
  5
4B5D
330
4B59
100
AcDbEntity
  8
V0-VYPLNE
 62
     0
100
AcDbLine
 10
2195.822113
 20
-507.5715919998474
 30
0.0
 11
1954.286153857143
 21
-507.5715919998474
 31
0.0
  0
INSERT
  5
4B5E
330
4B59
100
AcDbEntity
  8
V0-VYPLNE
 62
     0
100
AcDbBlockReference
  2
_OPEN
 10
1596.261752
 20
-507.5715919998474
 30
0.0
 41
30.0
 42
30.0
 43
30.0
 50
180.0
  0
INSERT
  5
4B5F
330
4B59
100
AcDbEntity
  8
V0-VYPLNE
 62
     0
100
AcDbBlockReference
  2
_OPEN
 10
2225.822113
 20
-507.5715919998474
 30
0.0
 41
30.0
 42
30.0
 43
30.0
 50
360.0
  0
MTEXT
  5
4B60
330
4B59
100
AcDbEntity
  8
V0-VYPLNE
 62
    41
100
AcDbMText
 10
1914.429011
 20
-507.571592
 30
0.0
 40
30.0
 41
0.0
 71
     5
 72
     1
  1
\A1;630
  7
ED30
  0
POINT
  5
4B61
330
4B59
100
AcDbEntity
  8
DEFPOINTS
 62
     0
100
AcDbPoint
 10
1596.261752
 20
-318.982379
 30
0.0
  0
POINT
  5
4B62
330
4B59
100
AcDbEntity
  8
DEFPOINTS
 62
     0
100
AcDbPoint
 10
2225.822113
 20
-318.982379
 30
0.0
  0
POINT
  5
4B63
330
4B59
100
AcDbEntity
  8
DEFPOINTS
 62
     0
100
AcDbPoint
 10
2225.822113
 20
-507.5715919998474
 30
0.0
  0
ENDBLK
  5
4B65
330
4B59
100
AcDbEntity
  8
0
100
AcDbBlockEnd
  0
BLOCK
  5
4B71
330
4B66
100
AcDbEntity
  8
0
100
AcDbBlockBegin
  2
*D10
 70
     1
 71
     0
 10
0.0
 20
0.0
 30
0.0
  3
*D10
  1

  0
LINE
  5
4B67
330
4B66
100
AcDbEntity
  8
V0-OBRYS
 62
    41
100
AcDbLine
 10
1631.052
 20
-324.656291
 30
0.0
 11
1631.052
 21
-464.9435679999878
 31
0.0
  0
LINE
  5
4B68
330
4B66
100
AcDbEntity
  8
V0-OBRYS
 62
    41
100
AcDbLine
 10
2191.031816
 20
-324.65634
 30
0.0
 11
2191.031816
 21
-464.9435679999879
 31
0.0
  0
LINE
  5
4B69
330
4B66
100
AcDbEntity
  8
V0-OBRYS
 62
     0
100
AcDbLine
 10
1661.052
 20
-463.6935679999878
 30
0.0
 11
1866.862680428571
 21
-463.6935679999878
 31
0.0
  0
LINE
  5
4B6A
330
4B66
100
AcDbEntity
  8
V0-OBRYS
 62
     0
100
AcDbLine
 10
2161.031816
 20
-463.6935679999879
 30
0.0
 11
1948.005537571429
 21
-463.6935679999878
 31
0.0
  0
INSERT
  5
4B6B
330
4B66
100
AcDbEntity
  8
V0-OBRYS
 62
     0
100
AcDbBlockReference
  2
_OPEN
 10
1631.052
 20
-463.6935679999878
 30
0.0
 41
30.0
 42
30.0
 43
30.0
 50
180.0
  0
INSERT
  5
4B6C
330
4B66
100
AcDbEntity
  8
V0-OBRYS
 62
     0
100
AcDbBlockReference
  2
_OPEN
 10
2191.031816
 20
-463.6935679999879
 30
0.0
 41
30.0
 42
30.0
 43
30.0
  0
MTEXT
  5
4B6D
330
4B66
100
AcDbEntity
  8
V0-OBRYS
 62
    41
100
AcDbMText
 10
1907.434109
 20
-463.693568
 30
0.0
 40
30.0
 41
0.0
 71
     5
 72
     1
  1
\A1;560
  7
ED30
  0
POINT
  5
4B6E
330
4B66
100
AcDbEntity
  8
DEFPOINTS
 62
     0
100
AcDbPoint
 10
1631.052
 20
-323.656291
 30
0.0
  0
POINT
  5
4B6F
330
4B66
100
AcDbEntity
  8
DEFPOINTS
 62
     0
100
AcDbPoint
 10
2191.031816
 20
-323.65634
 30
0.0
  0
POINT
  5
4B70
330
4B66
100
AcDbEntity
  8
DEFPOINTS
 62
     0
100
AcDbPoint
 10
2191.031816
 20
-463.6935679999879
 30
0.0
  0
ENDBLK
  5
4B72
330
4B66
100
AcDbEntity
  8
0
100
AcDbBlockEnd
  0
BLOCK
  5
4B7D
330
4B73
100
AcDbEntity
  8
0
100
AcDbBlockBegin
  2
*D11
 70
     1
 71
     0
 10
0.0
 20
0.0
 30
0.0
  3
*D11
  1

  0
LINE
  5
4B74
330
4B73
100
AcDbEntity
  8
V0-VYPLNE
 62
    41
100
AcDbLine
 10
1252.689344
 20
276.236443
 30
0.0
 11
1481.262968000025
 21
276.236443
 31
0.0
  0
LINE
  5
4B75
330
4B73
100
AcDbEntity
  8
V0-VYPLNE
 62
    41
100
AcDbLine
 10
1252.689344
 20
-292.694472
 30
0.0
 11
1481.262968000025
 21
-292.694472
 31
0.0
  0
LINE
  5
4B76
330
4B73
100
AcDbEntity
  8
V0-VYPLNE
 62
     0
100
AcDbLine
 10
1480.012968000025
 20
246.236443
 30
0.0
 11
1480.012968000025
 21
-262.6944719999999
 31
0.0
  0
INSERT
  5
4B77
330
4B73
100
AcDbEntity
  8
V0-VYPLNE
 62
     0
100
AcDbBlockReference
  2
_OPEN
 10
1480.012968000025
 20
276.236443
 30
0.0
 41
30.0
 42
30.0
 43
30.0
 50
90.0
  0
INSERT
  5
4B78
330
4B73
100
AcDbEntity
  8
V0-VYPLNE
 62
     0
100
AcDbBlockReference
  2
_OPEN
 10
1480.012968000025
 20
-292.6944719999999
 30
0.0
 41
30.0
 42
30.0
 43
30.0
 50
270.0
  0
MTEXT
  5
4B79
330
4B73
100
AcDbEntity
  8
V0-VYPLNE
 62
    41
100
AcDbMText
 10
1463.012968000025
 20
-8.229014500000005
 30
0.0
 40
30.0
 41
0.0
 71
     5
 72
     1
  1
%%C572
  7
ED30
 11
0.0
 21
1.0
 31
0.0
  0
POINT
  5
4B7A
330
4B73
100
AcDbEntity
  8
DEFPOINTS
 62
     0
100
AcDbPoint
 10
1251.689344
 20
276.236443
 30
0.0
  0
POINT
  5
4B7B
330
4B73
100
AcDbEntity
  8
DEFPOINTS
 62
     0
100
AcDbPoint
 10
1251.689344
 20
-292.694472
 30
0.0
  0
POINT
  5
4B7C
330
4B73
100
AcDbEntity
  8
DEFPOINTS
 62
     0
100
AcDbPoint
 10
1480.012968000025
 20
-292.694472
 30
0.0
  0
ENDBLK
  5
4B7E
330
4B73
100
AcDbEntity
  8
0
100
AcDbBlockEnd
  0
BLOCK
  5
4B89
330
4B7F
100
AcDbEntity
  8
0
100
AcDbBlockBegin
  2
*D12
 70
     1
 71
     0
 10
0.0
 20
0.0
 30
0.0
  3
*D12
  1

  0
LINE
  5
4B80
330
4B7F
100
AcDbEntity
  8
V0-VYPLNE
 62
    41
100
AcDbLine
 10
1169.510032
 20
-52.000918
 30
0.0
 11
1169.510032
 21
-478.3781220000143
 31
0.0
  0
LINE
  5
4B81
330
4B7F
100
AcDbEntity
  8
V0-VYPLNE
 62
    41
100
AcDbLine
 10
1345.878441
 20
-262.000457
 30
0.0
 11
1345.878441
 21
-478.3781220000143
 31
0.0
  0
LINE
  5
4B82
330
4B7F
100
AcDbEntity
  8
V0-VYPLNE
 62
     0
100
AcDbLine
 10
1199.510032
 20
-477.1281220000143
 30
0.0
 11
1315.878441
 21
-477.1281220000143
 31
0.0
  0
INSERT
  5
4B83
330
4B7F
100
AcDbEntity
  8
V0-VYPLNE
 62
     0
100
AcDbBlockReference
  2
_OPEN
 10
1169.510032
 20
-477.1281220000143
 30
0.0
 41
30.0
 42
30.0
 43
30.0
 50
180.0
  0
INSERT
  5
4B84
330
4B7F
100
AcDbEntity
  8
V0-VYPLNE
 62
     0
100
AcDbBlockReference
  2
_OPEN
 10
1345.878441
 20
-477.1281220000143
 30
0.0
 41
30.0
 42
30.0
 43
30.0
  0
MTEXT
  5
4B85
330
4B7F
100
AcDbEntity
  8
V0-VYPLNE
 62
    41
100
AcDbMText
 10
1257.6942365
 20
-460.1281220000143
 30
0.0
 40
30.0
 41
0.0
 71
     5
 72
     1
  1
\A1;176
  7
ED30
  0
POINT
  5
4B86
330
4B7F
100
AcDbEntity
  8
DEFPOINTS
 62
     0
100
AcDbPoint
 10
1169.510032
 20
-51.000918
 30
0.0
  0
POINT
  5
4B87
330
4B7F
100
AcDbEntity
  8
DEFPOINTS
 62
     0
100
AcDbPoint
 10
1345.878441
 20
-261.000457
 30
0.0
  0
POINT
  5
4B88
330
4B7F
100
AcDbEntity
  8
DEFPOINTS
 62
     0
100
AcDbPoint
 10
1345.878441
 20
-477.1281220000143
 30
0.0
  0
ENDBLK
  5
4B8A
330
4B7F
100
AcDbEntity
  8
0
100
AcDbBlockEnd
  0
ENDSEC
  0
SECTION
  2
ENTITIES
  0
TEXT
  5
3152
330
4AFC
100
AcDbEntity
  8
V0-VYPLNE
  6
CONTINUOUS
 62
    51
100
AcDbText
 10
1666.635170275113
 20
-918.9693430000916
 30
0.0
 40
43.2
  1
Axiální ventilátor
  7
ED30
100
AcDbText
  0
TEXT
  5
3154
330
4AFC
100
AcDbEntity
  8
V0-VYPLNE
 62
     6
100
AcDbText
 10
1600.0
 20
-838.8105000000001
 30
0.0
 40
57.6
  1
HXBR/HXTR 500
  7
ED40
100
AcDbText
  0
LINE
  5
3F3A
330
4AFC
100
AcDbEntity
  8
V0-OBRYS
  6
CONTINUOUS
 62
    90
 48
2.0
100
AcDbLine
 10
1344.878441
 20
-261.000457
 30
0.0
 11
1287.083015
 21
-261.000457
 31
0.0
  0
LINE
  5
3F3B
330
4AFC
100
AcDbEntity
  8
V0-OBRYS
  6
CONTINUOUS
 62
    90
 48
2.0
100
AcDbLine
 10
1344.878441
 20
238.998643
 30
0.0
 11
1287.083015
 21
238.998643
 31
0.0
  0
ARC
  5
3F3C
330
4AFC
100
AcDbEntity
  8
V0-OBRYS
  6
CONTINUOUS
 62
    90
 48
2.0
100
AcDbCircle
 10
1287.083015
 20
-287.575207
 30
0.0
 40
26.57475
100
AcDbArc
 50
90.0
 51
149.420799
  0
LINE
  5
3F3D
330
4AFC
100
AcDbEntity
  8
V0-OBRYS
  6
CONTINUOUS
 62
    90
 48
2.0
100
AcDbLine
 10
1247.980991
 20
-296.433457
 30
0.0
 11
1264.204101
 21
-274.055863
 31
0.0
  0
ARC
  5
3F3F
330
4AFC
100
AcDbEntity
  8
V0-OBRYS
  6
CONTINUOUS
 62
    90
 48
2.0
100
AcDbCircle
 10
1287.083015
 20
265.573393
 30
0.0
 40
26.57475
100
AcDbArc
 50
210.579201
 51
270.0
  0
LINE
  5
3F40
330
4AFC
100
AcDbEntity
  8
V0-OBRYS
  6
CONTINUOUS
 62
    90
 48
2.0
100
AcDbLine
 10
1247.980991
 20
274.431643
 30
0.0
 11
1264.204101
 21
252.054049
 31
0.0
  0
DIMENSION
  5
3F41
330
4AFC
100
AcDbEntity
  8
V0-VYPLNE
  6
CONTINUOUS
 62
    41
100
AcDbDimension
  2
*D6
 10
1421.891360000009
 20
-261.000457
 30
0.0
 11
1404.891360000009
 21
-11.00090699999998
 31
0.0
 70
    32
  1
%%c<>
  3
ED30
100
AcDbAlignedDimension
 13
1344.878441
 23
238.998643
 33
0.0
 14
1344.878441
 24
-261.000457
 34
0.0
 50
90.0
100
AcDbRotatedDimension
  0
LINE
  5
3F42
330
4AFC
100
AcDbEntity
  8
V0-OBRYS
  6
CONTINUOUS
 62
    90
 48
2.0
100
AcDbLine
 10
1344.878441
 20
-11.000907
 30
0.0
 11
1344.878441
 21
238.998643
 31
0.0
  0
LINE
  5
3F43
330
4AFC
100
AcDbEntity
  8
V0-OBRYS
  6
CONTINUOUS
 62
    90
 48
2.0
100
AcDbLine
 10
1344.878441
 20
-11.000907
 30
0.0
 11
1344.878441
 21
-261.000457
 31
0.0
  0
LINE
  5
3F5C
330
4AFC
100
AcDbEntity
  8
V0-VYPLNE
  6
DASHED
 62
    52
100
AcDbLine
 10
1263.681671
 20
-119.17372
 30
0.0
 11
1279.815098
 21
-255.621978
 31
0.0
  0
LINE
  5
3F5D
330
4AFC
100
AcDbEntity
  8
V0-VYPLNE
  6
DASHED
 62
    52
100
AcDbLine
 10
1335.760398
 20
-119.17372
 30
0.0
 11
1319.62697
 21
-255.621978
 31
0.0
  0
LINE
  5
3F6B
330
4AFC
100
AcDbEntity
  8
V0-VYPLNE
  6
DASHED
 62
    52
100
AcDbLine
 10
1279.815098
 20
-255.621978
 30
0.0
 11
1319.62697
 21
-255.621978
 31
0.0
  0
ELLIPSE
  5
3F6C
330
4AFC
100
AcDbEntity
  8
V0-VYPLNE
  6
DASHED
 62
    52
100
AcDbEllipse
 10
272.99323
 20
-22.154234
 30
0.0
 11
-1.136868377216160E-12
 21
1174.336946726076
 31
0.0
210
0.0
220
0.0
230
-1.0
 40
0.909091
 41
1.480829966572604
 42
1.560998901912743
  0
LINE
  5
3F6D
330
4AFC
100
AcDbEntity
  8
V0-VYPLNE
  6
DASHED
 62
    52
100
AcDbLine
 10
1263.721034
 20
-10.64894
 30
0.0
 11
1263.721034
 21
89.67106
 31
0.0
  0
LINE
  5
3F6E
330
4AFC
100
AcDbEntity
  8
V0-VYPLNE
  6
DASHED
 62
    52
100
AcDbLine
 10
1299.721034
 20
94.70048199999999
 30
0.0
 11
1299.721034
 21
-10.64894
 31
0.0
  0
LINE
  5
3F6F
330
4AFC
100
AcDbEntity
  8
V0-VYPLNE
  6
DASHDOT
 62
    63
100
AcDbLine
 10
1220.917908
 20
-11.001013
 30
0.0
 11
1363.902694
 21
-11.001013
 31
0.0
  0
ELLIPSE
  5
3F70
330
4AFC
100
AcDbEntity
  8
V0-VYPLNE
  6
DASHED
 62
    52
100
AcDbEllipse
 10
1299.721034
 20
42.414984
 30
0.0
 11
-6.821210263296962E-13
 21
158.4133457296311
 31
0.0
210
0.0
220
0.0
230
-1.0
 40
0.9090909999999999
 41
2.929991421004501
 42
3.394251156505872
  0
LINE
  5
3F71
330
4AFC
100
AcDbEntity
  8
V0-VYPLNE
  6
DASHED
 62
    52
100
AcDbLine
 10
1264.356234
 20
-22.695027
 30
0.0
 11
1338.465076
 21
1.810407999999999
 31
0.0
  0
LINE
  5
3F72
330
4AFC
100
AcDbEntity
  8
V0-VYPLNE
  6
DASHED
 62
    52
100
AcDbLine
 10
1299.721034
 20
-115.998362
 30
0.0
 11
1299.721034
 21
-10.64894
 31
0.0
  0
LINE
  5
3F73
330
4AFC
100
AcDbEntity
  8
V0-VYPLNE
  6
DASHED
 62
    52
100
AcDbLine
 10
1263.721034
 20
-10.64894
 30
0.0
 11
1263.721034
 21
-110.96894
 31
0.0
  0
LINE
  5
3F74
330
4AFC
100
AcDbEntity
  8
V0-VYPLNE
  6
DASHED
 62
    52
100
AcDbLine
 10
1269.827739
 20
-112.41928
 30
0.0
 11
1263.681671
 21
-119.17372
 31
0.0
  0
ELLIPSE
  5
3F75
330
4AFC
100
AcDbEntity
  8
V0-VYPLNE
  6
DASHED
 62
    52
100
AcDbEllipse
 10
1299.721034
 20
-11.001013
 30
0.0
 11
6.821210263296962E-13
 21
7.458195139447457
 31
0.0
210
0.0
220
0.0
230
-1.0
 40
0.909091
 41
0.0
 42
6.283185307179586
  0
ELLIPSE
  5
3F76
330
4AFC
100
AcDbEntity
  8
V0-VYPLNE
  6
DASHED
 62
    52
100
AcDbEllipse
 10
272.99323
 20
0.856354
 30
0.0
 11
-5.684341886080802E-14
 21
1174.336946726076
 31
0.0
210
0.0
220
0.0
230
-1.0
 40
0.909091
 41
1.580593751677049
 42
1.660762687017188
  0
LINE
  5
3F77
330
4AFC
100
AcDbEntity
  8
V0-VYPLNE
  6
DASHED
 62
    52
100
AcDbLine
 10
1329.614329
 20
-112.41928
 30
0.0
 11
1335.760398
 21
-119.17372
 31
0.0
  0
ELLIPSE
  5
3F78
330
4AFC
100
AcDbEntity
  8
V0-VYPLNE
  6
DASHED
 62
    52
100
AcDbEllipse
 10
1328.287076
 20
-103.861366
 30
0.0
 11
4.547473508864641E-13
 21
8.799999999999997
 31
0.0
210
0.0
220
0.0
230
-1.0
 40
0.909091
 41
1.660762687017187
 42
2.929991421004503
  0
LINE
  5
3F79
330
4AFC
100
AcDbEntity
  8
V0-VYPLNE
  6
DASHED
 62
    52
100
AcDbLine
 10
1279.815098
 20
234.324098
 30
0.0
 11
1319.62697
 21
234.324098
 31
0.0
  0
ELLIPSE
  5
3F7A
330
4AFC
100
AcDbEntity
  8
V0-VYPLNE
  6
DASHED
 62
    52
100
AcDbEllipse
 10
1299.721034
 20
-63.712864
 30
0.0
 11
-6.821210263296962E-13
 21
158.4133457296311
 31
0.0
210
0.0
220
0.0
230
-1.0
 40
0.9090909999999999
 41
-0.2526585029160832
 42
0.21160123258526
  0
LINE
  5
3F7B
330
4AFC
100
AcDbEntity
  8
V0-VYPLNE
  6
DASHED
 62
    52
100
AcDbLine
 10
1263.681671
 20
97.87584
 30
0.0
 11
1279.815098
 21
234.324098
 31
0.0
  0
LINE
  5
3F7C
330
4AFC
100
AcDbEntity
  8
V0-VYPLNE
  6
DASHED
 62
    52
100
AcDbLine
 10
1269.827739
 20
91.12139999999999
 30
0.0
 11
1263.681671
 21
97.87584
 31
0.0
  0
LINE
  5
3F7D
330
4AFC
100
AcDbEntity
  8
V0-VYPLNE
  6
DASHED
 62
    52
100
AcDbLine
 10
1335.760398
 20
97.87584
 30
0.0
 11
1319.62697
 21
234.324098
 31
0.0
  0
LINE
  5
3F7E
330
4AFC
100
AcDbEntity
  8
V0-VYPLNE
  6
DASHED
 62
    52
100
AcDbLine
 10
1329.614329
 20
91.12139999999999
 30
0.0
 11
1335.760398
 21
97.87584
 31
0.0
  0
LINE
  5
3F8B
330
4AFC
100
AcDbEntity
  8
V0-OBRYS
  6
CONTINUOUS
 62
    90
 48
2.0
100
AcDbLine
 10
1236.721191
 20
303.999093
 30
0.0
 11
1236.721191
 21
-11.00090699999998
 31
0.0
  0
LINE
  5
3F91
330
4AFC
100
AcDbEntity
  8
V0-OBRYS
  6
CONTINUOUS
 62
    90
 48
2.0
100
AcDbLine
 10
1236.721191
 20
-326.000907
 30
0.0
 11
1236.721191
 21
-11.00090699999998
 31
0.0
  0
LINE
  5
3F92
330
4AFC
100
AcDbEntity
  8
V0-OBRYS
  6
CONTINUOUS
 62
    90
 48
2.0
100
AcDbLine
 10
1219.090934
 20
-242.568871
 30
0.0
 11
1219.090934
 21
-139.25365
 31
0.0
  0
LINE
  5
3F93
330
4AFC
100
AcDbEntity
  8
V0-OBRYS
  6
CONTINUOUS
 62
    90
 48
2.0
100
AcDbLine
 10
1221.901635
 20
-242.568871
 30
0.0
 11
1221.901635
 21
-139.25365
 31
0.0
  0
LINE
  5
3F94
330
4AFC
100
AcDbEntity
  8
V0-OBRYS
  6
CONTINUOUS
 62
    90
 48
2.0
100
AcDbLine
 10
1248.321191
 20
-326.000907
 30
0.0
 11
1236.721191
 21
-326.000907
 31
0.0
  0
ARC
  5
3F95
330
4AFC
100
AcDbEntity
  8
V0-OBRYS
  6
CONTINUOUS
 62
    90
 48
2.0
100
AcDbCircle
 10
1158.09928
 20
-287.745369
 30
0.0
 40
78.654444
100
AcDbArc
 50
2.178969
 51
29.949442
  0
ARC
  5
3F96
330
4AFC
100
AcDbEntity
  8
V0-OBRYS
  6
CONTINUOUS
 62
    90
 48
2.0
100
AcDbCircle
 10
1147.438277
 20
-288.689819
 30
0.0
 40
86.537385
100
AcDbArc
 50
2.606215
 51
25.700174
  0
ARC
  5
3F97
330
4AFC
100
AcDbEntity
  8
V0-OBRYS
  6
CONTINUOUS
 62
    90
 48
2.0
100
AcDbCircle
 10
1228.090934
 20
-242.568871
 30
0.0
 40
6.189299
100
AcDbArc
 50
180.0
 51
252.703019
  0
ARC
  5
3F98
330
4AFC
100
AcDbEntity
  8
V0-OBRYS
  6
CONTINUOUS
 62
    90
 48
2.0
100
AcDbCircle
 10
1228.090934
 20
-242.568871
 30
0.0
 40
9.0
100
AcDbArc
 50
180.0
 51
252.703019
  0
CIRCLE
  5
3F99
330
4AFC
100
AcDbEntity
  8
V0-OBRYS
  6
CONTINUOUS
 62
    90
 48
2.0
100
AcDbCircle
 10
1216.195912
 20
-235.42224
 30
0.0
 40
2.894689
  0
CIRCLE
  5
3F9A
330
4AFC
100
AcDbEntity
  8
V0-OBRYS
  6
CONTINUOUS
 62
    90
 48
2.0
100
AcDbCircle
 10
1216.195912
 20
-213.82224
 30
0.0
 40
2.894689
  0
LINE
  5
3F9B
330
4AFC
100
AcDbEntity
  8
V0-OBRYS
  6
CONTINUOUS
 62
    90
 48
2.0
100
AcDbLine
 10
1233.886152
 20
-301.546817
 30
0.0
 11
1233.886152
 21
-284.754848
 31
0.0
  0
ARC
  5
3F9C
330
4AFC
100
AcDbEntity
  8
V0-OBRYS
  6
CONTINUOUS
 62
    90
 48
2.0
100
AcDbCircle
 10
1235.303672
 20
-301.546817
 30
0.0
 40
1.41752
100
AcDbArc
 50
180.0
 51
0.0
  0
ARC
  5
3F9D
330
4AFC
100
AcDbEntity
  8
V0-OBRYS
  6
CONTINUOUS
 62
    90
 48
2.0
100
AcDbCircle
 10
1227.721191
 20
-120.257783
 30
0.0
 40
9.0
100
AcDbArc
 50
289.78203
 51
0.0
  0
LINE
  5
3F9E
330
4AFC
100
AcDbEntity
  8
V0-OBRYS
  6
CONTINUOUS
 62
    90
 48
2.0
100
AcDbLine
 10
1225.044948
 20
-130.784767
 30
0.0
 11
1230.767177
 21
-128.726666
 31
0.0
  0
LINE
  5
3F9F
330
4AFC
100
AcDbEntity
  8
V0-OBRYS
  6
CONTINUOUS
 62
    90
 48
2.0
100
AcDbLine
 10
1225.99621
 20
-133.4296
 30
0.0
 11
1231.718438
 21
-131.371498
 31
0.0
  0
ARC
  5
3FA0
330
4AFC
100
AcDbEntity
  8
V0-OBRYS
  6
CONTINUOUS
 62
    90
 48
2.0
100
AcDbCircle
 10
1228.090934
 20
-139.25365
 30
0.0
 40
6.189299
100
AcDbArc
 50
109.78203
 51
180.0
  0
ARC
  5
3FA1
330
4AFC
100
AcDbEntity
  8
V0-OBRYS
  6
CONTINUOUS
 62
    90
 48
2.0
100
AcDbCircle
 10
1228.090934
 20
-139.25365
 30
0.0
 40
9.0
100
AcDbArc
 50
109.78203
 51
180.0
  0
CIRCLE
  5
3FA2
330
4AFC
100
AcDbEntity
  8
V0-OBRYS
  6
CONTINUOUS
 62
    90
 48
2.0
100
AcDbCircle
 10
1216.195912
 20
-192.22224
 30
0.0
 40
2.894689
  0
CIRCLE
  5
3FA3
330
4AFC
100
AcDbEntity
  8
V0-OBRYS
  6
CONTINUOUS
 62
    90
 48
2.0
100
AcDbCircle
 10
1216.195912
 20
-170.62224
 30
0.0
 40
2.894689
  0
CIRCLE
  5
3FA4
330
4AFC
100
AcDbEntity
  8
V0-OBRYS
  6
CONTINUOUS
 62
    90
 48
2.0
100
AcDbCircle
 10
1216.195912
 20
-149.02224
 30
0.0
 40
2.894689
  0
ARC
  5
3FA5
330
4AFC
100
AcDbEntity
  8
V0-OBRYS
  6
CONTINUOUS
 62
    90
 48
2.0
100
AcDbCircle
 10
1227.721191
 20
-120.257783
 30
0.0
 40
11.810701
100
AcDbArc
 50
289.78203
 51
319.642674
  0
ARC
  5
3FA6
330
4AFC
100
AcDbEntity
  8
V0-OBRYS
  6
CONTINUOUS
 62
    90
 48
2.0
100
AcDbCircle
 10
1228.090934
 20
117.251836
 30
0.0
 40
6.189299
100
AcDbArc
 50
180.0
 51
250.21797
  0
ARC
  5
3FA7
330
4AFC
100
AcDbEntity
  8
V0-OBRYS
  6
CONTINUOUS
 62
    90
 48
2.0
100
AcDbCircle
 10
1228.090934
 20
117.251836
 30
0.0
 40
9.0
100
AcDbArc
 50
180.0
 51
250.21797
  0
LINE
  5
3FA8
330
4AFC
100
AcDbEntity
  8
V0-OBRYS
  6
CONTINUOUS
 62
    90
 48
2.0
100
AcDbLine
 10
1225.99621
 20
111.427787
 30
0.0
 11
1231.718438
 21
109.369685
 31
0.0
  0
LINE
  5
3FA9
330
4AFC
100
AcDbEntity
  8
V0-OBRYS
  6
CONTINUOUS
 62
    90
 48
2.0
100
AcDbLine
 10
1225.044948
 20
108.782954
 30
0.0
 11
1230.767177
 21
106.724852
 31
0.0
  0
ARC
  5
3FAA
330
4AFC
100
AcDbEntity
  8
V0-OBRYS
  6
CONTINUOUS
 62
    90
 48
2.0
100
AcDbCircle
 10
1227.721191
 20
98.25596899999999
 30
0.0
 40
11.810701
100
AcDbArc
 50
40.357326
 51
70.21796999999999
  0
ARC
  5
3FAB
330
4AFC
100
AcDbEntity
  8
V0-OBRYS
  6
CONTINUOUS
 62
    90
 48
2.0
100
AcDbCircle
 10
1227.721191
 20
98.25596899999999
 30
0.0
 40
9.0
100
AcDbArc
 50
0.0
 51
70.21796999999999
  0
CIRCLE
  5
3FAC
330
4AFC
100
AcDbEntity
  8
V0-OBRYS
  6
CONTINUOUS
 62
    90
 48
2.0
100
AcDbCircle
 10
1216.32239
 20
191.820426
 30
0.0
 40
2.894689
  0
LINE
  5
3FAD
330
4AFC
100
AcDbEntity
  8
V0-OBRYS
  6
CONTINUOUS
 62
    90
 48
2.0
100
AcDbLine
 10
1221.901635
 20
220.567058
 30
0.0
 11
1221.901635
 21
117.251836
 31
0.0
  0
LINE
  5
3FAE
330
4AFC
100
AcDbEntity
  8
V0-OBRYS
  6
CONTINUOUS
 62
    90
 48
2.0
100
AcDbLine
 10
1219.090934
 20
220.567058
 30
0.0
 11
1219.090934
 21
117.251836
 31
0.0
  0
CIRCLE
  5
3FAF
330
4AFC
100
AcDbEntity
  8
V0-OBRYS
  6
CONTINUOUS
 62
    90
 48
2.0
100
AcDbCircle
 10
1216.32239
 20
170.220426
 30
0.0
 40
2.894689
  0
CIRCLE
  5
3FB0
330
4AFC
100
AcDbEntity
  8
V0-OBRYS
  6
CONTINUOUS
 62
    90
 48
2.0
100
AcDbCircle
 10
1216.32239
 20
127.020426
 30
0.0
 40
2.894689
  0
CIRCLE
  5
3FB1
330
4AFC
100
AcDbEntity
  8
V0-OBRYS
  6
CONTINUOUS
 62
    90
 48
2.0
100
AcDbCircle
 10
1216.32239
 20
148.620426
 30
0.0
 40
2.894689
  0
ARC
  5
3FB2
330
4AFC
100
AcDbEntity
  8
V0-OBRYS
  6
CONTINUOUS
 62
    90
 48
2.0
100
AcDbCircle
 10
1158.09928
 20
265.743555
 30
0.0
 40
78.654444
100
AcDbArc
 50
330.050558
 51
357.821031
  0
ARC
  5
3FB3
330
4AFC
100
AcDbEntity
  8
V0-OBRYS
  6
CONTINUOUS
 62
    90
 48
2.0
100
AcDbCircle
 10
1147.438277
 20
266.688006
 30
0.0
 40
86.537385
100
AcDbArc
 50
334.299826
 51
357.393785
  0
ARC
  5
3FB4
330
4AFC
100
AcDbEntity
  8
V0-OBRYS
  6
CONTINUOUS
 62
    90
 48
2.0
100
AcDbCircle
 10
1228.090934
 20
220.567058
 30
0.0
 40
6.189299
100
AcDbArc
 50
107.296981
 51
180.0
  0
CIRCLE
  5
3FB5
330
4AFC
100
AcDbEntity
  8
V0-OBRYS
  6
CONTINUOUS
 62
    90
 48
2.0
100
AcDbCircle
 10
1216.32239
 20
213.420426
 30
0.0
 40
2.894689
  0
ARC
  5
3FB6
330
4AFC
100
AcDbEntity
  8
V0-OBRYS
  6
CONTINUOUS
 62
    90
 48
2.0
100
AcDbCircle
 10
1228.090934
 20
220.567058
 30
0.0
 40
9.0
100
AcDbArc
 50
107.296981
 51
180.0
  0
ARC
  5
3FB7
330
4AFC
100
AcDbEntity
  8
V0-OBRYS
  6
CONTINUOUS
 62
    90
 48
2.0
100
AcDbCircle
 10
1235.303672
 20
279.545004
 30
0.0
 40
1.41752
100
AcDbArc
 50
0.0
 51
180.0
  0
LINE
  5
3FB8
330
4AFC
100
AcDbEntity
  8
V0-OBRYS
  6
CONTINUOUS
 62
    90
 48
2.0
100
AcDbLine
 10
1233.886152
 20
279.545004
 30
0.0
 11
1233.886152
 21
262.753034
 31
0.0
  0
LINE
  5
3FB9
330
4AFC
100
AcDbEntity
  8
V0-OBRYS
  6
CONTINUOUS
 62
    90
 48
2.0
100
AcDbLine
 10
1248.321191
 20
303.999093
 30
0.0
 11
1236.721191
 21
303.999093
 31
0.0
  0
LINE
  5
4016
330
4AFC
100
AcDbEntity
  8
V0-OBRYS
  6
CONTINUOUS
 62
    90
 48
2.0
100
AcDbLine
 10
1220.499806
 20
57.577264
 30
0.0
 11
1205.448036
 21
42.428131
 31
0.0
  0
LINE
  5
4017
330
4AFC
100
AcDbEntity
  8
V0-OBRYS
  6
CONTINUOUS
 62
    90
 48
2.0
100
AcDbLine
 10
1221.257965
 20
73.483856
 30
0.0
 11
1204.689883
 21
51.517613
 31
0.0
  0
LINE
  5
4018
330
4AFC
100
AcDbEntity
  8
V0-OBRYS
  6
CONTINUOUS
 62
    90
 48
2.0
100
AcDbLine
 10
1220.499806
 20
2.282927
 30
0.0
 11
1204.689883
 21
1.525471
 31
0.0
  0
LINE
  5
4019
330
4AFC
100
AcDbEntity
  8
V0-OBRYS
  6
CONTINUOUS
 62
    90
 48
2.0
100
AcDbLine
 10
1220.499806
 20
20.461888
 30
0.0
 11
1204.689883
 21
17.43206
 31
0.0
  0
LINE
  5
401A
330
4AFC
100
AcDbEntity
  8
V0-OBRYS
  6
CONTINUOUS
 62
    90
 48
2.0
100
AcDbLine
 10
1221.257965
 20
38.640846
 30
0.0
 11
1203.931724
 21
31.823736
 31
0.0
  0
LINE
  5
401B
330
4AFC
100
AcDbEntity
  8
V0-OBRYS
  6
CONTINUOUS
 62
    90
 48
2.0
100
AcDbLine
 10
1220.499806
 20
-42.463702
 30
0.0
 11
1204.689883
 21
-39.433874
 31
0.0
  0
LINE
  5
401C
330
4AFC
100
AcDbEntity
  8
V0-OBRYS
  6
CONTINUOUS
 62
    90
 48
2.0
100
AcDbLine
 10
1220.499806
 20
-24.284741
 30
0.0
 11
1204.689883
 21
-23.527285
 31
0.0
  0
LINE
  5
401D
330
4AFC
100
AcDbEntity
  8
V0-OBRYS
  6
CONTINUOUS
 62
    90
 48
2.0
100
AcDbLine
 10
1221.257965
 20
-60.64266
 30
0.0
 11
1203.931724
 21
-53.82555
 31
0.0
  0
LINE
  5
401E
330
4AFC
100
AcDbEntity
  8
V0-OBRYS
  6
CONTINUOUS
 62
    90
 48
2.0
100
AcDbLine
 10
1221.257965
 20
-95.48567
 30
0.0
 11
1204.689883
 21
-73.51942699999999
 31
0.0
  0
LINE
  5
401F
330
4AFC
100
AcDbEntity
  8
V0-OBRYS
  6
CONTINUOUS
 62
    90
 48
2.0
100
AcDbLine
 10
1220.499806
 20
-79.579078
 30
0.0
 11
1205.448036
 21
-64.429945
 31
0.0
  0
LINE
  5
4021
330
4AFC
100
AcDbEntity
  8
V0-OBRYS
  6
CONTINUOUS
 62
    90
 48
2.0
100
AcDbLine
 10
1217.29963
 20
-101.001627
 30
0.0
 11
1236.72115
 21
-101.001627
 31
0.0
  0
LINE
  5
4022
330
4AFC
100
AcDbEntity
  8
V0-OBRYS
  6
CONTINUOUS
 62
    90
 48
2.0
100
AcDbLine
 10
1217.29963
 20
78.999813
 30
0.0
 11
1236.72115
 21
78.999813
 31
0.0
  0
LINE
  5
4023
330
4AFC
100
AcDbEntity
  8
V0-OBRYS
  6
CONTINUOUS
 62
    90
 48
2.0
100
AcDbLine
 10
1204.51003
 20
-11.000907
 30
0.0
 11
1204.51003
 21
-85.21202700000001
 31
0.0
  0
ARC
  5
4024
330
4AFC
100
AcDbEntity
  8
V0-OBRYS
  6
CONTINUOUS
 62
    90
 48
2.0
100
AcDbCircle
 10
1217.779924
 20
-87.53798999999999
 30
0.0
 40
13.472201
100
AcDbArc
 50
170.05812
 51
267.95693
  0
LINE
  5
4025
330
4AFC
100
AcDbEntity
  8
V0-OBRYS
  6
CONTINUOUS
 62
    90
 48
2.0
100
AcDbLine
 10
1204.51003
 20
-11.000907
 30
0.0
 11
1204.51003
 21
63.21021300000001
 31
0.0
  0
ARC
  5
4026
330
4AFC
100
AcDbEntity
  8
V0-OBRYS
  6
CONTINUOUS
 62
    90
 48
2.0
100
AcDbCircle
 10
1217.779924
 20
65.536177
 30
0.0
 40
13.472201
100
AcDbArc
 50
92.04307
 51
189.94188
  0
LINE
  5
4028
330
4AFC
100
AcDbEntity
  8
V0-OBRYS
  6
CONTINUOUS
 62
    90
 48
2.0
100
AcDbLine
 10
1221.51027
 20
-11.000907
 30
0.0
 11
1221.51027
 21
-101.001627
 31
0.0
  0
LINE
  5
4029
330
4AFC
100
AcDbEntity
  8
V0-OBRYS
  6
CONTINUOUS
 62
    90
 48
2.0
100
AcDbLine
 10
1221.257965
 20
-95.48567
 30
0.0
 11
1236.72115
 21
-95.48567
 31
0.0
  0
LINE
  5
402A
330
4AFC
100
AcDbEntity
  8
V0-OBRYS
  6
CONTINUOUS
 62
    90
 48
2.0
100
AcDbLine
 10
1225.048742
 20
-42.463702
 30
0.0
 11
1236.72115
 21
-42.463702
 31
0.0
  0
LINE
  5
402B
330
4AFC
100
AcDbEntity
  8
V0-OBRYS
  6
CONTINUOUS
 62
    90
 48
2.0
100
AcDbLine
 10
1221.257965
 20
-60.64266
 30
0.0
 11
1236.72115
 21
-60.64266
 31
0.0
  0
LINE
  5
402C
330
4AFC
100
AcDbEntity
  8
V0-OBRYS
  6
CONTINUOUS
 62
    90
 48
2.0
100
AcDbLine
 10
1220.499806
 20
-79.579078
 30
0.0
 11
1236.72115
 21
-79.579078
 31
0.0
  0
LINE
  5
402D
330
4AFC
100
AcDbEntity
  8
V0-OBRYS
  6
CONTINUOUS
 62
    90
 48
2.0
100
AcDbLine
 10
1220.499806
 20
-42.463702
 30
0.0
 11
1225.048742
 21
-42.463702
 31
0.0
  0
LINE
  5
402E
330
4AFC
100
AcDbEntity
  8
V0-OBRYS
  6
CONTINUOUS
 62
    90
 48
2.0
100
AcDbLine
 10
1221.51027
 20
-11.000907
 30
0.0
 11
1221.51027
 21
78.999813
 31
0.0
  0
LINE
  5
402F
330
4AFC
100
AcDbEntity
  8
V0-OBRYS
  6
CONTINUOUS
 62
    90
 48
2.0
100
AcDbLine
 10
1225.048742
 20
20.461888
 30
0.0
 11
1236.72115
 21
20.461888
 31
0.0
  0
LINE
  5
4030
330
4AFC
100
AcDbEntity
  8
V0-OBRYS
  6
CONTINUOUS
 62
    90
 48
2.0
100
AcDbLine
 10
1220.499806
 20
-24.284741
 30
0.0
 11
1236.72115
 21
-24.284741
 31
0.0
  0
LINE
  5
4031
330
4AFC
100
AcDbEntity
  8
V0-OBRYS
  6
CONTINUOUS
 62
    90
 48
2.0
100
AcDbLine
 10
1220.499806
 20
2.282927
 30
0.0
 11
1236.72115
 21
2.282927
 31
0.0
  0
LINE
  5
4032
330
4AFC
100
AcDbEntity
  8
V0-OBRYS
  6
CONTINUOUS
 62
    90
 48
2.0
100
AcDbLine
 10
1221.257965
 20
38.640846
 30
0.0
 11
1236.72115
 21
38.640846
 31
0.0
  0
LINE
  5
4033
330
4AFC
100
AcDbEntity
  8
V0-OBRYS
  6
CONTINUOUS
 62
    90
 48
2.0
100
AcDbLine
 10
1220.499806
 20
20.461888
 30
0.0
 11
1225.048742
 21
20.461888
 31
0.0
  0
LINE
  5
4034
330
4AFC
100
AcDbEntity
  8
V0-OBRYS
  6
CONTINUOUS
 62
    90
 48
2.0
100
AcDbLine
 10
1220.499806
 20
57.577264
 30
0.0
 11
1236.72115
 21
57.577264
 31
0.0
  0
LINE
  5
4035
330
4AFC
100
AcDbEntity
  8
V0-OBRYS
  6
CONTINUOUS
 62
    90
 48
2.0
100
AcDbLine
 10
1221.257965
 20
73.483856
 30
0.0
 11
1236.72115
 21
73.483856
 31
0.0
  0
LINE
  5
404E
330
4AFC
100
AcDbEntity
  8
V0-VYPLNE
  6
DASHED
 62
    52
100
AcDbLine
 10
1255.992166
 20
-93.106827
 30
0.0
 11
1255.992166
 21
-11.000907
 31
0.0
  0
LINE
  5
4050
330
4AFC
100
AcDbEntity
  8
V0-VYPLNE
  6
DASHED
 62
    52
100
AcDbLine
 10
1236.721237
 20
-95.48567
 30
0.0
 11
1255.992166
 21
-95.48567
 31
0.0
  0
LINE
  5
4051
330
4AFC
100
AcDbEntity
  8
V0-VYPLNE
  6
DASHED
 62
    52
100
AcDbLine
 10
1236.721237
 20
-101.001627
 30
0.0
 11
1248.097366
 21
-101.001627
 31
0.0
  0
LINE
  5
4052
330
4AFC
100
AcDbEntity
  8
V0-VYPLNE
  6
DASHED
 62
    52
100
AcDbLine
 10
1236.721237
 20
-79.579078
 30
0.0
 11
1255.992166
 21
-79.579078
 31
0.0
  0
LINE
  5
4053
330
4AFC
100
AcDbEntity
  8
V0-VYPLNE
  6
DASHED
 62
    52
100
AcDbLine
 10
1236.721237
 20
-60.64266
 30
0.0
 11
1255.234013
 21
-60.64266
 31
0.0
  0
LINE
  5
4054
330
4AFC
100
AcDbEntity
  8
V0-VYPLNE
  6
DASHED
 62
    52
100
AcDbLine
 10
1236.721237
 20
-42.463702
 30
0.0
 11
1255.992166
 21
-42.463702
 31
0.0
  0
ARC
  5
4055
330
4AFC
100
AcDbEntity
  8
V0-VYPLNE
  6
DASHED
 62
    52
 48
2.0
100
AcDbCircle
 10
1248.097366
 20
-93.106827
 30
0.0
 40
7.8948
100
AcDbArc
 50
270.0
 51
0.0
  0
LINE
  5
4056
330
4AFC
100
AcDbEntity
  8
V0-VYPLNE
  6
DASHED
 62
    52
100
AcDbLine
 10
1236.721237
 20
2.282927
 30
0.0
 11
1255.234013
 21
2.282927
 31
0.0
  0
LINE
  5
4057
330
4AFC
100
AcDbEntity
  8
V0-VYPLNE
  6
DASHED
 62
    52
100
AcDbLine
 10
1236.721237
 20
20.461888
 30
0.0
 11
1255.992166
 21
20.461888
 31
0.0
  0
LINE
  5
4058
330
4AFC
100
AcDbEntity
  8
V0-VYPLNE
  6
DASHED
 62
    52
100
AcDbLine
 10
1236.721237
 20
38.640846
 30
0.0
 11
1255.234013
 21
38.640846
 31
0.0
  0
LINE
  5
4059
330
4AFC
100
AcDbEntity
  8
V0-VYPLNE
  6
DASHED
 62
    52
100
AcDbLine
 10
1236.721237
 20
57.577264
 30
0.0
 11
1255.992166
 21
57.577264
 31
0.0
  0
LINE
  5
405A
330
4AFC
100
AcDbEntity
  8
V0-VYPLNE
  6
DASHED
 62
    52
100
AcDbLine
 10
1236.721237
 20
73.483856
 30
0.0
 11
1255.992166
 21
73.483856
 31
0.0
  0
LINE
  5
405B
330
4AFC
100
AcDbEntity
  8
V0-VYPLNE
  6
DASHED
 62
    52
100
AcDbLine
 10
1236.721237
 20
78.999813
 30
0.0
 11
1248.097366
 21
78.999813
 31
0.0
  0
LINE
  5
405C
330
4AFC
100
AcDbEntity
  8
V0-VYPLNE
  6
DASHED
 62
    52
100
AcDbLine
 10
1236.721237
 20
-24.284741
 30
0.0
 11
1255.234013
 21
-24.284741
 31
0.0
  0
LINE
  5
405D
330
4AFC
100
AcDbEntity
  8
V0-VYPLNE
  6
DASHED
 62
    52
100
AcDbLine
 10
1255.992166
 20
71.105013
 30
0.0
 11
1255.992166
 21
-11.000907
 31
0.0
  0
ARC
  5
405E
330
4AFC
100
AcDbEntity
  8
V0-VYPLNE
  6
DASHED
 62
    52
 48
2.0
100
AcDbCircle
 10
1248.097366
 20
71.105013
 30
0.0
 40
7.8948
100
AcDbArc
 50
0.0
 51
90.0
  0
DIMENSION
  5
4084
330
4AFC
100
AcDbEntity
  8
V0-OBRYS
  6
CONTINUOUS
 62
    90
100
AcDbDimension
  2
*D7
 10
1248.321191
 20
-370.8884249999537
 30
0.0
 11
1324.722077
 21
-370.888425
 31
0.0
 70
   160
  3
ED30
100
AcDbAlignedDimension
 13
1236.721191
 23
-326.000907
 33
0.0
 14
1248.321191
 24
-326.000907
 34
0.0
100
AcDbRotatedDimension
  0
DIMENSION
  5
409E
330
4AFC
100
AcDbEntity
  8
V0-OBRYS
  6
CONTINUOUS
 62
    90
100
AcDbDimension
  2
*D8
 10
1344.878441
 20
-423.4146979999549
 30
0.0
 11
1296.599816
 21
-423.414698
 31
0.0
 70
   160
  3
ED30
100
AcDbAlignedDimension
 13
1248.321191
 23
-326.000907
 33
0.0
 14
1344.878441
 24
-261.000457
 34
0.0
100
AcDbRotatedDimension
  0
DIMENSION
  5
41E1
330
4AFC
100
AcDbEntity
  8
V0-VYPLNE
  6
CONTINUOUS
 62
    41
100
AcDbDimension
  2
*D9
 10
2225.822113
 20
-507.5715919998474
 30
0.0
 11
1914.429011
 21
-507.571592
 31
0.0
 70
   160
  3
ED30
100
AcDbAlignedDimension
 13
1596.261752
 23
-318.982379
 33
0.0
 14
2225.822113
 24
-318.982379
 34
0.0
100
AcDbRotatedDimension
  0
DIMENSION
  5
41E2
330
4AFC
100
AcDbEntity
  8
V0-OBRYS
  6
CONTINUOUS
 62
    90
100
AcDbDimension
  2
*D10
 10
2191.031816
 20
-463.6935679999879
 30
0.0
 11
1907.434109
 21
-463.693568
 31
0.0
 70
   160
  3
ED30
100
AcDbAlignedDimension
 13
1631.052
 23
-323.656291
 33
0.0
 14
2191.031816
 24
-323.65634
 34
0.0
100
AcDbRotatedDimension
  0
LINE
  5
41E4
330
4AFC
100
AcDbEntity
  8
V0-OBRYS
  6
CONTINUOUS
100
AcDbLine
 10
2225.822113
 20
283.783074
 30
0.0
 11
2225.822113
 21
-305.784887
 31
0.0
  0
LINE
  5
41E5
330
4AFC
100
AcDbEntity
  8
V0-OBRYS
  6
CONTINUOUS
100
AcDbLine
 10
1596.261752
 20
-305.784887
 30
0.0
 11
1596.261752
 21
283.7830739999999
 31
0.0
  0
LINE
  5
41E6
330
4AFC
100
AcDbEntity
  8
V0-OBRYS
  6
CONTINUOUS
100
AcDbLine
 10
2205.825913
 20
-325.781087
 30
0.0
 11
1616.257952
 21
-325.781087
 31
0.0
  0
ARC
  5
41E7
330
4AFC
100
AcDbEntity
  8
V0-OBRYS
  6
CONTINUOUS
100
AcDbCircle
 10
1616.257952
 20
-305.784887
 30
0.0
 40
19.9962
100
AcDbArc
 50
180.0
 51
270.0
  0
LINE
  5
41E8
330
4AFC
100
AcDbEntity
  8
V0-VYPLNE
  6
DASHDOT
 62
    63
100
AcDbLine
 10
1631.052
 20
-323.656291
 30
0.0
 11
1631.052
 21
-219.912764
 31
0.0
  0
CIRCLE
  5
41E9
330
4AFC
100
AcDbEntity
  8
V0-OBRYS
  6
CONTINUOUS
 62
    90
100
AcDbCircle
 10
1631.052
 20
-290.990791
 30
0.0
 40
8.166375
  0
LINE
  5
41EA
330
4AFC
100
AcDbEntity
  8
V0-VYPLNE
  6
DASHDOT
 62
    63
100
AcDbLine
 10
1598.3865
 20
-290.990791
 30
0.0
 11
1667.810523
 21
-290.990791
 31
0.0
  0
LINE
  5
41EB
330
4AFC
100
AcDbEntity
  8
V0-VYPLNE
  6
DASHDOT
 62
    63
100
AcDbLine
 10
2191.031816
 20
-323.65634
 30
0.0
 11
2191.031816
 21
-219.233566
 31
0.0
  0
LINE
  5
41EC
330
4AFC
100
AcDbEntity
  8
V0-VYPLNE
  6
DASHDOT
 62
    63
100
AcDbLine
 10
2223.697316
 20
-290.99084
 30
0.0
 11
2154.95254
 21
-290.99084
 31
0.0
  0
CIRCLE
  5
41ED
330
4AFC
100
AcDbEntity
  8
V0-OBRYS
  6
CONTINUOUS
 62
    90
100
AcDbCircle
 10
2191.031816
 20
-290.99084
 30
0.0
 40
8.166375
  0
ARC
  5
41EE
330
4AFC
100
AcDbEntity
  8
V0-OBRYS
  6
CONTINUOUS
100
AcDbCircle
 10
2205.825913
 20
-305.784887
 30
0.0
 40
19.9962
100
AcDbArc
 50
270.0
 51
0.0
  0
LINE
  5
41F0
330
4AFC
100
AcDbEntity
  8
V0-OBRYS
  6
CONTINUOUS
100
AcDbLine
 10
1616.257952
 20
303.779274
 30
0.0
 11
2205.825913
 21
303.779274
 31
0.0
  0
LINE
  5
41F1
330
4AFC
100
AcDbEntity
  8
V0-VYPLNE
  6
DASHDOT
 62
    63
100
AcDbLine
 10
1598.386549
 20
268.989026
 30
0.0
 11
1667.131326
 21
268.989026
 31
0.0
  0
CIRCLE
  5
41F2
330
4AFC
100
AcDbEntity
  8
V0-OBRYS
  6
CONTINUOUS
 62
    90
100
AcDbCircle
 10
1631.052049
 20
268.989026
 30
0.0
 40
8.166375
  0
LINE
  5
41F3
330
4AFC
100
AcDbEntity
  8
V0-VYPLNE
  6
DASHDOT
 62
    63
100
AcDbLine
 10
1631.052049
 20
301.654526
 30
0.0
 11
1631.052049
 21
232.230503
 31
0.0
  0
ARC
  5
41F4
330
4AFC
100
AcDbEntity
  8
V0-OBRYS
  6
CONTINUOUS
100
AcDbCircle
 10
1616.257952
 20
283.783074
 30
0.0
 40
19.9962
100
AcDbArc
 50
90.0
 51
180.0
  0
LINE
  5
41F5
330
4AFC
100
AcDbEntity
  8
V0-VYPLNE
  6
DASHDOT
 62
    63
100
AcDbLine
 10
2223.697366
 20
268.988977
 30
0.0
 11
2154.273342
 21
268.988977
 31
0.0
  0
LINE
  5
41F6
330
4AFC
100
AcDbEntity
  8
V0-VYPLNE
  6
DASHDOT
 62
    63
100
AcDbLine
 10
2191.031866
 20
301.654477
 30
0.0
 11
2191.031866
 21
232.9097
 31
0.0
  0
CIRCLE
  5
41F7
330
4AFC
100
AcDbEntity
  8
V0-OBRYS
  6
CONTINUOUS
 62
    90
100
AcDbCircle
 10
2191.031866
 20
268.988977
 30
0.0
 40
8.166375
  0
ARC
  5
41F8
330
4AFC
100
AcDbEntity
  8
V0-OBRYS
  6
CONTINUOUS
100
AcDbCircle
 10
2205.825913
 20
283.783074
 30
0.0
 40
19.9962
100
AcDbArc
 50
0.0
 51
90.0
  0
CIRCLE
  5
424A
330
4AFC
100
AcDbEntity
  8
V0-OBRYS
  6
CONTINUOUS
 62
    90
100
AcDbCircle
 10
1911.041933
 20
-11.000907
 30
0.0
 40
243.71814
  0
CIRCLE
  5
424B
330
4AFC
100
AcDbEntity
  8
V0-OBRYS
  6
CONTINUOUS
 62
    90
100
AcDbCircle
 10
1911.041933
 20
-11.000907
 30
0.0
 40
277.014418
  0
LINE
  5
424C
330
4AFC
100
AcDbEntity
  8
V0-OBRYS
  6
CONTINUOUS
 62
    90
100
AcDbLine
 10
1791.037871
 20
-20.127319
 30
0.0
 11
1837.39715
 21
-16.601656
 31
0.0
  0
LINE
  5
424D
330
4AFC
100
AcDbEntity
  8
V0-OBRYS
  6
CONTINUOUS
 62
    90
100
AcDbLine
 10
1791.037871
 20
-1.874495
 30
0.0
 11
1837.39715
 21
-5.400158
 31
0.0
  0
LINE
  5
424E
330
4AFC
100
AcDbEntity
  8
V0-OBRYS
  6
CONTINUOUS
 62
    90
100
AcDbLine
 10
1839.254937
 20
6.364279
 30
0.0
 11
1793.24926
 21
17.492996
 31
0.0
  0
LINE
  5
424F
330
4AFC
100
AcDbEntity
  8
V0-OBRYS
  6
CONTINUOUS
 62
    90
100
AcDbLine
 10
1799.330571
 20
34.647062
 30
0.0
 11
1842.672222
 21
16.936614
 31
0.0
  0
LINE
  5
4250
330
4AFC
100
AcDbEntity
  8
V0-OBRYS
  6
CONTINUOUS
 62
    90
100
AcDbLine
 10
1829.685533
 20
37.623795
 30
0.0
 11
1805.964732
 21
51.801129
 31
0.0
  0
LINE
  5
4252
330
4AFC
100
AcDbEntity
  8
V0-OBRYS
  6
CONTINUOUS
 62
    90
100
AcDbLine
 10
1817.207169
 20
-104.875478
 30
0.0
 11
1827.660138
 21
-79.119336
 31
0.0
  0
LINE
  5
4253
330
4AFC
100
AcDbEntity
  8
V0-OBRYS
  6
CONTINUOUS
 62
    90
100
AcDbLine
 10
1829.685533
 20
-59.625609
 30
0.0
 11
1805.964732
 21
-73.802943
 31
0.0
  0
LINE
  5
4254
330
4AFC
100
AcDbEntity
  8
V0-OBRYS
  6
CONTINUOUS
 62
    90
100
AcDbLine
 10
1799.330571
 20
-56.648876
 30
0.0
 11
1842.672222
 21
-38.938427
 31
0.0
  0
LINE
  5
4255
330
4AFC
100
AcDbEntity
  8
V0-OBRYS
  6
CONTINUOUS
 62
    90
100
AcDbLine
 10
1839.254937
 20
-28.366093
 30
0.0
 11
1793.24926
 21
-39.49481
 31
0.0
  0
ARC
  5
4256
330
4AFC
100
AcDbEntity
  8
V0-OBRYS
  6
CONTINUOUS
 62
    90
100
AcDbCircle
 10
1911.041933
 20
-11.000907
 30
0.0
 40
95.197135
100
AcDbArc
 50
148.716649
 51
211.283351
  0
ARC
  5
4257
330
4AFC
100
AcDbEntity
  8
V0-OBRYS
  6
CONTINUOUS
 62
    90
100
AcDbCircle
 10
1911.041933
 20
-11.000907
 30
0.0
 40
253.125
100
AcDbArc
 50
236.13779
 51
252.433638
  0
LINE
  5
4258
330
4AFC
100
AcDbEntity
  8
VO-OBRYS
  6
CONTINUOUS
100
AcDbLine
 10
1845.662924
 20
-45.359424
 30
0.0
 11
1685.30126
 21
-205.721088
 31
0.0
  0
LINE
  5
4259
330
4AFC
100
AcDbEntity
  8
VO-OBRYS
  6
CONTINUOUS
100
AcDbLine
 10
1876.683416
 20
-76.379915
 30
0.0
 11
1716.321752
 21
-236.74158
 31
0.0
  0
LINE
  5
425A
330
4AFC
100
AcDbEntity
  8
VO-OBRYS
  6
CONTINUOUS
100
AcDbLine
 10
1847.257657
 20
-48.236489
 30
0.0
 11
1687.537159
 21
-207.956987
 31
0.0
  0
LINE
  5
425B
330
4AFC
100
AcDbEntity
  8
VO-OBRYS
  6
CONTINUOUS
100
AcDbLine
 10
1873.806351
 20
-74.785183
 30
0.0
 11
1714.085853
 21
-234.505681
 31
0.0
  0
LINE
  5
425C
330
4AFC
100
AcDbEntity
  8
VO-OBRYS
  6
CONTINUOUS
100
AcDbLine
 10
1845.662924
 20
23.35761
 30
0.0
 11
1685.30126
 21
183.719274
 31
0.0
  0
LINE
  5
425D
330
4AFC
100
AcDbEntity
  8
VO-OBRYS
  6
CONTINUOUS
100
AcDbLine
 10
1876.683416
 20
54.378101
 30
0.0
 11
1716.321752
 21
214.739766
 31
0.0
  0
LINE
  5
425E
330
4AFC
100
AcDbEntity
  8
VO-OBRYS
  6
CONTINUOUS
100
AcDbLine
 10
1847.257657
 20
26.234675
 30
0.0
 11
1687.537159
 21
185.955173
 31
0.0
  0
LINE
  5
425F
330
4AFC
100
AcDbEntity
  8
VO-OBRYS
  6
CONTINUOUS
100
AcDbLine
 10
1873.806351
 20
52.783369
 30
0.0
 11
1714.085853
 21
212.503867
 31
0.0
  0
LINE
  5
4260
330
4AFC
100
AcDbEntity
  8
V0-OBRYS
  6
CONTINUOUS
 62
    90
100
AcDbLine
 10
1809.161152
 20
123.201438
 30
0.0
 11
1837.593407
 21
103.332417
 31
0.0
  0
CIRCLE
  5
4261
330
4AFC
100
AcDbEntity
  8
V0-OBRYS
  6
CONTINUOUS
 62
    90
100
AcDbCircle
 10
1911.041933
 20
-11.000907
 30
0.0
 40
135.892585
  0
CIRCLE
  5
4262
330
4AFC
100
AcDbEntity
  8
V0-OBRYS
  6
CONTINUOUS
 62
    90
100
AcDbCircle
 10
1911.041933
 20
-11.000907
 30
0.0
 40
171.655252
  0
CIRCLE
  5
4263
330
4AFC
100
AcDbEntity
  8
V0-OBRYS
  6
CONTINUOUS
 62
    90
100
AcDbCircle
 10
1911.041933
 20
-11.000907
 30
0.0
 40
208.651116
  0
CIRCLE
  5
4264
330
4AFC
100
AcDbEntity
  8
V0-OBRYS
  6
CONTINUOUS
 62
    90
100
AcDbCircle
 10
1911.041933
 20
-11.000907
 30
0.0
 40
205.489078
  0
CIRCLE
  5
4265
330
4AFC
100
AcDbEntity
  8
V0-OBRYS
  6
CONTINUOUS
 62
    90
100
AcDbCircle
 10
1911.041933
 20
-11.000907
 30
0.0
 40
168.493213
  0
CIRCLE
  5
4266
330
4AFC
100
AcDbEntity
  8
V0-OBRYS
  6
CONTINUOUS
 62
    90
100
AcDbCircle
 10
1911.041933
 20
-11.000907
 30
0.0
 40
132.730547
  0
LINE
  5
4267
330
4AFC
100
AcDbEntity
  8
V0-OBRYS
  6
CONTINUOUS
 62
    90
100
AcDbLine
 10
1692.770726
 20
117.178443
 30
0.0
 11
1697.499202
 21
112.891486
 31
0.0
  0
LINE
  5
4268
330
4AFC
100
AcDbEntity
  8
V0-OBRYS
  6
CONTINUOUS
 62
    90
100
AcDbLine
 10
1788.393023
 20
-175.873603
 30
0.0
 11
1801.626892
 21
-143.265318
 31
0.0
  0
ARC
  5
4269
330
4AFC
100
AcDbEntity
  8
VO-OBRYS
  6
CONTINUOUS
100
AcDbCircle
 10
1700.811506
 20
-221.231334
 30
0.0
 40
21.9348
100
AcDbArc
 50
135.0
 51
315.0
  0
ARC
  5
426A
330
4AFC
100
AcDbEntity
  8
VO-OBRYS
  6
CONTINUOUS
100
AcDbCircle
 10
1700.811506
 20
-221.231334
 30
0.0
 40
18.772761
100
AcDbArc
 50
135.0
 51
315.0
  0
LINE
  5
426B
330
4AFC
100
AcDbEntity
  8
V0-OBRYS
  6
CONTINUOUS
 62
    90
100
AcDbLine
 10
1773.617838
 20
-212.279694
 30
0.0
 11
1787.165119
 21
-178.89916
 31
0.0
  0
LINE
  5
426C
330
4AFC
100
AcDbEntity
  8
V0-OBRYS
  6
CONTINUOUS
 62
    90
100
AcDbLine
 10
1770.001306
 20
-221.190838
 30
0.0
 11
1772.401476
 21
-215.276814
 31
0.0
  0
LINE
  5
426D
330
4AFC
100
AcDbEntity
  8
V0-OBRYS
  6
CONTINUOUS
 62
    90
100
AcDbLine
 10
1667.993319
 20
-29.053694
 30
0.0
 11
1702.537863
 21
-18.832963
 31
0.0
  0
ARC
  5
426E
330
4AFC
100
AcDbEntity
  8
V0-OBRYS
  6
CONTINUOUS
 62
    90
100
AcDbCircle
 10
1911.041933
 20
-11.000907
 30
0.0
 40
253.125
100
AcDbArc
 50
184.709219
 51
201.005067
  0
LINE
  5
426F
330
4AFC
100
AcDbEntity
  8
V0-OBRYS
  6
CONTINUOUS
 62
    90
100
AcDbLine
 10
1674.73741
 20
-101.733691
 30
0.0
 11
1681.037245
 21
-100.709693
 31
0.0
  0
LINE
  5
4270
330
4AFC
100
AcDbEntity
  8
V0-OBRYS
  6
CONTINUOUS
 62
    90
100
AcDbLine
 10
1658.771435
 20
-31.782183
 30
0.0
 11
1664.891686
 21
-29.971378
 31
0.0
  0
LINE
  5
4271
330
4AFC
100
AcDbEntity
  8
V0-OBRYS
  6
CONTINUOUS
 62
    90
100
AcDbLine
 10
1723.010989
 20
-93.887126
 30
0.0
 11
1757.74653
 21
-88.241084
 31
0.0
  0
LINE
  5
4272
330
4AFC
100
AcDbEntity
  8
V0-OBRYS
  6
CONTINUOUS
 62
    90
100
AcDbLine
 10
1684.229887
 20
-100.190749
 30
0.0
 11
1719.788055
 21
-94.410994
 31
0.0
  0
LINE
  5
4273
330
4AFC
100
AcDbEntity
  8
V0-OBRYS
  6
CONTINUOUS
 62
    90
100
AcDbLine
 10
1802.874928
 20
-140.190155
 30
0.0
 11
1815.919019
 21
-108.049483
 31
0.0
  0
LINE
  5
4274
330
4AFC
100
AcDbEntity
  8
V0-OBRYS
  6
CONTINUOUS
 62
    90
100
AcDbLine
 10
1761.022306
 20
-87.70862700000001
 30
0.0
 11
1795.259728
 21
-82.143551
 31
0.0
  0
LINE
  5
4275
330
4AFC
100
AcDbEntity
  8
V0-OBRYS
  6
CONTINUOUS
 62
    90
100
AcDbLine
 10
1798.640794
 20
-81.59398
 30
0.0
 11
1826.07718
 21
-77.13436900000001
 31
0.0
  0
LINE
  5
4276
330
4AFC
100
AcDbEntity
  8
V0-OBRYS
  6
CONTINUOUS
 62
    90
100
AcDbLine
 10
1742.596687
 20
-6.980716
 30
0.0
 11
1775.858134
 21
2.860385
 31
0.0
  0
LINE
  5
4277
330
4AFC
100
AcDbEntity
  8
V0-OBRYS
  6
CONTINUOUS
 62
    90
100
AcDbLine
 10
1729.003501
 20
84.328892
 30
0.0
 11
1755.07501
 21
60.691803
 31
0.0
  0
LINE
  5
4278
330
4AFC
100
AcDbEntity
  8
V0-OBRYS
  6
CONTINUOUS
 62
    90
100
AcDbLine
 10
1705.668924
 20
-17.906573
 30
0.0
 11
1739.41429
 21
-7.922295
 31
0.0
  0
LINE
  5
4279
330
4AFC
100
AcDbEntity
  8
V0-OBRYS
  6
CONTINUOUS
 62
    90
100
AcDbLine
 10
1699.895509
 20
110.718934
 30
0.0
 11
1726.584459
 21
86.522057
 31
0.0
  0
LINE
  5
427A
330
4AFC
100
AcDbEntity
  8
V0-OBRYS
  6
CONTINUOUS
 62
    90
100
AcDbLine
 10
1757.533714
 20
58.462679
 30
0.0
 11
1783.23135
 21
35.164553
 31
0.0
  0
LINE
  5
427B
330
4AFC
100
AcDbEntity
  8
V0-OBRYS
  6
CONTINUOUS
 62
    90
100
AcDbLine
 10
1785.769082
 20
32.863781
 30
0.0
 11
1806.362053
 21
14.193672
 31
0.0
  0
LINE
  5
427C
330
4AFC
100
AcDbEntity
  8
V0-OBRYS
  6
CONTINUOUS
 62
    90
100
AcDbLine
 10
1779.142819
 20
3.832228
 30
0.0
 11
1805.797102
 21
11.718459
 31
0.0
  0
LINE
  5
427D
330
4AFC
100
AcDbEntity
  8
V0-OBRYS
  6
CONTINUOUS
 62
    90
100
AcDbLine
 10
1805.797102
 20
11.718459
 30
0.0
 11
1815.308402
 21
2.699768000000001
 31
0.0
  0
LINE
  5
427E
330
4AFC
100
AcDbEntity
  8
V0-OBRYS
  6
CONTINUOUS
 62
    90
100
AcDbLine
 10
1806.362053
 20
14.193672
 30
0.0
 11
1818.844501
 21
18.192434
 31
0.0
  0
ARC
  5
427F
330
4AFC
100
AcDbEntity
  8
VO-OBRYS
  6
CONTINUOUS
100
AcDbCircle
 10
1700.811506
 20
199.22952
 30
0.0
 40
21.9348
100
AcDbArc
 50
45.0
 51
225.0
  0
ARC
  5
4280
330
4AFC
100
AcDbEntity
  8
VO-OBRYS
  6
CONTINUOUS
100
AcDbCircle
 10
1700.811506
 20
199.22952
 30
0.0
 40
18.772761
100
AcDbArc
 50
45.0
 51
225.0
  0
LINE
  5
4281
330
4AFC
100
AcDbEntity
  8
V0-OBRYS
  6
CONTINUOUS
 62
    90
100
AcDbLine
 10
1745.389363
 20
167.766422
 30
0.0
 11
1774.918423
 21
147.130932
 31
0.0
  0
ARC
  5
4282
330
4AFC
100
AcDbEntity
  8
V0-OBRYS
  6
CONTINUOUS
 62
    90
100
AcDbCircle
 10
1911.041933
 20
-11.000907
 30
0.0
 40
253.125
100
AcDbArc
 50
133.280648
 51
149.576495
  0
LINE
  5
4283
330
4AFC
100
AcDbEntity
  8
V0-OBRYS
  6
CONTINUOUS
 62
    90
100
AcDbLine
 10
1737.506394
 20
173.275197
 30
0.0
 11
1742.738053
 21
169.61921
 31
0.0
  0
LINE
  5
4284
330
4AFC
100
AcDbEntity
  8
V0-OBRYS
  6
CONTINUOUS
 62
    90
100
AcDbLine
 10
1777.594889
 20
145.260565
 30
0.0
 11
1806.440804
 21
125.10247
 31
0.0
  0
LINE
  5
4285
330
4AFC
100
AcDbEntity
  8
V0-OBRYS
  6
CONTINUOUS
 62
    90
100
AcDbLine
 10
2129.31314
 20
117.178443
 30
0.0
 11
2124.584663
 21
112.891486
 31
0.0
  0
LINE
  5
4286
330
4AFC
100
AcDbEntity
  8
V0-OBRYS
  6
CONTINUOUS
 62
    90
100
AcDbLine
 10
2012.922714
 20
123.201438
 30
0.0
 11
1984.490458
 21
103.332417
 31
0.0
  0
LINE
  5
4287
330
4AFC
100
AcDbEntity
  8
VO-OBRYS
  6
CONTINUOUS
100
AcDbLine
 10
1976.420941
 20
23.35761
 30
0.0
 11
2136.782605
 21
183.719274
 31
0.0
  0
LINE
  5
4288
330
4AFC
100
AcDbEntity
  8
VO-OBRYS
  6
CONTINUOUS
100
AcDbLine
 10
1945.400449
 20
54.378101
 30
0.0
 11
2105.762114
 21
214.739766
 31
0.0
  0
LINE
  5
4289
330
4AFC
100
AcDbEntity
  8
VO-OBRYS
  6
CONTINUOUS
100
AcDbLine
 10
1948.277515
 20
52.783369
 30
0.0
 11
2107.998013
 21
212.503867
 31
0.0
  0
LINE
  5
428A
330
4AFC
100
AcDbEntity
  8
VO-OBRYS
  6
CONTINUOUS
100
AcDbLine
 10
1974.826209
 20
26.234675
 30
0.0
 11
2134.546707
 21
185.955173
 31
0.0
  0
LINE
  5
428B
330
4AFC
100
AcDbEntity
  8
V0-OBRYS
  6
CONTINUOUS
 62
    90
100
AcDbLine
 10
2122.188356
 20
110.718934
 30
0.0
 11
2095.499407
 21
86.522057
 31
0.0
  0
LINE
  5
428C
330
4AFC
100
AcDbEntity
  8
V0-OBRYS
  6
CONTINUOUS
 62
    90
100
AcDbLine
 10
2137.853978
 20
-100.190749
 30
0.0
 11
2102.29581
 21
-94.410994
 31
0.0
  0
ARC
  5
428D
330
4AFC
100
AcDbEntity
  8
VO-OBRYS
  6
CONTINUOUS
100
AcDbCircle
 10
2121.27236
 20
-221.231334
 30
0.0
 40
18.772761
100
AcDbArc
 50
225.0
 51
45.0
  0
ARC
  5
428E
330
4AFC
100
AcDbEntity
  8
VO-OBRYS
  6
CONTINUOUS
100
AcDbCircle
 10
2121.27236
 20
-221.231334
 30
0.0
 40
21.9348
100
AcDbArc
 50
225.0
 51
45.0
  0
LINE
  5
428F
330
4AFC
100
AcDbEntity
  8
VO-OBRYS
  6
CONTINUOUS
100
AcDbLine
 10
1976.420941
 20
-45.359424
 30
0.0
 11
2136.782605
 21
-205.721088
 31
0.0
  0
LINE
  5
4290
330
4AFC
100
AcDbEntity
  8
VO-OBRYS
  6
CONTINUOUS
100
AcDbLine
 10
1974.826209
 20
-48.236489
 30
0.0
 11
2134.546707
 21
-207.956987
 31
0.0
  0
LINE
  5
4291
330
4AFC
100
AcDbEntity
  8
V0-OBRYS
  6
CONTINUOUS
 62
    90
100
AcDbLine
 10
1877.478736
 20
-176.117456
 30
0.0
 11
1894.474468
 21
-145.879793
 31
0.0
  0
LINE
  5
4292
330
4AFC
100
AcDbEntity
  8
V0-OBRYS
  6
CONTINUOUS
 62
    90
100
AcDbLine
 10
1944.60513
 20
-176.117456
 30
0.0
 11
1927.609398
 21
-145.879793
 31
0.0
  0
LINE
  5
4293
330
4AFC
100
AcDbEntity
  8
VO-OBRYS
  6
CONTINUOUS
100
AcDbLine
 10
1945.400449
 20
-76.379915
 30
0.0
 11
2105.762114
 21
-236.74158
 31
0.0
  0
LINE
  5
4294
330
4AFC
100
AcDbEntity
  8
VO-OBRYS
  6
CONTINUOUS
100
AcDbLine
 10
1948.277515
 20
-74.785183
 30
0.0
 11
2107.998013
 21
-234.505681
 31
0.0
  0
LINE
  5
4295
330
4AFC
100
AcDbEntity
  8
V0-OBRYS
  6
CONTINUOUS
 62
    90
100
AcDbLine
 10
2033.690843
 20
-175.873603
 30
0.0
 11
2020.456973
 21
-143.265318
 31
0.0
  0
LINE
  5
4296
330
4AFC
100
AcDbEntity
  8
V0-OBRYS
  6
CONTINUOUS
 62
    90
100
AcDbLine
 10
1982.725504
 20
-243.938662
 30
0.0
 11
1965.074143
 21
-212.534548
 31
0.0
  0
LINE
  5
4297
330
4AFC
100
AcDbEntity
  8
V0-OBRYS
  6
CONTINUOUS
 62
    90
100
AcDbLine
 10
1839.358362
 20
-243.938662
 30
0.0
 11
1857.009722
 21
-212.534548
 31
0.0
  0
LINE
  5
4298
330
4AFC
100
AcDbEntity
  8
V0-OBRYS
  6
CONTINUOUS
 62
    90
100
AcDbLine
 10
1834.64622
 20
-252.322188
 30
0.0
 11
1837.773509
 21
-246.758326
 31
0.0
  0
LINE
  5
4299
330
4AFC
100
AcDbEntity
  8
V0-OBRYS
  6
CONTINUOUS
 62
    90
100
AcDbLine
 10
1858.609613
 20
-209.688131
 30
0.0
 11
1875.852615
 21
-179.010542
 31
0.0
  0
LINE
  5
429A
330
4AFC
100
AcDbEntity
  8
V0-OBRYS
  6
CONTINUOUS
 62
    90
100
AcDbLine
 10
1963.474253
 20
-209.688131
 30
0.0
 11
1946.231251
 21
-179.010542
 31
0.0
  0
LINE
  5
429B
330
4AFC
100
AcDbEntity
  8
V0-OBRYS
  6
CONTINUOUS
 62
    90
100
AcDbLine
 10
2048.466027
 20
-212.279694
 30
0.0
 11
2034.918746
 21
-178.89916
 31
0.0
  0
ARC
  5
429C
330
4AFC
100
AcDbEntity
  8
V0-OBRYS
  6
CONTINUOUS
 62
    90
100
AcDbCircle
 10
1911.041933
 20
-11.000907
 30
0.0
 40
253.125
100
AcDbArc
 50
287.566362
 51
303.86221
  0
LINE
  5
429D
330
4AFC
100
AcDbEntity
  8
V0-OBRYS
  6
CONTINUOUS
 62
    90
100
AcDbLine
 10
1987.437646
 20
-252.322188
 30
0.0
 11
1984.310357
 21
-246.758326
 31
0.0
  0
LINE
  5
429E
330
4AFC
100
AcDbEntity
  8
V0-OBRYS
  6
CONTINUOUS
 62
    90
100
AcDbLine
 10
2052.08256
 20
-221.190838
 30
0.0
 11
2049.68239
 21
-215.276814
 31
0.0
  0
LINE
  5
429F
330
4AFC
100
AcDbEntity
  8
V0-OBRYS
  6
CONTINUOUS
 62
    90
100
AcDbLine
 10
1981.682673
 20
101.370281
 30
0.0
 11
1958.898296
 21
85.44810800000001
 31
0.0
  0
LINE
  5
42A0
330
4AFC
100
AcDbEntity
  8
V0-OBRYS
  6
CONTINUOUS
 62
    90
100
AcDbLine
 10
1959.666634
 20
70.355493
 30
0.0
 11
1973.843969
 21
94.076294
 31
0.0
  0
LINE
  5
42A3
330
4AFC
100
AcDbEntity
  8
V0-OBRYS
  6
CONTINUOUS
 62
    90
100
AcDbLine
 10
1959.666634
 20
-92.35730700000001
 30
0.0
 11
1973.843969
 21
-116.078108
 31
0.0
  0
LINE
  5
42A8
330
4AFC
100
AcDbEntity
  8
V0-OBRYS
  6
CONTINUOUS
 62
    90
100
AcDbLine
 10
1896.152856
 20
-142.893717
 30
0.0
 11
1909.772499
 21
-118.662565
 31
0.0
  0
ARC
  5
42A9
330
4AFC
100
AcDbEntity
  8
V0-OBRYS
  6
CONTINUOUS
 62
    90
100
AcDbCircle
 10
1911.041933
 20
-11.000907
 30
0.0
 40
95.197135
100
AcDbArc
 50
238.716649
 51
301.283351
  0
LINE
  5
42AA
330
4AFC
100
AcDbEntity
  8
V0-OBRYS
  6
CONTINUOUS
 62
    90
100
AcDbLine
 10
1893.676747
 20
-82.787902
 30
0.0
 11
1882.54803
 21
-128.79358
 31
0.0
  0
LINE
  5
42AB
330
4AFC
100
AcDbEntity
  8
V0-OBRYS
  6
CONTINUOUS
 62
    90
100
AcDbLine
 10
1865.393963
 20
-122.712269
 30
0.0
 11
1883.104412
 21
-79.37061799999999
 31
0.0
  0
LINE
  5
42AC
330
4AFC
100
AcDbEntity
  8
V0-OBRYS
  6
CONTINUOUS
 62
    90
100
AcDbLine
 10
1862.417231
 20
-92.35730700000001
 30
0.0
 11
1848.239897
 21
-116.078108
 31
0.0
  0
LINE
  5
42B0
330
4AFC
100
AcDbEntity
  8
V0-OBRYS
  6
CONTINUOUS
 62
    90
100
AcDbLine
 10
1928.407119
 20
-82.787902
 30
0.0
 11
1939.535836
 21
-128.79358
 31
0.0
  0
LINE
  5
42B1
330
4AFC
100
AcDbEntity
  8
V0-OBRYS
  6
CONTINUOUS
 62
    90
100
AcDbLine
 10
1920.168345
 20
-131.004968
 30
0.0
 11
1916.642682
 21
-84.64569
 31
0.0
  0
LINE
  5
42B2
330
4AFC
100
AcDbEntity
  8
V0-OBRYS
  6
CONTINUOUS
 62
    90
100
AcDbLine
 10
1901.915521
 20
-131.004968
 30
0.0
 11
1905.441184
 21
-84.64569
 31
0.0
  0
LINE
  5
42B3
330
4AFC
100
AcDbEntity
  8
V0-OBRYS
  6
CONTINUOUS
 62
    90
100
AcDbLine
 10
1956.689902
 20
-122.712269
 30
0.0
 11
1938.979453
 21
-79.37061799999999
 31
0.0
  0
LINE
  5
42B4
330
4AFC
100
AcDbEntity
  8
V0-OBRYS
  6
CONTINUOUS
 62
    90
100
AcDbLine
 10
1925.93101
 20
-142.893717
 30
0.0
 11
1912.311367
 21
-118.662565
 31
0.0
  0
LINE
  5
42B5
330
4AFC
100
AcDbEntity
  8
V0-OBRYS
  6
CONTINUOUS
 62
    90
100
AcDbLine
 10
1912.311367
 20
-118.662565
 30
0.0
 11
1918.987477
 21
-107.382886
 31
0.0
  0
LINE
  5
42B6
330
4AFC
100
AcDbEntity
  8
V0-OBRYS
  6
CONTINUOUS
 62
    90
100
AcDbLine
 10
1909.772499
 20
-118.662565
 30
0.0
 11
1903.096389
 21
-107.382886
 31
0.0
  0
ARC
  5
42B7
330
4AFC
100
AcDbEntity
  8
V0-OBRYS
  6
CONTINUOUS
 62
    90
100
AcDbCircle
 10
1911.041933
 20
-11.000907
 30
0.0
 40
95.197135
100
AcDbArc
 50
58.71664899999999
 51
121.283351
  0
LINE
  5
42B9
330
4AFC
100
AcDbEntity
  8
V0-OBRYS
  6
CONTINUOUS
 62
    90
100
AcDbLine
 10
1862.417231
 20
70.355493
 30
0.0
 11
1848.239897
 21
94.076294
 31
0.0
  0
LINE
  5
42BA
330
4AFC
100
AcDbEntity
  8
V0-OBRYS
  6
CONTINUOUS
 62
    90
100
AcDbLine
 10
1862.417231
 20
70.355493
 30
0.0
 11
1848.239897
 21
94.076294
 31
0.0
  0
LINE
  5
42BB
330
4AFC
100
AcDbEntity
  8
V0-OBRYS
  6
CONTINUOUS
 62
    90
100
AcDbLine
 10
1863.18557
 20
85.44810800000001
 30
0.0
 11
1862.064672
 21
72.388813
 31
0.0
  0
LINE
  5
42BD
330
4AFC
100
AcDbEntity
  8
V0-OBRYS
  6
CONTINUOUS
 62
    90
100
AcDbLine
 10
1840.401192
 20
101.370281
 30
0.0
 11
1863.18557
 21
85.44810800000001
 31
0.0
  0
LINE
  5
42BE
330
4AFC
100
AcDbEntity
  8
V0-OBRYS
  6
CONTINUOUS
 62
    90
100
AcDbLine
 10
1891.36192
 20
70.355493
 30
0.0
 11
1882.54803
 21
106.791766
 31
0.0
  0
LINE
  5
42BF
330
4AFC
100
AcDbEntity
  8
V0-OBRYS
  6
CONTINUOUS
 62
    90
100
AcDbLine
 10
1893.676747
 20
60.786089
 30
0.0
 11
1882.54803
 21
106.791766
 31
0.0
  0
LINE
  5
42C0
330
4AFC
100
AcDbEntity
  8
V0-OBRYS
  6
CONTINUOUS
 62
    90
100
AcDbLine
 10
1865.393963
 20
100.710455
 30
0.0
 11
1877.797736
 21
70.355493
 31
0.0
  0
LINE
  5
42C1
330
4AFC
100
AcDbEntity
  8
V0-OBRYS
  6
CONTINUOUS
 62
    90
100
AcDbLine
 10
1865.393963
 20
100.710455
 30
0.0
 11
1883.104412
 21
57.368804
 31
0.0
  0
LINE
  5
42C2
330
4AFC
100
AcDbEntity
  8
V0-OBRYS
  6
CONTINUOUS
 62
    90
100
AcDbLine
 10
1865.473011
 20
86.549682
 30
0.0
 11
1876.382047
 21
79.283698
 31
0.0
  0
LINE
  5
42C3
330
4AFC
100
AcDbEntity
  8
V0-OBRYS
  6
CONTINUOUS
 62
    90
100
AcDbLine
 10
1867.230382
 20
114.290538
 30
0.0
 11
1865.473011
 21
86.549682
 31
0.0
  0
LINE
  5
42C4
330
4AFC
100
AcDbEntity
  8
V0-OBRYS
  6
CONTINUOUS
 62
    90
100
AcDbLine
 10
1928.407119
 20
60.786089
 30
0.0
 11
1939.535836
 21
106.791766
 31
0.0
  0
LINE
  5
42C5
330
4AFC
100
AcDbEntity
  8
V0-OBRYS
  6
CONTINUOUS
 62
    90
100
AcDbLine
 10
1901.915521
 20
109.003155
 30
0.0
 11
1904.854709
 21
70.355493
 31
0.0
  0
LINE
  5
42C6
330
4AFC
100
AcDbEntity
  8
V0-OBRYS
  6
CONTINUOUS
 62
    90
100
AcDbLine
 10
1901.915521
 20
109.003155
 30
0.0
 11
1905.441184
 21
62.643876
 31
0.0
  0
LINE
  5
42C7
330
4AFC
100
AcDbEntity
  8
V0-OBRYS
  6
CONTINUOUS
 62
    90
100
AcDbLine
 10
1920.168345
 20
109.003155
 30
0.0
 11
1916.642682
 21
62.643876
 31
0.0
  0
LINE
  5
42C8
330
4AFC
100
AcDbEntity
  8
V0-OBRYS
  6
CONTINUOUS
 62
    90
100
AcDbLine
 10
1958.898296
 20
85.44810800000001
 30
0.0
 11
1960.019194
 21
72.388813
 31
0.0
  0
LINE
  5
42C9
330
4AFC
100
AcDbEntity
  8
V0-OBRYS
  6
CONTINUOUS
 62
    90
100
AcDbLine
 10
1956.689902
 20
100.710455
 30
0.0
 11
1938.979453
 21
57.368804
 31
0.0
  0
LINE
  5
42CA
330
4AFC
100
AcDbEntity
  8
V0-OBRYS
  6
CONTINUOUS
 62
    90
100
AcDbLine
 10
1956.610855
 20
86.549682
 30
0.0
 11
1945.701818
 21
79.283698
 31
0.0
  0
LINE
  5
42CB
330
4AFC
100
AcDbEntity
  8
V0-OBRYS
  6
CONTINUOUS
 62
    90
100
AcDbLine
 10
1954.853484
 20
114.290538
 30
0.0
 11
1956.610855
 21
86.549682
 31
0.0
  0
ARC
  5
42CD
330
4AFC
100
AcDbEntity
  8
V0-OBRYS
  6
CONTINUOUS
 62
    90
100
AcDbCircle
 10
1911.041933
 20
-11.000907
 30
0.0
 40
95.197135
100
AcDbArc
 50
328.716649
 51
31.283351
  0
LINE
  5
42CE
330
4AFC
100
AcDbEntity
  8
V0-OBRYS
  6
CONTINUOUS
 62
    90
100
AcDbLine
 10
2061.06156
 20
-87.70862700000001
 30
0.0
 11
2026.824138
 21
-82.143551
 31
0.0
  0
LINE
  5
42CF
330
4AFC
100
AcDbEntity
  8
V0-OBRYS
  6
CONTINUOUS
 62
    90
100
AcDbLine
 10
2004.876697
 20
-104.875478
 30
0.0
 11
1994.423727
 21
-79.119336
 31
0.0
  0
LINE
  5
42D0
330
4AFC
100
AcDbEntity
  8
V0-OBRYS
  6
CONTINUOUS
 62
    90
100
AcDbLine
 10
2019.208938
 20
-140.190155
 30
0.0
 11
2006.164847
 21
-108.049483
 31
0.0
  0
LINE
  5
42D1
330
4AFC
100
AcDbEntity
  8
V0-OBRYS
  6
CONTINUOUS
 62
    90
100
AcDbLine
 10
2022.753294
 20
-56.648876
 30
0.0
 11
1979.411643
 21
-38.938427
 31
0.0
  0
LINE
  5
42D2
330
4AFC
100
AcDbEntity
  8
V0-OBRYS
  6
CONTINUOUS
 62
    90
100
AcDbLine
 10
2023.443072
 20
-81.59398
 30
0.0
 11
1996.006685
 21
-77.13436900000001
 31
0.0
  0
LINE
  5
42D3
330
4AFC
100
AcDbEntity
  8
V0-OBRYS
  6
CONTINUOUS
 62
    90
100
AcDbLine
 10
1992.398333
 20
-59.625609
 30
0.0
 11
2016.119134
 21
-73.802943
 31
0.0
  0
LINE
  5
42D4
330
4AFC
100
AcDbEntity
  8
V0-OBRYS
  6
CONTINUOUS
 62
    90
100
AcDbLine
 10
1982.828928
 20
-28.366093
 30
0.0
 11
2028.834606
 21
-39.49481
 31
0.0
  0
LINE
  5
42D8
330
4AFC
100
AcDbEntity
  8
V0-OBRYS
  6
CONTINUOUS
 62
    90
100
AcDbLine
 10
2099.072876
 20
-93.887126
 30
0.0
 11
2064.337336
 21
-88.241084
 31
0.0
  0
LINE
  5
42D9
330
4AFC
100
AcDbEntity
  8
V0-OBRYS
  6
CONTINUOUS
 62
    90
100
AcDbLine
 10
2064.550151
 20
58.462679
 30
0.0
 11
2038.852516
 21
35.164553
 31
0.0
  0
LINE
  5
42DA
330
4AFC
100
AcDbEntity
  8
V0-OBRYS
  6
CONTINUOUS
 62
    90
100
AcDbLine
 10
1992.398333
 20
37.623795
 30
0.0
 11
2016.119134
 21
51.801129
 31
0.0
  0
LINE
  5
42DB
330
4AFC
100
AcDbEntity
  8
V0-OBRYS
  6
CONTINUOUS
 62
    90
100
AcDbLine
 10
2022.753294
 20
34.647062
 30
0.0
 11
1979.411643
 21
16.936614
 31
0.0
  0
LINE
  5
42DC
330
4AFC
100
AcDbEntity
  8
V0-OBRYS
  6
CONTINUOUS
 62
    90
100
AcDbLine
 10
2015.721812
 20
14.193672
 30
0.0
 11
2003.239364
 21
18.192434
 31
0.0
  0
LINE
  5
42DD
330
4AFC
100
AcDbEntity
  8
V0-OBRYS
  6
CONTINUOUS
 62
    90
100
AcDbLine
 10
2016.286764
 20
11.718459
 30
0.0
 11
2006.775464
 21
2.699768000000001
 31
0.0
  0
LINE
  5
42DE
330
4AFC
100
AcDbEntity
  8
V0-OBRYS
  6
CONTINUOUS
 62
    90
100
AcDbLine
 10
1982.828928
 20
6.364279
 30
0.0
 11
2028.834606
 21
17.492996
 31
0.0
  0
LINE
  5
42DF
330
4AFC
100
AcDbEntity
  8
V0-OBRYS
  6
CONTINUOUS
 62
    90
100
AcDbLine
 10
2031.045994
 20
-1.874495
 30
0.0
 11
1984.686715
 21
-5.400158
 31
0.0
  0
LINE
  5
42E0
330
4AFC
100
AcDbEntity
  8
V0-OBRYS
  6
CONTINUOUS
 62
    90
100
AcDbLine
 10
2031.045994
 20
-20.127319
 30
0.0
 11
1984.686715
 21
-16.601656
 31
0.0
  0
LINE
  5
42E1
330
4AFC
100
AcDbEntity
  8
V0-OBRYS
  6
CONTINUOUS
 62
    90
100
AcDbLine
 10
2042.941046
 20
3.832228
 30
0.0
 11
2016.286764
 21
11.718459
 31
0.0
  0
LINE
  5
42E2
330
4AFC
100
AcDbEntity
  8
V0-OBRYS
  6
CONTINUOUS
 62
    90
100
AcDbLine
 10
2036.314784
 20
32.863781
 30
0.0
 11
2015.721812
 21
14.193672
 31
0.0
  0
LINE
  5
42E4
330
4AFC
100
AcDbEntity
  8
V0-OBRYS
  6
CONTINUOUS
 62
    90
100
AcDbLine
 10
2079.487179
 20
-6.980716
 30
0.0
 11
2046.225731
 21
2.860385
 31
0.0
  0
LINE
  5
42E5
330
4AFC
100
AcDbEntity
  8
V0-OBRYS
  6
CONTINUOUS
 62
    90
100
AcDbLine
 10
2116.414942
 20
-17.906573
 30
0.0
 11
2082.669575
 21
-7.922295
 31
0.0
  0
LINE
  5
42E6
330
4AFC
100
AcDbEntity
  8
V0-OBRYS
  6
CONTINUOUS
 62
    90
100
AcDbLine
 10
2093.080364
 20
84.328892
 30
0.0
 11
2067.008855
 21
60.691803
 31
0.0
  0
LINE
  5
42E7
330
4AFC
100
AcDbEntity
  8
V0-OBRYS
  6
CONTINUOUS
 62
    90
100
AcDbLine
 10
2154.090547
 20
-29.053694
 30
0.0
 11
2119.546003
 21
-18.832963
 31
0.0
  0
ARC
  5
42E8
330
4AFC
100
AcDbEntity
  8
V0-OBRYS
  6
CONTINUOUS
 62
    90
100
AcDbCircle
 10
1911.041933
 20
-11.000907
 30
0.0
 40
253.125
100
AcDbArc
 50
338.994933
 51
355.290781
  0
LINE
  5
42E9
330
4AFC
100
AcDbEntity
  8
V0-OBRYS
  6
CONTINUOUS
 62
    90
100
AcDbLine
 10
2147.346456
 20
-101.733691
 30
0.0
 11
2141.046621
 21
-100.709693
 31
0.0
  0
LINE
  5
42EA
330
4AFC
100
AcDbEntity
  8
V0-OBRYS
  6
CONTINUOUS
 62
    90
100
AcDbLine
 10
2163.312431
 20
-31.782183
 30
0.0
 11
2157.192179
 21
-29.971378
 31
0.0
  0
ARC
  5
42EB
330
4AFC
100
AcDbEntity
  8
VO-OBRYS
  6
CONTINUOUS
100
AcDbCircle
 10
2121.27236
 20
199.22952
 30
0.0
 40
21.9348
100
AcDbArc
 50
315.0
 51
135.0
  0
ARC
  5
42EC
330
4AFC
100
AcDbEntity
  8
VO-OBRYS
  6
CONTINUOUS
100
AcDbCircle
 10
2121.27236
 20
199.22952
 30
0.0
 40
18.772761
100
AcDbArc
 50
315.0
 51
135.0
  0
ARC
  5
42ED
330
4AFC
100
AcDbEntity
  8
V0-OBRYS
  6
CONTINUOUS
 62
    90
100
AcDbCircle
 10
1911.041933
 20
-11.000907
 30
0.0
 40
253.125
100
AcDbArc
 50
30.423505
 51
46.719352
  0
LINE
  5
42EF
330
4AFC
100
AcDbEntity
  8
V0-OBRYS
  6
CONTINUOUS
 62
    90
100
AcDbLine
 10
1872.074665
 20
190.759627
 30
0.0
 11
1869.849764
 21
155.638616
 31
0.0
  0
LINE
  5
42F0
330
4AFC
100
AcDbEntity
  8
V0-OBRYS
  6
CONTINUOUS
 62
    90
100
AcDbLine
 10
1869.639943
 20
152.326489
 30
0.0
 11
1867.446948
 21
117.709124
 31
0.0
  0
LINE
  5
42F1
330
4AFC
100
AcDbEntity
  8
V0-OBRYS
  6
CONTINUOUS
 62
    90
100
AcDbLine
 10
1874.558694
 20
229.971094
 30
0.0
 11
1872.281102
 21
194.018327
 31
0.0
  0
LINE
  5
42F2
330
4AFC
100
AcDbEntity
  8
V0-OBRYS
  6
CONTINUOUS
 62
    90
100
AcDbLine
 10
1875.166712
 20
239.568912
 30
0.0
 11
1874.763191
 21
233.199166
 31
0.0
  0
LINE
  5
42F3
330
4AFC
100
AcDbEntity
  8
V0-OBRYS
  6
CONTINUOUS
 62
    90
100
AcDbLine
 10
1950.0092
 20
190.759627
 30
0.0
 11
1952.234101
 21
155.638616
 31
0.0
  0
LINE
  5
42F4
330
4AFC
100
AcDbEntity
  8
V0-OBRYS
  6
CONTINUOUS
 62
    90
100
AcDbLine
 10
1952.443923
 20
152.326489
 30
0.0
 11
1954.636918
 21
117.709124
 31
0.0
  0
LINE
  5
42F5
330
4AFC
100
AcDbEntity
  8
V0-OBRYS
  6
CONTINUOUS
 62
    90
100
AcDbLine
 10
1947.525171
 20
229.971094
 30
0.0
 11
1949.802763
 21
194.018327
 31
0.0
  0
LINE
  5
42F6
330
4AFC
100
AcDbEntity
  8
V0-OBRYS
  6
CONTINUOUS
 62
    90
100
AcDbLine
 10
1946.917153
 20
239.568912
 30
0.0
 11
1947.320674
 21
233.199166
 31
0.0
  0
LINE
  5
42F7
330
4AFC
100
AcDbEntity
  8
V0-OBRYS
  6
CONTINUOUS
 62
    90
100
AcDbLine
 10
2044.488976
 20
145.260565
 30
0.0
 11
2015.643062
 21
125.10247
 31
0.0
  0
LINE
  5
42F8
330
4AFC
100
AcDbEntity
  8
V0-OBRYS
  6
CONTINUOUS
 62
    90
100
AcDbLine
 10
2084.577472
 20
173.275197
 30
0.0
 11
2079.345813
 21
169.61921
 31
0.0
  0
LINE
  5
42F9
330
4AFC
100
AcDbEntity
  8
V0-OBRYS
  6
CONTINUOUS
 62
    90
100
AcDbLine
 10
2076.694502
 20
167.766422
 30
0.0
 11
2047.165442
 21
147.130932
 31
0.0
  0
CIRCLE
  5
42FA
330
4AFC
100
AcDbEntity
  8
V0-OBRYS
  6
CONTINUOUS
 62
    90
100
AcDbCircle
 10
1700.811506
 20
199.22952
 30
0.0
 40
10.146818
  0
LINE
  5
42FB
330
4AFC
100
AcDbEntity
  8
V0-VYPLNE
  6
DASHDOT
 62
    63
100
AcDbLine
 10
1911.041933
 20
-11.000907
 30
0.0
 11
1674.515935
 21
225.525091
 31
0.0
  0
CIRCLE
  5
42FC
330
4AFC
100
AcDbEntity
  8
V0-OBRYS
  6
CONTINUOUS
 62
    90
100
AcDbCircle
 10
1700.811506
 20
-221.231334
 30
0.0
 40
10.146818
  0
LINE
  5
42FD
330
4AFC
100
AcDbEntity
  8
V0-VYPLNE
  6
DASHDOT
 62
    63
100
AcDbLine
 10
1911.041933
 20
-11.000907
 30
0.0
 11
1674.515935
 21
-247.526905
 31
0.0
  0
CIRCLE
  5
42FE
330
4AFC
100
AcDbEntity
  8
V0-OBRYS
  6
CONTINUOUS
 62
    90
100
AcDbCircle
 10
2121.27236
 20
-221.231334
 30
0.0
 40
10.146818
  0
LINE
  5
42FF
330
4AFC
100
AcDbEntity
  8
V0-VYPLNE
  6
DASHDOT
 62
    63
100
AcDbLine
 10
1911.041933
 20
-11.000907
 30
0.0
 11
2147.567931
 21
-247.526905
 31
0.0
  0
CIRCLE
  5
4300
330
4AFC
100
AcDbEntity
  8
V0-OBRYS
  6
CONTINUOUS
 62
    90
100
AcDbCircle
 10
2121.27236
 20
199.22952
 30
0.0
 40
10.146818
  0
LINE
  5
4301
330
4AFC
100
AcDbEntity
  8
V0-VYPLNE
  6
DASHDOT
 62
    63
100
AcDbLine
 10
1911.041933
 20
-11.000907
 30
0.0
 11
2147.567931
 21
225.525091
 31
0.0
  0
INSERT
  5
4324
330
4AFC
100
AcDbEntity
  8
V0-OBRYS
  6
CONTINUOUS
 62
    90
100
AcDbBlockReference
  2
ASVORKBOK
 10
1911.041933
 20
-11.000907
 30
0.0
  0
CIRCLE
  5
4325
330
4AFC
100
AcDbEntity
  8
V0-OBRYS
  6
CONTINUOUS
 62
    90
100
AcDbCircle
 10
1911.041933
 20
-11.000907
 30
0.0
 40
73.857446
  0
LINE
  5
43F7
330
4AFC
100
AcDbEntity
  8
V0-OBRYS
  6
CONTINUOUS
 62
    90
100
AcDbLine
 10
1248.321191
 20
303.999093
 30
0.0
 11
1248.321191
 21
-326.000907
 31
0.0
  0
ARC
  5
44E8
330
4AFC
100
AcDbEntity
  8
V0-OBRYS
  6
CONTINUOUS
 62
    90
100
AcDbCircle
 10
1911.041933
 20
35.597551
 30
0.0
 40
207.102264
100
AcDbArc
 50
80.02463899999999
 51
99.97536100000001
  0
CIRCLE
  5
44EA
330
4AFC
100
AcDbEntity
  8
V0-OBRYS
  6
CONTINUOUS
 62
    90
 48
2.0
100
AcDbCircle
 10
1216.195912
 20
-1144.677053
 30
0.0
 40
2.894689
  0
CIRCLE
  5
44EB
330
4AFC
100
AcDbEntity
  8
V0-OBRYS
  6
CONTINUOUS
 62
    90
 48
2.0
100
AcDbCircle
 10
1216.195912
 20
-1123.077053
 30
0.0
 40
2.894689
  0
CIRCLE
  5
44EC
330
4AFC
100
AcDbEntity
  8
V0-OBRYS
  6
CONTINUOUS
 62
    90
 48
2.0
100
AcDbCircle
 10
1216.195912
 20
-1101.477053
 30
0.0
 40
2.894689
  0
CIRCLE
  5
44ED
330
4AFC
100
AcDbEntity
  8
V0-OBRYS
  6
CONTINUOUS
 62
    90
 48
2.0
100
AcDbCircle
 10
1216.195912
 20
-1079.877053
 30
0.0
 40
2.894689
  0
CIRCLE
  5
44EE
330
4AFC
100
AcDbEntity
  8
V0-OBRYS
  6
CONTINUOUS
 62
    90
 48
2.0
100
AcDbCircle
 10
1216.195912
 20
-1058.277053
 30
0.0
 40
2.894689
  0
CIRCLE
  5
44EF
330
4AFC
100
AcDbEntity
  8
V0-OBRYS
  6
CONTINUOUS
 62
    90
 48
2.0
100
AcDbCircle
 10
1216.32239
 20
-782.234387
 30
0.0
 40
2.894689
  0
CIRCLE
  5
44F0
330
4AFC
100
AcDbEntity
  8
V0-OBRYS
  6
CONTINUOUS
 62
    90
 48
2.0
100
AcDbCircle
 10
1216.32239
 20
-760.634387
 30
0.0
 40
2.894689
  0
CIRCLE
  5
44F1
330
4AFC
100
AcDbEntity
  8
V0-OBRYS
  6
CONTINUOUS
 62
    90
 48
2.0
100
AcDbCircle
 10
1216.32239
 20
-739.034387
 30
0.0
 40
2.894689
  0
CIRCLE
  5
44F2
330
4AFC
100
AcDbEntity
  8
V0-OBRYS
  6
CONTINUOUS
 62
    90
 48
2.0
100
AcDbCircle
 10
1216.32239
 20
-717.434387
 30
0.0
 40
2.894689
  0
CIRCLE
  5
44F3
330
4AFC
100
AcDbEntity
  8
V0-OBRYS
  6
CONTINUOUS
 62
    90
 48
2.0
100
AcDbCircle
 10
1216.32239
 20
-695.834387
 30
0.0
 40
2.894689
  0
LINE
  5
44F4
330
4AFC
100
AcDbEntity
  8
V0-OBRYS
  6
CONTINUOUS
 62
    90
 48
2.0
100
AcDbLine
 10
1217.29963
 20
-1010.25644
 30
0.0
 11
1236.72115
 21
-1010.25644
 31
0.0
  0
LINE
  5
44F5
330
4AFC
100
AcDbEntity
  8
V0-OBRYS
  6
CONTINUOUS
 62
    90
 48
2.0
100
AcDbLine
 10
1217.29963
 20
-830.255
 30
0.0
 11
1236.72115
 21
-830.255
 31
0.0
  0
LINE
  5
44F6
330
4AFC
100
AcDbEntity
  8
V0-OBRYS
  6
CONTINUOUS
 62
    90
 48
2.0
100
AcDbLine
 10
1221.257965
 20
-969.897473
 30
0.0
 11
1203.931724
 21
-963.080363
 31
0.0
  0
LINE
  5
44F7
330
4AFC
100
AcDbEntity
  8
V0-OBRYS
  6
CONTINUOUS
 62
    90
 48
2.0
100
AcDbLine
 10
1221.257965
 20
-1004.740483
 30
0.0
 11
1204.689883
 21
-982.77424
 31
0.0
  0
LINE
  5
44F8
330
4AFC
100
AcDbEntity
  8
V0-OBRYS
  6
CONTINUOUS
 62
    90
 48
2.0
100
AcDbLine
 10
1220.499806
 20
-988.83389
 30
0.0
 11
1205.448036
 21
-973.684758
 31
0.0
  0
LINE
  5
44F9
330
4AFC
100
AcDbEntity
  8
V0-OBRYS
  6
CONTINUOUS
 62
    90
 48
2.0
100
AcDbLine
 10
1220.499806
 20
-951.718515
 30
0.0
 11
1204.689883
 21
-948.688686
 31
0.0
  0
LINE
  5
44FA
330
4AFC
100
AcDbEntity
  8
V0-OBRYS
  6
CONTINUOUS
 62
    90
 48
2.0
100
AcDbLine
 10
1220.499806
 20
-933.539554
 30
0.0
 11
1204.689883
 21
-932.782097
 31
0.0
  0
LINE
  5
44FB
330
4AFC
100
AcDbEntity
  8
V0-OBRYS
  6
CONTINUOUS
 62
    90
 48
2.0
100
AcDbLine
 10
1220.499806
 20
-906.971885
 30
0.0
 11
1204.689883
 21
-907.729342
 31
0.0
  0
LINE
  5
44FC
330
4AFC
100
AcDbEntity
  8
V0-OBRYS
  6
CONTINUOUS
 62
    90
 48
2.0
100
AcDbLine
 10
1220.499806
 20
-888.792924
 30
0.0
 11
1204.689883
 21
-891.822753
 31
0.0
  0
LINE
  5
44FD
330
4AFC
100
AcDbEntity
  8
V0-OBRYS
  6
CONTINUOUS
 62
    90
 48
2.0
100
AcDbLine
 10
1221.257965
 20
-870.613966
 30
0.0
 11
1203.931724
 21
-877.431076
 31
0.0
  0
LINE
  5
44FE
330
4AFC
100
AcDbEntity
  8
V0-OBRYS
  6
CONTINUOUS
 62
    90
 48
2.0
100
AcDbLine
 10
1220.499806
 20
-851.677549
 30
0.0
 11
1205.448036
 21
-866.826681
 31
0.0
  0
LINE
  5
44FF
330
4AFC
100
AcDbEntity
  8
V0-OBRYS
  6
CONTINUOUS
 62
    90
 48
2.0
100
AcDbLine
 10
1221.257965
 20
-835.770956
 30
0.0
 11
1204.689883
 21
-857.737199
 31
0.0
  0
LINE
  5
4500
330
4AFC
100
AcDbEntity
  8
V0-OBRYS
  6
CONTINUOUS
 62
    90
 48
2.0
100
AcDbLine
 10
1204.51003
 20
-920.25572
 30
0.0
 11
1204.51003
 21
-994.4668400000001
 31
0.0
  0
ARC
  5
4501
330
4AFC
100
AcDbEntity
  8
V0-OBRYS
  6
CONTINUOUS
 62
    90
 48
2.0
100
AcDbCircle
 10
1217.779924
 20
-996.7928030000001
 30
0.0
 40
13.472201
100
AcDbArc
 50
170.05812
 51
267.95693
  0
LINE
  5
4502
330
4AFC
100
AcDbEntity
  8
V0-OBRYS
  6
CONTINUOUS
 62
    90
 48
2.0
100
AcDbLine
 10
1204.51003
 20
-920.25572
 30
0.0
 11
1204.51003
 21
-846.0446
 31
0.0
  0
ARC
  5
4504
330
4AFC
100
AcDbEntity
  8
V0-OBRYS
  6
CONTINUOUS
 62
    90
 48
2.0
100
AcDbCircle
 10
1217.779924
 20
-843.718636
 30
0.0
 40
13.472201
100
AcDbArc
 50
92.04307
 51
189.94188
  0
LINE
  5
4505
330
4AFC
100
AcDbEntity
  8
V0-OBRYS
  6
CONTINUOUS
 62
    90
 48
2.0
100
AcDbLine
 10
1236.721191
 20
-1235.25572
 30
0.0
 11
1236.721191
 21
-920.25572
 31
0.0
  0
LINE
  5
4506
330
4AFC
100
AcDbEntity
  8
V0-OBRYS
  6
CONTINUOUS
 62
    90
100
AcDbLine
 10
1248.321191
 20
-605.25572
 30
0.0
 11
1248.321191
 21
-1235.25572
 31
0.0
  0
LINE
  5
4507
330
4AFC
100
AcDbEntity
  8
V0-VYPLNE
  6
DASHED
 62
    52
100
AcDbLine
 10
1263.681671
 20
-1028.428533
 30
0.0
 11
1279.815098
 21
-1164.876791
 31
0.0
  0
LINE
  5
4508
330
4AFC
100
AcDbEntity
  8
V0-VYPLNE
  6
DASHED
 62
    52
100
AcDbLine
 10
1335.760398
 20
-1028.428533
 30
0.0
 11
1319.62697
 21
-1164.876791
 31
0.0
  0
LINE
  5
4509
330
4AFC
100
AcDbEntity
  8
V0-OBRYS
  6
CONTINUOUS
 62
    90
 48
2.0
100
AcDbLine
 10
1344.878441
 20
-920.25572
 30
0.0
 11
1344.878441
 21
-1170.25527
 31
0.0
  0
ARC
  5
450A
330
4AFC
100
AcDbEntity
  8
V0-OBRYS
  6
CONTINUOUS
 62
    90
 48
2.0
100
AcDbCircle
 10
1158.09928
 20
-1197.000182
 30
0.0
 40
78.654444
100
AcDbArc
 50
2.178969
 51
29.949442
  0
ARC
  5
450B
330
4AFC
100
AcDbEntity
  8
V0-OBRYS
  6
CONTINUOUS
 62
    90
 48
2.0
100
AcDbCircle
 10
1228.090934
 20
-1151.823684
 30
0.0
 40
9.0
100
AcDbArc
 50
180.0
 51
252.703019
  0
LINE
  5
450C
330
4AFC
100
AcDbEntity
  8
V0-OBRYS
  6
CONTINUOUS
 62
    90
 48
2.0
100
AcDbLine
 10
1344.878441
 20
-1170.25527
 30
0.0
 11
1287.083015
 21
-1170.25527
 31
0.0
  0
LINE
  5
450D
330
4AFC
100
AcDbEntity
  8
V0-VYPLNE
  6
DASHED
 62
    52
100
AcDbLine
 10
1279.815098
 20
-1164.876791
 30
0.0
 11
1319.62697
 21
-1164.876791
 31
0.0
  0
LINE
  5
450E
330
4AFC
100
AcDbEntity
  8
V0-OBRYS
  6
CONTINUOUS
 62
    90
 48
2.0
100
AcDbLine
 10
1233.886152
 20
-1210.80163
 30
0.0
 11
1233.886152
 21
-1194.00966
 31
0.0
  0
LINE
  5
450F
330
4AFC
100
AcDbEntity
  8
V0-OBRYS
  6
CONTINUOUS
 62
    90
 48
2.0
100
AcDbLine
 10
1248.321191
 20
-1235.25572
 30
0.0
 11
1236.721191
 21
-1235.25572
 31
0.0
  0
ARC
  5
4510
330
4AFC
100
AcDbEntity
  8
V0-OBRYS
  6
CONTINUOUS
 62
    90
 48
2.0
100
AcDbCircle
 10
1235.303672
 20
-1210.80163
 30
0.0
 40
1.41752
100
AcDbArc
 50
180.0
 51
0.0
  0
ARC
  5
4511
330
4AFC
100
AcDbEntity
  8
V0-OBRYS
  6
CONTINUOUS
 62
    90
 48
2.0
100
AcDbCircle
 10
1287.083015
 20
-1196.83002
 30
0.0
 40
26.57475
100
AcDbArc
 50
90.0
 51
149.420799
  0
ARC
  5
4512
330
4AFC
100
AcDbEntity
  8
V0-OBRYS
  6
CONTINUOUS
 62
    90
 48
2.0
100
AcDbCircle
 10
1147.438277
 20
-1197.944632
 30
0.0
 40
86.537385
100
AcDbArc
 50
2.606215
 51
25.700174
  0
LINE
  5
4513
330
4AFC
100
AcDbEntity
  8
V0-OBRYS
  6
CONTINUOUS
 62
    90
 48
2.0
100
AcDbLine
 10
1247.980991
 20
-1205.68827
 30
0.0
 11
1264.204101
 21
-1183.310676
 31
0.0
  0
LINE
  5
4514
330
4AFC
100
AcDbEntity
  8
V0-OBRYS
  6
CONTINUOUS
 62
    90
 48
2.0
100
AcDbLine
 10
1236.721191
 20
-605.25572
 30
0.0
 11
1236.721191
 21
-920.25572
 31
0.0
  0
LINE
  5
4515
330
4AFC
100
AcDbEntity
  8
V0-OBRYS
  6
CONTINUOUS
 62
    90
 48
2.0
100
AcDbLine
 10
1344.878441
 20
-920.25572
 30
0.0
 11
1344.878441
 21
-670.25617
 31
0.0
  0
LINE
  5
4516
330
4AFC
100
AcDbEntity
  8
V0-VYPLNE
  6
DASHED
 62
    52
100
AcDbLine
 10
1263.681671
 20
-811.378972
 30
0.0
 11
1279.815098
 21
-674.930714
 31
0.0
  0
LINE
  5
4517
330
4AFC
100
AcDbEntity
  8
V0-VYPLNE
  6
DASHED
 62
    52
100
AcDbLine
 10
1335.760398
 20
-811.378972
 30
0.0
 11
1319.62697
 21
-674.930714
 31
0.0
  0
LINE
  5
4518
330
4AFC
100
AcDbEntity
  8
V0-OBRYS
  6
CONTINUOUS
 62
    90
 48
2.0
100
AcDbLine
 10
1219.090934
 20
-688.687755
 30
0.0
 11
1219.090934
 21
-792.002976
 31
0.0
  0
LINE
  5
4519
330
4AFC
100
AcDbEntity
  8
V0-OBRYS
  6
CONTINUOUS
 62
    90
 48
2.0
100
AcDbLine
 10
1221.901635
 20
-688.687755
 30
0.0
 11
1221.901635
 21
-792.002976
 31
0.0
  0
LINE
  5
451A
330
4AFC
100
AcDbEntity
  8
V0-VYPLNE
  6
DASHED
 62
    52
100
AcDbLine
 10
1255.992166
 20
-1002.36164
 30
0.0
 11
1255.992166
 21
-920.25572
 31
0.0
  0
LINE
  5
451B
330
4AFC
100
AcDbEntity
  8
V0-OBRYS
  6
CONTINUOUS
 62
    90
 48
2.0
100
AcDbLine
 10
1221.51027
 20
-920.25572
 30
0.0
 11
1221.51027
 21
-1010.25644
 31
0.0
  0
ELLIPSE
  5
451C
330
4AFC
100
AcDbEntity
  8
V0-VYPLNE
  6
DASHED
 62
    52
100
AcDbEllipse
 10
272.99323
 20
-908.398459
 30
0.0
 11
-5.684341886080802E-14
 21
1174.336946726076
 31
0.0
210
0.0
220
0.0
230
-1.0
 40
0.909091
 41
1.580593751677049
 42
1.660762687017188
  0
LINE
  5
451D
330
4AFC
100
AcDbEntity
  8
V0-VYPLNE
  6
DASHED
 62
    52
100
AcDbLine
 10
1263.721034
 20
-919.9037530000001
 30
0.0
 11
1263.721034
 21
-1020.223753
 31
0.0
  0
LINE
  5
451E
330
4AFC
100
AcDbEntity
  8
V0-VYPLNE
  6
DASHED
 62
    52
100
AcDbLine
 10
1299.721034
 20
-1025.253174
 30
0.0
 11
1299.721034
 21
-919.9037530000001
 31
0.0
  0
LINE
  5
451F
330
4AFC
100
AcDbEntity
  8
V0-OBRYS
  6
CONTINUOUS
 62
    90
 48
2.0
100
AcDbLine
 10
1221.901635
 20
-1151.823684
 30
0.0
 11
1221.901635
 21
-1048.508463
 31
0.0
  0
LINE
  5
4520
330
4AFC
100
AcDbEntity
  8
V0-OBRYS
  6
CONTINUOUS
 62
    90
 48
2.0
100
AcDbLine
 10
1219.090934
 20
-1151.823684
 30
0.0
 11
1219.090934
 21
-1048.508463
 31
0.0
  0
ARC
  5
4521
330
4AFC
100
AcDbEntity
  8
V0-OBRYS
  6
CONTINUOUS
 62
    90
 48
2.0
100
AcDbCircle
 10
1228.090934
 20
-1151.823684
 30
0.0
 40
6.189299
100
AcDbArc
 50
180.0
 51
252.703019
  0
ELLIPSE
  5
4522
330
4AFC
100
AcDbEntity
  8
V0-VYPLNE
  6
DASHED
 62
    52
100
AcDbEllipse
 10
1299.721034
 20
-866.839829
 30
0.0
 11
-6.821210263296962E-13
 21
158.4133457296312
 31
0.0
210
0.0
220
0.0
230
-1.0
 40
0.909091
 41
2.929991421004501
 42
3.394251156505872
  0
LINE
  5
4523
330
4AFC
100
AcDbEntity
  8
V0-VYPLNE
  6
DASHED
 62
    52
100
AcDbLine
 10
1269.827739
 20
-1021.674093
 30
0.0
 11
1263.681671
 21
-1028.428533
 31
0.0
  0
ARC
  5
4524
330
4AFC
100
AcDbEntity
  8
V0-OBRYS
  6
CONTINUOUS
 62
    90
 48
2.0
100
AcDbCircle
 10
1227.721191
 20
-1029.512595
 30
0.0
 40
11.810701
100
AcDbArc
 50
289.78203
 51
319.642674
  0
ARC
  5
4525
330
4AFC
100
AcDbEntity
  8
V0-OBRYS
  6
CONTINUOUS
 62
    90
 48
2.0
100
AcDbCircle
 10
1227.721191
 20
-1029.512595
 30
0.0
 40
9.0
100
AcDbArc
 50
289.78203
 51
0.0
  0
ARC
  5
4526
330
4AFC
100
AcDbEntity
  8
V0-OBRYS
  6
CONTINUOUS
 62
    90
 48
2.0
100
AcDbCircle
 10
1228.090934
 20
-1048.508463
 30
0.0
 40
9.0
100
AcDbArc
 50
109.78203
 51
180.0
  0
ARC
  5
4527
330
4AFC
100
AcDbEntity
  8
V0-OBRYS
  6
CONTINUOUS
 62
    90
 48
2.0
100
AcDbCircle
 10
1228.090934
 20
-1048.508463
 30
0.0
 40
6.189299
100
AcDbArc
 50
109.78203
 51
180.0
  0
LINE
  5
4528
330
4AFC
100
AcDbEntity
  8
V0-OBRYS
  6
CONTINUOUS
 62
    90
 48
2.0
100
AcDbLine
 10
1225.99621
 20
-1042.684413
 30
0.0
 11
1231.718438
 21
-1040.626311
 31
0.0
  0
LINE
  5
4529
330
4AFC
100
AcDbEntity
  8
V0-OBRYS
  6
CONTINUOUS
 62
    90
 48
2.0
100
AcDbLine
 10
1225.044948
 20
-1040.03958
 30
0.0
 11
1230.767177
 21
-1037.981478
 31
0.0
  0
LINE
  5
452A
330
4AFC
100
AcDbEntity
  8
V0-VYPLNE
  6
DASHED
 62
    52
100
AcDbLine
 10
1236.721237
 20
-1004.740483
 30
0.0
 11
1255.992166
 21
-1004.740483
 31
0.0
  0
LINE
  5
452B
330
4AFC
100
AcDbEntity
  8
V0-VYPLNE
  6
DASHED
 62
    52
100
AcDbLine
 10
1236.721237
 20
-1010.25644
 30
0.0
 11
1248.097366
 21
-1010.25644
 31
0.0
  0
LINE
  5
452C
330
4AFC
100
AcDbEntity
  8
V0-OBRYS
  6
CONTINUOUS
 62
    90
 48
2.0
100
AcDbLine
 10
1221.257965
 20
-1004.740483
 30
0.0
 11
1236.72115
 21
-1004.740483
 31
0.0
  0
ARC
  5
452D
330
4AFC
100
AcDbEntity
  8
V0-VYPLNE
  6
DASHED
 62
    52
 48
2.0
100
AcDbCircle
 10
1248.097366
 20
-1002.36164
 30
0.0
 40
7.8948
100
AcDbArc
 50
270.0
 51
0.0
  0
LINE
  5
452E
330
4AFC
100
AcDbEntity
  8
V0-VYPLNE
  6
DASHED
 62
    52
100
AcDbLine
 10
1236.721237
 20
-988.83389
 30
0.0
 11
1255.992166
 21
-988.83389
 31
0.0
  0
LINE
  5
452F
330
4AFC
100
AcDbEntity
  8
V0-VYPLNE
  6
DASHED
 62
    52
100
AcDbLine
 10
1236.721237
 20
-969.897473
 30
0.0
 11
1255.234013
 21
-969.897473
 31
0.0
  0
LINE
  5
4530
330
4AFC
100
AcDbEntity
  8
V0-OBRYS
  6
CONTINUOUS
 62
    90
 48
2.0
100
AcDbLine
 10
1221.257965
 20
-969.897473
 30
0.0
 11
1236.72115
 21
-969.897473
 31
0.0
  0
LINE
  5
4531
330
4AFC
100
AcDbEntity
  8
V0-OBRYS
  6
CONTINUOUS
 62
    90
 48
2.0
100
AcDbLine
 10
1220.499806
 20
-988.83389
 30
0.0
 11
1236.72115
 21
-988.83389
 31
0.0
  0
ELLIPSE
  5
4532
330
4AFC
100
AcDbEntity
  8
V0-VYPLNE
  6
DASHED
 62
    52
100
AcDbEllipse
 10
1328.287076
 20
-1013.116179
 30
0.0
 11
4.547473508864641E-13
 21
8.799999999999955
 31
0.0
210
0.0
220
0.0
230
-1.0
 40
0.9090909999999999
 41
1.660762687017187
 42
2.929991421004503
  0
LINE
  5
4533
330
4AFC
100
AcDbEntity
  8
V0-VYPLNE
  6
DASHED
 62
    52
100
AcDbLine
 10
1329.614329
 20
-1021.674093
 30
0.0
 11
1335.760398
 21
-1028.428533
 31
0.0
  0
LINE
  5
4534
330
4AFC
100
AcDbEntity
  8
V0-VYPLNE
  6
DASHED
 62
    52
100
AcDbLine
 10
1255.992166
 20
-838.1498
 30
0.0
 11
1255.992166
 21
-920.25572
 31
0.0
  0
LINE
  5
4535
330
4AFC
100
AcDbEntity
  8
V0-OBRYS
  6
CONTINUOUS
 62
    90
 48
2.0
100
AcDbLine
 10
1221.51027
 20
-920.25572
 30
0.0
 11
1221.51027
 21
-830.255
 31
0.0
  0
LINE
  5
4536
330
4AFC
100
AcDbEntity
  8
V0-VYPLNE
  6
DASHED
 62
    52
100
AcDbLine
 10
1299.721034
 20
-814.5543310000001
 30
0.0
 11
1299.721034
 21
-919.9037530000001
 31
0.0
  0
LINE
  5
4537
330
4AFC
100
AcDbEntity
  8
V0-VYPLNE
  6
DASHED
 62
    52
100
AcDbLine
 10
1263.721034
 20
-919.9037530000001
 30
0.0
 11
1263.721034
 21
-819.583753
 31
0.0
  0
ELLIPSE
  5
4538
330
4AFC
100
AcDbEntity
  8
V0-VYPLNE
  6
DASHED
 62
    52
100
AcDbEllipse
 10
272.99323
 20
-931.409047
 30
0.0
 11
-1.136868377216160E-12
 21
1174.336946726076
 31
0.0
210
0.0
220
0.0
230
-1.0
 40
0.909091
 41
1.480829966572604
 42
1.560998901912743
  0
LINE
  5
4539
330
4AFC
100
AcDbEntity
  8
V0-VYPLNE
  6
DASHDOT
 62
    63
100
AcDbLine
 10
1220.917908
 20
-920.255826
 30
0.0
 11
1363.902694
 21
-920.255826
 31
0.0
  0
LINE
  5
453A
330
4AFC
100
AcDbEntity
  8
V0-VYPLNE
  6
DASHED
 62
    52
100
AcDbLine
 10
1264.356234
 20
-931.949839
 30
0.0
 11
1338.465076
 21
-907.444404
 31
0.0
  0
ELLIPSE
  5
453E
330
4AFC
100
AcDbEntity
  8
V0-VYPLNE
  6
DASHED
 62
    52
100
AcDbEllipse
 10
1299.721034
 20
-920.255826
 30
0.0
 11
6.821210263296962E-13
 21
7.458195139447412
 31
0.0
210
0.0
220
0.0
230
-1.0
 40
0.909091
 41
0.0
 42
6.283185307179586
  0
LINE
  5
453F
330
4AFC
100
AcDbEntity
  8
V0-VYPLNE
  6
DASHED
 62
    52
100
AcDbLine
 10
1236.721237
 20
-951.718515
 30
0.0
 11
1255.992166
 21
-951.718515
 31
0.0
  0
LINE
  5
4540
330
4AFC
100
AcDbEntity
  8
V0-OBRYS
  6
CONTINUOUS
 62
    90
 48
2.0
100
AcDbLine
 10
1225.048742
 20
-951.718515
 30
0.0
 11
1236.72115
 21
-951.718515
 31
0.0
  0
LINE
  5
4541
330
4AFC
100
AcDbEntity
  8
V0-OBRYS
  6
CONTINUOUS
 62
    90
 48
2.0
100
AcDbLine
 10
1220.499806
 20
-951.718515
 30
0.0
 11
1225.048742
 21
-951.718515
 31
0.0
  0
LINE
  5
4542
330
4AFC
100
AcDbEntity
  8
V0-VYPLNE
  6
DASHED
 62
    52
100
AcDbLine
 10
1236.721237
 20
-933.539554
 30
0.0
 11
1255.234013
 21
-933.539554
 31
0.0
  0
LINE
  5
4543
330
4AFC
100
AcDbEntity
  8
V0-OBRYS
  6
CONTINUOUS
 62
    90
 48
2.0
100
AcDbLine
 10
1220.499806
 20
-933.539554
 30
0.0
 11
1236.72115
 21
-933.539554
 31
0.0
  0
LINE
  5
4544
330
4AFC
100
AcDbEntity
  8
V0-VYPLNE
  6
DASHED
 62
    52
100
AcDbLine
 10
1236.721237
 20
-906.971885
 30
0.0
 11
1255.234013
 21
-906.971885
 31
0.0
  0
LINE
  5
4545
330
4AFC
100
AcDbEntity
  8
V0-OBRYS
  6
CONTINUOUS
 62
    90
 48
2.0
100
AcDbLine
 10
1220.499806
 20
-906.971885
 30
0.0
 11
1236.72115
 21
-906.971885
 31
0.0
  0
LINE
  5
4546
330
4AFC
100
AcDbEntity
  8
V0-VYPLNE
  6
DASHED
 62
    52
100
AcDbLine
 10
1236.721237
 20
-888.792924
 30
0.0
 11
1255.992166
 21
-888.792924
 31
0.0
  0
LINE
  5
4547
330
4AFC
100
AcDbEntity
  8
V0-VYPLNE
  6
DASHED
 62
    52
100
AcDbLine
 10
1236.721237
 20
-870.613966
 30
0.0
 11
1255.234013
 21
-870.613966
 31
0.0
  0
LINE
  5
4548
330
4AFC
100
AcDbEntity
  8
V0-OBRYS
  6
CONTINUOUS
 62
    90
 48
2.0
100
AcDbLine
 10
1225.048742
 20
-888.792924
 30
0.0
 11
1236.72115
 21
-888.792924
 31
0.0
  0
LINE
  5
4549
330
4AFC
100
AcDbEntity
  8
V0-OBRYS
  6
CONTINUOUS
 62
    90
 48
2.0
100
AcDbLine
 10
1221.257965
 20
-870.613966
 30
0.0
 11
1236.72115
 21
-870.613966
 31
0.0
  0
LINE
  5
454A
330
4AFC
100
AcDbEntity
  8
V0-OBRYS
  6
CONTINUOUS
 62
    90
 48
2.0
100
AcDbLine
 10
1220.499806
 20
-888.792924
 30
0.0
 11
1225.048742
 21
-888.792924
 31
0.0
  0
ELLIPSE
  5
454B
330
4AFC
100
AcDbEntity
  8
V0-VYPLNE
  6
DASHED
 62
    52
100
AcDbEllipse
 10
1299.721034
 20
-972.967677
 30
0.0
 11
-6.821210263296962E-13
 21
158.413345729631
 31
0.0
210
0.0
220
0.0
230
-1.0
 40
0.9090909999999999
 41
-0.2526585029160832
 42
0.21160123258526
  0
LINE
  5
454C
330
4AFC
100
AcDbEntity
  8
V0-VYPLNE
  6
DASHED
 62
    52
100
AcDbLine
 10
1236.721237
 20
-851.677549
 30
0.0
 11
1255.992166
 21
-851.677549
 31
0.0
  0
LINE
  5
454D
330
4AFC
100
AcDbEntity
  8
V0-OBRYS
  6
CONTINUOUS
 62
    90
 48
2.0
100
AcDbLine
 10
1220.499806
 20
-851.677549
 30
0.0
 11
1236.72115
 21
-851.677549
 31
0.0
  0
LINE
  5
454E
330
4AFC
100
AcDbEntity
  8
V0-VYPLNE
  6
DASHED
 62
    52
100
AcDbLine
 10
1236.721237
 20
-835.770956
 30
0.0
 11
1255.992166
 21
-835.770956
 31
0.0
  0
LINE
  5
454F
330
4AFC
100
AcDbEntity
  8
V0-VYPLNE
  6
DASHED
 62
    52
100
AcDbLine
 10
1236.721237
 20
-830.255
 30
0.0
 11
1248.097366
 21
-830.255
 31
0.0
  0
LINE
  5
4550
330
4AFC
100
AcDbEntity
  8
V0-OBRYS
  6
CONTINUOUS
 62
    90
 48
2.0
100
AcDbLine
 10
1221.257965
 20
-835.770956
 30
0.0
 11
1236.72115
 21
-835.770956
 31
0.0
  0
ARC
  5
4551
330
4AFC
100
AcDbEntity
  8
V0-VYPLNE
  6
DASHED
 62
    52
 48
2.0
100
AcDbCircle
 10
1248.097366
 20
-838.1498
 30
0.0
 40
7.8948
100
AcDbArc
 50
0.0
 51
90.0
  0
LINE
  5
4552
330
4AFC
100
AcDbEntity
  8
V0-VYPLNE
  6
DASHED
 62
    52
100
AcDbLine
 10
1269.827739
 20
-818.133412
 30
0.0
 11
1263.681671
 21
-811.378972
 31
0.0
  0
ARC
  5
4553
330
4AFC
100
AcDbEntity
  8
V0-OBRYS
  6
CONTINUOUS
 62
    90
 48
2.0
100
AcDbCircle
 10
1228.090934
 20
-792.002976
 30
0.0
 40
9.0
100
AcDbArc
 50
180.0
 51
250.21797
  0
ARC
  5
4554
330
4AFC
100
AcDbEntity
  8
V0-OBRYS
  6
CONTINUOUS
 62
    90
 48
2.0
100
AcDbCircle
 10
1228.090934
 20
-792.002976
 30
0.0
 40
6.189299
100
AcDbArc
 50
180.0
 51
250.21797
  0
ARC
  5
4555
330
4AFC
100
AcDbEntity
  8
V0-OBRYS
  6
CONTINUOUS
 62
    90
 48
2.0
100
AcDbCircle
 10
1227.721191
 20
-810.998844
 30
0.0
 40
11.810701
100
AcDbArc
 50
40.357326
 51
70.21796999999999
  0
LINE
  5
4556
330
4AFC
100
AcDbEntity
  8
V0-OBRYS
  6
CONTINUOUS
 62
    90
 48
2.0
100
AcDbLine
 10
1225.044948
 20
-800.471859
 30
0.0
 11
1230.767177
 21
-802.529961
 31
0.0
  0
LINE
  5
4557
330
4AFC
100
AcDbEntity
  8
V0-OBRYS
  6
CONTINUOUS
 62
    90
 48
2.0
100
AcDbLine
 10
1225.99621
 20
-797.8270260000001
 30
0.0
 11
1231.718438
 21
-799.885128
 31
0.0
  0
ARC
  5
4558
330
4AFC
100
AcDbEntity
  8
V0-OBRYS
  6
CONTINUOUS
 62
    90
 48
2.0
100
AcDbCircle
 10
1227.721191
 20
-810.998844
 30
0.0
 40
9.0
100
AcDbArc
 50
0.0
 51
70.21796999999999
  0
LINE
  5
4559
330
4AFC
100
AcDbEntity
  8
V0-VYPLNE
  6
DASHED
 62
    52
100
AcDbLine
 10
1329.614329
 20
-818.133412
 30
0.0
 11
1335.760398
 21
-811.378972
 31
0.0
  0
ARC
  5
455A
330
4AFC
100
AcDbEntity
  8
V0-OBRYS
  6
CONTINUOUS
 62
    90
 48
2.0
100
AcDbCircle
 10
1158.09928
 20
-643.511257
 30
0.0
 40
78.654444
100
AcDbArc
 50
330.050558
 51
357.821031
  0
ARC
  5
455B
330
4AFC
100
AcDbEntity
  8
V0-OBRYS
  6
CONTINUOUS
 62
    90
 48
2.0
100
AcDbCircle
 10
1147.438277
 20
-642.566807
 30
0.0
 40
86.537385
100
AcDbArc
 50
334.299826
 51
357.393785
  0
ARC
  5
455C
330
4AFC
100
AcDbEntity
  8
V0-OBRYS
  6
CONTINUOUS
 62
    90
 48
2.0
100
AcDbCircle
 10
1228.090934
 20
-688.687755
 30
0.0
 40
9.0
100
AcDbArc
 50
107.296981
 51
180.0
  0
ARC
  5
455D
330
4AFC
100
AcDbEntity
  8
V0-OBRYS
  6
CONTINUOUS
 62
    90
 48
2.0
100
AcDbCircle
 10
1228.090934
 20
-688.687755
 30
0.0
 40
6.189299
100
AcDbArc
 50
107.296981
 51
180.0
  0
LINE
  5
455E
330
4AFC
100
AcDbEntity
  8
V0-OBRYS
  6
CONTINUOUS
 62
    90
 48
2.0
100
AcDbLine
 10
1344.878441
 20
-670.25617
 30
0.0
 11
1287.083015
 21
-670.25617
 31
0.0
  0
LINE
  5
455F
330
4AFC
100
AcDbEntity
  8
V0-VYPLNE
  6
DASHED
 62
    52
100
AcDbLine
 10
1279.815098
 20
-674.930714
 30
0.0
 11
1319.62697
 21
-674.930714
 31
0.0
  0
ARC
  5
4560
330
4AFC
100
AcDbEntity
  8
V0-OBRYS
  6
CONTINUOUS
 62
    90
 48
2.0
100
AcDbCircle
 10
1287.083015
 20
-643.68142
 30
0.0
 40
26.57475
100
AcDbArc
 50
210.579201
 51
270.0
  0
LINE
  5
4561
330
4AFC
100
AcDbEntity
  8
V0-OBRYS
  6
CONTINUOUS
 62
    90
 48
2.0
100
AcDbLine
 10
1247.980991
 20
-634.82317
 30
0.0
 11
1264.204101
 21
-657.2007630000001
 31
0.0
  0
ARC
  5
4562
330
4AFC
100
AcDbEntity
  8
V0-OBRYS
  6
CONTINUOUS
 62
    90
 48
2.0
100
AcDbCircle
 10
1235.303672
 20
-629.709809
 30
0.0
 40
1.41752
100
AcDbArc
 50
0.0
 51
180.0
  0
LINE
  5
4563
330
4AFC
100
AcDbEntity
  8
V0-OBRYS
  6
CONTINUOUS
 62
    90
 48
2.0
100
AcDbLine
 10
1233.886152
 20
-629.709809
 30
0.0
 11
1233.886152
 21
-646.5017790000001
 31
0.0
  0
LINE
  5
4564
330
4AFC
100
AcDbEntity
  8
V0-OBRYS
  6
CONTINUOUS
 62
    90
 48
2.0
100
AcDbLine
 10
1248.321191
 20
-605.25572
 30
0.0
 11
1236.721191
 21
-605.25572
 31
0.0
  0
POINT
  5
459D
330
4AFC
100
AcDbEntity
  8
V0-VYPLNE
  6
CONTINUOUS
 62
    41
100
AcDbPoint
 10
1344.878441
 20
-11.000907
 30
0.0
  0
POINT
  5
459E
330
4AFC
100
AcDbEntity
  8
V0-VYPLNE
  6
CONTINUOUS
 62
    41
100
AcDbPoint
 10
1344.878441
 20
-920.25572
 30
0.0
  0
DIMENSION
  5
49AC
330
4AFC
100
AcDbEntity
  8
V0-VYPLNE
  6
CONTINUOUS
 62
    41
100
AcDbDimension
  2
*D11
 10
1480.012968000025
 20
-292.694472
 30
0.0
 11
1463.012968000025
 21
-8.229014500000005
 31
0.0
 70
    32
  1
%%C572
  3
ED30
100
AcDbAlignedDimension
 13
1251.689344
 23
276.236443
 33
0.0
 14
1251.689344
 24
-292.694472
 34
0.0
 50
90.0
100
AcDbRotatedDimension
  0
LINE
  5
49B8
330
4AFC
100
AcDbEntity
  8
V0-OBRYS
  6
CONTINUOUS
 62
    90
100
AcDbLine
 10
1169.510032
 20
-51.000918
 30
0.0
 11
1204.510032
 21
-51.000918
 31
0.0
  0
LINE
  5
49B9
330
4AFC
100
AcDbEntity
  8
V0-OBRYS
  6
CONTINUOUS
 62
    90
100
AcDbLine
 10
1169.510032
 20
28.999082
 30
0.0
 11
1204.510032
 21
28.999082
 31
0.0
  0
LINE
  5
49BA
330
4AFC
100
AcDbEntity
  8
V0-OBRYS
  6
CONTINUOUS
 62
    90
100
AcDbLine
 10
1169.510032
 20
-11.000918
 30
0.0
 11
1169.510032
 21
-51.000918
 31
0.0
  0
LINE
  5
49BB
330
4AFC
100
AcDbEntity
  8
V0-OBRYS
  6
CONTINUOUS
 62
    90
100
AcDbLine
 10
1184.510032
 20
-11.000918
 30
0.0
 11
1184.510032
 21
-51.000918
 31
0.0
  0
LINE
  5
49BC
330
4AFC
100
AcDbEntity
  8
V0-OBRYS
  6
CONTINUOUS
 62
    90
100
AcDbLine
 10
1169.510032
 20
-11.000918
 30
0.0
 11
1169.510032
 21
28.999082
 31
0.0
  0
LINE
  5
49BD
330
4AFC
100
AcDbEntity
  8
V0-OBRYS
  6
CONTINUOUS
 62
    90
100
AcDbLine
 10
1184.510032
 20
-11.000918
 30
0.0
 11
1184.510032
 21
28.999082
 31
0.0
  0
LINE
  5
49BE
330
4AFC
100
AcDbEntity
  8
V0-OBRYS
  6
CONTINUOUS
 62
    90
100
AcDbLine
 10
1204.510032
 20
-51.000918
 30
0.0
 11
1204.510032
 21
-11.000918
 31
0.0
  0
LINE
  5
49BF
330
4AFC
100
AcDbEntity
  8
V0-OBRYS
  6
CONTINUOUS
 62
    90
100
AcDbLine
 10
1204.510032
 20
28.999082
 30
0.0
 11
1204.510032
 21
-11.000918
 31
0.0
  0
LINE
  5
49C0
330
4AFC
100
AcDbEntity
  8
V0-OBRYS
  6
CONTINUOUS
 62
    90
100
AcDbLine
 10
1169.510032
 20
-960.255731
 30
0.0
 11
1204.510032
 21
-960.255731
 31
0.0
  0
LINE
  5
49C1
330
4AFC
100
AcDbEntity
  8
V0-OBRYS
  6
CONTINUOUS
 62
    90
100
AcDbLine
 10
1169.510032
 20
-880.255731
 30
0.0
 11
1204.510032
 21
-880.255731
 31
0.0
  0
LINE
  5
49C2
330
4AFC
100
AcDbEntity
  8
V0-OBRYS
  6
CONTINUOUS
 62
    90
100
AcDbLine
 10
1169.510032
 20
-920.255731
 30
0.0
 11
1169.510032
 21
-960.255731
 31
0.0
  0
LINE
  5
49C3
330
4AFC
100
AcDbEntity
  8
V0-OBRYS
  6
CONTINUOUS
 62
    90
100
AcDbLine
 10
1184.510032
 20
-920.255731
 30
0.0
 11
1184.510032
 21
-960.255731
 31
0.0
  0
LINE
  5
49C4
330
4AFC
100
AcDbEntity
  8
V0-OBRYS
  6
CONTINUOUS
 62
    90
100
AcDbLine
 10
1169.510032
 20
-920.255731
 30
0.0
 11
1169.510032
 21
-880.255731
 31
0.0
  0
LINE
  5
49C5
330
4AFC
100
AcDbEntity
  8
V0-OBRYS
  6
CONTINUOUS
 62
    90
100
AcDbLine
 10
1184.510032
 20
-920.255731
 30
0.0
 11
1184.510032
 21
-880.255731
 31
0.0
  0
LINE
  5
49C6
330
4AFC
100
AcDbEntity
  8
V0-OBRYS
  6
CONTINUOUS
 62
    90
100
AcDbLine
 10
1204.510032
 20
-960.255731
 30
0.0
 11
1204.510032
 21
-920.255731
 31
0.0
  0
LINE
  5
49C7
330
4AFC
100
AcDbEntity
  8
V0-OBRYS
  6
CONTINUOUS
 62
    90
100
AcDbLine
 10
1204.510032
 20
-880.255731
 30
0.0
 11
1204.510032
 21
-920.255731
 31
0.0
  0
DIMENSION
  5
49D4
330
4AFC
100
AcDbEntity
  8
V0-VYPLNE
  6
CONTINUOUS
 62
    41
100
AcDbDimension
  2
*D12
 10
1345.878441
 20
-477.1281220000143
 30
0.0
 11
1257.6942365
 21
-460.1281220000143
 31
0.0
 70
    32
  3
ED30
100
AcDbAlignedDimension
 13
1169.510032
 23
-51.000918
 33
0.0
 14
1345.878441
 24
-261.000457
 34
0.0
100
AcDbRotatedDimension
  0
LWPOLYLINE
  5
49FB
330
4AFC
100
AcDbEntity
  8
V0-OBRYS
  6
CONTINUOUS
 62
    41
100
AcDbPolyline
 90
        4
 70
     1
 43
0.0
 10
2163.779681634425
 20
-318.0396216989431
 10
2186.903085
 20
-298.283402
 10
2171.437017934924
 20
-324.4712001040517
 10
2171.437017934924
 20
-324.4712001040517
1001
VDEXTRAPARAM
1071
       65
1071
        0
1071
        0
1040
1.0
1000

1000

1040
0.0
1040
0.0
  0
HATCH
  5
4B8B
330
4AFC
100
AcDbEntity
  8
V0-OBRYS
  6
CONTINUOUS
 62
    41
100
AcDbHatch
 10
0.0
 20
0.0
 30
0.0
210
0.0
220
0.0
230
1.0
  2
SOLID
 70
     1
 71
     0
 91
        1
 92
        2
 72
     0
 73
     1
 93
        3
 10
2163.779681634425
 20
-318.0396216989431
 10
2186.903085
 20
-298.283402
 10
2171.437017934924
 20
-324.4712001040517
 97
        0
 75
     0
 76
     1
 98
        1
 10
0.0
 20
0.0
1001
VDEXTRAPARAM
1071
       65
1071
        0
1071
        0
1040
1.0
1000

1000

1040
0.0
1040
0.0
1001
VD_TEMPHATCH
1000
VD_TEMPHATCH
  0
LWPOLYLINE
  5
49FC
330
4AFC
100
AcDbEntity
  8
V0-OBRYS
  6
CONTINUOUS
 62
    41
100
AcDbPolyline
 90
        3
 70
     0
 43
0.0
 10
2167.608349784674
 20
-321.2554109014974
 10
2112.400423
 20
-386.985102
 10
1796.873848
 20
-386.985102
  0
TEXT
  5
4A01
330
4AFC
100
AcDbEntity
  8
V0-OBRYS
  6
CONTINUOUS
 62
    41
100
AcDbText
 10
1702.721851571429
 20
-384.985102
 30
0.0
 40
33.75
  1
4 OTVORY %%c10
  7
ED40
100
AcDbText
  0
VIEWPORT
  5
4B8C
330
4AF8
100
AcDbEntity
 67
     1
  8
0
 60
     1
100
AcDbViewport
 10
261.517699
 20
148.5
 30
0.0
 40
297.0
 41
297.0
 68
     0
 69
     1
1001
VD_INVISIBLE_NOT_FOR_READ
1000
VD_INVISIBLE_NOT_FOR_READ
1001
ACAD
1000
MVIEW
1002
{
1070
    16
1010
0.0
1020
0.0
1030
0.0
1010
0.0
1020
0.0
1030
1.0
1040
6.2831853071796
1040
297.0
1040
261.517699
1040
148.5
1040
0.0
1040
0.0
1040
0.0
1070
     0
1070
   100
1070
     0
1070
     1
1070
     0
1070
     0
1070
     0
1070
     0
1040
0.0
1040
0.0
1040
0.0
1040
1.0
1040
1.0
1040
0.0
1040
0.0
1070
     0
1002
{
1002
}
1002
}
  0
VIEWPORT
  5
4B8D
330
4AF8
100
AcDbEntity
 67
     1
  8
0
 60
     1
100
AcDbViewport
 10
261.517699
 20
148.5
 30
0.0
 40
297.0
 41
297.0
 68
     0
 69
     2
1001
VD_INVISIBLE_NOT_FOR_READ
1000
VD_INVISIBLE_NOT_FOR_READ
1001
ACAD
1000
MVIEW
1002
{
1070
    16
1010
0.0
1020
0.0
1030
0.0
1010
0.0
1020
0.0
1030
1.0
1040
6.2831853071796
1040
297.0
1040
261.517699
1040
148.5
1040
0.0
1040
0.0
1040
0.0
1070
     0
1070
   100
1070
     0
1070
     1
1070
     0
1070
     0
1070
     0
1070
     0
1040
0.0
1040
0.0
1040
0.0
1040
1.0
1040
1.0
1040
0.0
1040
0.0
1070
     0
1002
{
1002
}
1002
}
  0
ENDSEC
  0
SECTION
  2
OBJECTS
  0
DICTIONARY
  5
4AE9
330
0
100
AcDbDictionary
  3
ACAD_GROUP
350
4AEA
  3
ACAD_LAYOUT
350
4AF7
  3
ACAD_MLINESTYLE
350
4AF4
  3
ACAD_PLOTSETTINGS
350
4AF6
  3
ACDBHEADERROUNDTRIPXREC
350
4B8E
  3
VECTORDRAW_OBJECTS
350
4B0C
  0
DICTIONARY
  5
4BAE
330
4B06
100
AcDbDictionary
280
     1
  3
ACAD_XREC_ROUNDTRIP
360
4BAF
  0
DICTIONARY
  5
4AEA
102
{ACAD_REACTORS
330
4AE9
102
}
330
4AE9
100
AcDbDictionary
  0
DICTIONARY
  5
4AF7
102
{ACAD_REACTORS
330
4AE9
102
}
330
4AE9
100
AcDbDictionary
  0
DICTIONARY
  5
4AF4
102
{ACAD_REACTORS
330
4AE9
102
}
330
4AE9
100
AcDbDictionary
  3
STANDARD
350
4AF5
  0
DICTIONARY
  5
4AF6
102
{ACAD_REACTORS
330
4AE9
102
}
330
4AE9
100
AcDbDictionary
  0
DICTIONARY
  5
4B8E
102
{ACAD_REACTORS
330
4AE9
102
}
330
4AE9
100
AcDbDictionary
  3
CEPSNTYPE
350
4B97
  3
DIMSTYLEDATA
350
4BAD
  3
FINGERPRINTGUID
350
4B98
  3
HYPERLINKBASE
350
4B91
  3
INSUNITS
350
4B96
  3
LAYOUTDICT
350
4B93
  3
LWETCUNION
350
4B95
  3
PLOTSETDICT
350
4B94
  3
PSVPSCALE
350
4B9A
  3
PUCSBASE
350
4B9D
  3
PUCSORGBACK
350
4BA3
  3
PUCSORGBOTTOM
350
4B9F
  3
PUCSORGFRONT
350
4BA2
  3
PUCSORGLEFT
350
4BA0
  3
PUCSORGRIGHT
350
4BA1
  3
PUCSORGTOP
350
4B9E
  3
PUCSORTHOREF
350
4B9B
  3
PUCSORTHOVIEW
350
4B9C
  3
STYLESHEET
350
4B92
  3
TSTACKALIGN
350
4B8F
  3
TSTACKSIZE
350
4B90
  3
UCSBASE
350
4BA6
  3
UCSORGBACK
350
4BAC
  3
UCSORGBOTTOM
350
4BA8
  3
UCSORGFRONT
350
4BAB
  3
UCSORGLEFT
350
4BA9
  3
UCSORGRIGHT
350
4BAA
  3
UCSORGTOP
350
4BA7
  3
UCSORTHOREF
350
4BA4
  3
UCSORTHOVIEW
350
4BA5
  3
VERSIONGUID
350
4B99
  0
DICTIONARY
  5
4B0C
102
{ACAD_REACTORS
330
4AE9
102
}
330
4AE9
100
AcDbDictionary
  3
SERIALNO
350
4B0D
  0
XRECORD
  5
4BAF
102
{ACAD_REACTORS
330
4BAE
102
}
330
4BAE
100
AcDbXrecord
102
UCS
 74
     0
 71
     1
 10
0.0
 20
0.0
 30
0.0
 10
1.0
 20
0.0
 30
0.0
 10
0.0
 20
1.0
 30
0.0
146
0.0
 79
     0
102
VIEW
281
     0
  0
MLINESTYLE
  5
4AF5
102
{ACAD_REACTORS
330
4AF4
102
}
330
4AF4
100
AcDbMlineStyle
  2
Standard
 70
     0
  3

 62
   256
 51
90.0
 52
90.0
 71
     2
 49
0.5
 62
   256
  6
BYLAYER
 49
-0.5
 62
   256
  6
BYLAYER
  0
XRECORD
  5
4B97
102
{ACAD_REACTORS
330
4B8E
102
}
330
4B8E
100
AcDbXrecord
 90
        0
  0
XRECORD
  5
4BAD
102
{ACAD_REACTORS
330
4B8E
102
}
330
4B8E
100
AcDbXrecord
1000
DSTYLE
1002
{
1070
    41
 40
30.0
1070
   342
340
90
1070
   177
 70
    41
1070
   178
 70
    41
1070
   271
 70
     0
1070
    44
 40
1.25
1070
    42
 40
1.0
1070
   147
 40
2.0
1070
    77
 70
     1
1070
    73
 70
     0
1070
   174
 70
     1
1070
   172
 70
     1
1070
    74
 70
     0
1070
   340
340
F38
1070
   140
 40
30.0
1070
   288
 70
     1
1002
}
  0
XRECORD
  5
4B98
102
{ACAD_REACTORS
330
4B8E
102
}
330
4B8E
100
AcDbXrecord
  1
{FAEB1C30-E019-11D5-929B-00C0DF256EC4}
  0
XRECORD
  5
4B91
102
{ACAD_REACTORS
330
4B8E
102
}
330
4B8E
100
AcDbXrecord
  1

  0
XRECORD
  5
4B96
102
{ACAD_REACTORS
330
4B8E
102
}
330
4B8E
100
AcDbXrecord
 90
        1
  0
XRECORD
  5
4B93
102
{ACAD_REACTORS
330
4B8E
102
}
330
4B8E
100
AcDbXrecord
340
4AF7
  0
XRECORD
  5
4B95
102
{ACAD_REACTORS
330
4B8E
102
}
330
4B8E
100
AcDbXrecord
 90
     2560
  0
XRECORD
  5
4B94
102
{ACAD_REACTORS
330
4B8E
102
}
330
4B8E
100
AcDbXrecord
340
4AF6
  0
XRECORD
  5
4B9A
102
{ACAD_REACTORS
330
4B8E
102
}
330
4B8E
100
AcDbXrecord
 40
0.0
  0
XRECORD
  5
4B9D
102
{ACAD_REACTORS
330
4B8E
102
}
330
4B8E
100
AcDbXrecord
340
0
  0
XRECORD
  5
4BA3
102
{ACAD_REACTORS
330
4B8E
102
}
330
4B8E
100
AcDbXrecord
 10
0.0
 20
0.0
 30
0.0
  0
XRECORD
  5
4B9F
102
{ACAD_REACTORS
330
4B8E
102
}
330
4B8E
100
AcDbXrecord
 10
0.0
 20
0.0
 30
0.0
  0
XRECORD
  5
4BA2
102
{ACAD_REACTORS
330
4B8E
102
}
330
4B8E
100
AcDbXrecord
 10
0.0
 20
0.0
 30
0.0
  0
XRECORD
  5
4BA0
102
{ACAD_REACTORS
330
4B8E
102
}
330
4B8E
100
AcDbXrecord
 10
0.0
 20
0.0
 30
0.0
  0
XRECORD
  5
4BA1
102
{ACAD_REACTORS
330
4B8E
102
}
330
4B8E
100
AcDbXrecord
 10
0.0
 20
0.0
 30
0.0
  0
XRECORD
  5
4B9E
102
{ACAD_REACTORS
330
4B8E
102
}
330
4B8E
100
AcDbXrecord
 10
0.0
 20
0.0
 30
0.0
  0
XRECORD
  5
4B9B
102
{ACAD_REACTORS
330
4B8E
102
}
330
4B8E
100
AcDbXrecord
340
0
  0
XRECORD
  5
4B9C
102
{ACAD_REACTORS
330
4B8E
102
}
330
4B8E
100
AcDbXrecord
 70
     0
  0
XRECORD
  5
4B92
102
{ACAD_REACTORS
330
4B8E
102
}
330
4B8E
100
AcDbXrecord
  1

  0
XRECORD
  5
4B8F
102
{ACAD_REACTORS
330
4B8E
102
}
330
4B8E
100
AcDbXrecord
 90
        1
  0
XRECORD
  5
4B90
102
{ACAD_REACTORS
330
4B8E
102
}
330
4B8E
100
AcDbXrecord
 90
       70
  0
XRECORD
  5
4BA6
102
{ACAD_REACTORS
330
4B8E
102
}
330
4B8E
100
AcDbXrecord
340
0
  0
XRECORD
  5
4BAC
102
{ACAD_REACTORS
330
4B8E
102
}
330
4B8E
100
AcDbXrecord
 10
0.0
 20
0.0
 30
0.0
  0
XRECORD
  5
4BA8
102
{ACAD_REACTORS
330
4B8E
102
}
330
4B8E
100
AcDbXrecord
 10
0.0
 20
0.0
 30
0.0
  0
XRECORD
  5
4BAB
102
{ACAD_REACTORS
330
4B8E
102
}
330
4B8E
100
AcDbXrecord
 10
0.0
 20
0.0
 30
0.0
  0
XRECORD
  5
4BA9
102
{ACAD_REACTORS
330
4B8E
102
}
330
4B8E
100
AcDbXrecord
 10
0.0
 20
0.0
 30
0.0
  0
XRECORD
  5
4BAA
102
{ACAD_REACTORS
330
4B8E
102
}
330
4B8E
100
AcDbXrecord
 10
0.0
 20
0.0
 30
0.0
  0
XRECORD
  5
4BA7
102
{ACAD_REACTORS
330
4B8E
102
}
330
4B8E
100
AcDbXrecord
 10
0.0
 20
0.0
 30
0.0
  0
XRECORD
  5
4BA4
102
{ACAD_REACTORS
330
4B8E
102
}
330
4B8E
100
AcDbXrecord
340
0
  0
XRECORD
  5
4BA5
102
{ACAD_REACTORS
330
4B8E
102
}
330
4B8E
100
AcDbXrecord
 70
     0
  0
XRECORD
  5
4B99
102
{ACAD_REACTORS
330
4B8E
102
}
330
4B8E
100
AcDbXrecord
  1
{FAEB1C32-E019-11D5-929B-00C0DF256EC4}
  0
XRECORD
  5
4B0D
102
{ACAD_REACTORS
330
4B0C
102
}
330
4B0C
100
AcDbXrecord
1000
rInJVR9YY4Q8hfPWdUq5j5319
1070
     4
1070
     6
  0
ENDSEC
  0
EOF
